osu file format v14

[General]
AudioFilename: audio.mp3
AudioLeadIn: 0
PreviewTime: -1
Countdown: 0
SampleSet: Normal
StackLeniency: 0.7
Mode: 0
LetterboxInBreaks: 0
WidescreenStoryboard: 1

[Editor]
Bookmarks: 82403,84703,120803,146403,197603,203003,208803,215203,216403,223203,252003,276803,278203,309603,360803,380003,398403,400203
DistanceSpacing: 1
BeatDivisor: 4
GridSize: 8
TimelineZoom: 3.500004

[Metadata]
Title:Lady of the Wind
TitleUnicode:Lady of the Wind
Artist:Whispered
ArtistUnicode:Whispered
Creator:LZD
Version:MrKosiej & Frost Collab
Source:
Tags:metal death melodic eastern folk shogunate macabre MrKosiej [ Frost ]
BeatmapID:2258287
BeatmapSetID:954772

[Difficulty]
HPDrainRate:6
CircleSize:4.4
OverallDifficulty:8.8
ApproachRate:9.4
SliderMultiplier:2
SliderTickRate:1

[Events]
//Background and Video events
0,0,"zhang-bin-girl-art-wind-high-resolution-digital-photos-widescreen-images-artwork-for-windows-illustration-drawing-painting-art-is-everywhere-artist-1805x1204.jpg",0,0
//Break Periods
2,65399,67460
//Storyboard Layer 0 (Background)
//Storyboard Layer 1 (Fail)
//Storyboard Layer 2 (Pass)
//Storyboard Layer 3 (Foreground)
//Storyboard Layer 4 (Overlay)
//Storyboard Sound Samples

[TimingPoints]
140,300,4,1,1,35,1,0
24140,-100,4,1,1,20,0,0
28940,-100,4,1,1,35,0,0
31902,300,4,1,1,35,1,0
33742,300,4,1,1,40,1,0
34400,400,4,1,1,60,1,8
37600,-86.9565217391304,4,1,1,100,0,1
41600,-66.6666666666667,4,1,1,100,0,1
42400,-86.9565217391304,4,1,1,100,0,1
43200,-66.6666666666667,4,1,1,100,0,1
44000,-86.9565217391304,4,1,1,100,0,1
48000,-66.6666666666667,4,1,1,100,0,1
48800,-86.9565217391304,4,1,1,100,0,1
63200,-200,4,1,1,100,0,0
63300,-200,4,1,1,5,0,0
68000,-133.333333333333,4,1,1,75,0,0
82400,-111.111111111111,4,1,1,75,0,0
88800,-86.9565217391304,4,1,1,75,0,0
92000,-100,4,1,1,75,0,0
95200,-111.111111111111,4,1,1,75,0,0
114400,-86.9565217391304,4,1,1,75,0,0
117600,-100,4,1,1,75,0,0
120400,-100,4,1,1,40,0,0
120800,-133.333333333333,4,1,1,40,0,0
124100,-133.333333333333,4,1,1,5,0,0
124800,-133.333333333333,4,1,1,40,0,0
125600,-200,4,1,1,40,0,0
125700,-200,4,1,1,5,0,0
126800,-200,4,1,1,40,0,0
127200,-133.333333333333,4,1,1,40,0,0
128800,-200,4,1,1,40,0,0
128900,-200,4,1,1,5,0,0
130000,-200,4,1,1,40,0,0
130400,-133.333333333333,4,1,1,40,0,0
133700,-133.333333333333,4,1,1,5,0,0
134400,-133.333333333333,4,1,1,40,0,0
136300,-133.333333333333,4,1,1,5,0,0
136400,-133.333333333333,4,1,1,40,0,0
138400,-200,4,1,1,40,0,0
138500,-200,4,1,1,5,0,0
139600,-200,4,1,1,40,0,0
140000,-133.333333333333,4,1,1,40,0,0
141600,-200,4,1,1,40,0,0
141700,-200,4,1,1,5,0,0
142800,-200,4,1,1,40,0,0
143200,-133.333333333333,4,1,1,40,0,0
146000,-133.333333333333,4,1,1,75,0,0
146400,-86.9565217391304,4,1,1,100,0,0
170400,-133.333333333333,4,1,1,100,0,0
170800,-86.9565217391304,4,1,1,100,0,0
171000,-133.333333333333,4,1,1,100,0,0
171300,-86.9565217391304,4,1,1,100,0,0
172000,-86.9565217391304,4,1,1,100,0,1
176000,-66.6666666666667,4,1,1,100,0,1
176800,-86.9565217391304,4,1,1,100,0,1
177600,-66.6666666666667,4,1,1,100,0,1
178400,-86.9565217391304,4,1,1,100,0,1
182400,-66.6666666666667,4,1,1,100,0,1
183200,-86.9565217391304,4,1,1,100,0,1
184800,-80,4,1,1,100,0,1
197600,-111.111111111111,4,1,1,75,0,0
204000,-76.9230769230769,4,1,1,85,0,1
210400,-111.111111111111,4,1,1,75,0,0
212900,-111.111111111111,4,1,1,5,0,0
213000,-111.111111111111,4,1,1,75,0,0
213700,-111.111111111111,4,1,1,5,0,0
213800,-111.111111111111,4,1,1,75,0,0
214300,-111.111111111111,4,1,1,5,0,0
214400,-111.111111111111,4,1,1,75,0,0
216800,-76.9230769230769,4,1,1,85,0,1
226400,-90.9090909090909,4,1,1,75,0,0
226500,-90.9090909090909,4,1,1,5,0,0
228000,-90.9090909090909,4,1,1,75,0,0
228100,-90.9090909090909,4,1,1,5,0,0
229000,-90.9090909090909,4,1,1,75,0,0
229200,-90.9090909090909,4,1,1,50,0,0
229600,-90.9090909090909,4,1,1,60,0,0
229700,-90.9090909090909,4,1,1,5,0,0
231600,-90.9090909090909,4,1,1,40,0,0
231800,-90.9090909090909,4,1,1,50,0,0
232800,-90.9090909090909,4,1,1,60,0,0
232900,-90.9090909090909,4,1,1,5,0,0
234400,-90.9090909090909,4,1,1,40,0,0
234500,-90.9090909090909,4,1,1,5,0,0
235400,-90.9090909090909,4,1,1,40,0,0
235600,-90.9090909090909,4,1,1,50,0,0
236000,-90.9090909090909,4,1,1,60,0,0
236100,-90.9090909090909,4,1,1,5,0,0
237600,-90.9090909090909,4,1,1,60,0,0
237900,-90.9090909090909,4,1,1,5,0,0
238000,-90.9090909090909,4,1,1,60,0,0
239300,-90.9090909090909,4,1,1,5,0,0
239800,-90.9090909090909,4,1,1,50,0,0
242400,-90.9090909090909,4,1,1,60,0,0
242500,-90.9090909090909,4,1,1,5,0,0
244000,-90.9090909090909,4,1,1,50,0,0
245600,-90.9090909090909,4,1,1,60,0,0
245700,-90.9090909090909,4,1,1,5,0,0
246200,-90.9090909090909,4,1,1,40,0,0
247300,-90.9090909090909,4,1,1,5,0,0
248200,-90.9090909090909,4,1,1,40,0,0
248400,-90.9090909090909,4,1,1,50,0,0
248800,-90.9090909090909,4,1,1,60,0,0
248900,-90.9090909090909,4,1,1,5,0,0
250400,-90.9090909090909,4,1,1,60,0,0
250700,-90.9090909090909,4,1,1,5,0,0
250800,-90.9090909090909,4,1,1,50,0,0
252000,-153.846153846154,4,1,1,60,0,0
252100,-153.846153846154,4,1,1,5,0,0
255150,-222.222222222222,4,1,1,20,0,0
255300,-222.222222222222,4,1,1,5,0,0
257600,-222.222222222222,4,1,1,20,0,0
257700,-222.222222222222,4,1,1,5,0,0
258400,-181.818181818181,4,1,1,20,0,0
258500,-181.818181818181,4,1,1,5,0,0
260000,-153.846153846153,4,1,1,20,0,0
260100,-153.846153846153,4,1,1,5,0,0
261600,-181.818181818181,4,1,1,20,0,0
263300,-181.818181818181,4,1,1,5,0,0
264000,-100,4,1,1,20,0,0
264800,-222.222222222222,4,1,1,20,0,0
264900,-222.222222222222,4,1,1,5,0,0
266400,-181.818181818181,4,1,1,20,0,0
269700,-181.818181818181,4,1,1,5,0,0
271200,-142.857142857143,4,1,1,30,0,0
271300,-142.857142857143,4,1,1,5,0,0
272800,-200,4,1,1,35,0,0
272900,-200,4,1,1,5,0,0
274400,-400,4,1,1,40,0,0
274500,-400,4,1,1,5,0,0
276800,-86.9565217391304,4,1,1,50,0,0
278800,-66.6666666666667,4,1,1,50,0,0
279500,-86.9565217391304,4,1,1,50,0,0
279900,-86.9565217391304,4,1,1,5,0,0
280200,-86.9565217391304,4,1,1,40,0,0
282400,-86.9565217391304,4,1,1,50,0,0
282533,-86.9565217391304,4,1,1,52,0,0
282666,-86.9565217391304,4,1,1,54,0,0
282800,-86.9565217391304,4,1,1,56,0,0
282933,-86.9565217391304,4,1,1,58,0,0
283066,-86.9565217391304,4,1,1,60,0,0
283200,-86.9565217391304,4,1,1,65,0,0
283300,-66.6666666666667,4,1,1,60,0,0
283500,-66.6666666666667,4,1,1,5,0,0
283600,-66.6666666666667,4,1,1,60,0,0
284000,-66.6666666666667,4,1,1,50,0,0
288800,-66.6666666666667,4,1,1,45,0,0
290666,-66.6666666666667,4,1,1,30,0,0
292000,-66.6666666666667,4,1,1,45,0,0
292400,-66.6666666666667,4,1,1,30,0,0
293000,-66.6666666666667,4,1,1,45,0,0
293200,-200,4,1,1,45,0,0
293300,-200,4,1,1,5,0,0
293600,-66.6666666666667,4,1,1,45,0,0
294000,-66.6666666666667,4,1,1,30,0,0
294600,-66.6666666666667,4,1,1,45,0,0
294800,-200,4,1,1,45,0,0
294900,-200,4,1,1,5,0,0
295200,-133.333333333333,4,1,1,60,0,0
295300,-133.333333333333,4,1,1,5,0,0
296800,-100,4,1,1,30,0,0
302400,-86.9565217391304,4,1,1,60,0,0
303200,-86.9565217391304,4,1,1,85,0,0
309600,-133.333333333333,4,1,1,75,0,0
322400,-111.111111111111,4,1,1,75,0,0
328800,-86.9565217391304,4,1,1,75,0,0
332000,-100,4,1,1,75,0,0
337600,-100,4,1,1,80,0,0
338000,-100,4,1,1,90,0,0
338400,-86.9565217391304,4,1,1,100,0,0
358600,-90.9090909090909,4,1,1,100,0,0
360800,-83.3333333333333,4,1,1,100,0,0
372100,-83.3333333333333,4,1,1,5,0,0
372200,-83.3333333333333,4,1,1,60,0,0
373600,-83.3333333333333,4,1,1,100,0,0
374000,-100,4,1,1,100,0,0
386400,-86.9565217391304,4,1,1,100,0,1
400800,-86.9565217391304,4,1,1,100,0,0

[HitObjects]
0,0,37600,6,0,L|15:58,1,57.5000010967255,4|0,0:0|0:0,0:0:0:0:
123,70,37800,2,0,L|107:10,1,57.5000010967255
0,161,38000,5,2,0:0:0:0:
22,144,38100,1,0,0:0:0:0:
49,138,38200,1,0,0:0:0:0:
77,143,38300,1,0,0:0:0:0:
100,159,38400,2,0,P|80:204|100:267,1,115.000002193451,2|0,0:0|0:0,0:0:0:0:
221,315,38700,5,0,0:0:0:0:
212,330,38800,2,0,L|151:337,1,57.5000010967255,8|0,0:0|0:0,0:0:0:0:
0,378,39000,2,0,L|57:384,1,57.5000010967255,8|0,0:0|0:0,0:0:0:0:
367,384,39200,6,0,P|349:329|372:267,1,115.000002193451,2|0,0:0|0:0,0:0:0:0:
512,164,39500,1,0,0:0:0:0:
503,179,39600,2,0,L|442:186,1,57.5000010967255,8|0,0:0|0:0,0:0:0:0:
219,217,39800,2,0,L|280:224,1,57.5000010967255,8|0,0:0|0:0,0:0:0:0:
365,0,40000,5,2,0:0:0:0:
336,3,40100,1,0,0:0:0:0:
307,7,40200,1,0,0:0:0:0:
279,11,40300,1,0,0:0:0:0:
250,14,40400,5,2,0:0:0:0:
257,24,40500,1,0,0:0:0:0:
263,33,40600,1,0,0:0:0:0:
269,42,40700,1,0,0:0:0:0:
275,51,40800,6,0,L|336:44,1,57.5000010967255,4|0,0:0|0:0,0:0:0:0:
512,21,41000,2,0,L|454:27,1,57.5000010967255,0|0,0:0|0:0,0:0:0:0:
125,0,41200,5,2,0:0:0:0:
140,23,41300,1,0,0:0:0:0:
156,47,41400,1,0,0:0:0:0:
172,71,41500,1,0,0:0:0:0:
188,95,41600,6,0,B|126:83|126:83|63:107|63:107|41:89,1,150.000005722046,2|0,0:0|0:0,0:0:0:0:
188,103,41900,2,0,B|126:91|126:91|63:115|63:115|41:97,1,150.000005722046,8|0,0:0|0:0,0:0:0:0:
197,112,42200,2,0,L|121:98,1,75.0000028610231,8|0,0:0|0:0,0:0:0:0:
0,187,42400,6,0,L|23:252,1,57.5000010967255,2|0,0:0|0:0,0:0:0:0:
144,271,42600,1,0,0:0:0:0:
150,261,42700,1,0,0:0:0:0:
155,251,42800,2,0,L|135:196,1,57.5000010967255,8|0,0:0|0:0,0:0:0:0:
0,376,43000,5,0,0:0:0:0:
34,380,43100,1,0,0:0:0:0:
69,382,43200,2,0,B|159:391|159:391|221:368,1,150.000005722046,2|0,0:0|0:0,0:0:0:0:
69,376,43500,2,0,B|159:385|159:385|221:362,1,150.000005722046,8|0,0:0|0:0,0:0:0:0:
396,384,43800,5,0,0:0:0:0:
389,354,43900,1,0,0:0:0:0:
381,323,44000,2,0,L|366:265,1,57.5000010967255,4|0,0:0|0:0,0:0:0:0:
498,190,44200,2,0,L|514:250,1,57.5000010967255,0|0,0:0|0:0,0:0:0:0:
270,58,44400,5,2,0:0:0:0:
292,41,44500,1,0,0:0:0:0:
319,35,44600,1,0,0:0:0:0:
347,40,44700,1,0,0:0:0:0:
370,56,44800,2,0,P|350:101|370:164,1,115.000002193451,2|0,0:0|0:0,0:0:0:0:
503,90,45100,5,0,0:0:0:0:
494,105,45200,2,0,L|433:112,1,57.5000010967255,8|0,0:0|0:0,0:0:0:0:
207,143,45400,2,0,L|264:149,1,57.5000010967255,8|0,0:0|0:0,0:0:0:0:
449,195,45600,6,0,P|469:240|449:303,1,115.000002193451,2|0,0:0|0:0,0:0:0:0:
141,340,45900,1,0,0:0:0:0:
150,325,46000,2,0,L|211:318,1,57.5000010967255,8|0,0:0|0:0,0:0:0:0:
363,295,46200,2,0,L|306:301,1,57.5000010967255,8|0,0:0|0:0,0:0:0:0:
58,237,46400,5,2,0:0:0:0:
55,208,46500,1,0,0:0:0:0:
51,179,46600,1,0,0:0:0:0:
47,151,46700,1,0,0:0:0:0:
44,121,46800,5,2,0:0:0:0:
34,129,46900,1,0,0:0:0:0:
25,135,47000,1,0,0:0:0:0:
16,141,47100,1,0,0:0:0:0:
7,147,47200,6,0,L|14:208,1,57.5000010967255,4|0,0:0|0:0,0:0:0:0:
37,384,47400,2,0,L|30:326,1,57.5000010967255,0|0,0:0|0:0,0:0:0:0:
143,156,47600,5,2,0:0:0:0:
166,139,47700,1,0,0:0:0:0:
193,131,47800,1,0,0:0:0:0:
222,130,47900,1,0,0:0:0:0:
250,138,48000,6,0,B|212:217|212:217|227:291,1,150.000005722046,2|0,0:0|0:0,0:0:0:0:
258,140,48300,2,0,B|219:218|219:218|234:292,1,150.000005722046,8|0,0:0|0:0,0:0:0:0:
266,140,48600,2,0,L|232:211,1,75.0000028610231,8|0,0:0|0:0,0:0:0:0:
347,384,48800,6,0,L|333:316,1,57.5000010967255,2|0,0:0|0:0,0:0:0:0:
427,237,49000,1,0,0:0:0:0:
437,243,49100,1,0,0:0:0:0:
446,249,49200,2,0,L|457:305,1,57.5000010967255,8|0,0:0|0:0,0:0:0:0:
426,160,49400,5,0,0:0:0:0:
416,103,49500,1,0,0:0:0:0:
407,46,49600,6,0,L|412:4,2,28.7500005483627,2|0|0,0:0|0:0|0:0,0:0:0:0:
505,110,49800,2,0,L|511:52,1,57.5000010967255,2|0,0:0|0:0,0:0:0:0:
405,58,50000,5,8,0:0:0:0:
347,52,50100,1,0,0:0:0:0:
290,62,50200,1,0,0:0:0:0:
232,56,50300,1,0,0:0:0:0:
175,64,50400,6,0,L|160:3,1,57.5000010967255,4|0,0:0|0:0,0:0:0:0:
0,1,50600,2,0,L|13:56,1,57.5000010967255
185,181,50800,5,2,0:0:0:0:
163,164,50900,1,0,0:0:0:0:
136,158,51000,1,0,0:0:0:0:
108,163,51100,1,0,0:0:0:0:
85,179,51200,2,0,L|113:236,2,57.5000010967255,2|0|0,0:0|0:0|0:0,0:0:0:0:
0,254,51500,5,0,0:0:0:0:
17,257,51600,2,0,L|44:311,1,57.5000010967255,8|0,0:0|0:0,0:0:0:0:
183,384,51800,2,0,L|157:332,1,57.5000010967255,8|0,0:0|0:0,0:0:0:0:
185,181,52000,5,2,0:0:0:0:
207,198,52100,1,0,0:0:0:0:
234,204,52200,1,0,0:0:0:0:
262,199,52300,1,0,0:0:0:0:
285,183,52400,2,0,L|257:126,2,57.5000010967255,2|0|0,0:0|0:0|0:0,0:0:0:0:
365,384,52700,5,0,0:0:0:0:
370,368,52800,2,0,B|356:337|356:337|369:308,1,57.5000010967255,8|0,0:0|0:0,0:0:0:0:
230,288,53000,2,0,B|263:291|263:291|282:317,1,57.5000010967255,8|0,0:0|0:0,0:0:0:0:
470,330,53200,5,2,0:0:0:0:
478,308,53300,1,0,0:0:0:0:
462,264,53400,1,0,0:0:0:0:
470,242,53500,1,0,0:0:0:0:
465,196,53600,6,0,L|456:129,1,57.5000010967255,4|0,0:0|0:0,0:0:0:0:
438,0,53800,2,0,L|445:56,1,57.5000010967255,0|0,0:0|0:0,0:0:0:0:
349,175,54000,5,2,0:0:0:0:
361,149,54100,1,0,0:0:0:0:
364,120,54200,1,0,0:0:0:0:
357,92,54300,1,0,0:0:0:0:
341,68,54400,6,0,L|271:75,1,57.5000010967255,8|0,0:0|0:0,0:0:0:0:
64,89,54600,1,0,0:0:0:0:
278,151,54700,6,0,L|207:157,1,57.5000010967255,8|0,0:0|0:0,0:0:0:0:
0,171,54900,1,0,0:0:0:0:
226,241,55000,6,0,L|155:247,1,57.5000010967255,8|0,0:0|0:0,0:0:0:0:
0,286,55200,6,0,L|55:300,1,57.5000010967255,2|0,0:0|0:0,0:0:0:0:
189,384,55400,2,0,L|134:369,1,57.5000010967255,0|0,0:0|0:0,0:0:0:0:
226,241,55600,5,2,0:0:0:0:
254,238,55700,1,0,0:0:0:0:
283,235,55800,1,0,0:0:0:0:
311,232,55900,1,0,0:0:0:0:
340,230,56000,6,0,L|395:244,1,57.5000010967255,8|0,0:0|0:0,0:0:0:0:
512,278,56200,1,0,0:0:0:0:
176,170,56300,5,8,0:0:0:0:
204,167,56400,1,0,0:0:0:0:
233,164,56500,1,0,0:0:0:0:
261,161,56600,5,2,0:0:0:0:
295,101,56700,1,0,0:0:0:0:
324,38,56800,6,0,L|393:29,1,57.5000010967255,4|0,0:0|0:0,0:0:0:0:
458,119,57000,2,0,L|400:126,1,57.5000010967255,0|0,0:0|0:0,0:0:0:0:
124,23,57200,5,2,0:0:0:0:
146,6,57300,1,0,0:0:0:0:
173,0,57400,1,0,0:0:0:0:
201,5,57500,1,0,0:0:0:0:
224,21,57600,2,0,L|196:78,2,57.5000010967255,2|0|0,0:0|0:0|0:0,0:0:0:0:
18,91,57900,5,0,0:0:0:0:
35,94,58000,2,0,L|62:148,1,57.5000010967255,8|0,0:0|0:0,0:0:0:0:
201,221,58200,2,0,L|175:169,1,57.5000010967255,8|0,0:0|0:0,0:0:0:0:
0,298,58400,5,2,0:0:0:0:
22,315,58500,1,0,0:0:0:0:
49,321,58600,1,0,0:0:0:0:
77,316,58700,1,0,0:0:0:0:
100,300,58800,2,0,L|72:243,2,57.5000010967255,2|0|0,0:0|0:0|0:0,0:0:0:0:
199,289,59100,5,0,0:0:0:0:
204,273,59200,2,0,B|190:242|190:242|203:213,1,57.5000010967255,8|0,0:0|0:0,0:0:0:0:
334,220,59400,2,0,B|300:223|300:223|281:249,1,57.5000010967255,8|0,0:0|0:0,0:0:0:0:
186,376,59600,5,2,0:0:0:0:
208,384,59700,1,0,0:0:0:0:
252,368,59800,1,0,0:0:0:0:
274,376,59900,1,0,0:0:0:0:
320,371,60000,6,0,L|387:362,1,57.5000010967255,4|0,0:0|0:0,0:0:0:0:
512,342,60200,2,0,L|455:349,1,57.5000010967255,0|0,0:0|0:0,0:0:0:0:
334,220,60400,5,2,0:0:0:0:
362,215,60500,1,0,0:0:0:0:
390,210,60600,1,0,0:0:0:0:
419,206,60700,1,0,0:0:0:0:
447,201,60800,6,0,L|411:151,1,57.5000010967255,8|0,0:0|0:0,0:0:0:0:
308,0,61000,1,0,0:0:0:0:
334,220,61100,6,0,L|297:169,1,57.5000010967255,8|0,0:0|0:0,0:0:0:0:
177,0,61300,1,0,0:0:0:0:
219,240,61400,6,0,L|182:189,1,57.5000010967255,8|0,0:0|0:0,0:0:0:0:
46,0,61600,6,0,L|79:46,1,57.5000010967255,2|0,0:0|0:0,0:0:0:0:
34,155,61800,2,0,L|0:108,1,57.5000010967255,0|0,0:0|0:0,0:0:0:0:
163,107,62000,6,0,L|231:106,1,57.5000010967255,8|0,0:0|0:0,0:0:0:0:
169,113,62200,2,0,L|237:112,1,57.5000010967255,8|0,0:0|0:0,0:0:0:0:
0,288,62400,5,2,0:0:0:0:
21,269,62500,1,0,0:0:0:0:
48,259,62600,1,0,0:0:0:0:
76,261,62700,1,0,0:0:0:0:
102,274,62800,2,0,L|86:330,2,38.3333340644837,2|0|0,0:0|0:0|0:0,0:0:0:0:
183,269,63000,2,0,L|166:324,2,38.3333340644837,2|0|0,0:0|0:0|0:0,0:0:0:0:
253,317,63200,6,0,B|271:254|271:254|324:245|324:245|360:278|360:278|344:338|344:338|381:375|381:375|422:223|422:223|376:179,1,500,4|0,0:0|0:0,0:0:0:0:
253,317,68000,5,2,0:0:0:0:
293,236,68200,1,0,0:0:0:0:
333,155,68400,1,0,0:0:0:0:
255,323,68600,5,2,0:0:0:0:
295,242,68800,1,0,0:0:0:0:
370,69,69000,5,2,0:0:0:0:
330,150,69200,1,8,0:0:0:0:
330,150,69600,6,0,L|251:162,1,75.0000028610231,4|0,0:0|0:0,0:0:0:0:
38,195,70000,1,0,0:0:0:0:
65,125,70200,1,0,0:0:0:0:
113,184,70400,6,0,L|34:196,1,75.0000028610231,8|0,0:0|0:0,0:0:0:0:
0,278,70800,2,0,L|74:266,1,75.0000028610231,8|0,0:0|0:0,0:0:0:0:
512,281,71200,6,0,L|433:293,1,75.0000028610231,2|0,0:0|0:0,0:0:0:0:
221,326,71600,1,8,0:0:0:0:
248,257,71800,1,0,0:0:0:0:
295,315,72000,5,8,0:0:0:0:
66,352,72200,1,0,0:0:0:0:
374,327,72400,5,8,0:0:0:0:
145,290,72600,1,0,0:0:0:0:
512,281,72800,6,0,L|462:218,1,75.0000028610231,2|0,0:0|0:0,0:0:0:0:
304,20,73200,1,0,0:0:0:0:
406,0,73400,1,0,0:0:0:0:
368,98,73600,1,8,0:0:0:0:
368,98,74000,5,8,0:0:0:0:
360,88,74100,1,0,0:0:0:0:
353,79,74200,1,0,0:0:0:0:
406,0,74400,5,2,0:0:0:0:
368,98,74600,1,0,0:0:0:0:
264,112,74800,1,0,0:0:0:0:
494,5,75000,6,0,L|478:48,1,37.5000014305115,8|0,0:0|0:0,0:0:0:0:
386,289,75200,1,2,0:0:0:0:
424,191,75400,1,0,0:0:0:0:
368,98,75600,1,8,0:0:0:0:
360,88,75700,1,0,0:0:0:0:
353,79,75800,1,0,0:0:0:0:
390,293,76000,6,0,L|311:305,1,75.0000028610231,2|0,0:0|0:0,0:0:0:0:
98,338,76400,1,0,0:0:0:0:
126,268,76600,1,0,0:0:0:0:
173,327,76800,6,0,L|94:339,1,75.0000028610231,8|0,0:0|0:0,0:0:0:0:
0,221,77200,2,0,L|74:209,1,75.0000028610231,8|0,0:0|0:0,0:0:0:0:
264,201,77600,5,2,0:0:0:0:
224,137,77800,1,0,0:0:0:0:
245,65,78000,1,0,0:0:0:0:
205,1,78200,1,0,0:0:0:0:
323,63,78400,5,8,0:0:0:0:
62,71,78600,1,0,0:0:0:0:
413,77,78800,5,8,0:0:0:0:
152,69,79000,1,0,0:0:0:0:
501,57,79200,6,0,L|467:137,1,75.0000028610231,2|0,0:0|0:0,0:0:0:0:
361,384,79600,1,0,0:0:0:0:
414,259,79800,1,8,0:0:0:0:
414,259,80200,5,2,0:0:0:0:
286,237,80400,1,8,0:0:0:0:
294,253,80500,1,0,0:0:0:0:
302,270,80600,1,0,0:0:0:0:
414,252,80800,5,2,0:0:0:0:
286,230,81000,1,0,0:0:0:0:
160,208,81200,1,0,0:0:0:0:
218,321,81400,6,0,L|196:279,1,37.5000014305115,8|0,0:0|0:0,0:0:0:0:
85,61,81600,1,2,0:0:0:0:
78,165,81800,1,0,0:0:0:0:
172,118,82000,5,8,0:0:0:0:
0,0,82200,1,0,0:0:0:0:
323,20,82400,6,0,L|274:21,2,44.999998626709,4|0|0,0:0|0:0|0:0,0:0:0:0:
470,20,82800,1,0,0:0:0:0:
326,114,83000,5,0,0:0:0:0:
308,114,83100,1,0,0:0:0:0:
289,114,83200,2,0,L|240:115,2,44.999998626709,2|0|0,0:0|0:0|0:0,0:0:0:0:
455,114,83600,1,8,0:0:0:0:
473,114,83700,1,0,0:0:0:0:
455,114,84200,5,2,0:0:0:0:
425,302,84500,1,2,0:0:0:0:
440,208,84700,5,2,0:0:0:0:
428,309,84800,2,0,L|383:300,1,44.999998626709,8|0,0:0|0:0,0:0:0:0:
197,228,85200,2,0,L|241:238,1,44.999998626709,8|0,0:0|0:0,0:0:0:0:
127,359,85500,5,2,0:0:0:0:
46,269,85700,1,0,0:0:0:0:
37,276,85800,1,8,0:0:0:0:
70,161,86000,1,0,0:0:0:0:
94,53,86200,5,0,0:0:0:0:
101,35,86300,1,0,0:0:0:0:
108,17,86400,2,0,L|64:7,2,44.999998626709,2|0|0,0:0|0:0|0:0,0:0:0:0:
70,167,86800,1,8,0:0:0:0:
87,162,86900,1,0,0:0:0:0:
176,70,87200,6,0,L|186:26,2,44.999998626709,2|0|0,0:0|0:0|0:0,0:0:0:0:
185,206,87600,1,8,0:0:0:0:
274,56,87800,2,0,L|284:12,2,44.999998626709,2|0|0,0:0|0:0|0:0,0:0:0:0:
269,73,88100,1,0,0:0:0:0:
264,90,88200,1,0,0:0:0:0:
353,176,88400,5,2,0:0:0:0:
371,169,88500,1,0,0:0:0:0:
389,162,88600,1,0,0:0:0:0:
407,155,88700,1,0,0:0:0:0:
425,148,88800,6,0,L|456:270,1,115.000002193451,2|0,0:0|0:0,0:0:0:0:
481,370,89200,1,0,0:0:0:0:
370,342,89400,1,0,0:0:0:0:
435,148,89600,6,0,L|404:26,1,115.000002193451,2|0,0:0|0:0,0:0:0:0:
327,126,90000,1,0,0:0:0:0:
299,15,90200,1,0,0:0:0:0:
81,67,90400,5,2,0:0:0:0:
303,11,90600,1,0,0:0:0:0:
331,122,90800,1,0,0:0:0:0:
303,233,91000,1,0,0:0:0:0:
81,177,91200,5,2,0:0:0:0:
306,239,91400,1,0,0:0:0:0:
195,211,91600,1,0,0:0:0:0:
84,183,91800,1,0,0:0:0:0:
60,285,92000,6,0,L|89:178,1,100,2|0,0:0|0:0,0:0:0:0:
161,94,92400,1,0,0:0:0:0:
205,253,92600,2,0,B|226:328|226:328|266:303|266:303|287:315|287:315|311:307|342:315,1,200,8|0,0:0|0:0,0:0:0:0:
486,356,93200,5,8,0:0:0:0:
481,341,93300,1,0,0:0:0:0:
477,327,93400,1,0,0:0:0:0:
423,134,93600,1,2,0:0:0:0:
397,231,93800,1,0,0:0:0:0:
493,205,94000,1,0,0:0:0:0:
300,151,94200,5,8,0:0:0:0:
204,125,94400,2,0,L|155:138,3,50,2|0|0|0,0:0|0:0|0:0|0:0,0:0:0:0:
200,144,94800,1,8,0:0:0:0:
194,163,94900,1,0,0:0:0:0:
189,182,95000,1,0,0:0:0:0:
74,286,95200,5,4,0:0:0:0:
68,288,95400,1,0,0:0:0:0:
35,215,95600,1,0,0:0:0:0:
68,142,95800,1,0,0:0:0:0:
35,361,96000,2,0,L|132:343,1,89.9999972534181,8|0,0:0|0:0,0:0:0:0:
327,340,96400,2,0,L|229:357,1,89.9999972534181,8|0,0:0|0:0,0:0:0:0:
203,135,96800,5,2,0:0:0:0:
287,103,97000,1,0,0:0:0:0:
273,193,97200,1,0,0:0:0:0:
259,283,97400,1,0,0:0:0:0:
480,296,97600,5,8,0:0:0:0:
259,291,97800,1,0,0:0:0:0:
464,114,98000,5,8,0:0:0:0:
287,111,98200,1,0,0:0:0:0:
339,274,98400,6,0,L|311:368,1,89.9999972534181,2|0,0:0|0:0,0:0:0:0:
77,197,98800,1,0,0:0:0:0:
177,169,99000,1,0,0:0:0:0:
145,269,99200,1,8,0:0:0:0:
41,65,99600,5,8,0:0:0:0:
45,77,99700,1,0,0:0:0:0:
49,88,99800,1,0,0:0:0:0:
44,113,100000,6,0,L|85:218,1,89.9999972534181,2|0,0:0|0:0,0:0:0:0:
122,309,100400,1,0,0:0:0:0:
141,165,100600,6,0,L|191:145,1,44.999998626709,8|0,0:0|0:0,0:0:0:0:
442,46,100800,1,2,0:0:0:0:
291,105,101000,1,0,0:0:0:0:
139,44,101200,1,8,0:0:0:0:
150,39,101300,1,0,0:0:0:0:
163,34,101400,1,0,0:0:0:0:
177,152,101600,5,2,0:0:0:0:
182,148,101800,1,0,0:0:0:0:
215,221,102000,1,0,0:0:0:0:
182,294,102200,1,0,0:0:0:0:
262,156,102400,6,0,L|374:147,1,89.9999972534181,8|0,0:0|0:0,0:0:0:0:
271,301,102800,2,0,L|159:292,1,89.9999972534181,8|0,0:0|0:0,0:0:0:0:
447,134,103200,5,2,0:0:0:0:
451,275,103400,1,0,0:0:0:0:
446,208,103600,1,0,0:0:0:0:
440,140,103800,1,0,0:0:0:0:
179,213,104000,5,8,0:0:0:0:
442,276,104200,1,0,0:0:0:0:
168,211,104400,5,8,0:0:0:0:
431,148,104600,1,0,0:0:0:0:
246,72,104800,6,0,L|250:16,2,44.999998626709,2|0|0,0:0|0:0|0:0,0:0:0:0:
238,161,105200,1,0,0:0:0:0:
480,94,105400,5,8,0:0:0:0:
402,72,105600,1,0,0:0:0:0:
324,94,105800,1,0,0:0:0:0:
246,72,106000,2,0,L|190:67,2,44.999998626709,2|0|0,0:0|0:0|0:0,0:0:0:0:
407,77,106400,5,2,0:0:0:0:
429,155,106600,1,0,0:0:0:0:
407,233,106800,1,0,0:0:0:0:
261,147,107000,6,0,L|205:152,1,44.999998626709,8|0,0:0|0:0,0:0:0:0:
83,359,107200,1,2,0:0:0:0:
122,237,107400,1,0,0:0:0:0:
83,115,107600,1,8,0:0:0:0:
78,102,107700,1,0,0:0:0:0:
74,89,107800,1,0,0:0:0:0:
98,356,108000,5,4,0:0:0:0:
110,351,108100,1,0,0:0:0:0:
123,347,108200,1,0,0:0:0:0:
303,365,108400,1,0,0:0:0:0:
212,332,108600,5,0,0:0:0:0:
207,320,108700,1,0,0:0:0:0:
203,307,108800,2,0,L|223:254,2,44.999998626709,2|0|0,0:0|0:0|0:0,0:0:0:0:
345,201,109200,1,8,0:0:0:0:
338,184,109300,1,0,0:0:0:0:
486,10,109800,5,2,0:0:0:0:
424,190,110100,1,2,0:0:0:0:
455,100,110300,1,2,0:0:0:0:
412,196,110400,6,0,L|427:238,1,44.999998626709,8|0,0:0|0:0,0:0:0:0:
369,338,110800,2,0,L|389:285,1,44.999998626709,8|0,0:0|0:0,0:0:0:0:
374,349,111100,5,2,0:0:0:0:
255,317,111300,1,0,0:0:0:0:
260,328,111400,1,8,0:0:0:0:
136,285,111600,1,0,0:0:0:0:
12,242,111800,5,0,0:0:0:0:
17,253,111900,1,0,0:0:0:0:
22,264,112000,2,0,L|42:211,2,44.999998626709,2|0|0,0:0|0:0|0:0,0:0:0:0:
140,293,112400,1,8,0:0:0:0:
147,310,112500,1,0,0:0:0:0:
274,164,112800,6,0,L|294:111,2,44.999998626709,2|0|0,0:0|0:0|0:0,0:0:0:0:
217,275,113200,1,0,0:0:0:0:
203,107,113400,2,0,L|224:55,2,44.999998626709,2|0|0,0:0|0:0|0:0,0:0:0:0:
197,121,113700,1,0,0:0:0:0:
191,136,113800,1,0,0:0:0:0:
328,184,114000,5,2,0:0:0:0:
346,178,114100,1,0,0:0:0:0:
364,172,114200,1,0,0:0:0:0:
382,166,114300,1,0,0:0:0:0:
400,160,114400,6,0,L|367:40,1,115.000002193451,2|0,0:0|0:0,0:0:0:0:
263,78,114800,1,0,0:0:0:0:
152,108,115000,1,0,0:0:0:0:
400,160,115200,2,0,L|433:280,1,115.000002193451,2|0,0:0|0:0,0:0:0:0:
326,245,115600,1,0,0:0:0:0:
214,215,115800,1,0,0:0:0:0:
384,26,116000,5,2,0:0:0:0:
324,250,116200,1,0,0:0:0:0:
212,220,116400,1,0,0:0:0:0:
100,250,116600,1,0,0:0:0:0:
40,26,116800,5,2,0:0:0:0:
99,256,117000,1,0,0:0:0:0:
73,135,117200,1,0,0:0:0:0:
185,105,117400,1,0,0:0:0:0:
100,262,117600,6,0,L|41:363,1,100,2|0,0:0|0:0,0:0:0:0:
162,366,118000,1,0,0:0:0:0:
228,207,118200,2,0,B|188:138|188:138|223:140|247:125|247:125|270:142|314:130,1,200,8|0,0:0|0:0,0:0:0:0:
399,50,118800,5,8,0:0:0:0:
396,63,118900,1,0,0:0:0:0:
394,77,119000,1,0,0:0:0:0:
478,193,119200,2,0,L|486:242,2,50,2|0|0,0:0|0:0|0:0,0:0:0:0:
392,91,119600,5,8,0:0:0:0:
473,239,119800,1,8,0:0:0:0:
459,237,119900,1,0,0:0:0:0:
378,93,120100,5,0,0:0:0:0:
365,96,120200,1,8,0:0:0:0:
192,210,120400,2,0,L|97:225,2,66.6666666666667,2|0|0,0:0|0:0|0:0,0:0:0:0:
241,139,120800,6,0,P|280:216|248:278,2,150.000005722046,4|0|0,0:0|0:0|0:0,0:0:0:0:
241,139,122000,1,0,0:0:0:0:
126,220,122200,1,0,0:0:0:0:
8,139,122400,6,0,P|94:134|131:75,2,150.000005722046,2|0|0,0:0|0:0|0:0,0:0:0:0:
8,139,123600,5,0,0:0:0:0:
31,230,123733,5,0,0:0:0:0:
57,320,123866,5,0,0:0:0:0:
53,330,124000,6,0,B|161:288|260:380|352:323,1,300.000011444092,2|0,0:0|0:0,0:0:0:0:
346,326,125200,1,0,0:0:0:0:
483,361,125400,1,0,0:0:0:0:
474,211,125600,6,0,P|435:235|469:130,1,300,2|0,0:0|0:0,0:0:0:0:
260,25,127200,6,0,P|286:71|222:153,1,150.000005722046,2|0,0:0|0:0,0:0:0:0:
203,80,128000,1,8,0:0:0:0:
215,82,128400,5,0,0:0:0:0:
277,210,128600,1,0,0:0:0:0:
211,336,128800,2,0,P|211:292|138:375,1,300,2|0,0:0|0:0,0:0:0:0:
0,137,130400,6,0,P|44:193|18:260,2,150.000005722046,2|0|0,0:0|0:0|0:0,0:0:0:0:
0,137,131600,1,0,0:0:0:0:
64,9,131800,1,0,0:0:0:0:
206,9,132000,1,8,0:0:0:0:
206,9,132400,6,0,L|148:95,1,75.0000028610231,2|0,0:0|0:0,0:0:0:0:
212,14,132800,1,2,0:0:0:0:
70,14,133000,1,2,0:0:0:0:
339,16,133200,5,0,0:0:0:0:
293,82,133333,5,0,0:0:0:0:
248,149,133466,5,0,0:0:0:0:
202,216,133600,6,0,B|310:174|409:266|501:209,1,300.000011444092,2|0,0:0|0:0,0:0:0:0:
495,212,134800,1,0,0:0:0:0:
411,96,135000,1,0,0:0:0:0:
484,351,135200,6,0,P|411:326|335:361,1,150.000005722046,2|0,0:0|0:0,0:0:0:0:
31,350,136000,6,0,P|104:325|148:346,1,112.500004291535,2|0,0:0|0:0,0:0:0:0:
145,345,136400,5,0,0:0:0:0:
119,255,136533,5,0,0:0:0:0:
96,164,136666,5,0,0:0:0:0:
100,155,136800,6,0,P|55:98|81:31,2,150.000005722046,2|0|0,0:0|0:0|0:0,0:0:0:0:
100,155,138000,1,0,0:0:0:0:
237,193,138200,2,0,L|249:240,1,37.5000014305115,0|0,0:0|0:0,0:0:0:0:
390,236,138400,6,0,P|430:257|322:280,1,300,2|0,0:0|0:0,0:0:0:0:
512,100,140000,6,0,P|485:145|382:131,2,150.000005722046,2|0|0,0:0|0:0|0:0,0:0:0:0:
512,100,141200,1,0,0:0:0:0:
384,36,141400,1,0,0:0:0:0:
263,112,141600,6,0,P|263:68|190:151,1,300,2|0,0:0|0:0,0:0:0:0:
28,123,143200,6,0,P|54:56|10:0,2,150.000005722046,2|0|0,0:0|0:0|0:0,0:0:0:0:
28,123,144400,1,0,0:0:0:0:
92,251,144600,1,0,0:0:0:0:
234,251,144800,1,2,0:0:0:0:
234,251,145800,5,2,0:0:0:0:
273,331,146000,2,0,L|204:333,2,50.0000019073487,8|0|0,0:0|0:0|0:0,0:0:0:0:
415,328,146400,6,0,L|389:205,1,115.000002193451,4|0,0:0|0:0,0:0:0:0:
132,154,146800,1,0,0:0:0:0:
244,177,147000,1,0,0:0:0:0:
167,262,147200,1,8,0:0:0:0:
168,273,147400,1,0,0:0:0:0:
221,16,147600,6,0,L|197:128,1,115.000002193451,2|0,0:0|0:0,0:0:0:0:
166,284,148000,2,0,L|275:248,1,115.000002193451,2|0,0:0|0:0,0:0:0:0:
425,197,148400,2,0,L|339:120,1,115.000002193451,2|0,0:0|0:0,0:0:0:0:
335,351,148800,5,8,0:0:0:0:
360,239,149000,1,0,0:0:0:0:
136,289,149200,1,8,0:0:0:0:
111,177,149400,1,0,0:0:0:0:
335,127,149600,6,0,B|288:142|288:142|269:216,1,115.000002193451,2|0,0:0|0:0,0:0:0:0:
488,315,150000,1,0,0:0:0:0:
411,221,150200,1,0,0:0:0:0:
155,331,150400,5,8,0:0:0:0:
315,343,150600,1,8,0:0:0:0:
417,228,150800,1,8,0:0:0:0:
238,0,151000,2,0,B|238:79|238:79|214:105,1,115.000002193451,2|0,0:0|0:0,0:0:0:0:
40,142,151400,5,8,0:0:0:0:
57,142,151500,1,0,0:0:0:0:
74,142,151600,1,2,0:0:0:0:
303,230,151800,1,0,0:0:0:0:
91,142,152000,1,8,0:0:0:0:
306,237,152200,1,0,0:0:0:0:
145,365,152400,1,8,0:0:0:0:
309,244,152600,1,0,0:0:0:0:
23,142,152800,6,0,B|39:96|39:96|150:72,1,115.000002193451,2|0,0:0|0:0,0:0:0:0:
332,46,153200,1,0,0:0:0:0:
290,154,153400,1,0,0:0:0:0:
218,64,153600,1,8,0:0:0:0:
208,61,153800,1,0,0:0:0:0:
437,150,154000,6,0,B|461:192|461:192|406:291,1,115.000002193451,2|0,0:0|0:0,0:0:0:0:
236,313,154400,2,0,B|187:312|187:312|128:215,1,115.000002193451,2|0,0:0|0:0,0:0:0:0:
196,57,154800,2,0,B|220:14|220:14|334:12,1,115.000002193451,2|0,0:0|0:0,0:0:0:0:
318,243,155200,5,8,0:0:0:0:
270,133,155400,1,0,0:0:0:0:
501,223,155600,1,8,0:0:0:0:
453,333,155800,1,0,0:0:0:0:
286,13,156000,5,2,0:0:0:0:
276,153,156200,1,0,0:0:0:0:
148,258,156400,1,8,0:0:0:0:
284,172,156600,1,0,0:0:0:0:
331,317,156800,1,2,0:0:0:0:
140,254,157000,5,8,0:0:0:0:
132,250,157100,1,0,0:0:0:0:
124,246,157200,1,0,0:0:0:0:
286,13,157400,2,0,L|366:126,1,115.000002193451,2|0,0:0|0:0,0:0:0:0:
476,371,157800,5,2,0:0:0:0:
439,333,157900,1,0,0:0:0:0:
387,328,158000,1,0,0:0:0:0:
346,360,158100,1,0,0:0:0:0:
294,362,158200,1,0,0:0:0:0:
248,336,158300,1,0,0:0:0:0:
235,286,158400,6,0,L|261:228,1,57.5000010967255,8|0,0:0|0:0,0:0:0:0:
180,205,158600,2,0,L|206:147,1,57.5000010967255,0|0,0:0|0:0,0:0:0:0:
370,159,158800,2,0,L|344:101,1,57.5000010967255,8|0,0:0|0:0,0:0:0:0:
425,78,159000,2,0,L|399:20,1,57.5000010967255,0|0,0:0|0:0,0:0:0:0:
96,15,159200,6,0,L|112:166,1,115.000002193451,2|0,0:0|0:0,0:0:0:0:
132,358,159600,1,0,0:0:0:0:
119,243,159800,1,0,0:0:0:0:
224,289,160000,1,8,0:0:0:0:
239,288,160200,1,0,0:0:0:0:
31,65,160400,6,0,L|123:132,1,115.000002193451,2|0,0:0|0:0,0:0:0:0:
0,327,160800,2,0,L|13:212,1,115.000002193451,2|0,0:0|0:0,0:0:0:0:
243,223,161200,2,0,L|137:269,1,115.000002193451,2|0,0:0|0:0,0:0:0:0:
167,14,161600,5,8,0:0:0:0:
123,132,161800,1,0,0:0:0:0:
396,147,162000,1,8,0:0:0:0:
351,29,162200,1,0,0:0:0:0:
137,268,162400,5,2,0:0:0:0:
351,265,162600,1,0,0:0:0:0:
128,268,162800,1,8,0:0:0:0:
407,144,163000,1,0,0:0:0:0:
119,268,163200,1,8,0:0:0:0:
105,132,163400,1,8,0:0:0:0:
150,14,163600,1,8,0:0:0:0:
106,269,163800,6,0,B|104:324|104:324|168:374,1,115.000002193451,2|0,0:0|0:0,0:0:0:0:
390,365,164200,1,8,0:0:0:0:
383,349,164300,1,0,0:0:0:0:
376,333,164400,1,2,0:0:0:0:
197,220,164600,1,0,0:0:0:0:
369,317,164800,1,8,0:0:0:0:
414,122,165000,1,0,0:0:0:0:
210,212,165200,1,8,0:0:0:0:
362,301,165400,1,0,0:0:0:0:
492,110,165600,6,0,B|459:61|459:61|385:48,1,115.000002193451,2|0,0:0|0:0,0:0:0:0:
177,8,166000,1,0,0:0:0:0:
289,29,166200,1,0,0:0:0:0:
214,115,166400,1,8,0:0:0:0:
203,121,166600,1,0,0:0:0:0:
189,356,166800,6,0,B|237:323|237:323|250:249,1,115.000002193451,2|0,0:0|0:0,0:0:0:0:
57,258,167200,2,0,B|61:316|61:316|118:364,1,115.000002193451,2|0,0:0|0:0,0:0:0:0:
208,193,167600,2,0,B|155:167|155:167|85:192,1,115.000002193451,2|0,0:0|0:0,0:0:0:0:
37,359,168000,5,10,0:0:0:0:
152,306,168200,1,0,0:0:0:0:
43,97,168400,1,8,0:0:0:0:
31,223,168600,1,0,0:0:0:0:
221,193,168800,5,2,0:0:0:0:
51,104,169000,1,0,0:0:0:0:
44,216,169200,1,2,0:0:0:0:
57,209,169300,1,0,0:0:0:0:
70,202,169400,1,0,0:0:0:0:
83,195,169500,1,0,0:0:0:0:
96,188,169600,6,0,L|180:189,1,57.5000010967255,8|0,0:0|0:0,0:0:0:0:
219,52,169800,2,0,L|135:53,1,57.5000010967255,8|0,0:0|0:0,0:0:0:0:
254,132,170000,5,0,0:0:0:0:
267,139,170100,1,0,0:0:0:0:
280,146,170200,1,0,0:0:0:0:
293,153,170300,1,0,0:0:0:0:
306,160,170400,2,0,L|294:210,3,37.5000014305115,2|0|0|0,0:0|0:0|0:0|0:0,0:0:0:0:
398,134,170800,5,8,0:0:0:0:
436,123,170900,1,0,0:0:0:0:
475,113,171000,2,0,L|458:79,2,37.5000014305115,2|0|0,0:0|0:0|0:0,0:0:0:0:
463,220,171300,5,2,0:0:0:0:
436,257,171400,1,0,0:0:0:0:
429,296,171500,1,0,0:0:0:0:
434,330,171600,1,0,0:0:0:0:
437,358,171700,1,0,0:0:0:0:
427,378,171800,1,0,0:0:0:0:
411,384,171900,1,0,0:0:0:0:
399,380,172000,6,0,L|372:302,1,57.5000010967255,4|0,0:0|0:0,0:0:0:0:
237,244,172200,2,0,L|255:298,1,57.5000010967255
312,152,172400,5,2,0:0:0:0:
295,128,172500,1,0,0:0:0:0:
269,115,172600,1,0,0:0:0:0:
240,113,172700,1,0,0:0:0:0:
212,120,172800,2,0,P|160:57|171:9,1,115.000002193451,2|0,0:0|0:0,0:0:0:0:
337,13,173100,5,0,0:0:0:0:
352,23,173200,2,0,L|265:38,1,57.5000010967255,8|0,0:0|0:0,0:0:0:0:
219,138,173400,2,0,L|132:153,1,57.5000010967255,8|0,0:0|0:0,0:0:0:0:
367,229,173600,6,0,P|452:219|505:277,1,115.000002193451,2|0,0:0|0:0,0:0:0:0:
394,347,173900,1,0,0:0:0:0:
404,362,174000,2,0,L|419:275,1,57.5000010967255,8|0,0:0|0:0,0:0:0:0:
332,97,174200,2,0,L|347:184,1,57.5000010967255,8|0,0:0|0:0,0:0:0:0:
238,247,174400,5,2,0:0:0:0:
209,242,174500,1,0,0:0:0:0:
180,237,174600,1,0,0:0:0:0:
151,232,174700,1,0,0:0:0:0:
122,227,174800,5,2,0:0:0:0:
132,222,174900,1,0,0:0:0:0:
142,217,175000,1,0,0:0:0:0:
152,212,175100,1,0,0:0:0:0:
162,207,175200,6,0,L|71:189,1,57.5000010967255,4|0,0:0|0:0,0:0:0:0:
0,61,175400,2,0,L|91:79,1,57.5000010967255,0|0,0:0|0:0,0:0:0:0:
305,229,175600,5,2,0:0:0:0:
313,202,175700,1,0,0:0:0:0:
319,175,175800,1,0,0:0:0:0:
325,148,175900,1,0,0:0:0:0:
333,121,176000,6,0,B|292:124|292:124|268:108|268:108|248:129|248:129|172:136,1,150.000005722046,2|0,0:0|0:0,0:0:0:0:
333,112,176300,2,0,B|292:115|292:115|267:99|267:99|247:120|247:120|171:127,1,150.000005722046,8|0,0:0|0:0,0:0:0:0:
335,104,176600,2,0,B|294:107|294:107|269:91|269:91|249:112,1,75.0000028610231,8|0,0:0|0:0,0:0:0:0:
246,227,176800,6,0,L|234:283,1,57.5000010967255,2|0,0:0|0:0,0:0:0:0:
353,358,177000,1,0,0:0:0:0:
363,363,177100,1,0,0:0:0:0:
372,368,177200,2,0,L|383:311,1,57.5000010967255,8|0,0:0|0:0,0:0:0:0:
469,109,177400,5,0,0:0:0:0:
473,136,177500,1,0,0:0:0:0:
476,161,177600,2,0,B|487:237|487:237|446:316,1,150.000005722046,2|0,0:0|0:0,0:0:0:0:
484,162,177900,2,0,B|495:238|495:238|461:302,1,150.000005722046,8|0,0:0|0:0,0:0:0:0:
233,283,178200,5,0,0:0:0:0:
204,289,178300,1,0,0:0:0:0:
175,295,178400,2,0,L|90:313,1,57.5000010967255,4|0,0:0|0:0,0:0:0:0:
0,213,178600,2,0,L|56:201,1,57.5000010967255,0|0,0:0|0:0,0:0:0:0:
267,196,178800,5,2,0:0:0:0:
255,169,178900,1,0,0:0:0:0:
232,151,179000,1,0,0:0:0:0:
204,144,179100,1,0,0:0:0:0:
175,147,179200,2,0,P|147:75|186:15,1,115.000002193451,2|0,0:0|0:0,0:0:0:0:
300,43,179500,5,0,0:0:0:0:
309,61,179600,2,0,L|253:73,1,57.5000010967255,8|0,0:0|0:0,0:0:0:0:
0,114,179800,2,0,L|56:101,1,57.5000010967255,8|0,0:0|0:0,0:0:0:0:
382,123,180000,6,0,P|403:185|371:264,1,115.000002193451,2|0,0:0|0:0,0:0:0:0:
225,254,180300,1,0,0:0:0:0:
216,236,180400,2,0,L|271:223,1,57.5000010967255,8|0,0:0|0:0,0:0:0:0:
373,105,180600,2,0,L|428:92,1,57.5000010967255,8|0,0:0|0:0,0:0:0:0:
378,376,180800,5,2,0:0:0:0:
367,349,180900,1,0,0:0:0:0:
356,322,181000,1,0,0:0:0:0:
345,295,181100,1,0,0:0:0:0:
334,268,181200,5,2,0:0:0:0:
329,278,181300,1,0,0:0:0:0:
324,288,181400,1,0,0:0:0:0:
319,298,181500,1,0,0:0:0:0:
314,308,181600,6,0,L|253:308,1,57.5000010967255,4|0,0:0|0:0,0:0:0:0:
76,354,181800,2,0,L|137:354,1,57.5000010967255,0|0,0:0|0:0,0:0:0:0:
192,109,182000,5,2,0:0:0:0:
207,133,182100,1,0,0:0:0:0:
212,161,182200,1,0,0:0:0:0:
208,189,182300,1,0,0:0:0:0:
192,213,182400,6,0,B|76:194|76:194|146:167,1,150.000005722046,2|0,0:0|0:0,0:0:0:0:
188,221,182700,2,0,B|72:202|72:202|142:175,1,150.000005722046,8|0,0:0|0:0,0:0:0:0:
185,229,183000,2,0,L|106:216,1,75.0000028610231,8|0,0:0|0:0,0:0:0:0:
250,61,183200,6,0,L|329:48,1,57.5000010967255,2|0,0:0|0:0,0:0:0:0:
475,141,183400,1,0,0:0:0:0:
446,136,183500,1,0,0:0:0:0:
418,131,183600,2,0,L|339:118,1,57.5000010967255,8|0,0:0|0:0,0:0:0:0:
364,229,183800,5,0,0:0:0:0:
365,280,183900,1,0,0:0:0:0:
367,331,184000,2,0,L|367:378,2,28.7500005483627,2|0|0,0:0|0:0|0:0,0:0:0:0:
473,317,184200,2,0,L|472:252,1,57.5000010967255,2|0,0:0|0:0,0:0:0:0:
373,322,184400,5,8,0:0:0:0:
315,315,184500,1,0,0:0:0:0:
257,319,184600,1,0,0:0:0:0:
200,310,184700,1,0,0:0:0:0:
143,321,184800,6,0,L|133:215,1,62.5,4|0,0:0|0:0,0:0:0:0:
3,85,185000,2,0,L|8:147,1,62.5,0|0,0:0|0:0,0:0:0:0:
250,145,185200,5,2,0:0:0:0:
239,108,185300,1,0,0:0:0:0:
209,84,185400,1,0,0:0:0:0:
173,73,185500,1,0,0:0:0:0:
135,73,185600,2,0,L|140:135,2,62.5,2|0|0,0:0|0:0|0:0,0:0:0:0:
305,214,185900,5,0,0:0:0:0:
325,234,186000,2,0,L|315:128,1,62.5,8|0,0:0|0:0,0:0:0:0:
371,0,186200,2,0,L|381:106,1,62.5,8|0,0:0|0:0,0:0:0:0:
450,288,186400,6,0,L|512:283,2,62.5,2|0|0,0:0|0:0|0:0,0:0:0:0:
412,292,186700,1,0,0:0:0:0:
374,295,186800,1,0,0:0:0:0:
219,360,186900,1,0,0:0:0:0:
199,340,187000,2,0,L|305:350,1,62.5,2|0,0:0|0:0,0:0:0:0:
172,236,187200,6,0,B|138:232|138:232|126:175,1,62.5,8|0,0:0|0:0,0:0:0:0:
40,342,187400,2,0,B|73:345|73:345|85:402,1,62.5,8|0,0:0|0:0,0:0:0:0:
18,249,187600,5,0,0:0:0:0:
9,218,187700,1,0,0:0:0:0:
48,171,187800,1,0,0:0:0:0:
57,140,187900,1,0,0:0:0:0:
18,93,188000,6,0,L|129:85,1,62.5,4|0,0:0|0:0,0:0:0:0:
296,188,188200,2,0,L|233:192,1,62.5,0|0,0:0|0:0,0:0:0:0:
356,66,188400,5,2,0:0:0:0:
392,58,188500,1,0,0:0:0:0:
428,66,188600,1,0,0:0:0:0:
457,89,188700,1,0,0:0:0:0:
471,123,188800,6,0,L|466:185,1,62.5,8|0,0:0|0:0,0:0:0:0:
441,378,189000,1,0,0:0:0:0:
388,72,189100,6,0,L|383:134,1,62.5,8|0,0:0|0:0,0:0:0:0:
358,327,189300,1,0,0:0:0:0:
305,21,189400,6,0,L|300:83,1,62.5,8|0,0:0|0:0,0:0:0:0:
268,243,189600,6,0,L|233:143,1,62.5,2|0,0:0|0:0,0:0:0:0:
20,173,189800,2,0,L|54:272,1,62.5,0|0,0:0|0:0,0:0:0:0:
106,19,190000,5,2,0:0:0:0:
105,56,190100,1,0,0:0:0:0:
104,93,190200,1,0,0:0:0:0:
103,130,190300,1,0,0:0:0:0:
102,167,190400,6,0,L|183:157,1,62.5,8|0,0:0|0:0,0:0:0:0:
355,142,190600,1,0,0:0:0:0:
127,251,190700,6,0,L|208:241,1,62.5,8|0,0:0|0:0,0:0:0:0:
380,226,190900,1,0,0:0:0:0:
152,335,191000,5,0,0:0:0:0:
114,339,191100,1,0,0:0:0:0:
76,343,191200,2,0,L|177:372,1,62.5,4|0,0:0|0:0,0:0:0:0:
361,329,191400,2,0,L|260:300,1,62.5,0|0,0:0|0:0,0:0:0:0:
285,62,191600,5,2,0:0:0:0:
320,50,191700,1,0,0:0:0:0:
357,50,191800,1,0,0:0:0:0:
391,65,191900,1,0,0:0:0:0:
411,96,192000,6,0,L|382:197,2,62.5,2|0|0,0:0|0:0|0:0,0:0:0:0:
238,188,192300,5,0,0:0:0:0:
219,201,192400,2,0,L|236:140,1,62.5,8|0,0:0|0:0,0:0:0:0:
118,29,192600,2,0,L|101:90,1,62.5,8|0,0:0|0:0,0:0:0:0:
166,336,192800,6,0,L|267:365,2,62.5,2|0|0,0:0|0:0|0:0,0:0:0:0:
130,326,193100,1,0,0:0:0:0:
94,316,193200,1,0,0:0:0:0:
13,202,193300,1,0,0:0:0:0:
0,183,193400,2,0,L|61:200,1,62.5,2|0,0:0|0:0,0:0:0:0:
235,140,193600,6,0,B|264:148|264:148|293:104,1,62.5,8|0,0:0|0:0,0:0:0:0:
242,29,193800,2,0,B|210:23|210:23|195:50,1,62.5,8|0,0:0|0:0,0:0:0:0:
335,41,194000,5,2,0:0:0:0:
366,34,194100,1,0,0:0:0:0:
409,77,194200,1,0,0:0:0:0:
439,88,194300,1,0,0:0:0:0:
454,146,194400,6,0,L|468:215,1,62.5,4|0,0:0|0:0,0:0:0:0:
354,345,194600,2,0,L|340:276,1,62.5,0|0,0:0|0:0,0:0:0:0:
171,229,194800,5,2,0:0:0:0:
138,247,194900,1,0,0:0:0:0:
117,278,195000,1,0,0:0:0:0:
108,314,195100,1,0,0:0:0:0:
111,351,195200,6,0,B|141:337|141:337|138:298,1,62.5,8|0,0:0|0:0,0:0:0:0:
97,126,195400,1,0,0:0:0:0:
226,317,195500,6,0,B|240:303|240:303|234:236,1,62.5,8|0,0:0|0:0,0:0:0:0:
212,92,195700,1,0,0:0:0:0:
341,283,195800,6,0,B|331:201,1,62.5,8|0,0:0|0:0,0:0:0:0:
327,58,196000,5,0,0:0:0:0:
346,41,196100,2,0,L|277:41,1,62.5,8|0,0:0|0:0,0:0:0:0:
91,131,196300,1,0,0:0:0:0:
72,148,196400,2,0,L|141:148,1,62.5,8|0,0:0|0:0,0:0:0:0:
295,186,196600,1,0,0:0:0:0:
314,203,196700,1,0,0:0:0:0:
333,220,196800,2,0,L|264:220,1,62.5,8|0,0:0|0:0,0:0:0:0:
140,328,197000,5,0,0:0:0:0:
176,315,197100,1,0,0:0:0:0:
212,305,197200,2,0,L|195:367,2,41.6666666666667,2|0|0,0:0|0:0|0:0,0:0:0:0:
120,262,197400,2,0,L|131:221,2,41.6666666666667,2|0|0,0:0|0:0|0:0,0:0:0:0:
25,295,197600,6,0,L|65:157,1,134.999995880127,4|0,0:0|0:0,0:0:0:0:
59,138,198000,1,8,0:0:0:0:
79,29,198200,2,0,L|52:121,1,89.9999972534181,2|0,0:0|0:0,0:0:0:0:
286,88,198600,5,8,0:0:0:0:
195,0,198800,1,2,0:0:0:0:
160,121,199000,2,0,L|212:108,1,44.999998626709,0|0,0:0|0:0,0:0:0:0:
422,54,199200,6,0,B|397:140|397:140|424:182,1,134.999995880127
464,237,199600,1,8,0:0:0:0:
499,116,199800,1,0,0:0:0:0:
456,264,200000,2,0,L|429:356,1,89.9999972534181,2|0,0:0|0:0,0:0:0:0:
380,248,200400,5,8,0:0:0:0:
340,227,200500,1,0,0:0:0:0:
295,223,200600,1,0,0:0:0:0:
253,238,200700,1,0,0:0:0:0:
219,269,200800,6,0,P|191:187|128:167,1,134.999995880127,2|0,0:0|0:0,0:0:0:0:
124,171,201200,1,8,0:0:0:0:
126,259,201400,1,0,0:0:0:0:
169,97,201600,5,2,0:0:0:0:
18,177,201800,1,0,0:0:0:0:
219,269,202000,5,8,0:0:0:0:
0,175,202200,1,0,0:0:0:0:
334,79,202400,6,0,P|290:98|269:135,2,89.9999972534181,2|0|0,0:0|0:0|0:0,0:0:0:0:
417,198,203000,1,0,0:0:0:0:
401,189,203100,1,0,0:0:0:0:
385,179,203200,2,0,L|342:150,1,44.999998626709,8|0,0:0|0:0,0:0:0:0:
465,303,203400,5,0,0:0:0:0:
465,321,203500,1,0,0:0:0:0:
464,340,203600,2,0,L|460:391,1,44.999998626709,8|0,0:0|0:0,0:0:0:0:
384,282,203800,2,0,L|380:333,1,44.999998626709,8|0,0:0|0:0,0:0:0:0:
117,256,204000,5,6,0:0:0:0:
179,209,204100,1,0,0:0:0:0:
254,228,204200,1,0,0:0:0:0:
294,294,204300,1,0,0:0:0:0:
263,365,204400,5,8,0:0:0:0:
254,354,204500,1,0,0:0:0:0:
178,346,204600,1,8,0:0:0:0:
169,335,204700,1,0,0:0:0:0:
97,363,204800,6,0,L|46:295,1,64.9999970245363,2|0,0:0|0:0,0:0:0:0:
60,34,205000,2,0,L|99:86,1,64.9999970245363,0|0,0:0|0:0,0:0:0:0:
0,218,205200,6,0,L|33:139,1,64.9999970245363,2|0,0:0|0:0,0:0:0:0:
266,22,205400,2,0,L|240:81,1,64.9999970245363,0|0,0:0|0:0,0:0:0:0:
397,275,205600,5,2,0:0:0:0:
473,263,205700,1,0,0:0:0:0:
512,199,205800,1,0,0:0:0:0:
494,122,205900,1,0,0:0:0:0:
419,97,206000,5,8,0:0:0:0:
419,110,206100,1,0,0:0:0:0:
344,130,206200,1,8,0:0:0:0:
344,143,206300,1,0,0:0:0:0:
267,160,206400,6,0,L|272:238,1,64.9999970245363,2|0,0:0|0:0,0:0:0:0:
125,191,206600,2,0,L|129:126,1,64.9999970245363
435,252,206800,5,0,0:0:0:0:
356,242,206900,1,0,0:0:0:0:
319,313,207000,1,0,0:0:0:0:
373,371,207100,1,0,0:0:0:0:
380,376,207200,5,2,0:0:0:0:
306,351,207300,1,0,0:0:0:0:
228,353,207400,1,0,0:0:0:0:
156,384,207500,1,0,0:0:0:0:
79,362,207600,5,2,0:0:0:0:
83,343,207700,1,0,0:0:0:0:
88,324,207800,1,0,0:0:0:0:
93,305,207900,1,0,0:0:0:0:
154,273,208000,5,2,0:0:0:0:
96,295,208100,1,0,0:0:0:0:
52,252,208200,1,0,0:0:0:0:
74,195,208300,1,0,0:0:0:0:
135,191,208400,1,2,0:0:0:0:
193,213,208500,1,0,0:0:0:0:
237,170,208600,1,0,0:0:0:0:
215,113,208700,6,0,L|142:121,2,64.9999970245363,8|0|0,0:0|0:0|0:0,0:0:0:0:
420,111,209000,2,0,L|493:119,2,64.9999970245363,8|0|0,0:0|0:0|0:0,0:0:0:0:
66,130,209300,6,0,L|74:203,2,64.9999970245363,8|0|0,0:0|0:0|0:0,0:0:0:0:
325,231,209600,2,0,L|333:167,1,64.9999970245363,8|0,0:0|0:0,0:0:0:0:
503,356,209800,5,8,0:0:0:0:
501,368,209900,1,0,0:0:0:0:
499,383,210000,5,2,0:0:0:0:
474,361,210100,1,0,0:0:0:0:
444,350,210200,1,0,0:0:0:0:
412,351,210300,1,0,0:0:0:0:
382,365,210400,6,0,P|349:373|314:367,2,59.9999981689454,4|0|0,0:0|0:0|0:0,0:0:0:0:
441,164,210800,2,0,L|413:262,1,89.9999972534181,8|0,0:0|0:0,0:0:0:0:
165,344,211200,2,0,P|143:279|226:346,1,269.999991760254,2|0,0:0|0:0,0:0:0:0:
0,384,212000,6,0,P|39:296|-15:207,1,179.999994506836,2|0,0:0|0:0,0:0:0:0:
107,0,212600,2,0,P|75:81|96:127,1,134.999995880127,2|0,0:0|0:0,0:0:0:0:
109,142,213000,1,8,0:0:0:0:
176,69,213200,1,2,0:0:0:0:
0,137,213400,1,8,0:0:0:0:
288,68,213600,6,0,L|337:82,1,44.999998626709,2|0,0:0|0:0,0:0:0:0:
291,81,213800,1,0,0:0:0:0:
449,97,213900,2,0,L|353:72,1,89.9999972534181,8|0,0:0|0:0,0:0:0:0:
442,190,214200,6,0,L|393:176,1,44.999998626709,2|0,0:0|0:0,0:0:0:0:
439,177,214400,1,0,0:0:0:0:
281,161,214500,2,0,L|377:186,1,89.9999972534181,8|0,0:0|0:0,0:0:0:0:
408,353,214800,5,0,0:0:0:0:
403,333,214900,5,8,0:0:0:0:
439,306,215000,1,0,0:0:0:0:
474,277,215100,1,0,0:0:0:0:
480,297,215200,5,2,0:0:0:0:
414,279,215300,1,0,0:0:0:0:
349,261,215400,1,0,0:0:0:0:
284,244,215500,1,0,0:0:0:0:
219,226,215600,5,2,0:0:0:0:
225,298,215700,1,0,0:0:0:0:
160,330,215800,1,0,0:0:0:0:
107,281,215900,1,0,0:0:0:0:
133,214,216000,1,0,0:0:0:0:
159,147,216100,1,0,0:0:0:0:
106,98,216200,1,0,0:0:0:0:
42,130,216300,1,0,0:0:0:0:
48,202,216400,6,0,L|44:157,1,44.999998626709,8|0,0:0|0:0,0:0:0:0:
34,42,216600,2,0,L|38:87,1,44.999998626709,8|0,0:0|0:0,0:0:0:0:
231,142,216800,5,6,0:0:0:0:
283,198,216900,1,0,0:0:0:0:
361,192,217000,1,0,0:0:0:0:
411,134,217100,1,0,0:0:0:0:
392,59,217200,5,8,0:0:0:0:
382,68,217300,1,0,0:0:0:0:
306,63,217400,1,8,0:0:0:0:
295,72,217500,1,0,0:0:0:0:
229,32,217600,6,0,L|166:90,1,64.9999970245363,2|0,0:0|0:0,0:0:0:0:
135,350,217800,2,0,L|182:305,1,64.9999970245363,0|0,0:0|0:0,0:0:0:0:
74,156,218000,6,0,L|81:240,1,64.9999970245363,2|0,0:0|0:0,0:0:0:0:
354,319,218200,2,0,L|348:254,1,64.9999970245363,0|0,0:0|0:0,0:0:0:0:
488,0,218400,5,2,0:0:0:0:
493,64,218500,1,0,0:0:0:0:
499,129,218600,1,0,0:0:0:0:
504,194,218700,1,0,0:0:0:0:
510,259,218800,5,8,0:0:0:0:
504,270,218900,1,0,0:0:0:0:
432,286,219000,1,8,0:0:0:0:
426,297,219100,1,0,0:0:0:0:
354,319,219200,6,0,L|348:254,1,64.9999970245363,2|0,0:0|0:0,0:0:0:0:
337,91,219400,2,0,L|342:155,1,64.9999970245363,0|0,0:0|0:0,0:0:0:0:
260,266,219600,5,0,0:0:0:0:
236,341,219700,1,0,0:0:0:0:
156,345,219800,1,0,0:0:0:0:
125,271,219900,1,0,0:0:0:0:
132,277,220000,5,2,0:0:0:0:
189,254,220100,1,0,0:0:0:0:
190,192,220200,1,0,0:0:0:0:
134,167,220300,1,0,0:0:0:0:
82,206,220400,5,0,0:0:0:0:
76,213,220500,1,0,0:0:0:0:
70,221,220600,1,0,0:0:0:0:
64,229,220700,1,0,0:0:0:0:
59,237,220800,5,2,0:0:0:0:
59,172,220900,1,0,0:0:0:0:
6,133,221000,1,2,0:0:0:0:
6,68,221100,1,0,0:0:0:0:
59,31,221200,5,0,0:0:0:0:
68,30,221300,1,0,0:0:0:0:
78,30,221400,1,0,0:0:0:0:
88,29,221500,1,0,0:0:0:0:
98,28,221600,6,0,L|170:26,2,64.9999970245363,8|0|0,0:0|0:0|0:0,0:0:0:0:
6,133,221900,6,0,L|78:131,1,64.9999970245363,8|0,0:0|0:0,0:0:0:0:
284,52,222100,5,0,0:0:0:0:
270,68,222200,1,0,0:0:0:0:
268,88,222300,1,0,0:0:0:0:
214,126,222400,5,2,0:0:0:0:
274,105,222500,1,0,0:0:0:0:
333,136,222600,1,0,0:0:0:0:
350,199,222700,1,0,0:0:0:0:
319,256,222800,1,0,0:0:0:0:
255,273,222900,1,0,0:0:0:0:
199,239,223000,2,0,L|228:317,1,64.9999970245363,8|0,0:0|0:0,0:0:0:0:
126,384,223200,5,6,0:0:0:0:
191,384,223300,1,0,0:0:0:0:
256,384,223400,1,0,0:0:0:0:
321,384,223500,1,0,0:0:0:0:
386,384,223600,5,8,0:0:0:0:
382,371,223700,1,0,0:0:0:0:
440,324,223800,1,8,0:0:0:0:
436,311,223900,1,0,0:0:0:0:
497,265,224000,6,0,L|475:195,1,64.9999970245363,2|0,0:0|0:0,0:0:0:0:
412,0,224200,2,0,L|431:62,1,64.9999970245363,0|0,0:0|0:0,0:0:0:0:
311,302,224400,6,0,L|333:232,1,64.9999970245363,2|0,0:0|0:0,0:0:0:0:
263,0,224600,2,0,L|243:62,1,64.9999970245363,0|0,0:0|0:0,0:0:0:0:
508,136,224800,5,2,0:0:0:0:
428,136,224900,1,0,0:0:0:0:
349,136,225000,1,0,0:0:0:0:
270,136,225100,1,0,0:0:0:0:
191,136,225200,5,8,0:0:0:0:
196,152,225300,1,0,0:0:0:0:
132,185,225400,1,8,0:0:0:0:
137,201,225500,1,0,0:0:0:0:
162,275,225600,6,0,L|184:343,1,64.9999970245363,2|0,0:0|0:0,0:0:0:0:
289,0,225800,2,0,L|267:68,1,64.9999970245363,0|0,0:0|0:0,0:0:0:0:
95,349,226000,5,2,0:0:0:0:
187,349,226100,1,0,0:0:0:0:
276,347,226200,2,0,L|252:275,1,64.9999970245363,8|0,0:0|0:0,0:0:0:0:
137,123,226400,6,0,B|178:153|173:219|173:219|206:161|262:159|262:159|257:140|257:140|298:154|352:162|451:113|431:12|263:-20|238:85|288:143|336:167|407:147|407:147|362:200|388:277|388:277|421:253|412:213,1,825.000025177003,4|0,0:0|0:0,0:0:0:0:
410,232,228000,2,0,B|352:218|290:269|301:349|301:349|244:346|227:299|227:299|169:372|83:348|83:348|98:316|82:276,1,495.000015106202,2|0,0:0|0:0,0:0:0:0:
82,292,229000,1,2,0:0:0:0:
387,314,229200,1,8,0:0:0:0:
115,213,229600,6,0,B|31:177|31:177|80:161|95:130|95:130|179:179|258:169|295:157|295:157|275:68|225:58|178:51|133:68|133:68|158:96|231:108|276:93|276:93|329:35|427:23|515:84|508:182,1,1045.00003189087,4|0,0:0|0:0,0:0:0:0:
500,165,231600,1,8,0:0:0:0:
179,325,231800,5,2,0:0:0:0:
218,265,231900,1,0,0:0:0:0:
285,242,232000,1,0,0:0:0:0:
354,257,232100,1,0,0:0:0:0:
392,316,232200,5,8,0:0:0:0:
378,325,232300,1,0,0:0:0:0:
286,348,232400,5,2,0:0:0:0:
285,320,232500,1,0,0:0:0:0:
285,295,232600,1,0,0:0:0:0:
285,269,232700,1,0,0:0:0:0:
285,242,232800,6,0,B|283:113|283:113|220:83|220:83|215:72|215:72|136:35|136:35|137:146|137:146|148:158|148:158|149:293|149:293|51:245|51:245|51:186|51:186|41:172|41:172|42:55,1,825.000025177003,4|0,0:0|0:0,0:0:0:0:
48,105,234400,2,0,B|88:143|152:144|192:98|192:98|193:113|193:113|249:71|331:105|331:105|327:89|327:89|370:119|447:108|468:53,1,495.000015106202,2|0,0:0|0:0,0:0:0:0:
461,50,235400,1,2,0:0:0:0:
461,319,235600,1,8,0:0:0:0:
380,20,236000,6,0,B|331:56|331:56|367:222|367:222|307:272|307:272|280:154|280:154|250:208|201:224|143:218|106:153|106:153|216:158|217:263,1,825.000025177003,4|0,0:0|0:0,0:0:0:0:
214,274,237600,2,0,B|184:300|133:284|133:284|111:327|36:338,1,165.000005035401,2|0,0:0|0:0,0:0:0:0:
61,336,238000,5,8,0:0:0:0:
48,282,238100,1,0,0:0:0:0:
35,228,238200,1,0,0:0:0:0:
43,224,238400,6,0,L|28:162,2,36.6666677856446,2|0|0,0:0|0:0|0:0,0:0:0:0:
121,244,238600,2,0,L|113:209,2,36.6666677856446,2|0|0,0:0|0:0|0:0,0:0:0:0:
199,264,238800,1,8,0:0:0:0:
164,121,239000,5,0,0:0:0:0:
162,114,239066,1,0,0:0:0:0:
160,106,239133,1,0,0:0:0:0:
157,98,239200,2,0,B|197:62|256:68|312:101|281:118|352:140|396:130|448:78,1,275.000008392334,2|0,0:0|0:0,0:0:0:0:
411,93,239800,1,8,0:0:0:0:
369,371,240200,5,2,0:0:0:0:
478,197,240400,1,8,0:0:0:0:
360,32,240600,1,2,0:0:0:0:
188,247,240800,5,8,0:0:0:0:
491,195,241100,5,2,0:0:0:0:
206,243,241400,5,2,0:0:0:0:
369,371,241600,1,2,0:0:0:0:
381,196,241800,1,0,0:0:0:0:
383,185,241900,1,0,0:0:0:0:
395,171,242000,5,10,0:0:0:0:
343,151,242100,1,0,0:0:0:0:
311,105,242200,1,0,0:0:0:0:
312,50,242300,1,0,0:0:0:0:
348,8,242400,2,0,B|362:100|307:150|241:170|181:153|85:144|86:43|86:43|184:12|184:12|221:99|161:193|109:232|-4:200,1,825.000025177003,4|0,0:0|0:0,0:0:0:0:
10,201,244000,5,8,0:0:0:0:
98,283,244100,1,2,0:0:0:0:
79,303,244200,1,0,0:0:0:0:
70,329,244300,1,0,0:0:0:0:
73,356,244400,1,0,0:0:0:0:
77,367,244500,5,8,0:0:0:0:
141,339,244600,1,0,0:0:0:0:
206,310,244700,1,0,0:0:0:0:
271,281,244800,6,0,L|280:245,3,36.6666677856446,2|0|0|0,0:0|0:0|0:0|0:0,0:0:0:0:
330,325,245100,1,0,0:0:0:0:
397,300,245200,1,0,0:0:0:0:
429,236,245300,1,0,0:0:0:0:
413,166,245400,1,0,0:0:0:0:
354,124,245500,1,0,0:0:0:0:
282,119,245600,6,0,B|156:112|86:46|86:46|123:33|185:45,1,275.000008392334,4|0,0:0|0:0,0:0:0:0:
159,47,246200,1,8,0:0:0:0:
493,208,246800,2,0,L|483:255,1,27.5000008392334,8|0,0:0|0:0,0:0:0:0:
382,33,247200,6,0,B|348:104|397:152|397:152|337:182|311:286|384:361|384:361|442:302|404:246,1,495.000015106202,2|0,0:0|0:0,0:0:0:0:
401,259,248200,1,2,0:0:0:0:
60,43,248400,1,8,0:0:0:0:
52,50,248800,6,0,B|5:117|5:117|79:94|120:112|120:112|152:81|152:81|201:108|286:76|286:76|170:124|133:225|177:338|177:338|207:235|283:250,1,825.000025177003,4|0,0:0|0:0,0:0:0:0:
254,259,250400,2,0,P|296:310|427:293,1,165.000005035401,4|0,0:0|0:0,0:0:0:0:
356,204,250800,5,8,0:0:0:0:
261,140,250933,1,0,0:0:0:0:
153,168,251066,1,0,0:0:0:0:
44,286,251200,5,8,0:0:0:0:
125,245,251333,1,0,0:0:0:0:
149,159,251466,1,0,0:0:0:0:
99,25,251600,5,8,0:0:0:0:
95,96,251733,1,0,0:0:0:0:
145,148,251866,1,0,0:0:0:0:
261,140,252000,6,0,B|333:156|380:92|380:92|444:130|508:99|508:99|563:197|541:306|421:345|321:296|348:215|348:215|358:280|421:281|421:281|348:304|338:374|338:374|330:333|290:308,1,974.999955368044,4|0,0:0|0:0,0:0:0:0:
225,305,255150,1,0,0:0:0:0:
216,301,255200,2,0,B|160:308|120:276|120:276|79:318|-12:316|-28:224|-9:174|45:142|104:167|104:167|61:137|72:87,1,494.999984893799,0|0,0:0|0:0,0:0:0:0:
145,103,257600,1,0,0:0:0:0:
154,104,257650,2,0,L|278:116,1,123.74999622345,0|0,0:0|0:0,0:0:0:0:
377,60,258400,6,0,B|389:106|415:135|415:135|313:216|374:365|374:365|377:309|406:288,1,412.500012588501,0|0,0:0|0:0,0:0:0:0:
401,292,260000,2,0,B|363:281|332:243|332:243|289:269|227:256|227:256|150:318|91:311|45:249|39:172|118:143|155:160,1,503.749976940156
151,156,261650,5,0,0:0:0:0:
156,155,261750,1,0,0:0:0:0:
161,154,261850,1,0,0:0:0:0:
166,153,261950,1,0,0:0:0:0:
171,153,262050,1,0,0:0:0:0:
176,152,262150,1,0,0:0:0:0:
181,151,262250,1,0,0:0:0:0:
186,150,262350,1,0,0:0:0:0:
191,149,262450,1,0,0:0:0:0:
196,148,262550,1,0,0:0:0:0:
201,147,262650,1,0,0:0:0:0:
206,147,262750,1,0,0:0:0:0:
211,146,262850,1,0,0:0:0:0:
216,145,262950,1,0,0:0:0:0:
221,144,263050,1,0,0:0:0:0:
231,142,263150,6,0,B|263:118|305:127|305:127|224:97|232:22,1,206.250006294251
243,31,264000,1,0,0:0:0:0:
424,10,264200,1,0,0:0:0:0:
254,23,264400,5,0,0:0:0:0:
300,79,264533,1,0,0:0:0:0:
373,79,264666,1,0,0:0:0:0:
413,18,264800,6,0,B|484:83|435:211|396:147|368:288|429:350,1,337.499989700318,2|0,0:0|0:0,0:0:0:0:
414,339,266400,1,0,0:0:0:0:
401,324,266500,1,0,0:0:0:0:
382,317,266600,1,0,0:0:0:0:
362,318,266700,1,0,0:0:0:0:
345,327,266800,1,0,0:0:0:0:
329,339,266900,1,0,0:0:0:0:
311,346,267000,1,0,0:0:0:0:
291,347,267100,1,0,0:0:0:0:
272,341,267200,1,0,0:0:0:0:
256,329,267300,1,0,0:0:0:0:
247,311,267400,1,0,0:0:0:0:
247,291,267500,1,0,0:0:0:0:
256,274,267600,1,0,0:0:0:0:
271,263,267700,1,0,0:0:0:0:
290,260,267800,1,0,0:0:0:0:
307,266,267900,1,0,0:0:0:0:
318,281,268000,5,0,0:0:0:0:
319,275,268100,1,0,0:0:0:0:
320,269,268200,1,0,0:0:0:0:
321,263,268300,1,0,0:0:0:0:
322,257,268400,1,0,0:0:0:0:
323,251,268500,1,0,0:0:0:0:
324,245,268600,1,0,0:0:0:0:
325,239,268700,1,0,0:0:0:0:
326,233,268800,1,0,0:0:0:0:
327,227,268900,1,0,0:0:0:0:
328,221,269000,1,0,0:0:0:0:
329,215,269100,1,0,0:0:0:0:
330,209,269200,1,0,0:0:0:0:
331,203,269300,1,0,0:0:0:0:
332,197,269400,1,0,0:0:0:0:
333,191,269500,1,0,0:0:0:0:
334,185,269600,2,0,B|256:141|181:196|181:196|113:163|65:184|65:184|141:158|150:90,1,412.500012588501,0|0,0:0|0:0,0:0:0:0:
152,88,271200,6,0,B|223:75|256:41|256:41|342:27|402:42|484:96|455:183|455:183|452:120|392:92,1,524.999983978272,4|0,0:0|0:0,0:0:0:0:
393,100,272800,2,0,B|388:168|349:195|349:195|392:263|350:363|350:363|306:319|267:328,1,375,4|0,0:0|0:0,0:0:0:0:
266,333,274400,2,0,B|205:340|174:284|174:284|127:306|127:306|92:248|11:267,1,287.5,4|0,0:0|0:0,0:0:0:0:
15,270,276800,5,2,0:0:0:0:
48,160,277000,1,0,0:0:0:0:
0,249,277200,5,2,0:0:0:0:
16,174,277333,5,0,0:0:0:0:
87,146,277466,5,0,0:0:0:0:
103,70,277600,5,2,0:0:0:0:
111,78,277700,1,0,0:0:0:0:
133,78,277800,1,0,0:0:0:0:
159,99,277900,1,0,0:0:0:0:
204,95,278000,1,0,0:0:0:0:
272,86,278100,1,0,0:0:0:0:
231,30,278200,1,0,0:0:0:0:
248,151,278400,5,2,0:0:0:0:
240,172,278500,1,0,0:0:0:0:
252,190,278600,1,0,0:0:0:0:
411,60,278800,6,0,L|381:135,2,75.0000028610231,8|0|0,0:0|0:0|0:0,0:0:0:0:
0,127,279200,1,2,0:0:0:0:
512,43,279800,6,0,L|488:102,1,57.5000010967255,8|0,0:0|0:0,0:0:0:0:
394,324,280200,5,2,0:0:0:0:
398,334,280300,1,0,0:0:0:0:
363,261,280400,1,0,0:0:0:0:
395,187,280500,1,0,0:0:0:0:
394,324,280800,5,2,0:0:0:0:
395,187,281066,1,0,0:0:0:0:
512,384,281333,1,0,0:0:0:0:
391,317,281600,5,2,0:0:0:0:
392,180,281800,1,0,0:0:0:0:
509,377,282000,1,0,0:0:0:0:
389,311,282200,5,2,0:0:0:0:
390,174,282400,5,2,0:0:0:0:
414,245,282533,1,0,0:0:0:0:
315,160,282666,1,0,0:0:0:0:
439,116,282800,1,0,0:0:0:0:
322,252,282933,5,0,0:0:0:0:
353,65,283066,1,0,0:0:0:0:
494,193,283200,1,2,0:0:0:0:
92,316,283400,6,0,L|167:289,1,75.0000028610231,8|0,0:0|0:0,0:0:0:0:
79,307,283600,1,2,0:0:0:0:
12,368,284000,6,0,L|-2:301,1,50.0000019073487,2|0,0:0|0:0,0:0:0:0:
25,255,284133,2,0,L|10:188,1,50.0000019073487,0|0,0:0|0:0,0:0:0:0:
46,146,284266,2,0,L|31:79,1,50.0000019073487,0|0,0:0|0:0,0:0:0:0:
68,36,284400,1,0,0:0:0:0:
68,36,284800,6,0,L|83:113,1,75.0000028610231,2|0,0:0|0:0,0:0:0:0:
146,57,285000,2,0,L|156:108,2,50.0000019073487,0|0|0,0:0|0:0|0:0,0:0:0:0:
221,76,285233,2,0,L|206:0,1,75.0000028610231
289,384,285600,5,2,0:0:0:0:
289,384,286000,5,0,0:0:0:0:
232,311,286200,1,0,0:0:0:0:
383,384,286400,1,8,0:0:0:0:
52,384,286600,5,0,0:0:0:0:
109,311,286800,1,8,0:0:0:0:
418,0,287200,5,2,0:0:0:0:
418,0,287600,5,0,0:0:0:0:
361,73,287800,1,0,0:0:0:0:
512,0,288000,1,8,0:0:0:0:
181,0,288200,5,0,0:0:0:0:
238,73,288400,1,8,0:0:0:0:
80,0,288600,1,0,0:0:0:0:
0,124,288800,6,0,L|55:113,4,50.0000019073487,2|0|0|0|0,0:0|0:0|0:0|0:0|0:0,0:0:0:0:
13,137,289133,6,0,L|68:126,1,50.0000019073487,0|0,0:0|0:0,0:0:0:0:
46,164,289266,2,0,L|99:181,1,50.0000019073487,0|0,0:0|0:0,0:0:0:0:
75,216,289400,2,0,L|112:258,1,50.0000019073487,0|0,0:0|0:0,0:0:0:0:
78,280,289533,2,0,L|88:335,1,50.0000019073487,0|0,0:0|0:0,0:0:0:0:
48,336,289666,6,0,L|30:389,1,50.0000019073487,2|0,0:0|0:0,0:0:0:0:
133,335,289800,2,0,L|144:390,1,50.0000019073487,0|0,0:0|0:0,0:0:0:0:
207,270,289933,2,0,L|244:312,1,50.0000019073487,0|0,0:0|0:0,0:0:0:0:
237,156,290066,1,8,0:0:0:0:
512,384,290400,5,2,0:0:0:0:
354,25,290666,6,0,L|346:74,18,50.0000019073487,0|0|0|0|0|0|0|0|0|0|0|0|0|0|0|0|0|0|0,0:0|0:0|0:0|0:0|0:0|0:0|0:0|0:0|0:0|0:0|0:0|0:0|0:0|0:0|0:0|0:0|0:0|0:0|0:0,0:0:0:0:
487,161,292000,6,0,P|482:134|494:111,3,50.0000019073487,8|0|0|0,0:0|0:0|0:0|0:0,0:0:0:0:
354,25,292400,6,0,L|346:74,8,50.0000019073487,2|0|0|0|0|0|0|0|0,0:0|0:0|0:0|0:0|0:0|0:0|0:0|0:0|0:0,0:0:0:0:
354,87,293000,1,2,0:0:0:0:
192,120,293200,2,0,B|220:118|220:118|250:141,1,50
487,161,293600,6,0,P|482:134|494:111,3,50.0000019073487,8|0|0|0,0:0|0:0|0:0|0:0,0:0:0:0:
354,25,294000,6,0,L|346:74,8,50.0000019073487
354,87,294600,1,2,0:0:0:0:
192,120,294800,2,0,B|220:118|220:118|250:141,1,50
178,311,295200,6,0,B|178:347|140:347|140:347|113:366|113:366|84:346|84:346|48:346|48:308|48:308|24:284|24:284|48:255|48:255|48:216|87:216|87:216|113:188|113:188|141:215|141:215|178:215|178:253|178:253,1,450.000017166138
512,384,296800,5,2,0:0:0:0:
382,231,297000,1,0,0:0:0:0:
446,307,297200,1,0,0:0:0:0:
347,326,297400,1,0,0:0:0:0:
512,375,297600,5,2,0:0:0:0:
382,222,297800,1,0,0:0:0:0:
446,298,298000,1,0,0:0:0:0:
347,317,298200,1,0,0:0:0:0:
454,36,298400,6,0,L|419:130,1,100,8|0,0:0|0:0,0:0:0:0:
492,24,298800,2,0,L|456:117,1,100,8|0,0:0|0:0,0:0:0:0:
345,58,299200,5,2,0:0:0:0:
246,77,299400,1,0,0:0:0:0:
310,153,299600,1,0,0:0:0:0:
180,0,299800,1,0,0:0:0:0:
350,64,300000,5,2,0:0:0:0:
315,159,300200,1,0,0:0:0:0:
378,236,300400,1,0,0:0:0:0:
343,331,300600,1,0,0:0:0:0:
356,51,300800,5,2,0:0:0:0:
315,159,301000,1,0,0:0:0:0:
388,248,301200,1,0,0:0:0:0:
347,357,301400,1,0,0:0:0:0:
512,263,301600,6,0,L|476:356,1,100,8|0,0:0|0:0,0:0:0:0:
204,366,302000,2,0,L|239:272,1,100,8|0,0:0|0:0,0:0:0:0:
388,248,302400,5,2,0:0:0:0:
0,297,302600,1,0,0:0:0:0:
512,263,302800,5,2,0:0:0:0:
124,214,303000,1,0,0:0:0:0:
368,6,303200,6,0,B|317:50|317:50|329:105,1,115.000002193451,4|0,0:0|0:0,0:0:0:0:
385,177,303600,2,0,B|372:110|372:110|318:93,1,115.000002193451,2|0,0:0|0:0,0:0:0:0:
228,106,304000,2,0,B|291:128|291:128|333:90,1,115.000002193451,2|0,0:0|0:0,0:0:0:0:
464,104,304400,1,0,0:0:0:0:
306,251,304600,1,0,0:0:0:0:
170,0,304800,5,2,0:0:0:0:
228,106,305000,1,0,0:0:0:0:
52,206,305200,5,8,0:0:0:0:
114,102,305400,1,0,0:0:0:0:
346,211,305600,5,2,0:0:0:0:
52,206,305800,1,0,0:0:0:0:
342,204,306000,5,8,0:0:0:0:
48,199,306200,1,0,0:0:0:0:
339,198,306400,5,2,0:0:0:0:
302,282,306600,1,2,0:0:0:0:
347,361,306800,1,2,0:0:0:0:
386,93,307000,6,0,L|334:209,1,115.000002193451,8|0,0:0|0:0,0:0:0:0:
343,206,307400,1,0,0:0:0:0:
512,100,307600,5,8,0:0:0:0:
500,126,307700,1,0,0:0:0:0:
488,152,307800,1,0,0:0:0:0:
286,45,308000,5,2,0:0:0:0:
365,0,308200,1,2,0:0:0:0:
449,37,308400,1,2,0:0:0:0:
282,40,308600,5,2,0:0:0:0:
276,132,308800,1,0,0:0:0:0:
271,223,309000,1,0,0:0:0:0:
278,231,309100,1,0,0:0:0:0:
285,240,309200,5,8,0:0:0:0:
285,286,309300,1,0,0:0:0:0:
281,331,309400,1,0,0:0:0:0:
292,248,309600,6,0,L|208:240,1,75.0000028610231,4|0,0:0|0:0,0:0:0:0:
30,220,310000,1,0,0:0:0:0:
73,158,310200,1,0,0:0:0:0:
104,227,310400,2,0,L|20:219,1,75.0000028610231,8|0,0:0|0:0,0:0:0:0:
29,96,310800,2,0,L|104:89,1,75.0000028610231,8|0,0:0|0:0,0:0:0:0:
505,42,311200,6,0,L|430:49,1,75.0000028610231,2|0,0:0|0:0,0:0:0:0:
194,77,311600,1,0,0:0:0:0:
237,139,311800,1,0,0:0:0:0:
268,70,312000,5,8,0:0:0:0:
174,275,312200,1,0,0:0:0:0:
152,16,312400,5,8,0:0:0:0:
281,202,312600,1,0,0:0:0:0:
0,80,312800,6,0,L|86:97,1,75.0000028610231,2|0,0:0|0:0,0:0:0:0:
309,135,313200,1,0,0:0:0:0:
414,155,313400,1,0,0:0:0:0:
343,236,313600,1,8,0:0:0:0:
343,236,314000,5,8,0:0:0:0:
350,227,314100,1,0,0:0:0:0:
357,218,314200,1,0,0:0:0:0:
309,135,314400,5,2,0:0:0:0:
343,236,314600,1,0,0:0:0:0:
446,257,314800,1,0,0:0:0:0:
302,144,315000,6,0,L|255:196,1,37.5000014305115,8|0,0:0|0:0,0:0:0:0:
112,363,315200,1,2,0:0:0:0:
182,282,315400,1,0,0:0:0:0:
146,180,315600,1,8,0:0:0:0:
151,190,315700,1,0,0:0:0:0:
155,201,315800,1,0,0:0:0:0:
297,370,316000,6,0,L|267:278,1,75.0000028610231,2|0,0:0|0:0,0:0:0:0:
213,104,316400,1,0,0:0:0:0:
297,72,316600,1,0,0:0:0:0:
229,177,316800,2,0,L|210:94,1,75.0000028610231,8|0,0:0|0:0,0:0:0:0:
356,150,317200,2,0,L|323:227,1,75.0000028610231,8|0,0:0|0:0,0:0:0:0:
117,312,317600,5,2,0:0:0:0:
186,345,317800,1,0,0:0:0:0:
255,312,318000,1,0,0:0:0:0:
319,347,318200,1,0,0:0:0:0:
185,335,318400,5,8,0:0:0:0:
465,243,318600,1,0,0:0:0:0:
115,303,318800,5,8,0:0:0:0:
409,286,319000,1,0,0:0:0:0:
55,253,319200,6,0,L|147:218,1,75.0000028610231,2|0,0:0|0:0,0:0:0:0:
409,122,319600,1,0,0:0:0:0:
267,174,319800,1,8,0:0:0:0:
267,174,320200,5,2,0:0:0:0:
125,122,320400,1,8,0:0:0:0:
137,119,320500,1,0,0:0:0:0:
149,116,320600,1,0,0:0:0:0:
266,183,320800,5,2,0:0:0:0:
266,317,321000,1,0,0:0:0:0:
383,250,321200,1,0,0:0:0:0:
500,183,321400,6,0,L|454:165,1,37.5000014305115,8|0,0:0|0:0,0:0:0:0:
248,75,321600,1,2,0:0:0:0:
350,114,321800,1,0,0:0:0:0:
265,182,322000,1,8,0:0:0:0:
263,172,322100,1,0,0:0:0:0:
261,162,322200,1,0,0:0:0:0:
81,99,322400,6,0,L|64:30,2,44.999998626709,4|0|0,0:0|0:0|0:0,0:0:0:0:
113,231,322800,1,10,0:0:0:0:
191,75,323000,5,0,0:0:0:0:
187,61,323100,1,0,0:0:0:0:
184,48,323200,2,0,L|167:-21,2,44.999998626709,2|0|0,0:0|0:0|0:0,0:0:0:0:
217,181,323600,1,8,0:0:0:0:
220,194,323700,1,0,0:0:0:0:
9,281,324200,5,2,0:0:0:0:
217,181,324500,1,2,0:0:0:0:
113,231,324700,1,2,0:0:0:0:
220,194,324800,6,0,L|287:161,1,44.999998626709,8|0,0:0|0:0,0:0:0:0:
462,125,325200,2,0,L|421:144,1,44.999998626709,8|0,0:0|0:0,0:0:0:0:
373,334,325500,5,2,0:0:0:0:
354,230,325700,1,0,0:0:0:0:
349,242,325800,1,8,0:0:0:0:
335,126,326000,1,0,0:0:0:0:
316,22,326200,5,0,0:0:0:0:
311,34,326300,1,0,0:0:0:0:
306,47,326400,2,0,L|290:3,2,44.999998626709,2|0|0,0:0|0:0|0:0,0:0:0:0:
174,106,326800,1,8,0:0:0:0:
187,110,326900,1,0,0:0:0:0:
354,230,327200,6,0,L|370:186,2,44.999998626709,2|0|0,0:0|0:0|0:0,0:0:0:0:
220,287,327600,1,0,0:0:0:0:
215,299,327800,2,0,L|199:343,2,44.999998626709,2|0|0,0:0|0:0|0:0,0:0:0:0:
220,287,328100,1,0,0:0:0:0:
225,275,328200,1,8,0:0:0:0:
84,260,328400,5,2,0:0:0:0:
72,255,328500,1,0,0:0:0:0:
60,250,328600,1,0,0:0:0:0:
48,245,328700,1,0,0:0:0:0:
36,240,328800,6,0,L|17:91,1,115.000002193451,2|0,0:0|0:0,0:0:0:0:
7,11,329200,1,0,0:0:0:0:
113,55,329400,1,0,0:0:0:0:
323,143,329600,6,0,L|429:187,1,115.000002193451,2|0,0:0|0:0,0:0:0:0:
443,299,330000,1,0,0:0:0:0:
352,368,330200,1,0,0:0:0:0:
322,136,330400,5,8,0:0:0:0:
442,292,330600,1,0,0:0:0:0:
351,361,330800,1,8,0:0:0:0:
245,316,331000,1,0,0:0:0:0:
428,180,331200,5,8,0:0:0:0:
236,203,331400,1,0,0:0:0:0:
250,311,331600,1,8,0:0:0:0:
350,354,331800,1,0,0:0:0:0:
322,136,332000,6,0,L|298:10,1,100,2|0,0:0|0:0,0:0:0:0:
228,104,332400,1,8,0:0:0:0:
420,84,332600,2,0,B|467:64|467:64|316:36,1,200,2|0,0:0|0:0,0:0:0:0:
119,30,333200,5,8,0:0:0:0:
133,32,333300,1,0,0:0:0:0:
148,35,333400,1,0,0:0:0:0:
136,332,333600,5,2,0:0:0:0:
130,239,333800,1,0,0:0:0:0:
124,146,334000,1,0,0:0:0:0:
410,245,334200,1,8,0:0:0:0:
262,29,334400,5,2,0:0:0:0:
225,109,334500,5,8,0:0:0:0:
216,96,334600,1,0,0:0:0:0:
207,85,334700,1,0,0:0:0:0:
188,188,334800,5,2,0:0:0:0:
273,185,334900,1,0,0:0:0:0:
364,181,335000,2,0,L|335:140,1,50,8|0,0:0|0:0,0:0:0:0:
285,347,335200,5,6,0:0:0:0:
141,155,336800,5,8,0:0:0:0:
102,215,337000,1,0,0:0:0:0:
362,213,337200,2,0,L|304:122,1,100,2|0,0:0|0:0,0:0:0:0:
95,223,337600,5,8,0:0:0:0:
369,221,337800,1,0,0:0:0:0:
111,301,338000,5,8,0:0:0:0:
375,228,338200,1,0,0:0:0:0:
83,28,338400,6,0,B|57:55|57:55|77:176,1,115.000002193451,6|0,0:0|0:0,0:0:0:0:
305,84,338800,1,0,0:0:0:0:
194,56,339000,1,0,0:0:0:0:
250,278,339200,5,6,0:0:0:0:
278,182,339400,1,0,0:0:0:0:
309,78,339600,1,0,0:0:0:0:
53,251,339800,2,0,B|102:251|102:251|120:238|120:238|196:238,1,115.000002193451,4|0,0:0|0:0,0:0:0:0:
379,306,340200,5,8,0:0:0:0:
361,306,340300,1,0,0:0:0:0:
344,306,340400,1,2,0:0:0:0:
190,165,340600,1,0,0:0:0:0:
358,56,340800,1,8,0:0:0:0:
207,165,341000,1,0,0:0:0:0:
327,306,341200,1,8,0:0:0:0:
224,165,341400,1,0,0:0:0:0:
497,58,341600,6,0,L|339:58,1,115.000002193451,6|0,0:0|0:0,0:0:0:0:
100,57,342000,1,0,0:0:0:0:
215,57,342200,1,0,0:0:0:0:
157,156,342400,1,8,0:0:0:0:
157,144,342600,1,0,0:0:0:0:
7,371,342800,6,0,L|165:371,1,115.000002193451,2|0,0:0|0:0,0:0:0:0:
156,132,343200,2,0,L|77:268,1,115.000002193451,2|0,0:0|0:0,0:0:0:0:
289,381,343600,2,0,L|210:244,1,115.000002193451,2|0,0:0|0:0,0:0:0:0:
41,131,344000,5,8,0:0:0:0:
98,230,344200,1,0,0:0:0:0:
211,29,344400,1,8,0:0:0:0:
154,130,344600,1,0,0:0:0:0:
456,130,344800,5,8,0:0:0:0:
149,143,345000,1,8,0:0:0:0:
294,208,345200,1,8,0:0:0:0:
354,92,345400,6,0,L|371:57,3,38.3333340644837,0|0|0|2,0:0|0:0|0:0|0:0,0:0:0:0:
286,218,345800,1,0,0:0:0:0:
478,274,346000,1,0,0:0:0:0:
190,28,346200,6,0,L|36:54,1,115.000002193451,6|0,0:0|0:0,0:0:0:0:
43,362,346600,5,2,0:0:0:0:
15,311,346700,1,0,0:0:0:0:
31,255,346800,1,0,0:0:0:0:
79,224,346900,1,0,0:0:0:0:
120,183,347000,1,0,0:0:0:0:
114,125,347100,1,0,0:0:0:0:
63,98,347200,6,0,P|51:166|63:182,1,57.5000010967255,8|0,0:0|0:0,0:0:0:0:
91,300,347400,2,0,P|143:344|163:342,1,57.5000010967255
296,167,347600,2,0,B|306:136|306:136|201:175,1,115.000002193451,8|0,0:0|0:0,0:0:0:0:
401,380,348000,6,0,B|434:335|434:335|434:256,1,115.000002193451,4|0,0:0|0:0,0:0:0:0:
205,243,348400,1,0,0:0:0:0:
316,285,348600,1,0,0:0:0:0:
296,167,348800,1,8,0:0:0:0:
293,178,349000,1,0,0:0:0:0:
5,195,349200,6,0,B|46:236|46:236|101:244,1,115.000002193451,2|0,0:0|0:0,0:0:0:0:
210,39,349600,2,0,B|152:53|152:53|118:97,1,115.000002193451,2|0,0:0|0:0,0:0:0:0:
243,295,350000,2,0,B|258:238|258:238|237:186,1,115.000002193451,2|0,0:0|0:0,0:0:0:0:
73,167,350400,5,8,0:0:0:0:
186,136,350600,1,0,0:0:0:0:
122,358,350800,1,8,0:0:0:0:
9,327,351000,1,0,0:0:0:0:
71,157,351200,5,12,0:0:0:0:
124,368,351400,1,8,0:0:0:0:
7,337,351600,1,8,0:0:0:0:
97,262,351800,1,8,0:0:0:0:
320,331,352000,5,2,0:0:0:0:
208,301,352200,1,8,0:0:0:0:
95,271,352400,1,8,0:0:0:0:
424,263,352600,2,0,B|454:250|454:250|468:147,1,115.000002193451,2|0,0:0|0:0,0:0:0:0:
261,22,353000,5,0,0:0:0:0:
267,38,353100,1,0,0:0:0:0:
273,53,353200,1,2,0:0:0:0:
449,165,353400,1,0,0:0:0:0:
279,68,353600,1,8,0:0:0:0:
235,248,353800,1,0,0:0:0:0:
433,162,354000,1,8,0:0:0:0:
294,82,354200,1,0,0:0:0:0:
6,135,354400,6,0,B|19:165|19:165|122:179,1,115.000002193451,4|0,0:0|0:0,0:0:0:0:
323,204,354800,1,0,0:0:0:0:
231,134,355000,1,0,0:0:0:0:
217,248,355200,1,8,0:0:0:0:
227,236,355400,1,0,0:0:0:0:
458,231,355600,6,0,B|477:204|477:204|438:108,1,115.000002193451,2|0,0:0|0:0,0:0:0:0:
304,320,356000,2,0,B|317:349|317:349|420:364,1,115.000002193451,2|0,0:0|0:0,0:0:0:0:
304,143,356400,2,0,B|271:139|271:139|207:221,1,115.000002193451,2|0,0:0|0:0,0:0:0:0:
362,25,356800,5,8,0:0:0:0:
378,139,357000,1,0,0:0:0:0:
218,215,357200,1,8,0:0:0:0:
202,101,357400,1,0,0:0:0:0:
390,141,357600,5,6,0:0:0:0:
214,224,357800,1,0,0:0:0:0:
199,82,358000,1,0,0:0:0:0:
197,64,358100,1,0,0:0:0:0:
195,46,358200,1,0,0:0:0:0:
193,28,358300,1,0,0:0:0:0:
191,10,358400,6,0,L|136:56,1,57.5000010967255,12|0,0:0|0:0,0:0:0:0:
0,50,358600,2,0,L|52:99,1,57.5000010967255,0|0,0:0|0:0,0:0:0:0:
139,156,358800,1,0,0:0:0:0:
136,174,358900,1,0,0:0:0:0:
133,192,359000,1,0,0:0:0:0:
130,210,359100,1,0,0:0:0:0:
128,226,359200,6,0,L|180:275,2,36.6666677856446,6|0|0,0:0|0:0|0:0,0:0:0:0:
36,294,359400,2,0,L|0:304,2,36.6666677856446
48,208,359600,1,0,0:0:0:0:
49,200,359666,1,0,0:0:0:0:
50,192,359733,1,0,0:0:0:0:
51,184,359800,2,0,L|60:112,2,36.6666677856446,0|0|0,0:0|0:0|0:0,0:0:0:0:
42,304,360000,5,6,0:0:0:0:
101,313,360100,1,0,0:0:0:0:
160,322,360200,1,0,0:0:0:0:
219,331,360300,1,0,0:0:0:0:
278,340,360400,1,0,0:0:0:0:
337,349,360500,1,0,0:0:0:0:
396,358,360600,2,0,L|422:298,1,55.0000016784668
512,229,360800,6,0,B|448:237|448:237|413:183|413:183|458:124|458:124|502:140,1,239.999992675781,4|0,0:0|0:0,0:0:0:0:
512,384,361400,1,2,0:0:0:0:
282,197,361600,1,8,0:0:0:0:
282,183,362000,5,2,0:0:0:0:
512,370,362200,1,8,0:0:0:0:
334,95,362400,6,0,B|260:93|260:93|198:140|198:140|96:137,1,239.999992675781,2|0,0:0|0:0,0:0:0:0:
405,166,363000,1,2,0:0:0:0:
193,0,363200,1,8,0:0:0:0:
0,166,363400,2,0,B|70:168|70:168|112:137,1,119.999996337891,2|0,0:0|0:0,0:0:0:0:
122,127,363800,1,8,0:0:0:0:
0,358,364000,6,0,B|68:358|68:358|116:349|116:349|163:358|163:358|251:360,1,239.999992675781,2|0,0:0|0:0,0:0:0:0:
512,360,364600,1,8,0:0:0:0:
193,0,364800,5,2,0:0:0:0:
122,127,365000,1,2,0:0:0:0:
169,265,365200,1,2,0:0:0:0:
198,7,365400,6,0,B|65:7|65:7|46:34|46:34|37:40|37:40|37:47|37:47|20:76|20:76|62:76,1,239.999992675781,2|0,0:0|0:0,0:0:0:0:
61,76,365900,1,0,0:0:0:0:
75,55,366000,1,2,0:0:0:0:
0,180,366200,1,0,0:0:0:0:
193,0,366400,5,8,0:0:0:0:
14,316,366600,1,0,0:0:0:0:
122,127,366800,1,8,0:0:0:0:
169,265,367000,1,0,0:0:0:0:
344,0,367200,6,0,B|408:0|408:0|436:57|436:57|384:110|384:110|343:89,1,239.999992675781,2|0,0:0|0:0,0:0:0:0:
512,0,367800,1,2,0:0:0:0:
322,195,368000,1,8,0:0:0:0:
322,210,368400,5,2,0:0:0:0:
512,15,368600,1,8,0:0:0:0:
360,321,368800,6,0,B|286:323|286:323|224:276|224:276|122:279,1,239.999992675781,2|0,0:0|0:0,0:0:0:0:
492,269,369400,1,8,0:0:0:0:
0,384,369600,1,0,0:0:0:0:
3,369,370000,5,0,0:0:0:0:
41,0,370200,1,8,0:0:0:0:
360,321,370400,6,0,B|286:323|286:323|224:276|224:276|122:279,1,239.999992675781,2|0,0:0|0:0,0:0:0:0:
42,159,371000,1,8,0:0:0:0:
411,42,371200,6,0,L|469:-3,1,59.9999981689454,2|0,0:0|0:0,0:0:0:0:
457,128,371400,2,0,L|524:155,1,59.9999981689454
453,227,371600,2,0,L|462:299,1,59.9999981689454
298,218,371800,6,0,P|266:162|350:189,1,179.999994506836,6|0,0:0|0:0,0:0:0:0:
353,169,372200,2,0,P|341:137|350:105,1,59.9999981689454
224,32,372400,2,0,P|228:61|216:88,1,59.9999981689454,8|0,0:0|0:0,0:0:0:0:
119,183,372600,2,0,P|107:151|116:119,1,59.9999981689454
202,278,372800,5,2,0:0:0:0:
18,311,373000,1,0,0:0:0:0:
21,325,373100,1,0,0:0:0:0:
24,339,373200,5,8,0:0:0:0:
95,346,373300,1,0,0:0:0:0:
166,351,373400,1,0,0:0:0:0:
237,358,373500,1,0,0:0:0:0:
308,363,373600,5,6,0:0:0:0:
220,165,373800,1,0,0:0:0:0:
320,15,374000,1,0,0:0:0:0:
214,173,374200,2,0,L|105:173,1,100,2|0,0:0|0:0,0:0:0:0:
0,175,374600,1,8,0:0:0:0:
0,384,374800,6,0,L|99:383,1,100,2|0,0:0|0:0,0:0:0:0:
512,179,375200,2,0,L|405:180,1,100,2|0,0:0|0:0,0:0:0:0:
0,0,375600,2,0,L|99:0,1,100,2|0,0:0|0:0,0:0:0:0:
512,179,376000,6,0,L|412:179,1,100,2|0,0:0|0:0,0:0:0:0:
0,384,376400,2,0,L|99:383,1,100,2|0,0:0|0:0,0:0:0:0:
470,39,376800,5,0,0:0:0:0:
210,183,377000,1,0,0:0:0:0:
467,337,377200,1,0,0:0:0:0:
470,39,377400,1,0,0:0:0:0:
168,182,377600,5,0,0:0:0:0:
494,0,377800,1,0,0:0:0:0:
491,375,378000,1,0,0:0:0:0:
110,0,378200,6,0,P|64:53|158:38,1,200,6|0,0:0|0:0,0:0:0:0:
158,60,378700,1,0,0:0:0:0:
160,49,378800,1,8,0:0:0:0:
144,261,379000,1,0,0:0:0:0:
256,89,379200,5,2,0:0:0:0:
24,245,379400,1,0,0:0:0:0:
24,265,379500,1,0,0:0:0:0:
24,284,379600,5,8,0:0:0:0:
76,330,379700,1,0,0:0:0:0:
143,349,379800,1,0,0:0:0:0:
212,337,379900,1,0,0:0:0:0:
271,300,380000,5,4,0:0:0:0:
290,353,380100,1,0,0:0:0:0:
347,358,380200,1,0,0:0:0:0:
375,308,380300,1,0,0:0:0:0:
342,262,380400,1,0,0:0:0:0:
295,228,380500,1,0,0:0:0:0:
304,172,380600,1,0,0:0:0:0:
360,158,380700,1,0,0:0:0:0:
396,202,380800,1,0,0:0:0:0:
423,250,380900,1,0,0:0:0:0:
480,245,381000,1,0,0:0:0:0:
499,190,381100,1,0,0:0:0:0:
458,151,381200,2,0,P|452:135|456:98,1,50
351,30,381400,5,6,0:0:0:0:
297,74,381500,1,0,0:0:0:0:
227,73,381600,1,0,0:0:0:0:
195,37,381700,1,0,0:0:0:0:
148,47,381800,1,0,0:0:0:0:
133,92,381900,1,0,0:0:0:0:
165,128,382000,5,8,0:0:0:0:
142,153,382100,1,0,0:0:0:0:
131,186,382200,1,0,0:0:0:0:
135,221,382300,1,0,0:0:0:0:
154,250,382400,2,0,L|206:227,1,50,8|0,0:0|0:0,0:0:0:0:
45,219,382600,2,0,L|0:239,1,50
308,263,382800,6,0,L|284:211,1,50,8|0,0:0|0:0,0:0:0:0:
76,316,383000,2,0,L|96:361,1,50
489,366,383200,5,6,0:0:0:0:
444,327,383300,1,0,0:0:0:0:
426,270,383400,1,0,0:0:0:0:
440,213,383500,1,0,0:0:0:0:
483,171,383600,2,0,L|482:109,1,50,8|0,0:0|0:0,0:0:0:0:
482,0,383800,2,0,L|482:49,1,50
385,384,384000,5,6,0:0:0:0:
310,380,384100,1,0,0:0:0:0:
235,376,384200,1,0,0:0:0:0:
160,373,384300,1,0,0:0:0:0:
85,368,384400,2,0,L|25:366,1,50,8|0,0:0|0:0,0:0:0:0:
0,25,384600,2,0,L|49:25,1,50
311,135,384800,5,6,0:0:0:0:
331,179,384900,1,0,0:0:0:0:
322,228,385000,1,0,0:0:0:0:
287,263,385100,1,0,0:0:0:0:
239,272,385200,1,0,0:0:0:0:
194,252,385300,1,0,0:0:0:0:
168,210,385400,1,0,0:0:0:0:
171,161,385500,1,0,0:0:0:0:
201,122,385600,5,6,0:0:0:0:
250,178,385700,1,0,0:0:0:0:
311,135,385800,1,0,0:0:0:0:
264,76,385900,1,0,0:0:0:0:
268,68,386000,5,8,0:0:0:0:
315,127,386100,1,0,0:0:0:0:
389,128,386200,1,0,0:0:0:0:
430,65,386300,1,0,0:0:0:0:
473,0,386400,6,0,L|488:58,1,57.5000010967255,4|0,0:0|0:0,0:0:0:0:
403,183,386600,2,0,L|387:123,1,57.5000010967255
512,281,386800,5,2,0:0:0:0:
490,264,386900,1,0,0:0:0:0:
463,258,387000,1,0,0:0:0:0:
435,263,387100,1,0,0:0:0:0:
412,279,387200,2,0,L|440:344,2,57.5000010967255,2|0|0,0:0|0:0|0:0,0:0:0:0:
141,363,387500,5,0,0:0:0:0:
150,378,387600,2,0,L|211:385,1,57.5000010967255,8|0,0:0|0:0,0:0:0:0:
320,287,387800,2,0,L|263:293,1,57.5000010967255,8|0,0:0|0:0,0:0:0:0:
30,259,388000,6,0,L|58:324,2,57.5000010967255,2|0|0,0:0|0:0|0:0,0:0:0:0:
271,56,388300,1,0,0:0:0:0:
262,71,388400,2,0,L|201:78,1,57.5000010967255,8|0,0:0|0:0,0:0:0:0:
0,107,388600,2,0,L|57:100,1,57.5000010967255,8|0,0:0|0:0,0:0:0:0:
434,46,388800,5,2,0:0:0:0:
420,83,388900,1,0,0:0:0:0:
432,127,389000,1,0,0:0:0:0:
418,164,389100,1,0,0:0:0:0:
421,173,389200,5,2,0:0:0:0:
352,182,389300,1,0,0:0:0:0:
283,193,389400,1,0,0:0:0:0:
216,202,389500,1,0,0:0:0:0:
148,213,389600,6,0,L|155:274,1,57.5000010967255,4|0,0:0|0:0,0:0:0:0:
427,230,389800,2,0,L|420:172,1,57.5000010967255
276,34,390000,5,2,0:0:0:0:
248,25,390100,1,0,0:0:0:0:
220,27,390200,1,0,0:0:0:0:
192,36,390300,1,0,0:0:0:0:
169,53,390400,6,0,L|176:114,1,57.5000010967255,8|0,0:0|0:0,0:0:0:0:
199,321,390600,1,0,0:0:0:0:
87,37,390700,6,0,L|94:98,1,57.5000010967255,8|0,0:0|0:0,0:0:0:0:
117,305,390900,1,0,0:0:0:0:
0,10,391000,6,0,L|7:71,1,57.5000010967255,8|0,0:0|0:0,0:0:0:0:
0,359,391200,6,0,L|55:373,1,57.5000010967255,2|0,0:0|0:0,0:0:0:0:
339,351,391400,2,0,L|268:337,1,57.5000010967255
18,235,391600,5,2,0:0:0:0:
46,232,391700,1,0,0:0:0:0:
75,229,391800,1,0,0:0:0:0:
103,226,391900,1,0,0:0:0:0:
132,224,392000,6,0,L|187:238,1,57.5000010967255,8|0,0:0|0:0,0:0:0:0:
429,303,392200,1,0,0:0:0:0:
272,180,392300,5,2,0:0:0:0:
299,186,392400,1,0,0:0:0:0:
327,193,392500,1,0,0:0:0:0:
354,200,392600,5,2,0:0:0:0:
407,155,392700,1,0,0:0:0:0:
456,106,392800,6,0,L|523:121,1,57.5000010967255,4|0,0:0|0:0,0:0:0:0:
485,315,393000,2,0,L|428:302,1,57.5000010967255
363,33,393200,5,2,0:0:0:0:
341,16,393300,1,0,0:0:0:0:
314,10,393400,1,0,0:0:0:0:
286,15,393500,1,0,0:0:0:0:
263,31,393600,2,0,L|291:96,2,57.5000010967255,2|0|0,0:0|0:0|0:0,0:0:0:0:
0,53,393900,5,0,0:0:0:0:
9,68,394000,2,0,L|70:75,1,57.5000010967255,8|0,0:0|0:0,0:0:0:0:
211,152,394200,2,0,L|154:158,1,57.5000010967255,8|0,0:0|0:0,0:0:0:0:
0,262,394400,6,0,L|28:327,2,57.5000010967255,2|0|0,0:0|0:0|0:0,0:0:0:0:
300,275,394700,1,0,0:0:0:0:
291,290,394800,2,0,L|230:297,1,57.5000010967255,8|0,0:0|0:0,0:0:0:0:
29,326,395000,2,0,L|86:319,1,57.5000010967255,8|0,0:0|0:0,0:0:0:0:
512,319,395200,5,2,0:0:0:0:
498,282,395300,1,0,0:0:0:0:
510,238,395400,1,0,0:0:0:0:
496,201,395500,1,0,0:0:0:0:
499,192,395600,5,2,0:0:0:0:
430,183,395700,1,0,0:0:0:0:
361,172,395800,1,0,0:0:0:0:
294,163,395900,1,0,0:0:0:0:
226,152,396000,6,0,L|233:91,1,57.5000010967255,4|0,0:0|0:0,0:0:0:0:
505,135,396200,2,0,L|498:193,1,57.5000010967255
334,372,396400,5,2,0:0:0:0:
306,381,396500,1,0,0:0:0:0:
278,379,396600,1,0,0:0:0:0:
250,370,396700,1,0,0:0:0:0:
227,353,396800,6,0,L|234:292,1,57.5000010967255,8|0,0:0|0:0,0:0:0:0:
254,61,397000,1,0,0:0:0:0:
146,315,397100,6,0,L|153:254,1,57.5000010967255,8|0,0:0|0:0,0:0:0:0:
170,58,397300,1,0,0:0:0:0:
23,259,397400,6,0,L|16:198,1,57.5000010967255,8|0,0:0|0:0,0:0:0:0:
0,49,397600,1,0,0:0:0:0:
102,196,397700,6,0,L|95:135,1,57.5000010967255,8|0,0:0|0:0,0:0:0:0:
86,54,397900,1,0,0:0:0:0:
146,315,398000,6,0,L|207:322,1,57.5000010967255,8|0,0:0|0:0,0:0:0:0:
139,321,398200,2,0,L|200:328,1,57.5000010967255,8|0,0:0|0:0,0:0:0:0:
394,384,398400,5,2,0:0:0:0:
370,344,398500,1,0,0:0:0:0:
369,298,398600,1,0,0:0:0:0:
390,257,398700,1,0,0:0:0:0:
430,234,398800,2,0,L|439:284,5,38.3333340644837,2|0|0|0|0|0,0:0|0:0|0:0|0:0|0:0|0:0,0:0:0:0:
512,234,399200,6,0,L|501:166,1,57.5000010967255,4|0,0:0|0:0,0:0:0:0:
224,73,399400,1,0,0:0:0:0:
258,67,399500,1,0,0:0:0:0:
292,72,399600,1,0,0:0:0:0:
320,91,399700,1,0,0:0:0:0:
324,98,399800,5,2,0:0:0:0:
258,144,399900,1,0,0:0:0:0:
279,221,400000,1,0,0:0:0:0:
214,269,400100,1,0,0:0:0:0:
142,232,400200,2,0,L|130:280,2,38.3333340644837,2|0|0,0:0|0:0|0:0,0:0:0:0:
46,384,400400,6,0,L|36:346,1,38.3333340644837
60,253,400533,2,0,L|69:215,1,38.3333340644837
11,141,400666,2,0,L|1:103,1,38.3333340644837
48,0,400800,5,6,0:0:0:0:
