osu file format v14

[General]
AudioFilename: audio.mp3
AudioLeadIn: 0
PreviewTime: -1
Countdown: 0
SampleSet: Normal
StackLeniency: 0.7
Mode: 1
LetterboxInBreaks: 0
WidescreenStoryboard: 1

[Editor]
Bookmarks: 309803
DistanceSpacing: 1.1
BeatDivisor: 6
GridSize: 32
TimelineZoom: 3.599998

[Metadata]
Title:Lady of the Wind
TitleUnicode:Lady of the Wind
Artist:Whispered
ArtistUnicode:Whispered
Creator:LZD
Version:Kaze
Source:
Tags:metal death melodic eastern folk shogunate macabre MrKosiej [ Frost ]
BeatmapID:1993216
BeatmapSetID:954772

[Difficulty]
HPDrainRate:5
CircleSize:7
OverallDifficulty:7
ApproachRate:10
SliderMultiplier:1.4
SliderTickRate:1

[Events]
//Background and Video events
0,0,"zhang-bin-girl-art-wind-high-resolution-digital-photos-widescreen-images-artwork-for-windows-illustration-drawing-painting-art-is-everywhere-artist-1805x1204.jpg",0,-55
//Break Periods
2,63400,66200
//Storyboard Layer 0 (Background)
//Storyboard Layer 1 (Fail)
//Storyboard Layer 2 (Pass)
//Storyboard Layer 3 (Foreground)
//Storyboard Layer 4 (Overlay)
//Storyboard Sound Samples

[TimingPoints]
140,300,4,1,0,35,1,0
24140,-100,4,1,0,20,0,0
28940,-100,4,1,0,35,0,0
31902,300,4,1,0,35,1,0
33742,300,4,1,0,40,1,0
34400,400,4,1,0,60,1,8
37600,-86.9565217391304,4,1,0,60,0,1
63200,-86.9565217391304,4,1,0,60,0,0
68000,-111.111111111111,4,1,0,40,0,0
69600,-100,4,1,0,50,0,0
82400,-86.9565217391304,4,1,0,60,0,0
95400,-86.9565217391304,4,1,0,50,0,0
95800,-100,4,1,0,50,0,0
108000,-86.9565217391304,4,1,0,60,0,0
121600,-100,4,1,0,30,0,0
122000,-100,4,1,0,50,0,0
122800,-100,4,1,0,30,0,0
123600,-100,4,1,0,50,0,0
124800,-100,4,1,0,30,0,0
125200,-100,4,1,0,50,0,0
126000,-100,4,1,0,30,0,0
127200,-100,4,1,0,50,0,0
128000,-100,4,1,0,30,0,0
128400,-100,4,1,0,50,0,0
129200,-100,4,1,0,30,0,0
130400,-100,4,1,0,50,0,0
131200,-100,4,1,0,30,0,0
131600,-100,4,1,0,50,0,0
134400,-100,4,1,0,30,0,0
134800,-100,4,1,0,50,0,0
135600,-100,4,1,0,30,0,0
136400,-100,4,1,0,50,0,0
137600,-100,4,1,0,30,0,0
138000,-100,4,1,0,50,0,0
138800,-100,4,1,0,30,0,0
140000,-100,4,1,0,50,0,0
140800,-100,4,1,0,30,0,0
141200,-100,4,1,0,50,0,0
142000,-100,4,1,0,30,0,0
143200,-100,4,1,0,50,0,0
144000,-100,4,1,0,30,0,0
144400,-100,4,1,0,50,0,0
145800,-83.3333333333333,4,1,0,40,0,0
146000,-83.3333333333333,4,1,0,60,0,0
146800,-100,4,1,0,50,0,0
172000,-86.9565217391304,4,1,0,60,0,1
197600,-86.9565217391304,4,1,0,60,0,0
197900,-111.111111111111,4,1,0,50,0,0
204000,-76.9230769230769,4,1,0,60,0,0
210800,-111.111111111111,4,1,0,50,0,0
216800,-76.9230769230769,4,1,0,60,0,0
223150,-66.6666666666667,4,1,0,60,0,0
228000,-90.9090909090909,4,1,0,40,0,0
229200,-90.9090909090909,4,1,0,50,0,0
229600,-90.9090909090909,4,1,0,60,0,0
231600,-90.9090909090909,4,1,0,40,0,0
231800,-90.9090909090909,4,1,0,50,0,0
232800,-90.9090909090909,4,1,0,60,0,0
234400,-90.9090909090909,4,1,0,40,0,0
235600,-90.9090909090909,4,1,0,50,0,0
236000,-90.9090909090909,4,1,0,60,0,0
239800,-90.9090909090909,4,1,0,50,0,0
242400,-90.9090909090909,4,1,0,60,0,0
244000,-90.9090909090909,4,1,0,50,0,0
245600,-90.9090909090909,4,1,0,60,0,0
246200,-90.9090909090909,4,1,0,40,0,0
248400,-90.9090909090909,4,1,0,50,0,0
248800,-90.9090909090909,4,1,0,60,0,0
250800,-90.9090909090909,4,1,0,50,0,0
252000,-90.9090909090909,4,1,0,60,0,0
255200,-111.111111111111,4,1,0,40,0,0
257600,-111.111111111111,4,1,0,30,0,0
258400,-111.111111111111,4,1,0,40,0,0
261600,-181.818181818181,4,1,0,20,0,0
264000,-100,4,1,0,40,0,0
266400,-181.818181818181,4,1,0,20,0,0
268000,-100,4,1,0,30,0,0
271200,-90.9090909090909,4,1,0,40,0,0
276800,-86.9565217391304,4,1,0,50,0,0
278800,-66.6666666666667,4,1,0,50,0,0
279500,-86.9565217391304,4,1,0,50,0,0
280200,-86.9565217391304,4,1,0,40,0,0
282400,-86.9565217391304,4,1,0,50,0,0
282533,-86.9565217391304,4,1,0,52,0,0
282666,-86.9565217391304,4,1,0,54,0,0
282800,-86.9565217391304,4,1,0,56,0,0
282933,-86.9565217391304,4,1,0,58,0,0
283066,-86.9565217391304,4,1,0,60,0,0
283200,-86.9565217391304,4,1,0,65,0,0
283300,-66.6666666666667,4,1,0,60,0,0
284000,-86.9565217391304,4,1,0,40,0,0
285600,-86.9565217391304,4,1,0,50,0,0
289200,-66.6666666666667,4,1,0,40,0,0
289800,-66.6666666666667,4,1,0,45,0,0
289866,-66.6666666666667,4,1,0,50,0,0
289933,-66.6666666666667,4,1,0,55,0,0
290000,-66.6666666666667,4,1,0,60,0,0
290350,-55.5555555555556,4,1,0,40,0,0
290450,-57.1428571428571,4,1,0,40,0,0
290550,-58.8235294117647,4,1,0,40,0,0
290650,-60.6060606060606,4,1,0,40,0,0
290750,-62.5,4,1,0,40,0,0
290850,-64.5161290322581,4,1,0,40,0,0
290950,-66.6666666666667,4,1,0,40,0,0
291050,-68.9655172413793,4,1,0,40,0,0
291150,-71.4285714285714,4,1,0,40,0,0
291250,-74.0740740740741,4,1,0,40,0,0
291350,-76.9230769230769,4,1,0,40,0,0
291450,-80,4,1,0,40,0,0
291550,-83.3333333333333,4,1,0,40,0,0
291650,-86.9565217391304,4,1,0,40,0,0
291750,-90.9090909090909,4,1,0,40,0,0
291850,-95.2380952380952,4,1,0,40,0,0
291950,-50,4,1,0,60,0,0
292025,-51.2820512820513,4,1,0,60,0,0
292075,-52.6315789473684,4,1,0,60,0,0
292125,-54.054054054054,4,1,0,60,0,0
292175,-55.5555555555556,4,1,0,60,0,0
292250,-57.1428571428571,4,1,0,40,0,0
292350,-58.8235294117647,4,1,0,40,0,0
292450,-60.6060606060606,4,1,0,40,0,0
292550,-62.5,4,1,0,40,0,0
292650,-64.5161290322581,4,1,0,40,0,0
292750,-66.6666666666667,4,1,0,40,0,0
292850,-68.9655172413793,4,1,0,40,0,0
292950,-50,4,1,0,40,0,0
293550,-50,4,1,0,60,0,0
293625,-51.2820512820513,4,1,0,60,0,0
293675,-52.6315789473684,4,1,0,60,0,0
293725,-54.054054054054,4,1,0,60,0,0
293775,-55.5555555555556,4,1,0,60,0,0
293850,-57.1428571428571,4,1,0,40,0,0
293950,-58.8235294117647,4,1,0,40,0,0
294050,-60.6060606060606,4,1,0,40,0,0
294150,-62.5,4,1,0,40,0,0
294250,-64.5161290322581,4,1,0,40,0,0
294350,-66.6666666666667,4,1,0,40,0,0
294450,-68.9655172413793,4,1,0,40,0,0
294550,-50,4,1,0,40,0,0
295200,-66.6666666666667,4,1,0,60,0,0
296800,-100,4,1,0,40,0,0
302400,-86.9565217391304,4,1,0,50,0,0
303200,-86.9565217391304,4,1,0,60,0,0
309800,-86.9565217391304,4,1,0,50,0,0
310200,-100,4,1,0,50,0,0
322400,-86.9565217391304,4,1,0,60,0,0
336800,-100,4,1,0,30,0,0
337000,-100,4,1,0,40,0,0
337200,-100,4,1,0,50,0,0
358600,-90.9090909090909,4,1,0,50,0,0
360800,-83.3333333333333,4,1,0,60,0,0
374000,-100,4,1,0,50,0,0
386400,-86.9565217391304,4,1,0,60,0,1
400800,-86.9565217391304,4,1,0,60,0,0

[HitObjects]
160,192,19340,5,8,0:0:0:0:
260,248,19640,1,0,0:0:0:0:
260,248,19940,1,8,0:0:0:0:
160,127,21740,1,8,0:0:0:0:
77,153,24140,1,0,0:0:0:0:
64,159,28940,5,8,0:0:0:0:
224,127,31340,1,8,0:0:0:0:
128,159,31440,1,8,0:0:0:0:
128,159,31527,1,8,0:0:0:0:
128,127,31602,1,0,0:0:0:0:
128,159,31690,1,0,0:0:0:0:
106,125,31790,1,0,0:0:0:0:
99,101,31902,1,8,0:0:0:0:
320,255,33742,1,8,0:0:0:0:
208,169,37600,5,8,0:2:0:0:
120,167,37700,1,0,0:0:0:0:
208,169,37800,1,8,0:0:0:0:
120,167,37900,1,0,0:0:0:0:
208,169,38000,1,8,0:0:0:0:
120,167,38100,1,8,0:0:0:0:
208,169,38200,1,8,0:0:0:0:
120,167,38300,1,8,0:0:0:0:
208,169,38400,1,0,0:0:0:0:
120,167,38500,1,0,0:0:0:0:
208,169,38600,1,0,0:0:0:0:
120,167,38700,1,0,0:0:0:0:
208,169,38800,1,8,0:0:0:0:
120,167,38900,1,8,0:0:0:0:
208,169,39000,1,0,0:0:0:0:
120,167,39100,1,0,0:0:0:0:
208,169,39200,1,8,0:0:0:0:
120,167,39300,1,8,0:0:0:0:
208,169,39400,1,8,0:0:0:0:
120,167,39500,1,8,0:0:0:0:
208,169,39600,1,0,0:0:0:0:
120,167,39700,1,0,0:0:0:0:
208,169,39800,1,8,0:0:0:0:
120,167,39900,1,8,0:0:0:0:
208,169,40000,1,8,0:0:0:0:
120,167,40100,1,8,0:0:0:0:
208,169,40200,1,0,0:0:0:0:
120,167,40300,1,0,0:0:0:0:
208,169,40400,1,8,0:0:0:0:
120,167,40500,1,0,0:0:0:0:
208,169,40600,1,0,0:0:0:0:
120,167,40700,1,0,0:0:0:0:
208,169,40800,1,8,0:0:0:0:
120,167,40900,1,0,0:0:0:0:
208,169,41000,1,8,0:0:0:0:
120,167,41100,1,0,0:0:0:0:
208,169,41200,1,8,0:0:0:0:
120,167,41300,1,8,0:0:0:0:
208,169,41400,1,0,0:0:0:0:
120,167,41500,1,0,0:0:0:0:
208,169,41600,1,8,0:0:0:0:
120,167,41800,1,0,0:0:0:0:
208,169,41900,1,8,0:0:0:0:
120,167,42100,1,0,0:0:0:0:
208,169,42200,1,0,0:0:0:0:
120,167,42400,1,8,0:0:0:0:
208,169,42500,1,8,0:0:0:0:
120,167,42600,1,0,0:0:0:0:
208,169,42700,1,0,0:0:0:0:
120,167,42800,1,8,0:0:0:0:
208,169,43000,1,0,0:0:0:0:
153,289,43100,1,0,0:0:0:0:
153,289,43200,1,8,0:0:0:0:
153,289,43400,1,0,0:0:0:0:
123,295,43500,1,8,0:0:0:0:
104,166,43700,1,0,0:0:0:0:
85,145,43800,1,8,0:0:0:0:
123,295,44000,1,8,0:0:0:0:
105,245,44100,1,0,0:0:0:0:
105,185,44200,1,8,0:0:0:0:
97,129,44300,1,0,0:0:0:0:
70,134,44400,1,8,0:0:0:0:
70,134,44500,1,8,0:0:0:0:
70,134,44600,1,8,0:0:0:0:
70,134,44700,1,8,0:0:0:0:
15,153,44800,1,0,0:0:0:0:
15,153,44900,1,0,0:0:0:0:
15,153,45000,1,0,0:0:0:0:
15,153,45100,1,0,0:0:0:0:
71,139,45200,1,8,0:0:0:0:
127,127,45300,1,8,0:0:0:0:
127,127,45400,1,0,0:0:0:0:
12,136,45500,1,0,0:0:0:0:
70,134,45600,1,8,0:0:0:0:
70,134,45700,1,8,0:0:0:0:
70,134,45800,1,8,0:0:0:0:
70,134,45900,1,8,0:0:0:0:
12,136,46000,1,0,0:0:0:0:
12,136,46100,1,0,0:0:0:0:
70,134,46200,1,8,0:0:0:0:
70,134,46300,1,8,0:0:0:0:
70,134,46400,1,8,0:0:0:0:
70,134,46500,1,8,0:0:0:0:
12,130,46600,1,0,0:0:0:0:
12,130,46700,1,0,0:0:0:0:
70,134,46800,1,8,0:0:0:0:
70,134,46900,1,0,0:0:0:0:
12,130,47000,1,0,0:0:0:0:
12,130,47100,1,0,0:0:0:0:
70,134,47200,1,8,0:0:0:0:
12,130,47300,1,0,0:0:0:0:
12,130,47400,1,8,0:0:0:0:
12,130,47500,1,0,0:0:0:0:
70,134,47600,1,8,0:0:0:0:
70,134,47700,1,8,0:0:0:0:
12,130,47800,1,0,0:0:0:0:
12,130,47900,1,0,0:0:0:0:
12,130,48000,1,8,0:0:0:0:
12,130,48200,1,0,0:0:0:0:
12,130,48300,1,8,0:0:0:0:
181,283,48500,1,0,0:0:0:0:
181,283,48600,1,0,0:0:0:0:
181,283,48800,1,8,0:0:0:0:
162,242,48900,1,8,0:0:0:0:
67,306,49000,1,0,0:0:0:0:
123,295,49100,1,0,0:0:0:0:
180,283,49200,1,8,0:0:0:0:
153,289,49400,1,0,0:0:0:0:
153,289,49600,1,8,0:0:0:0:
103,191,49666,1,8,0:0:0:0:
103,191,49733,1,8,0:0:0:0:
153,289,49800,1,0,0:0:0:0:
153,289,49900,1,0,0:0:0:0:
108,172,50000,1,8,0:0:0:0:
123,295,50100,1,8,0:0:0:0:
123,295,50200,1,0,0:0:0:0:
123,295,50300,1,0,0:0:0:0:
123,295,50400,1,8,0:0:0:0:
105,245,50500,1,0,0:0:0:0:
101,187,50600,1,8,0:0:0:0:
97,129,50700,1,0,0:0:0:0:
70,134,50800,1,8,0:0:0:0:
70,134,50900,1,8,0:0:0:0:
70,134,51000,1,8,0:0:0:0:
70,134,51100,1,8,0:0:0:0:
15,153,51200,1,0,0:0:0:0:
15,153,51300,1,0,0:0:0:0:
15,153,51400,1,0,0:0:0:0:
15,153,51500,1,0,0:0:0:0:
71,139,51600,1,8,0:0:0:0:
127,127,51700,1,8,0:0:0:0:
127,127,51800,1,0,0:0:0:0:
12,136,51900,1,0,0:0:0:0:
70,134,52000,1,8,0:0:0:0:
70,134,52100,1,8,0:0:0:0:
70,134,52200,1,8,0:0:0:0:
70,134,52300,1,8,0:0:0:0:
12,136,52400,1,0,0:0:0:0:
12,136,52500,1,0,0:0:0:0:
70,134,52600,1,8,0:0:0:0:
70,134,52700,1,8,0:0:0:0:
70,134,52800,1,8,0:0:0:0:
70,134,52900,1,8,0:0:0:0:
12,130,53000,1,0,0:0:0:0:
12,130,53100,1,0,0:0:0:0:
70,134,53200,1,8,0:0:0:0:
70,134,53300,1,0,0:0:0:0:
12,130,53400,1,0,0:0:0:0:
12,130,53500,1,0,0:0:0:0:
70,134,53600,1,8,0:0:0:0:
12,130,53700,1,0,0:0:0:0:
12,130,53800,1,8,0:0:0:0:
12,130,53900,1,0,0:0:0:0:
70,134,54000,1,8,0:0:0:0:
70,134,54100,1,8,0:0:0:0:
12,130,54200,1,0,0:0:0:0:
12,130,54300,1,0,0:0:0:0:
12,130,54400,1,8,0:0:0:0:
12,130,54600,1,0,0:0:0:0:
12,130,54700,1,8,0:0:0:0:
118,175,54900,1,0,0:0:0:0:
170,196,55000,1,0,0:0:0:0:
287,217,55200,1,8,0:0:0:0:
118,175,55300,1,8,0:0:0:0:
67,306,55400,1,0,0:0:0:0:
123,295,55500,1,0,0:0:0:0:
180,283,55600,1,8,0:0:0:0:
153,289,55800,1,0,0:0:0:0:
153,289,55900,1,0,0:0:0:0:
153,289,56000,1,8,0:0:0:0:
153,289,56200,1,0,0:0:0:0:
153,289,56300,1,8,0:0:0:0:
123,295,56500,1,0,0:0:0:0:
123,295,56600,1,8,0:0:0:0:
123,295,56800,1,8,0:0:0:0:
105,245,56900,1,0,0:0:0:0:
101,187,57000,1,8,0:0:0:0:
97,129,57100,1,0,0:0:0:0:
70,134,57200,1,8,0:0:0:0:
70,134,57300,1,8,0:0:0:0:
70,134,57400,1,8,0:0:0:0:
70,134,57500,1,8,0:0:0:0:
15,153,57600,1,0,0:0:0:0:
15,153,57700,1,0,0:0:0:0:
15,153,57800,1,0,0:0:0:0:
15,153,57900,1,0,0:0:0:0:
71,139,58000,1,8,0:0:0:0:
127,127,58100,1,8,0:0:0:0:
127,127,58200,1,0,0:0:0:0:
12,136,58300,1,0,0:0:0:0:
70,134,58400,1,8,0:0:0:0:
70,134,58500,1,8,0:0:0:0:
70,134,58600,1,8,0:0:0:0:
70,134,58700,1,8,0:0:0:0:
12,136,58800,1,0,0:0:0:0:
12,136,58900,1,0,0:0:0:0:
70,134,59000,1,8,0:0:0:0:
70,134,59100,1,8,0:0:0:0:
70,134,59200,1,8,0:0:0:0:
70,134,59300,1,8,0:0:0:0:
12,130,59400,1,0,0:0:0:0:
12,130,59500,1,0,0:0:0:0:
70,134,59600,1,8,0:0:0:0:
70,134,59700,1,0,0:0:0:0:
12,130,59800,1,8,0:0:0:0:
12,130,59900,1,0,0:0:0:0:
70,134,60000,1,8,0:0:0:0:
12,130,60100,1,8,0:0:0:0:
12,130,60200,1,0,0:0:0:0:
12,130,60300,1,0,0:0:0:0:
70,134,60400,1,8,0:0:0:0:
70,134,60500,1,8,0:0:0:0:
12,130,60600,1,0,0:0:0:0:
12,130,60700,1,0,0:0:0:0:
12,130,60800,1,8,0:0:0:0:
263,174,60900,1,0,0:0:0:0:
128,129,61000,1,0,0:0:0:0:
128,129,61100,1,8,0:0:0:0:
263,174,61200,1,0,0:0:0:0:
132,111,61300,1,0,0:0:0:0:
132,111,61400,1,8,0:0:0:0:
263,184,61500,1,0,0:0:0:0:
201,116,61600,1,0,0:0:0:0:
201,116,61700,1,8,0:0:0:0:
201,116,61800,1,0,0:0:0:0:
201,116,61900,1,0,0:0:0:0:
120,118,62000,1,8,0:0:0:0:
1,112,62100,1,0,0:0:0:0:
204,121,62200,1,8,0:0:0:0:
1,112,62300,1,0,0:0:0:0:
1,112,62400,1,8,0:0:0:0:
1,112,62500,1,8,0:0:0:0:
1,112,62600,1,0,0:0:0:0:
2,96,62700,1,0,0:0:0:0:
102,184,62800,5,8,0:0:0:0:
102,184,62866,1,8,0:0:0:0:
63,187,62933,1,8,0:0:0:0:
63,189,63000,1,0,0:0:0:0:
63,189,63066,1,0,0:0:0:0:
63,189,63133,1,0,0:0:0:0:
102,184,63200,1,8,0:0:0:0:
144,180,68000,5,8,0:0:0:0:
144,175,68200,1,8,0:0:0:0:
92,170,68400,1,0,0:0:0:0:
149,168,68600,1,8,0:0:0:0:
92,170,68800,1,0,0:0:0:0:
150,159,69000,1,8,0:0:0:0:
166,164,69200,1,8,0:0:0:0:
418,270,69600,5,12,0:0:0:0:
150,159,69800,1,0,0:0:0:0:
150,159,70200,1,0,0:0:0:0:
150,159,70400,1,8,0:0:0:0:
282,276,70600,1,0,0:0:0:0:
149,158,71200,1,8,0:0:0:0:
90,91,71400,1,8,0:0:0:0:
147,157,71600,1,0,0:0:0:0:
102,126,71800,1,0,0:0:0:0:
171,183,72000,1,8,0:0:0:0:
102,126,72200,1,0,0:0:0:0:
33,71,72400,1,8,0:0:0:0:
28,159,72600,1,8,0:0:0:0:
197,137,72800,1,0,0:0:0:0:
109,126,73000,1,0,0:0:0:0:
31,168,73200,1,8,0:0:0:0:
142,114,73400,1,8,0:0:0:0:
142,114,73600,1,0,0:0:0:0:
109,126,73800,1,8,0:0:0:0:
69,120,74000,1,0,0:0:0:0:
69,120,74100,1,0,0:0:0:0:
69,120,74200,1,0,0:0:0:0:
69,120,74400,1,8,0:0:0:0:
47,154,74600,1,8,0:0:0:0:
47,154,74800,1,0,0:0:0:0:
47,154,75000,1,8,0:0:0:0:
55,95,75100,1,0,0:0:0:0:
47,154,75200,1,8,0:0:0:0:
135,149,75400,1,8,0:0:0:0:
46,156,75600,1,0,0:0:0:0:
90,152,75700,1,0,0:0:0:0:
90,152,75800,1,0,0:0:0:0:
69,120,76000,1,12,0:0:0:0:
154,141,76200,1,0,0:0:0:0:
320,201,76600,1,0,0:0:0:0:
236,170,76800,1,8,0:0:0:0:
148,158,77000,1,0,0:0:0:0:
149,158,77600,1,8,0:0:0:0:
90,91,77800,1,8,0:0:0:0:
147,157,78000,1,0,0:0:0:0:
102,126,78200,1,0,0:0:0:0:
171,183,78400,1,8,0:0:0:0:
102,126,78600,1,0,0:0:0:0:
33,71,78800,1,8,0:0:0:0:
28,159,79000,1,8,0:0:0:0:
197,137,79200,1,0,0:0:0:0:
109,126,79400,1,0,0:0:0:0:
31,168,79600,1,8,0:0:0:0:
142,114,79800,1,8,0:0:0:0:
142,114,80000,1,0,0:0:0:0:
56,137,80200,1,8,0:0:0:0:
69,120,80400,1,0,0:0:0:0:
69,120,80500,1,0,0:0:0:0:
69,120,80600,1,0,0:0:0:0:
69,120,80800,1,8,0:0:0:0:
47,154,81000,1,8,0:0:0:0:
47,154,81200,1,0,0:0:0:0:
47,154,81400,1,8,0:0:0:0:
55,95,81500,1,0,0:0:0:0:
47,154,81600,1,8,0:0:0:0:
135,149,81800,1,8,0:0:0:0:
46,156,82000,1,0,0:0:0:0:
90,152,82100,1,0,0:0:0:0:
90,152,82200,1,0,0:0:0:0:
69,120,82400,1,12,0:0:0:0:
163,205,82600,1,0,0:0:0:0:
159,209,82700,1,0,0:0:0:0:
172,108,82800,1,8,0:0:0:0:
172,108,83000,1,0,0:0:0:0:
172,108,83100,1,0,0:0:0:0:
172,108,83200,1,8,0:0:0:0:
137,136,83300,1,0,0:0:0:0:
235,248,83400,1,0,0:0:0:0:
302,240,83600,1,0,0:0:0:0:
302,240,83700,1,0,0:0:0:0:
293,245,84000,1,8,0:0:0:0:
272,228,84200,1,0,0:0:0:0:
272,228,84500,1,0,0:0:0:0:
272,228,84700,1,0,0:0:0:0:
272,228,84800,1,8,0:0:0:0:
272,228,84900,1,0,0:0:0:0:
272,228,85100,1,0,0:0:0:0:
272,228,85200,1,8,0:0:0:0:
272,228,85300,1,0,0:0:0:0:
272,228,85500,1,0,0:0:0:0:
272,228,85600,1,0,0:0:0:0:
272,228,85800,1,0,0:0:0:0:
183,225,86000,1,0,0:0:0:0:
94,223,86200,1,0,0:0:0:0:
138,224,86300,1,0,0:0:0:0:
138,224,86400,1,8,0:0:0:0:
151,181,86500,1,0,0:0:0:0:
164,138,86600,1,0,0:0:0:0:
138,224,86800,1,0,0:0:0:0:
138,224,86900,1,0,0:0:0:0:
264,264,87200,1,0,0:0:0:0:
306,277,87300,1,0,0:0:0:0:
348,290,87400,1,0,0:0:0:0:
432,317,87600,1,8,0:0:0:0:
452,323,87800,1,0,0:0:0:0:
452,323,87900,1,0,0:0:0:0:
452,323,88000,1,8,0:0:0:0:
452,323,88100,1,8,0:0:0:0:
452,323,88200,1,8,0:0:0:0:
452,323,88300,1,0,0:0:0:0:
452,323,88400,1,8,0:0:0:0:
452,323,88500,1,8,0:0:0:0:
452,323,88600,1,0,0:0:0:0:
452,323,88700,1,0,0:0:0:0:
178,220,88800,5,8,0:0:0:0:
188,249,89000,1,8,0:0:0:0:
468,334,89200,1,0,0:0:0:0:
31,142,89400,1,0,0:0:0:0:
468,334,89600,1,8,0:0:0:0:
269,210,89800,1,0,0:0:0:0:
180,207,90000,1,8,0:0:0:0:
259,240,90200,1,0,0:0:0:0:
259,240,90400,1,8,0:0:0:0:
367,260,90600,1,8,0:0:0:0:
367,260,90800,1,0,0:0:0:0:
371,250,91000,1,0,0:0:0:0:
371,249,91200,1,8,0:0:0:0:
59,125,91400,1,8,0:0:0:0:
370,237,91600,1,0,0:0:0:0:
87,153,91800,1,0,0:0:0:0:
87,153,92000,1,12,0:0:0:0:
175,127,92400,1,0,0:0:0:0:
181,144,92600,1,12,0:0:0:0:
410,259,93000,1,0,0:0:0:0:
90,122,93200,1,8,0:0:0:0:
88,113,93300,1,0,0:0:0:0:
86,108,93400,1,0,0:0:0:0:
179,96,93600,1,12,0:0:0:0:
108,149,93800,1,0,0:0:0:0:
83,98,94000,1,0,0:0:0:0:
176,86,94200,1,12,0:0:0:0:
146,212,94400,1,0,0:0:0:0:
146,212,94500,1,0,0:0:0:0:
146,212,94600,1,0,0:0:0:0:
124,187,94700,1,0,0:0:0:0:
124,187,94800,1,8,0:0:0:0:
124,187,94900,1,8,0:0:0:0:
119,179,95000,1,0,0:0:0:0:
119,179,95100,1,0,0:0:0:0:
418,270,95200,5,12,0:0:0:0:
150,159,95400,1,0,0:0:0:0:
150,159,95800,1,0,0:0:0:0:
150,159,96000,1,8,0:0:0:0:
282,276,96200,1,0,0:0:0:0:
149,158,96800,1,8,0:0:0:0:
90,91,97000,1,8,0:0:0:0:
147,157,97200,1,0,0:0:0:0:
102,126,97400,1,0,0:0:0:0:
171,183,97600,1,8,0:0:0:0:
102,126,97800,1,0,0:0:0:0:
33,71,98000,1,8,0:0:0:0:
28,159,98200,1,8,0:0:0:0:
197,137,98400,1,0,0:0:0:0:
109,126,98600,1,0,0:0:0:0:
31,168,98800,1,8,0:0:0:0:
142,114,99000,1,8,0:0:0:0:
142,114,99200,1,0,0:0:0:0:
109,126,99400,1,8,0:0:0:0:
69,120,99600,1,0,0:0:0:0:
69,120,99700,1,0,0:0:0:0:
69,120,99800,1,0,0:0:0:0:
69,120,100000,1,8,0:0:0:0:
47,154,100200,1,8,0:0:0:0:
47,154,100400,1,0,0:0:0:0:
47,154,100600,1,8,0:0:0:0:
55,95,100700,1,0,0:0:0:0:
47,154,100800,1,8,0:0:0:0:
135,149,101000,1,8,0:0:0:0:
46,156,101200,1,0,0:0:0:0:
90,152,101300,1,0,0:0:0:0:
90,152,101400,1,0,0:0:0:0:
418,270,101600,5,12,0:0:0:0:
150,159,101800,1,0,0:0:0:0:
150,159,102200,1,0,0:0:0:0:
150,159,102400,1,8,0:0:0:0:
282,276,102600,1,0,0:0:0:0:
149,158,103200,1,8,0:0:0:0:
90,91,103400,1,8,0:0:0:0:
147,157,103600,1,0,0:0:0:0:
102,126,103800,1,0,0:0:0:0:
171,183,104000,1,8,0:0:0:0:
102,126,104200,1,0,0:0:0:0:
33,71,104400,1,8,0:0:0:0:
28,159,104600,1,8,0:0:0:0:
197,137,104800,1,0,0:0:0:0:
109,126,105000,1,0,0:0:0:0:
31,168,105200,1,8,0:0:0:0:
142,114,105400,1,8,0:0:0:0:
142,114,105600,1,0,0:0:0:0:
109,126,105800,1,8,0:0:0:0:
69,120,106000,1,0,0:0:0:0:
69,120,106100,1,0,0:0:0:0:
69,120,106200,1,0,0:0:0:0:
69,120,106400,1,8,0:0:0:0:
47,154,106600,1,8,0:0:0:0:
47,154,106800,1,0,0:0:0:0:
47,154,107000,1,8,0:0:0:0:
55,95,107100,1,0,0:0:0:0:
47,154,107200,1,8,0:0:0:0:
135,149,107400,1,8,0:0:0:0:
46,156,107600,1,0,0:0:0:0:
90,152,107700,1,0,0:0:0:0:
90,152,107800,1,0,0:0:0:0:
69,120,108000,1,12,0:0:0:0:
163,205,108200,1,0,0:0:0:0:
159,209,108300,1,0,0:0:0:0:
172,108,108400,1,8,0:0:0:0:
172,108,108600,1,0,0:0:0:0:
172,108,108700,1,0,0:0:0:0:
172,108,108800,1,8,0:0:0:0:
137,136,108900,1,0,0:0:0:0:
235,248,109000,1,0,0:0:0:0:
302,240,109200,1,0,0:0:0:0:
302,240,109300,1,0,0:0:0:0:
293,245,109600,1,8,0:0:0:0:
272,228,109800,1,0,0:0:0:0:
272,228,110100,1,0,0:0:0:0:
272,228,110300,1,0,0:0:0:0:
272,228,110400,1,8,0:0:0:0:
272,228,110500,1,0,0:0:0:0:
272,228,110700,1,0,0:0:0:0:
272,228,110800,1,8,0:0:0:0:
272,228,110900,1,0,0:0:0:0:
272,228,111100,1,0,0:0:0:0:
272,228,111200,1,0,0:0:0:0:
272,228,111400,1,0,0:0:0:0:
183,225,111600,1,0,0:0:0:0:
94,223,111800,1,0,0:0:0:0:
138,224,111900,1,0,0:0:0:0:
138,224,112000,1,8,0:0:0:0:
151,181,112100,1,0,0:0:0:0:
164,138,112200,1,0,0:0:0:0:
138,224,112400,1,0,0:0:0:0:
138,224,112500,1,0,0:0:0:0:
264,264,112800,1,0,0:0:0:0:
306,277,112900,1,0,0:0:0:0:
348,290,113000,1,0,0:0:0:0:
432,317,113200,1,8,0:0:0:0:
452,323,113400,1,0,0:0:0:0:
452,323,113500,1,0,0:0:0:0:
452,323,113600,1,8,0:0:0:0:
452,323,113700,1,8,0:0:0:0:
452,323,113800,1,8,0:0:0:0:
452,323,113900,1,0,0:0:0:0:
452,323,114000,1,8,0:0:0:0:
452,323,114100,1,8,0:0:0:0:
452,323,114200,1,0,0:0:0:0:
452,323,114300,1,0,0:0:0:0:
178,220,114400,5,8,0:0:0:0:
188,249,114600,1,8,0:0:0:0:
468,334,114800,1,0,0:0:0:0:
31,142,115000,1,0,0:0:0:0:
468,334,115200,1,8,0:0:0:0:
269,210,115400,1,0,0:0:0:0:
182,192,115600,1,8,0:0:0:0:
259,240,115800,1,0,0:0:0:0:
259,240,116000,1,8,0:0:0:0:
367,260,116200,1,8,0:0:0:0:
367,260,116400,1,0,0:0:0:0:
371,250,116600,1,0,0:0:0:0:
371,249,116800,1,8,0:0:0:0:
59,125,117000,1,8,0:0:0:0:
370,237,117200,1,0,0:0:0:0:
87,153,117400,1,0,0:0:0:0:
87,153,117600,1,12,0:0:0:0:
175,127,118000,5,0,0:0:0:0:
181,144,118200,1,12,0:0:0:0:
410,259,118600,1,0,0:0:0:0:
71,157,118800,5,8,0:0:0:0:
71,157,118900,1,0,0:0:0:0:
71,157,119000,1,0,0:0:0:0:
111,160,119200,1,0,0:0:0:0:
111,160,119300,1,0,0:0:0:0:
111,160,119400,1,0,0:0:0:0:
102,147,119600,1,8,0:0:0:0:
106,155,119800,1,0,0:0:0:0:
106,155,119900,1,0,0:0:0:0:
71,210,120100,1,8,0:0:0:0:
71,210,120200,1,0,0:0:0:0:
124,158,120400,1,8,0:0:0:0:
132,169,120533,1,0,0:0:0:0:
132,169,120666,1,0,0:0:0:0:
135,165,120800,1,12,0:0:0:0:
171,159,121600,1,8,0:0:0:0:
128,127,122000,1,0,0:0:0:0:
128,127,122200,1,0,0:0:0:0:
128,127,122400,1,8,0:0:0:0:
173,162,122800,1,8,0:0:0:0:
173,162,123200,1,8,0:0:0:0:
144,108,123600,1,8,0:0:0:0:
144,108,123733,1,0,0:0:0:0:
144,108,123866,1,0,0:0:0:0:
166,81,124000,1,12,0:0:0:0:
167,164,124800,1,8,0:0:0:0:
40,206,125200,1,0,0:0:0:0:
103,143,125400,1,0,0:0:0:0:
103,143,125600,1,8,0:0:0:0:
170,170,126000,1,8,0:0:0:0:
170,170,126400,1,8,0:0:0:0:
170,170,126800,1,8,0:0:0:0:
103,143,127200,1,12,0:0:0:0:
148,185,128000,1,8,0:0:0:0:
61,156,128400,1,0,0:0:0:0:
61,156,128600,1,0,0:0:0:0:
61,156,128800,1,8,0:0:0:0:
170,170,129200,1,8,0:0:0:0:
170,170,129600,1,8,0:0:0:0:
170,170,130000,1,8,0:0:0:0:
61,156,130400,1,12,0:0:0:0:
140,190,131200,1,8,0:0:0:0:
61,156,131600,1,0,0:0:0:0:
61,156,131800,1,0,0:0:0:0:
61,156,132000,1,8,0:0:0:0:
61,156,132400,1,8,0:0:0:0:
61,155,132600,1,0,0:0:0:0:
149,148,132800,1,8,0:0:0:0:
237,144,133000,1,0,0:0:0:0:
61,156,133200,1,8,0:0:0:0:
118,142,133333,1,0,0:0:0:0:
118,142,133466,1,0,0:0:0:0:
61,156,133600,1,12,0:0:0:0:
145,190,134400,1,8,0:0:0:0:
232,195,134800,1,0,0:0:0:0:
318,215,135000,1,0,0:0:0:0:
404,236,135200,1,8,0:0:0:0:
169,172,135600,1,8,0:0:0:0:
169,172,136000,1,8,0:0:0:0:
145,174,136400,1,8,0:0:0:0:
145,174,136533,1,0,0:0:0:0:
145,174,136666,1,0,0:0:0:0:
145,174,136800,1,12,0:0:0:0:
72,184,137600,1,8,0:0:0:0:
145,174,138000,1,0,0:0:0:0:
145,174,138200,1,0,0:0:0:0:
145,174,138400,1,8,0:0:0:0:
169,172,138800,1,8,0:0:0:0:
169,172,139200,1,8,0:0:0:0:
169,172,139600,1,8,0:0:0:0:
145,174,140000,1,12,0:0:0:0:
63,190,140800,1,8,0:0:0:0:
163,161,141200,1,0,0:0:0:0:
163,161,141400,1,0,0:0:0:0:
163,161,141600,1,8,0:0:0:0:
196,124,142000,1,8,0:0:0:0:
196,124,142400,1,8,0:0:0:0:
196,124,142800,1,8,0:0:0:0:
163,161,143200,5,12,0:0:0:0:
141,199,144000,1,8,0:0:0:0:
163,161,144400,1,0,0:0:0:0:
163,161,144600,1,0,0:0:0:0:
163,161,144800,1,8,0:0:0:0:
135,165,145800,5,0,0:0:0:0:
135,165,146000,1,8,0:0:0:0:
101,194,146100,1,8,0:0:0:0:
135,165,146200,1,0,0:0:0:0:
101,194,146300,1,0,0:0:0:0:
145,192,146400,1,12,0:0:0:0:
71,165,146800,1,8,0:0:0:0:
71,209,147000,1,8,0:0:0:0:
71,209,147200,1,0,0:0:0:0:
71,209,147400,1,0,0:0:0:0:
161,205,147600,1,8,0:0:0:0:
78,198,147800,1,0,0:0:0:0:
71,209,148000,1,0,0:0:0:0:
71,209,148100,1,0,0:0:0:0:
71,209,148200,1,0,0:0:0:0:
161,205,148400,1,8,0:0:0:0:
296,325,148600,1,0,0:0:0:0:
299,328,148800,1,0,0:0:0:0:
299,328,148900,1,0,0:0:0:0:
299,328,149000,1,0,0:0:0:0:
161,205,149200,1,8,0:0:0:0:
240,210,149400,1,0,0:0:0:0:
240,210,149600,1,8,0:0:0:0:
236,214,149800,1,0,0:0:0:0:
161,205,150000,1,0,0:0:0:0:
82,153,150200,1,0,0:0:0:0:
154,204,150400,1,8,0:0:0:0:
76,187,150600,1,0,0:0:0:0:
76,187,150800,1,0,0:0:0:0:
154,204,151000,1,12,0:0:0:0:
124,196,151400,5,0,0:0:0:0:
124,196,151500,1,0,0:0:0:0:
124,196,151600,1,8,0:0:0:0:
124,196,151800,1,0,0:0:0:0:
124,196,152000,1,8,0:0:0:0:
124,196,152200,1,8,0:0:0:0:
124,196,152400,1,0,0:0:0:0:
124,196,152600,1,0,0:0:0:0:
145,192,152800,1,12,0:0:0:0:
71,165,153200,1,8,0:0:0:0:
71,209,153400,1,8,0:0:0:0:
71,209,153600,1,0,0:0:0:0:
71,209,153800,1,0,0:0:0:0:
161,205,154000,1,8,0:0:0:0:
78,198,154200,1,0,0:0:0:0:
71,209,154400,1,0,0:0:0:0:
71,209,154500,1,0,0:0:0:0:
71,209,154600,1,0,0:0:0:0:
161,205,154800,1,8,0:0:0:0:
296,325,155000,1,0,0:0:0:0:
299,328,155200,1,0,0:0:0:0:
299,328,155300,1,0,0:0:0:0:
299,328,155400,1,0,0:0:0:0:
161,205,155600,1,8,0:0:0:0:
240,210,155800,1,0,0:0:0:0:
240,210,156000,1,8,0:0:0:0:
236,214,156200,1,0,0:0:0:0:
161,205,156400,1,0,0:0:0:0:
82,153,156600,1,0,0:0:0:0:
154,204,156800,1,8,0:0:0:0:
76,187,157000,1,0,0:0:0:0:
76,187,157200,1,0,0:0:0:0:
154,204,157400,5,12,0:0:0:0:
214,149,157800,5,8,0:0:0:0:
214,149,157900,1,0,0:0:0:0:
214,149,158000,1,8,0:0:0:0:
128,128,158100,1,8,0:0:0:0:
128,128,158200,1,0,0:0:0:0:
128,128,158300,1,0,0:0:0:0:
390,262,158400,1,8,0:0:0:0:
390,262,158500,1,8,0:0:0:0:
386,260,158600,1,0,0:0:0:0:
386,260,158700,1,0,0:0:0:0:
386,260,158800,1,8,0:0:0:0:
386,258,159000,1,0,0:0:0:0:
145,192,159200,1,12,0:0:0:0:
71,165,159600,1,8,0:0:0:0:
71,209,159800,1,8,0:0:0:0:
71,209,160000,1,0,0:0:0:0:
71,209,160200,1,0,0:0:0:0:
161,205,160400,1,8,0:0:0:0:
78,198,160600,1,0,0:0:0:0:
71,209,160800,1,0,0:0:0:0:
71,209,160900,1,0,0:0:0:0:
71,209,161000,1,0,0:0:0:0:
161,205,161200,1,8,0:0:0:0:
296,325,161400,1,0,0:0:0:0:
299,328,161600,1,0,0:0:0:0:
299,328,161700,1,0,0:0:0:0:
299,328,161800,1,0,0:0:0:0:
161,205,162000,1,8,0:0:0:0:
240,210,162200,1,0,0:0:0:0:
240,210,162400,1,8,0:0:0:0:
236,214,162600,1,8,0:0:0:0:
161,205,162800,1,8,0:0:0:0:
82,153,163000,1,0,0:0:0:0:
154,204,163200,1,8,0:0:0:0:
76,187,163400,1,0,0:0:0:0:
76,187,163600,1,0,0:0:0:0:
154,204,163800,5,12,0:0:0:0:
124,196,164200,5,0,0:0:0:0:
124,196,164300,1,0,0:0:0:0:
124,196,164400,1,8,0:0:0:0:
124,196,164600,1,0,0:0:0:0:
124,196,164800,1,8,0:0:0:0:
124,196,165000,1,8,0:0:0:0:
124,196,165200,1,0,0:0:0:0:
124,196,165400,1,0,0:0:0:0:
145,192,165600,1,12,0:0:0:0:
71,165,166000,1,8,0:0:0:0:
71,209,166200,1,8,0:0:0:0:
71,209,166400,1,0,0:0:0:0:
71,209,166600,1,0,0:0:0:0:
161,205,166800,1,8,0:0:0:0:
78,198,167000,1,0,0:0:0:0:
71,209,167200,1,0,0:0:0:0:
71,209,167300,1,0,0:0:0:0:
71,209,167400,1,0,0:0:0:0:
161,205,167600,1,8,0:0:0:0:
296,325,167800,1,0,0:0:0:0:
299,328,168000,1,0,0:0:0:0:
299,328,168100,1,0,0:0:0:0:
299,328,168200,1,0,0:0:0:0:
161,205,168400,5,8,0:0:0:0:
64,160,168600,1,8,0:0:0:0:
125,169,168800,5,0,0:0:0:0:
135,163,169000,5,8,0:0:0:0:
125,169,169200,1,8,0:0:0:0:
125,169,169400,1,0,0:0:0:0:
125,169,169500,1,0,0:0:0:0:
125,169,169600,1,8,0:0:0:0:
129,164,169800,1,0,0:0:0:0:
129,164,169900,1,0,0:0:0:0:
129,164,170000,1,8,0:0:0:0:
129,164,170100,1,8,0:0:0:0:
129,164,170200,1,8,0:0:0:0:
129,164,170300,1,8,0:0:0:0:
130,162,170400,1,0,0:0:0:0:
130,162,170500,1,0,0:0:0:0:
130,162,170600,1,0,0:0:0:0:
129,164,170700,1,0,0:0:0:0:
129,164,170800,1,8,0:0:0:0:
129,164,170900,1,8,0:0:0:0:
129,164,171000,1,0,0:0:0:0:
129,164,171100,1,0,0:0:0:0:
129,164,171200,1,8,0:0:0:0:
129,164,171300,1,8,0:0:0:0:
129,164,171400,1,8,0:0:0:0:
129,164,171500,1,8,0:0:0:0:
129,164,171600,1,0,0:0:0:0:
129,164,171700,1,0,0:0:0:0:
129,164,171800,1,0,0:0:0:0:
129,164,171900,1,0,0:0:0:0:
207,169,172000,5,8,0:2:0:0:
119,167,172100,1,0,0:0:0:0:
207,169,172200,1,8,0:0:0:0:
119,167,172300,1,0,0:0:0:0:
207,169,172400,1,8,0:0:0:0:
119,167,172500,1,8,0:0:0:0:
207,169,172600,1,8,0:0:0:0:
119,167,172700,1,8,0:0:0:0:
207,169,172800,1,0,0:0:0:0:
119,167,172900,1,0,0:0:0:0:
207,169,173000,1,0,0:0:0:0:
119,167,173100,1,0,0:0:0:0:
207,169,173200,1,8,0:0:0:0:
119,167,173300,1,8,0:0:0:0:
207,169,173400,1,0,0:0:0:0:
119,167,173500,1,0,0:0:0:0:
207,169,173600,1,8,0:0:0:0:
119,167,173700,1,8,0:0:0:0:
207,169,173800,1,8,0:0:0:0:
119,167,173900,1,8,0:0:0:0:
207,169,174000,1,0,0:0:0:0:
119,167,174100,1,0,0:0:0:0:
207,169,174200,1,8,0:0:0:0:
119,167,174300,1,8,0:0:0:0:
207,169,174400,1,8,0:0:0:0:
119,167,174500,1,8,0:0:0:0:
207,169,174600,1,0,0:0:0:0:
119,167,174700,1,0,0:0:0:0:
207,169,174800,1,8,0:0:0:0:
119,167,174900,1,0,0:0:0:0:
207,169,175000,1,0,0:0:0:0:
119,167,175100,1,0,0:0:0:0:
207,169,175200,1,8,0:0:0:0:
119,167,175300,1,0,0:0:0:0:
207,169,175400,1,8,0:0:0:0:
119,167,175500,1,0,0:0:0:0:
207,169,175600,1,8,0:0:0:0:
119,167,175700,1,8,0:0:0:0:
207,169,175800,1,0,0:0:0:0:
119,167,175900,1,0,0:0:0:0:
207,169,176000,1,8,0:0:0:0:
119,167,176200,1,0,0:0:0:0:
207,169,176300,1,8,0:0:0:0:
119,167,176500,1,0,0:0:0:0:
207,169,176600,1,0,0:0:0:0:
119,167,176800,1,8,0:0:0:0:
207,169,176900,1,8,0:0:0:0:
119,167,177000,1,0,0:0:0:0:
207,169,177100,1,0,0:0:0:0:
119,167,177200,1,8,0:0:0:0:
207,169,177400,1,0,0:0:0:0:
152,289,177500,1,0,0:0:0:0:
152,289,177600,1,8,0:0:0:0:
152,289,177800,1,0,0:0:0:0:
122,295,177900,1,8,0:0:0:0:
103,166,178100,1,0,0:0:0:0:
84,145,178200,1,8,0:0:0:0:
122,295,178400,1,8,0:0:0:0:
104,245,178500,1,0,0:0:0:0:
104,185,178600,1,8,0:0:0:0:
96,129,178700,1,0,0:0:0:0:
69,134,178800,1,8,0:0:0:0:
69,134,178900,1,8,0:0:0:0:
69,134,179000,1,8,0:0:0:0:
69,134,179100,1,8,0:0:0:0:
14,153,179200,1,0,0:0:0:0:
14,153,179300,1,0,0:0:0:0:
14,153,179400,1,0,0:0:0:0:
14,153,179500,1,0,0:0:0:0:
70,139,179600,1,8,0:0:0:0:
126,127,179700,1,8,0:0:0:0:
126,127,179800,1,0,0:0:0:0:
11,136,179900,1,0,0:0:0:0:
69,134,180000,1,8,0:0:0:0:
69,134,180100,1,8,0:0:0:0:
69,134,180200,1,8,0:0:0:0:
69,134,180300,1,8,0:0:0:0:
11,136,180400,1,0,0:0:0:0:
11,136,180500,1,0,0:0:0:0:
69,134,180600,1,8,0:0:0:0:
69,134,180700,1,8,0:0:0:0:
69,134,180800,1,8,0:0:0:0:
69,134,180900,1,8,0:0:0:0:
11,130,181000,1,0,0:0:0:0:
11,130,181100,1,0,0:0:0:0:
69,134,181200,1,8,0:0:0:0:
69,134,181300,1,0,0:0:0:0:
11,130,181400,1,0,0:0:0:0:
11,130,181500,1,0,0:0:0:0:
69,134,181600,1,8,0:0:0:0:
11,130,181700,1,0,0:0:0:0:
11,130,181800,1,8,0:0:0:0:
11,130,181900,1,0,0:0:0:0:
69,134,182000,1,8,0:0:0:0:
69,134,182100,1,8,0:0:0:0:
11,130,182200,1,0,0:0:0:0:
11,130,182300,1,0,0:0:0:0:
11,130,182400,1,8,0:0:0:0:
11,130,182600,1,0,0:0:0:0:
11,130,182700,1,8,0:0:0:0:
180,283,182900,1,0,0:0:0:0:
180,283,183000,1,0,0:0:0:0:
180,283,183200,1,8,0:0:0:0:
161,242,183300,1,8,0:0:0:0:
66,306,183400,1,0,0:0:0:0:
122,295,183500,1,0,0:0:0:0:
179,283,183600,1,8,0:0:0:0:
152,289,183800,1,0,0:0:0:0:
152,289,184000,1,8,0:0:0:0:
102,191,184066,1,8,0:0:0:0:
102,191,184133,1,8,0:0:0:0:
152,289,184200,1,0,0:0:0:0:
152,289,184300,1,0,0:0:0:0:
107,172,184400,1,8,0:0:0:0:
122,295,184500,1,8,0:0:0:0:
122,295,184600,1,0,0:0:0:0:
122,295,184700,1,0,0:0:0:0:
122,295,184800,1,8,0:0:0:0:
104,245,184900,1,0,0:0:0:0:
100,187,185000,1,8,0:0:0:0:
96,129,185100,1,0,0:0:0:0:
69,134,185200,1,8,0:0:0:0:
69,134,185300,1,8,0:0:0:0:
69,134,185400,1,8,0:0:0:0:
69,134,185500,1,8,0:0:0:0:
14,153,185600,1,0,0:0:0:0:
14,153,185700,1,0,0:0:0:0:
14,153,185800,1,0,0:0:0:0:
14,153,185900,1,0,0:0:0:0:
70,139,186000,1,8,0:0:0:0:
126,127,186100,1,8,0:0:0:0:
126,127,186200,1,0,0:0:0:0:
11,136,186300,1,0,0:0:0:0:
69,134,186400,1,8,0:0:0:0:
69,134,186500,1,8,0:0:0:0:
69,134,186600,1,8,0:0:0:0:
69,134,186700,1,8,0:0:0:0:
11,136,186800,1,0,0:0:0:0:
11,136,186900,1,0,0:0:0:0:
69,134,187000,1,8,0:0:0:0:
69,134,187100,1,8,0:0:0:0:
69,134,187200,1,8,0:0:0:0:
69,134,187300,1,8,0:0:0:0:
11,130,187400,1,0,0:0:0:0:
11,130,187500,1,0,0:0:0:0:
69,134,187600,1,8,0:0:0:0:
69,134,187700,1,0,0:0:0:0:
11,130,187800,1,0,0:0:0:0:
11,130,187900,1,0,0:0:0:0:
69,134,188000,1,8,0:0:0:0:
11,130,188100,1,0,0:0:0:0:
11,130,188200,1,8,0:0:0:0:
11,130,188300,1,0,0:0:0:0:
69,134,188400,1,8,0:0:0:0:
69,134,188500,1,8,0:0:0:0:
11,130,188600,1,0,0:0:0:0:
11,130,188700,1,0,0:0:0:0:
11,130,188800,1,8,0:0:0:0:
80,159,188900,1,0,0:0:0:0:
11,130,189000,1,0,0:0:0:0:
11,130,189100,1,8,0:0:0:0:
158,86,189200,1,0,0:0:0:0:
117,175,189300,1,0,0:0:0:0:
169,196,189400,1,8,0:0:0:0:
146,84,189500,1,0,0:0:0:0:
286,217,189600,1,8,0:0:0:0:
117,175,189700,1,8,0:0:0:0:
66,306,189800,1,0,0:0:0:0:
122,295,189900,1,0,0:0:0:0:
179,283,190000,1,8,0:0:0:0:
94,148,190100,1,0,0:0:0:0:
94,148,190200,1,0,0:0:0:0:
152,289,190300,1,0,0:0:0:0:
152,289,190400,1,8,0:0:0:0:
87,149,190500,1,0,0:0:0:0:
152,289,190600,1,0,0:0:0:0:
152,289,190700,1,8,0:0:0:0:
159,174,190800,1,0,0:0:0:0:
159,174,190900,1,8,0:0:0:0:
122,295,191000,1,8,0:0:0:0:
171,188,191100,1,0,0:0:0:0:
122,295,191200,1,8,0:0:0:0:
104,245,191300,1,0,0:0:0:0:
100,187,191400,1,8,0:0:0:0:
96,129,191500,1,0,0:0:0:0:
69,134,191600,1,8,0:0:0:0:
69,134,191700,1,8,0:0:0:0:
69,134,191800,1,8,0:0:0:0:
69,134,191900,1,0,0:0:0:0:
14,153,192000,1,8,0:0:0:0:
14,153,192100,1,8,0:0:0:0:
14,153,192200,1,0,0:0:0:0:
14,153,192300,1,0,0:0:0:0:
70,139,192400,1,8,0:0:0:0:
126,127,192500,1,8,0:0:0:0:
126,127,192600,1,0,0:0:0:0:
11,136,192700,1,0,0:0:0:0:
69,134,192800,1,8,0:0:0:0:
69,134,192900,1,8,0:0:0:0:
69,134,193000,1,8,0:0:0:0:
69,134,193100,1,8,0:0:0:0:
11,136,193200,1,0,0:0:0:0:
11,136,193300,1,0,0:0:0:0:
69,134,193400,1,8,0:0:0:0:
69,134,193500,1,8,0:0:0:0:
69,134,193600,1,8,0:0:0:0:
69,134,193700,1,8,0:0:0:0:
11,130,193800,1,0,0:0:0:0:
11,130,193900,1,0,0:0:0:0:
69,134,194000,1,8,0:0:0:0:
69,134,194100,1,0,0:0:0:0:
11,130,194200,1,8,0:0:0:0:
11,130,194300,1,0,0:0:0:0:
69,134,194400,1,8,0:0:0:0:
11,130,194500,1,8,0:0:0:0:
11,130,194600,1,0,0:0:0:0:
11,130,194700,1,0,0:0:0:0:
69,134,194800,1,8,0:0:0:0:
69,134,194900,1,8,0:0:0:0:
11,130,195000,1,0,0:0:0:0:
11,130,195100,1,0,0:0:0:0:
11,130,195200,1,8,0:0:0:0:
262,174,195300,1,0,0:0:0:0:
127,129,195400,1,0,0:0:0:0:
127,129,195500,1,8,0:0:0:0:
262,174,195600,1,0,0:0:0:0:
131,111,195700,1,0,0:0:0:0:
131,111,195800,1,8,0:0:0:0:
262,184,195900,1,0,0:0:0:0:
200,116,196000,1,0,0:0:0:0:
200,116,196100,1,8,0:0:0:0:
200,116,196200,1,0,0:0:0:0:
200,116,196300,1,0,0:0:0:0:
119,118,196400,1,8,0:0:0:0:
0,112,196500,1,0,0:0:0:0:
203,121,196600,1,8,0:0:0:0:
0,112,196700,1,0,0:0:0:0:
0,112,196800,1,8,0:0:0:0:
0,112,196900,1,8,0:0:0:0:
0,112,197000,1,0,0:0:0:0:
1,96,197100,1,0,0:0:0:0:
101,184,197200,5,8,0:0:0:0:
101,184,197266,1,8,0:0:0:0:
62,187,197333,1,8,0:0:0:0:
62,189,197400,1,0,0:0:0:0:
62,189,197466,5,0,0:0:0:0:
62,189,197533,1,0,0:0:0:0:
101,184,197600,1,8,0:0:0:0:
107,148,197900,5,0,0:0:0:0:
62,147,198000,1,8,0:0:0:0:
86,129,198200,1,0,0:0:0:0:
73,131,198600,1,0,0:0:0:0:
43,126,198800,1,8,0:0:0:0:
106,124,199200,1,8,0:0:0:0:
96,113,199500,1,0,0:0:0:0:
96,113,199600,1,8,0:0:0:0:
165,104,199800,1,0,0:0:0:0:
142,123,200000,1,0,0:0:0:0:
119,111,200200,1,0,0:0:0:0:
117,110,200400,1,8,0:0:0:0:
124,113,200600,1,0,0:0:0:0:
127,119,200700,1,0,0:0:0:0:
128,120,200800,1,8,0:0:0:0:
19,159,201200,1,8,0:0:0:0:
22,145,201400,1,8,0:0:0:0:
13,134,201600,1,0,0:0:0:0:
13,134,201800,1,0,0:0:0:0:
126,108,202000,1,8,0:0:0:0:
126,108,202200,1,8,0:0:0:0:
128,128,202400,1,0,0:0:0:0:
124,100,202600,1,0,0:0:0:0:
126,108,202800,1,8,0:0:0:0:
96,192,203000,1,0,0:0:0:0:
96,192,203100,1,0,0:0:0:0:
96,192,203200,1,8,0:0:0:0:
242,193,203300,1,8,0:0:0:0:
242,193,203400,1,0,0:0:0:0:
224,192,203500,1,8,0:0:0:0:
256,192,203600,1,8,0:0:0:0:
242,193,203700,1,0,0:0:0:0:
242,193,203800,1,8,0:0:0:0:
242,193,203900,1,0,0:0:0:0:
233,188,204000,1,8,0:0:0:0:
233,187,204100,1,8,0:0:0:0:
233,187,204200,1,8,0:0:0:0:
233,187,204300,1,0,0:0:0:0:
235,185,204400,1,8,0:0:0:0:
54,90,204500,1,0,0:0:0:0:
45,140,204600,1,8,0:0:0:0:
54,90,204700,1,0,0:0:0:0:
51,112,204800,1,8,0:0:0:0:
54,90,204900,1,8,0:0:0:0:
54,90,205000,1,0,0:0:0:0:
53,88,205100,1,0,0:0:0:0:
49,99,205200,1,8,0:0:0:0:
49,99,205300,1,8,0:0:0:0:
53,87,205400,1,0,0:0:0:0:
53,87,205500,1,0,0:0:0:0:
50,95,205600,1,8,0:0:0:0:
53,87,205700,1,8,0:0:0:0:
52,96,205800,1,8,0:0:0:0:
53,87,205900,1,0,0:0:0:0:
53,87,206000,1,8,0:0:0:0:
104,57,206100,1,8,0:0:0:0:
104,57,206200,1,0,0:0:0:0:
104,57,206300,1,0,0:0:0:0:
81,85,206400,1,8,0:0:0:0:
104,57,206500,1,0,0:0:0:0:
81,85,206600,1,8,0:0:0:0:
104,57,206700,1,0,0:0:0:0:
89,70,206800,1,8,0:0:0:0:
94,76,206900,1,8,0:0:0:0:
103,55,207000,1,8,0:0:0:0:
104,57,207100,1,0,0:0:0:0:
103,55,207200,1,8,0:0:0:0:
105,58,207300,1,8,0:0:0:0:
104,57,207400,1,0,0:0:0:0:
104,57,207500,1,8,0:0:0:0:
104,57,207600,1,8,0:0:0:0:
115,32,207700,1,0,0:0:0:0:
104,169,207800,1,8,0:0:0:0:
104,169,207900,1,0,0:0:0:0:
199,201,208000,1,8,0:0:0:0:
199,201,208100,1,8,0:0:0:0:
89,153,208200,1,0,0:0:0:0:
199,191,208300,1,0,0:0:0:0:
200,184,208400,1,8,0:0:0:0:
90,126,208500,1,0,0:0:0:0:
90,126,208600,1,0,0:0:0:0:
201,191,208700,1,8,0:0:0:0:
118,138,208800,1,0,0:0:0:0:
113,135,208866,1,0,0:0:0:0:
113,135,208933,1,0,0:0:0:0:
84,118,209000,1,8,0:0:0:0:
29,113,209100,1,0,0:0:0:0:
67,126,209200,1,8,0:0:0:0:
29,131,209300,1,8,0:0:0:0:
28,122,209400,1,0,0:0:0:0:
28,121,209500,1,0,0:0:0:0:
124,120,209600,1,8,0:0:0:0:
124,120,209666,1,8,0:0:0:0:
125,122,209733,1,8,0:0:0:0:
128,124,209800,1,0,0:0:0:0:
125,114,209900,1,0,0:0:0:0:
125,114,210000,1,8,0:0:0:0:
229,204,210066,1,0,0:0:0:0:
229,204,210133,1,0,0:0:0:0:
235,210,210200,1,8,0:0:0:0:
228,197,210300,1,0,0:0:0:0:
242,208,210400,1,8,0:0:0:0:
14,166,210800,1,8,0:0:0:0:
121,209,211000,1,0,0:0:0:0:
335,296,211400,1,0,0:0:0:0:
442,339,211600,1,8,0:0:0:0:
334,295,211800,1,0,0:0:0:0:
226,252,212000,1,8,0:0:0:0:
9,171,212400,1,8,0:0:0:0:
116,212,212600,1,0,0:0:0:0:
61,191,213000,1,0,0:0:0:0:
61,191,213200,1,8,0:0:0:0:
61,191,213400,1,0,0:0:0:0:
61,191,213600,1,8,0:0:0:0:
143,110,213800,1,0,0:0:0:0:
87,124,213900,1,0,0:0:0:0:
124,331,214000,5,8,0:0:0:0:
18,142,214200,1,0,0:0:0:0:
18,142,214500,1,0,0:0:0:0:
51,150,214600,1,0,0:0:0:0:
18,142,214800,1,8,0:0:0:0:
119,172,215000,5,0,0:0:0:0:
119,172,215100,1,0,0:0:0:0:
119,172,215200,1,8,0:0:0:0:
61,134,215300,1,0,0:0:0:0:
61,134,215400,1,0,0:0:0:0:
107,162,215500,1,8,0:0:0:0:
61,134,215600,1,0,0:0:0:0:
61,134,215700,1,0,0:0:0:0:
106,159,215800,1,8,0:0:0:0:
60,128,215900,1,0,0:0:0:0:
103,157,216000,1,8,0:0:0:0:
101,151,216100,1,8,0:0:0:0:
64,118,216200,1,0,0:0:0:0:
64,116,216300,1,0,0:0:0:0:
33,131,216400,1,8,0:0:0:0:
70,111,216500,1,0,0:0:0:0:
24,112,216600,1,8,0:0:0:0:
72,110,216700,1,0,0:0:0:0:
233,188,216800,1,8,0:0:0:0:
233,187,216900,1,8,0:0:0:0:
233,187,217000,1,8,0:0:0:0:
233,187,217100,1,0,0:0:0:0:
235,185,217200,1,8,0:0:0:0:
54,90,217300,1,0,0:0:0:0:
45,140,217400,1,8,0:0:0:0:
54,90,217500,1,0,0:0:0:0:
51,112,217600,1,8,0:0:0:0:
54,90,217700,1,8,0:0:0:0:
54,90,217800,1,0,0:0:0:0:
53,88,217900,1,0,0:0:0:0:
49,99,218000,1,8,0:0:0:0:
49,99,218100,1,8,0:0:0:0:
53,87,218200,1,0,0:0:0:0:
53,87,218300,1,0,0:0:0:0:
50,95,218400,1,8,0:0:0:0:
53,87,218500,1,8,0:0:0:0:
52,96,218600,1,8,0:0:0:0:
53,87,218700,1,0,0:0:0:0:
53,87,218800,1,8,0:0:0:0:
104,57,218900,1,8,0:0:0:0:
104,57,219000,1,0,0:0:0:0:
104,57,219100,1,0,0:0:0:0:
81,85,219200,1,8,0:0:0:0:
104,57,219300,1,0,0:0:0:0:
81,85,219400,1,8,0:0:0:0:
104,57,219500,1,0,0:0:0:0:
89,70,219600,1,8,0:0:0:0:
94,76,219700,1,8,0:0:0:0:
103,55,219800,1,8,0:0:0:0:
104,57,219900,1,0,0:0:0:0:
103,55,220000,1,8,0:0:0:0:
105,58,220100,1,8,0:0:0:0:
104,57,220200,1,0,0:0:0:0:
104,57,220300,1,8,0:0:0:0:
104,57,220400,1,8,0:0:0:0:
115,32,220500,1,0,0:0:0:0:
104,169,220600,1,8,0:0:0:0:
104,169,220700,1,0,0:0:0:0:
199,201,220800,1,8,0:0:0:0:
199,201,220900,1,8,0:0:0:0:
89,153,221000,1,0,0:0:0:0:
199,191,221100,1,8,0:0:0:0:
200,184,221200,1,8,0:0:0:0:
90,126,221300,1,0,0:0:0:0:
90,126,221400,1,8,0:0:0:0:
201,191,221500,1,8,0:0:0:0:
118,138,221600,1,8,0:0:0:0:
113,135,221700,1,0,0:0:0:0:
84,118,221800,1,8,0:0:0:0:
29,113,221900,1,0,0:0:0:0:
67,126,222000,1,8,0:0:0:0:
29,131,222100,1,8,0:0:0:0:
28,122,222200,1,0,0:0:0:0:
28,121,222300,1,0,0:0:0:0:
124,120,222400,1,8,0:0:0:0:
124,120,222500,1,8,0:0:0:0:
128,124,222600,1,8,0:0:0:0:
125,114,222700,1,0,0:0:0:0:
125,114,222800,1,8,0:0:0:0:
229,204,222900,1,8,0:0:0:0:
235,210,223000,1,0,0:0:0:0:
179,194,223100,1,0,0:0:0:0:
233,188,223200,1,8,0:0:0:0:
233,187,223300,1,8,0:0:0:0:
233,187,223400,1,8,0:0:0:0:
233,187,223500,1,0,0:0:0:0:
235,185,223600,1,8,0:0:0:0:
54,90,223700,1,0,0:0:0:0:
45,140,223800,1,8,0:0:0:0:
54,90,223900,1,0,0:0:0:0:
51,112,224000,1,8,0:0:0:0:
54,90,224100,1,8,0:0:0:0:
54,90,224200,1,0,0:0:0:0:
53,88,224300,1,0,0:0:0:0:
49,99,224400,1,8,0:0:0:0:
49,99,224500,1,8,0:0:0:0:
53,87,224600,1,0,0:0:0:0:
53,87,224700,1,0,0:0:0:0:
50,95,224800,1,8,0:0:0:0:
53,87,224900,1,8,0:0:0:0:
52,96,225000,1,8,0:0:0:0:
53,87,225100,1,0,0:0:0:0:
53,87,225200,1,8,0:0:0:0:
104,57,225300,1,8,0:0:0:0:
104,57,225400,1,0,0:0:0:0:
104,57,225500,1,0,0:0:0:0:
81,85,225600,1,8,0:0:0:0:
104,57,225700,1,0,0:0:0:0:
81,85,225800,1,8,0:0:0:0:
104,57,225900,1,0,0:0:0:0:
89,70,226000,1,8,0:0:0:0:
94,76,226100,1,8,0:0:0:0:
103,55,226200,1,0,0:0:0:0:
138,129,226400,5,12,0:0:0:0:
138,129,228000,1,0,0:0:0:0:
138,129,229000,1,0,0:0:0:0:
138,129,229200,1,8,0:0:0:0:
106,100,229600,1,12,0:0:0:0:
183,143,231600,1,0,0:0:0:0:
183,143,231800,1,0,0:0:0:0:
183,143,231900,1,0,0:0:0:0:
183,143,232000,1,0,0:0:0:0:
183,143,232100,1,0,0:0:0:0:
183,143,232200,1,8,0:0:0:0:
183,143,232300,1,0,0:0:0:0:
183,143,232400,1,8,0:0:0:0:
183,143,232500,1,8,0:0:0:0:
183,143,232600,1,0,0:0:0:0:
183,143,232700,1,0,0:0:0:0:
183,143,232800,1,12,0:0:0:0:
328,208,234400,1,0,0:0:0:0:
328,208,235400,1,0,0:0:0:0:
217,174,235600,1,8,0:0:0:0:
2,88,236000,1,12,0:0:0:0:
108,137,237600,1,4,0:0:0:0:
108,137,238000,1,8,0:0:0:0:
108,137,238100,1,8,0:0:0:0:
165,140,238200,1,0,0:0:0:0:
107,140,238300,1,8,0:0:0:0:
164,140,238400,1,0,0:0:0:0:
141,213,238466,1,0,0:0:0:0:
141,213,238533,1,0,0:0:0:0:
141,213,238600,1,8,0:0:0:0:
141,213,238666,1,0,0:0:0:0:
141,213,238733,1,0,0:0:0:0:
141,213,238800,1,8,0:0:0:0:
235,146,239000,1,0,0:0:0:0:
269,129,239066,1,0,0:0:0:0:
302,108,239133,1,0,0:0:0:0:
334,87,239200,1,8,0:0:0:0:
0,182,239800,1,8,0:0:0:0:
228,150,240200,1,0,0:0:0:0:
340,118,240400,1,8,0:0:0:0:
228,149,240600,1,0,0:0:0:0:
117,181,240800,1,8,0:0:0:0:
285,138,241100,1,8,0:0:0:0:
116,177,241400,1,0,0:0:0:0:
229,154,241600,1,0,0:0:0:0:
117,183,241800,1,0,0:0:0:0:
172,168,241900,1,0,0:0:0:0:
228,155,242000,1,8,0:0:0:0:
174,176,242100,1,8,0:0:0:0:
227,155,242200,1,0,0:0:0:0:
173,176,242300,1,0,0:0:0:0:
13,239,242400,1,12,0:0:0:0:
113,166,244000,1,8,0:0:0:0:
113,166,244100,1,8,0:0:0:0:
113,166,244200,1,0,0:0:0:0:
113,166,244400,1,8,0:0:0:0:
113,166,244500,1,8,0:0:0:0:
140,192,244600,1,0,0:0:0:0:
199,242,244700,1,8,0:0:0:0:
140,192,244800,1,0,0:0:0:0:
140,192,244866,1,0,0:0:0:0:
140,192,244933,1,0,0:0:0:0:
140,192,245000,1,8,0:0:0:0:
105,145,245100,1,0,0:0:0:0:
140,192,245200,1,8,0:0:0:0:
105,145,245300,1,8,0:0:0:0:
105,145,245400,1,0,0:0:0:0:
105,145,245500,1,0,0:0:0:0:
140,192,245600,1,12,0:0:0:0:
479,122,246200,1,8,0:0:0:0:
139,192,246800,1,0,0:0:0:0:
368,167,247200,1,0,0:0:0:0:
277,174,248200,1,0,0:0:0:0:
277,174,248400,1,8,0:0:0:0:
277,174,248800,1,12,0:0:0:0:
277,174,250400,1,12,0:0:0:0:
54,110,250800,1,8,0:0:0:0:
127,131,250933,1,8,0:0:0:0:
127,131,251066,1,8,0:0:0:0:
127,131,251200,1,0,0:0:0:0:
127,131,251333,1,0,0:0:0:0:
127,131,251466,1,0,0:0:0:0:
127,131,251600,1,8,0:0:0:0:
127,131,251733,1,8,0:0:0:0:
127,131,251866,1,0,0:0:0:0:
127,131,252000,1,12,0:0:0:0:
208,218,255200,5,8,0:0:0:0:
169,183,257600,1,0,0:0:0:0:
149,177,258400,1,8,0:0:0:0:
154,173,260000,1,8,0:0:0:0:
256,192,261600,12,8,263800,0:0:0:0:
169,163,264000,5,8,0:0:0:0:
164,165,264200,1,0,0:0:0:0:
164,165,264400,1,8,0:0:0:0:
164,165,264533,1,8,0:0:0:0:
164,165,264666,1,8,0:0:0:0:
164,165,264800,1,0,0:0:0:0:
256,192,266400,12,0,267800,0:0:0:0:
179,186,268000,5,0,0:0:0:0:
175,161,271200,5,12,0:0:0:0:
175,161,272800,1,12,0:0:0:0:
180,185,274400,1,12,0:0:0:0:
192,186,276800,1,8,0:0:0:0:
192,186,277000,1,0,0:0:0:0:
226,208,277200,1,8,0:0:0:0:
226,208,277333,1,8,0:0:0:0:
226,208,277466,1,8,0:0:0:0:
226,208,277600,1,0,0:0:0:0:
226,208,277700,1,0,0:0:0:0:
226,208,277800,1,0,0:0:0:0:
226,208,277900,1,8,0:0:0:0:
226,208,278000,1,8,0:0:0:0:
226,208,278100,1,0,0:0:0:0:
226,208,278200,1,0,0:0:0:0:
128,160,278400,1,8,0:0:0:0:
128,160,278500,1,8,0:0:0:0:
128,160,278600,1,0,0:0:0:0:
128,160,278800,1,8,0:0:0:0:
128,160,278850,1,8,0:0:0:0:
128,160,278900,1,8,0:0:0:0:
128,160,278950,1,8,0:0:0:0:
192,96,279000,1,8,0:0:0:0:
128,160,279200,1,4,0:0:0:0:
128,96,279800,1,8,0:0:0:0:
128,96,280200,1,0,0:0:0:0:
128,96,280300,1,0,0:0:0:0:
128,96,280400,1,0,0:0:0:0:
128,96,280500,1,8,0:0:0:0:
128,96,280800,1,0,0:0:0:0:
64,160,281066,1,8,0:0:0:0:
64,128,281333,1,0,0:0:0:0:
64,128,281600,1,8,0:0:0:0:
64,128,281800,1,8,0:0:0:0:
96,128,282000,1,0,0:0:0:0:
96,128,282200,1,8,0:0:0:0:
32,128,282400,1,8,0:0:0:0:
32,128,282533,1,0,0:0:0:0:
32,128,282666,1,0,0:0:0:0:
32,128,282800,1,8,0:0:0:0:
32,128,282933,1,0,0:0:0:0:
32,128,283066,1,0,0:0:0:0:
32,128,283200,1,8,0:0:0:0:
128,192,283400,1,0,0:0:0:0:
128,192,283600,1,8,0:0:0:0:
128,192,284000,1,0,0:0:0:0:
32,160,284133,1,0,0:0:0:0:
96,160,284266,1,0,0:0:0:0:
352,192,284333,1,0,0:0:0:0:
256,224,284400,1,8,0:0:0:0:
352,192,284800,1,8,0:0:0:0:
352,192,284900,1,8,0:0:0:0:
352,192,285000,1,8,0:0:0:0:
115,148,285100,1,0,0:0:0:0:
115,148,285200,1,0,0:0:0:0:
115,148,285300,1,0,0:0:0:0:
115,148,285400,1,8,0:0:0:0:
118,152,285600,1,8,0:0:0:0:
118,152,286000,1,8,0:0:0:0:
94,131,286200,1,8,0:0:0:0:
94,131,286400,1,0,0:0:0:0:
94,131,286600,1,0,0:0:0:0:
94,131,286800,1,8,0:0:0:0:
94,131,287200,1,0,0:0:0:0:
94,131,287600,1,8,0:0:0:0:
32,128,287800,1,8,0:0:0:0:
64,128,288000,1,0,0:0:0:0:
64,128,288200,1,0,0:0:0:0:
64,128,288400,1,8,0:0:0:0:
64,128,288600,1,8,0:0:0:0:
64,128,288800,1,0,0:0:0:0:
258,252,289200,1,8,0:0:0:0:
193,210,289300,1,8,0:0:0:0:
123,174,289400,1,0,0:0:0:0:
113,133,289500,1,0,0:0:0:0:
71,116,289600,1,8,0:0:0:0:
100,180,289700,1,8,0:0:0:0:
112,174,289800,1,0,0:0:0:0:
111,175,289866,1,0,0:0:0:0:
108,177,289933,1,0,0:0:0:0:
254,253,290000,1,8,0:0:0:0:
32,96,290400,1,8,0:0:0:0:
96,160,290533,1,8,0:0:0:0:
64,96,290666,1,8,0:0:0:0:
96,160,290800,1,8,0:0:0:0:
64,96,290933,1,8,0:0:0:0:
96,160,291066,1,8,0:0:0:0:
64,96,291200,1,8,0:0:0:0:
96,160,291333,1,8,0:0:0:0:
64,96,291466,1,8,0:0:0:0:
96,160,291600,1,8,0:0:0:0:
160,160,291733,1,8,0:0:0:0:
160,160,291866,1,8,0:0:0:0:
160,160,292000,1,0,0:0:0:0:
160,160,292066,1,0,0:0:0:0:
160,160,292133,1,0,0:0:0:0:
160,160,292200,1,0,0:0:0:0:
160,192,292266,1,8,0:0:0:0:
160,192,292400,1,8,0:0:0:0:
160,192,292533,1,8,0:0:0:0:
160,192,292666,1,8,0:0:0:0:
160,192,292800,1,8,0:0:0:0:
160,192,292933,1,0,0:0:0:0:
160,192,293066,1,0,0:0:0:0:
160,192,293200,1,8,0:0:0:0:
160,192,293600,1,0,0:0:0:0:
160,192,293666,1,0,0:0:0:0:
160,192,293733,1,0,0:0:0:0:
160,192,293800,1,0,0:0:0:0:
160,160,293866,1,8,0:0:0:0:
160,160,294000,1,8,0:0:0:0:
160,160,294133,1,8,0:0:0:0:
160,160,294266,1,8,0:0:0:0:
160,160,294400,1,8,0:0:0:0:
160,160,294533,1,0,0:0:0:0:
160,160,294666,1,0,0:0:0:0:
160,160,294800,1,8,0:0:0:0:
160,160,295200,1,4,0:0:0:0:
160,160,296800,1,8,0:0:0:0:
192,32,297000,1,0,0:0:0:0:
128,128,297200,1,0,0:0:0:0:
32,192,297400,1,0,0:0:0:0:
96,352,297600,1,8,0:0:0:0:
96,224,297800,1,0,0:0:0:0:
96,128,298000,1,0,0:0:0:0:
96,128,298200,1,0,0:0:0:0:
192,32,298400,1,8,0:0:0:0:
96,128,298600,1,0,0:0:0:0:
160,256,298800,1,8,0:0:0:0:
96,128,299000,1,0,0:0:0:0:
192,32,299200,1,8,0:0:0:0:
160,160,299400,1,8,0:0:0:0:
96,128,299600,1,0,0:0:0:0:
96,128,299800,1,0,0:0:0:0:
160,160,300000,1,8,0:0:0:0:
160,160,300200,1,0,0:0:0:0:
96,128,300400,1,0,0:0:0:0:
96,128,300600,1,0,0:0:0:0:
160,160,300800,1,8,0:0:0:0:
96,128,301000,1,0,0:0:0:0:
96,128,301200,1,0,0:0:0:0:
96,128,301400,1,0,0:0:0:0:
160,160,301600,1,8,0:0:0:0:
96,128,301800,1,0,0:0:0:0:
160,160,302000,1,8,0:0:0:0:
160,160,302200,1,0,0:0:0:0:
96,160,302400,1,8,0:0:0:0:
96,160,302600,1,8,0:0:0:0:
96,160,302800,1,8,0:0:0:0:
96,160,303000,1,0,0:0:0:0:
178,220,303200,5,8,0:0:0:0:
188,249,303400,1,8,0:0:0:0:
468,334,303600,1,0,0:0:0:0:
31,142,303800,1,0,0:0:0:0:
468,334,304000,1,8,0:0:0:0:
269,210,304200,1,0,0:0:0:0:
180,207,304400,1,8,0:0:0:0:
259,240,304600,1,0,0:0:0:0:
259,240,304800,1,8,0:0:0:0:
367,260,305000,1,8,0:0:0:0:
367,260,305200,1,0,0:0:0:0:
371,250,305400,1,0,0:0:0:0:
371,249,305600,1,8,0:0:0:0:
59,125,305800,1,8,0:0:0:0:
370,237,306000,1,0,0:0:0:0:
87,153,306200,1,0,0:0:0:0:
87,153,306400,1,12,0:0:0:0:
175,127,306800,1,0,0:0:0:0:
181,144,307000,1,12,0:0:0:0:
410,259,307400,1,0,0:0:0:0:
90,122,307600,1,8,0:0:0:0:
88,113,307700,1,0,0:0:0:0:
86,108,307800,1,0,0:0:0:0:
179,96,308000,1,12,0:0:0:0:
108,149,308200,1,0,0:0:0:0:
83,98,308400,1,0,0:0:0:0:
176,86,308600,1,12,0:0:0:0:
146,212,308800,1,0,0:0:0:0:
146,212,308900,1,0,0:0:0:0:
146,212,309000,1,0,0:0:0:0:
124,187,309100,1,0,0:0:0:0:
124,187,309200,5,8,0:0:0:0:
124,187,309300,1,8,0:0:0:0:
119,179,309400,1,0,0:0:0:0:
119,179,309500,1,0,0:0:0:0:
418,270,309600,5,12,0:0:0:0:
150,159,309800,1,0,0:0:0:0:
150,159,310200,1,0,0:0:0:0:
150,159,310400,1,8,0:0:0:0:
282,276,310600,1,0,0:0:0:0:
149,158,311200,1,8,0:0:0:0:
90,91,311400,1,8,0:0:0:0:
147,157,311600,1,0,0:0:0:0:
102,126,311800,1,0,0:0:0:0:
171,183,312000,1,8,0:0:0:0:
102,126,312200,1,0,0:0:0:0:
33,71,312400,1,8,0:0:0:0:
28,159,312600,1,8,0:0:0:0:
197,137,312800,1,0,0:0:0:0:
109,126,313000,1,0,0:0:0:0:
31,168,313200,1,8,0:0:0:0:
142,114,313400,1,8,0:0:0:0:
142,114,313600,1,0,0:0:0:0:
109,126,313800,1,8,0:0:0:0:
69,120,314000,1,0,0:0:0:0:
69,120,314100,1,0,0:0:0:0:
69,120,314200,1,0,0:0:0:0:
69,120,314400,1,8,0:0:0:0:
47,154,314600,1,8,0:0:0:0:
47,154,314800,1,0,0:0:0:0:
47,154,315000,1,8,0:0:0:0:
55,95,315100,1,0,0:0:0:0:
47,154,315200,1,8,0:0:0:0:
135,149,315400,1,8,0:0:0:0:
46,156,315600,1,0,0:0:0:0:
90,152,315700,1,0,0:0:0:0:
90,152,315800,1,0,0:0:0:0:
69,120,316000,1,12,0:0:0:0:
154,141,316200,1,0,0:0:0:0:
320,201,316600,1,0,0:0:0:0:
236,170,316800,1,8,0:0:0:0:
148,158,317000,1,0,0:0:0:0:
149,158,317600,1,8,0:0:0:0:
90,91,317800,1,8,0:0:0:0:
147,157,318000,1,0,0:0:0:0:
102,126,318200,1,0,0:0:0:0:
171,183,318400,1,8,0:0:0:0:
102,126,318600,1,0,0:0:0:0:
33,71,318800,1,8,0:0:0:0:
28,159,319000,1,8,0:0:0:0:
197,137,319200,1,0,0:0:0:0:
109,126,319400,1,0,0:0:0:0:
31,168,319600,1,8,0:0:0:0:
142,114,319800,1,8,0:0:0:0:
142,114,320000,1,0,0:0:0:0:
56,137,320200,1,8,0:0:0:0:
69,120,320400,1,0,0:0:0:0:
69,120,320500,1,0,0:0:0:0:
69,120,320600,1,0,0:0:0:0:
69,120,320800,1,8,0:0:0:0:
47,154,321000,1,8,0:0:0:0:
47,154,321200,1,0,0:0:0:0:
47,154,321400,1,8,0:0:0:0:
55,95,321500,1,0,0:0:0:0:
47,154,321600,1,8,0:0:0:0:
135,149,321800,1,8,0:0:0:0:
46,156,322000,1,0,0:0:0:0:
90,152,322100,1,0,0:0:0:0:
90,152,322200,1,0,0:0:0:0:
69,120,322400,1,12,0:0:0:0:
163,205,322600,1,0,0:0:0:0:
159,209,322700,1,0,0:0:0:0:
172,108,322800,1,8,0:0:0:0:
172,108,323000,1,0,0:0:0:0:
172,108,323100,1,0,0:0:0:0:
172,108,323200,1,8,0:0:0:0:
137,136,323300,1,0,0:0:0:0:
235,248,323400,1,0,0:0:0:0:
302,240,323600,1,0,0:0:0:0:
302,240,323700,1,0,0:0:0:0:
293,245,324000,1,8,0:0:0:0:
272,228,324200,1,0,0:0:0:0:
272,228,324500,1,0,0:0:0:0:
272,228,324700,1,0,0:0:0:0:
272,228,324800,1,8,0:0:0:0:
272,228,324900,1,0,0:0:0:0:
272,228,325100,1,0,0:0:0:0:
272,228,325200,1,8,0:0:0:0:
272,228,325300,1,0,0:0:0:0:
272,228,325500,1,0,0:0:0:0:
272,228,325600,1,0,0:0:0:0:
272,228,325800,1,0,0:0:0:0:
183,225,326000,1,0,0:0:0:0:
94,223,326200,1,0,0:0:0:0:
138,224,326300,1,0,0:0:0:0:
138,224,326400,1,8,0:0:0:0:
151,181,326500,1,0,0:0:0:0:
164,138,326600,1,0,0:0:0:0:
138,224,326800,1,0,0:0:0:0:
138,224,326900,1,0,0:0:0:0:
264,264,327200,1,0,0:0:0:0:
306,277,327300,1,0,0:0:0:0:
348,290,327400,1,0,0:0:0:0:
432,317,327600,1,8,0:0:0:0:
452,323,327800,1,0,0:0:0:0:
452,323,327900,1,0,0:0:0:0:
452,323,328000,1,8,0:0:0:0:
452,323,328100,1,8,0:0:0:0:
452,323,328200,1,8,0:0:0:0:
452,323,328300,1,0,0:0:0:0:
452,323,328400,1,8,0:0:0:0:
452,323,328500,1,8,0:0:0:0:
452,323,328600,1,0,0:0:0:0:
452,323,328700,1,0,0:0:0:0:
178,220,328800,5,8,0:0:0:0:
188,249,329000,1,8,0:0:0:0:
468,334,329200,1,0,0:0:0:0:
31,142,329400,1,0,0:0:0:0:
468,334,329600,1,8,0:0:0:0:
269,210,329800,1,0,0:0:0:0:
180,207,330000,1,8,0:0:0:0:
259,240,330200,1,0,0:0:0:0:
259,240,330400,1,8,0:0:0:0:
367,260,330600,1,8,0:0:0:0:
367,260,330800,1,0,0:0:0:0:
371,250,331000,1,0,0:0:0:0:
371,249,331200,1,8,0:0:0:0:
59,125,331400,1,8,0:0:0:0:
370,237,331600,1,0,0:0:0:0:
87,153,331800,1,0,0:0:0:0:
87,153,332000,1,12,0:0:0:0:
175,127,332400,1,0,0:0:0:0:
181,144,332600,1,12,0:0:0:0:
410,259,333000,1,0,0:0:0:0:
90,122,333200,1,8,0:0:0:0:
88,113,333300,1,0,0:0:0:0:
86,108,333400,1,0,0:0:0:0:
179,96,333600,1,12,0:0:0:0:
108,149,333800,1,0,0:0:0:0:
83,98,334000,1,0,0:0:0:0:
176,86,334200,1,12,0:0:0:0:
146,212,334400,1,0,0:0:0:0:
146,212,334500,1,0,0:0:0:0:
146,212,334600,1,0,0:0:0:0:
124,187,334700,1,0,0:0:0:0:
124,187,334800,1,8,0:0:0:0:
124,187,334900,1,8,0:0:0:0:
119,179,335000,1,0,0:0:0:0:
119,179,335100,1,0,0:0:0:0:
418,270,335200,5,12,0:0:0:0:
71,209,336800,1,0,0:0:0:0:
71,209,337000,1,0,0:0:0:0:
161,205,337200,1,8,0:0:0:0:
296,325,337400,1,0,0:0:0:0:
299,328,337600,1,8,0:0:0:0:
299,328,337800,1,8,0:0:0:0:
161,205,338000,1,8,0:0:0:0:
240,210,338200,1,0,0:0:0:0:
240,210,338400,1,8,0:0:0:0:
236,214,338600,1,0,0:0:0:0:
161,205,338800,1,0,0:0:0:0:
82,153,339000,1,0,0:0:0:0:
154,204,339200,1,8,0:0:0:0:
76,187,339400,1,0,0:0:0:0:
76,187,339600,1,0,0:0:0:0:
154,204,339800,1,12,0:0:0:0:
124,196,340200,5,0,0:0:0:0:
124,196,340300,1,0,0:0:0:0:
124,196,340400,1,8,0:0:0:0:
124,196,340600,1,0,0:0:0:0:
124,196,340800,1,8,0:0:0:0:
124,196,341000,1,8,0:0:0:0:
124,196,341200,1,0,0:0:0:0:
124,196,341400,1,0,0:0:0:0:
145,192,341600,1,12,0:0:0:0:
71,165,342000,1,8,0:0:0:0:
71,209,342200,1,8,0:0:0:0:
71,209,342400,1,0,0:0:0:0:
71,209,342600,1,0,0:0:0:0:
161,205,342800,1,8,0:0:0:0:
78,198,343000,1,0,0:0:0:0:
71,209,343200,1,0,0:0:0:0:
71,209,343300,1,0,0:0:0:0:
71,209,343400,1,0,0:0:0:0:
161,205,343600,1,8,0:0:0:0:
296,325,343800,1,0,0:0:0:0:
299,328,344000,1,0,0:0:0:0:
299,328,344100,1,0,0:0:0:0:
299,328,344200,1,0,0:0:0:0:
161,205,344400,1,8,0:0:0:0:
240,210,344600,1,0,0:0:0:0:
240,210,344800,1,8,0:0:0:0:
236,214,345000,1,0,0:0:0:0:
161,205,345200,1,0,0:0:0:0:
82,153,345400,1,0,0:0:0:0:
154,204,345600,1,8,0:0:0:0:
76,187,345800,1,0,0:0:0:0:
76,187,346000,1,0,0:0:0:0:
154,204,346200,5,12,0:0:0:0:
214,149,346600,5,8,0:0:0:0:
214,149,346700,1,0,0:0:0:0:
214,149,346800,1,8,0:0:0:0:
128,128,346900,1,8,0:0:0:0:
128,128,347000,1,0,0:0:0:0:
128,128,347100,1,0,0:0:0:0:
390,262,347200,1,8,0:0:0:0:
390,262,347300,1,8,0:0:0:0:
386,260,347400,1,0,0:0:0:0:
386,260,347500,1,0,0:0:0:0:
386,260,347600,1,8,0:0:0:0:
386,258,347800,1,0,0:0:0:0:
145,192,348000,1,12,0:0:0:0:
71,165,348400,1,8,0:0:0:0:
71,209,348600,1,8,0:0:0:0:
71,209,348800,1,0,0:0:0:0:
71,209,349000,1,0,0:0:0:0:
161,205,349200,1,8,0:0:0:0:
78,198,349400,1,0,0:0:0:0:
71,209,349600,1,0,0:0:0:0:
71,209,349700,1,0,0:0:0:0:
71,209,349800,1,0,0:0:0:0:
161,205,350000,1,8,0:0:0:0:
296,325,350200,1,0,0:0:0:0:
299,328,350400,1,0,0:0:0:0:
299,328,350500,1,0,0:0:0:0:
299,328,350600,1,0,0:0:0:0:
161,205,350800,1,8,0:0:0:0:
240,210,351000,1,0,0:0:0:0:
240,210,351200,1,8,0:0:0:0:
236,214,351400,1,8,0:0:0:0:
161,205,351600,1,8,0:0:0:0:
82,153,351800,1,0,0:0:0:0:
154,204,352000,1,8,0:0:0:0:
76,187,352200,1,0,0:0:0:0:
76,187,352400,1,0,0:0:0:0:
154,204,352600,5,12,0:0:0:0:
124,196,353000,5,0,0:0:0:0:
124,196,353100,1,0,0:0:0:0:
124,196,353200,1,8,0:0:0:0:
124,196,353400,1,0,0:0:0:0:
124,196,353600,1,8,0:0:0:0:
124,196,353800,1,8,0:0:0:0:
124,196,354000,1,0,0:0:0:0:
124,196,354200,1,0,0:0:0:0:
145,192,354400,1,12,0:0:0:0:
71,165,354800,1,8,0:0:0:0:
71,209,355000,1,8,0:0:0:0:
71,209,355200,1,0,0:0:0:0:
71,209,355400,1,0,0:0:0:0:
161,205,355600,1,8,0:0:0:0:
78,198,355800,1,0,0:0:0:0:
71,209,356000,1,0,0:0:0:0:
71,209,356100,1,0,0:0:0:0:
71,209,356200,1,0,0:0:0:0:
161,205,356400,1,8,0:0:0:0:
296,325,356600,1,0,0:0:0:0:
299,328,356800,1,0,0:0:0:0:
299,328,356900,1,0,0:0:0:0:
299,328,357000,1,0,0:0:0:0:
161,205,357200,5,8,0:0:0:0:
96,160,357400,1,0,0:0:0:0:
125,169,357600,5,8,0:0:0:0:
135,163,357800,5,8,0:0:0:0:
128,128,358000,1,0,0:0:0:0:
125,169,358100,1,0,0:0:0:0:
125,169,358200,1,0,0:0:0:0:
125,169,358400,1,8,0:0:0:0:
129,164,358600,1,0,0:0:0:0:
129,164,358700,1,0,0:0:0:0:
129,164,358800,1,8,0:0:0:0:
129,164,358900,1,8,0:0:0:0:
129,164,359000,1,0,0:0:0:0:
129,164,359100,1,0,0:0:0:0:
130,162,359200,1,8,0:0:0:0:
192,128,359266,1,8,0:0:0:0:
192,128,359333,1,8,0:0:0:0:
192,128,359400,1,0,0:0:0:0:
129,164,359500,1,8,0:0:0:0:
129,164,359600,1,0,0:0:0:0:
129,164,359666,1,0,0:0:0:0:
96,160,359733,1,0,0:0:0:0:
129,164,359800,1,8,0:0:0:0:
129,164,359900,1,0,0:0:0:0:
129,164,360000,1,8,0:0:0:0:
129,164,360100,1,8,0:0:0:0:
129,164,360200,1,0,0:0:0:0:
129,164,360300,1,0,0:0:0:0:
129,164,360400,1,8,0:0:0:0:
129,164,360600,1,0,0:0:0:0:
207,169,360800,5,12,0:0:0:0:
71,165,361200,1,0,0:0:0:0:
71,209,361400,1,0,0:0:0:0:
71,209,361600,1,8,0:0:0:0:
161,205,362000,1,0,0:0:0:0:
78,198,362200,1,0,0:0:0:0:
71,209,362400,1,0,0:0:0:0:
161,205,362800,1,0,0:0:0:0:
296,325,363000,1,0,0:0:0:0:
299,328,363200,1,8,0:0:0:0:
161,205,363600,1,0,0:0:0:0:
128,128,363800,1,0,0:0:0:0:
240,210,364000,1,0,0:0:0:0:
161,205,364400,1,0,0:0:0:0:
82,153,364600,1,0,0:0:0:0:
154,204,364800,1,8,0:0:0:0:
76,187,365000,1,0,0:0:0:0:
76,187,365200,1,0,0:0:0:0:
154,204,365400,5,12,0:0:0:0:
124,196,365800,5,0,0:0:0:0:
124,196,365900,1,0,0:0:0:0:
124,196,366000,1,8,0:0:0:0:
124,196,366200,1,0,0:0:0:0:
124,196,366400,1,8,0:0:0:0:
124,196,366800,1,0,0:0:0:0:
124,196,367000,1,0,0:0:0:0:
145,192,367200,1,12,0:0:0:0:
71,165,367600,1,0,0:0:0:0:
71,209,367800,1,0,0:0:0:0:
71,209,368000,1,8,0:0:0:0:
161,205,368400,1,0,0:0:0:0:
78,198,368600,1,0,0:0:0:0:
71,209,368800,1,0,0:0:0:0:
161,205,369200,1,0,0:0:0:0:
296,325,369400,1,0,0:0:0:0:
299,328,369600,1,8,0:0:0:0:
161,205,370000,1,0,0:0:0:0:
240,210,370200,1,0,0:0:0:0:
240,210,370400,1,0,0:0:0:0:
161,205,370800,1,0,0:0:0:0:
82,153,371000,1,0,0:0:0:0:
154,204,371200,1,8,0:0:0:0:
76,187,371400,1,0,0:0:0:0:
76,187,371600,1,0,0:0:0:0:
154,204,371800,5,12,0:0:0:0:
214,149,372200,5,8,0:0:0:0:
214,149,372300,1,0,0:0:0:0:
214,149,372400,1,8,0:0:0:0:
128,128,372500,1,8,0:0:0:0:
128,128,372600,1,0,0:0:0:0:
128,128,372700,1,0,0:0:0:0:
390,262,372800,1,8,0:0:0:0:
390,262,372900,1,8,0:0:0:0:
386,260,373000,1,0,0:0:0:0:
386,260,373100,1,0,0:0:0:0:
386,260,373200,1,8,0:0:0:0:
386,258,373400,1,0,0:0:0:0:
145,192,373600,1,12,0:0:0:0:
71,165,374000,1,8,0:0:0:0:
71,209,374200,1,8,0:0:0:0:
71,209,374400,1,0,0:0:0:0:
71,209,374600,1,0,0:0:0:0:
161,205,374800,1,8,0:0:0:0:
78,198,375000,1,0,0:0:0:0:
71,209,375200,1,0,0:0:0:0:
71,209,375300,1,0,0:0:0:0:
71,209,375400,1,0,0:0:0:0:
161,205,375600,1,8,0:0:0:0:
296,325,375800,1,0,0:0:0:0:
299,328,376000,1,0,0:0:0:0:
299,328,376100,1,0,0:0:0:0:
299,328,376200,1,0,0:0:0:0:
161,205,376400,1,8,0:0:0:0:
240,210,376600,1,0,0:0:0:0:
240,210,376800,1,8,0:0:0:0:
236,214,377000,1,8,0:0:0:0:
161,205,377200,1,8,0:0:0:0:
82,153,377400,1,0,0:0:0:0:
154,204,377600,1,8,0:0:0:0:
76,187,377800,1,0,0:0:0:0:
76,187,378000,1,0,0:0:0:0:
154,204,378200,5,12,0:0:0:0:
124,196,378600,5,0,0:0:0:0:
124,196,378700,1,0,0:0:0:0:
124,196,378800,5,8,0:0:0:0:
124,196,379000,1,0,0:0:0:0:
192,192,379200,5,8,0:0:0:0:
192,192,379400,1,0,0:0:0:0:
192,192,379500,1,0,0:0:0:0:
192,192,379600,1,8,0:0:0:0:
128,192,379700,1,8,0:0:0:0:
128,192,379800,1,0,0:0:0:0:
128,192,379900,1,0,0:0:0:0:
128,192,380000,1,8,0:0:0:0:
96,160,380100,1,8,0:0:0:0:
96,160,380200,1,8,0:0:0:0:
96,160,380300,1,8,0:0:0:0:
160,192,380400,1,0,0:0:0:0:
96,160,380500,1,0,0:0:0:0:
160,192,380600,1,0,0:0:0:0:
96,160,380700,1,0,0:0:0:0:
128,192,380800,1,8,0:0:0:0:
96,160,380900,1,0,0:0:0:0:
96,160,381000,1,0,0:0:0:0:
96,160,381100,1,0,0:0:0:0:
128,192,381200,1,8,0:0:0:0:
96,128,381300,1,0,0:0:0:0:
128,192,381400,1,8,0:0:0:0:
96,128,381500,1,0,0:0:0:0:
64,96,381600,1,8,0:0:0:0:
96,128,381700,1,8,0:0:0:0:
128,192,381800,1,0,0:0:0:0:
160,224,381900,1,0,0:0:0:0:
128,192,382000,1,8,0:0:0:0:
105,152,382100,1,8,0:0:0:0:
105,152,382200,1,8,0:0:0:0:
105,152,382300,1,8,0:0:0:0:
105,152,382400,1,0,0:0:0:0:
105,152,382500,1,0,0:0:0:0:
105,152,382600,1,0,0:0:0:0:
105,152,382700,1,0,0:0:0:0:
128,192,382800,1,8,0:0:0:0:
128,192,382900,1,8,0:0:0:0:
128,128,383000,1,8,0:0:0:0:
128,192,383100,1,8,0:0:0:0:
105,152,383200,5,0,0:0:0:0:
105,152,383300,1,0,0:0:0:0:
288,256,383400,5,8,0:0:0:0:
105,152,383500,1,0,0:0:0:0:
105,152,383600,1,8,0:0:0:0:
105,152,383700,1,8,0:0:0:0:
105,152,383800,1,0,0:0:0:0:
105,152,383900,1,0,0:0:0:0:
288,256,384000,1,8,0:0:0:0:
105,152,384100,1,0,0:0:0:0:
105,152,384200,1,0,0:0:0:0:
288,256,384300,1,8,0:0:0:0:
105,152,384400,1,0,0:0:0:0:
105,152,384500,1,0,0:0:0:0:
288,256,384600,1,8,0:0:0:0:
105,152,384700,1,0,0:0:0:0:
288,256,384800,1,8,0:0:0:0:
105,152,384900,1,0,0:0:0:0:
105,152,385000,1,8,0:0:0:0:
105,152,385100,1,8,0:0:0:0:
288,256,385200,1,8,0:0:0:0:
288,256,385300,1,8,0:0:0:0:
224,224,385400,1,0,0:0:0:0:
160,192,385500,1,0,0:0:0:0:
288,256,385600,1,8,0:0:0:0:
288,256,385700,1,8,0:0:0:0:
288,256,385800,1,8,0:0:0:0:
288,256,385900,1,0,0:0:0:0:
288,256,386000,1,8,0:0:0:0:
288,256,386100,1,8,0:0:0:0:
288,256,386200,1,0,0:0:0:0:
288,256,386300,1,0,0:0:0:0:
208,169,386400,5,8,0:2:0:0:
120,167,386500,1,0,0:0:0:0:
208,169,386600,1,8,0:0:0:0:
120,167,386700,1,0,0:0:0:0:
208,169,386800,1,8,0:0:0:0:
120,167,386900,1,8,0:0:0:0:
208,169,387000,1,8,0:0:0:0:
120,167,387100,1,8,0:0:0:0:
208,169,387200,1,0,0:0:0:0:
120,167,387300,1,0,0:0:0:0:
208,169,387400,1,0,0:0:0:0:
120,167,387500,1,0,0:0:0:0:
208,169,387600,1,8,0:0:0:0:
120,167,387700,1,8,0:0:0:0:
208,169,387800,1,0,0:0:0:0:
120,167,387900,1,0,0:0:0:0:
208,169,388000,1,8,0:0:0:0:
120,167,388100,1,8,0:0:0:0:
208,169,388200,1,8,0:0:0:0:
120,167,388300,1,8,0:0:0:0:
208,169,388400,1,0,0:0:0:0:
120,167,388500,1,0,0:0:0:0:
208,169,388600,1,8,0:0:0:0:
120,167,388700,1,8,0:0:0:0:
208,169,388800,1,8,0:0:0:0:
120,167,388900,1,8,0:0:0:0:
208,169,389000,1,0,0:0:0:0:
120,167,389100,1,0,0:0:0:0:
208,169,389200,1,8,0:0:0:0:
120,167,389300,1,0,0:0:0:0:
208,169,389400,1,0,0:0:0:0:
120,167,389500,1,0,0:0:0:0:
208,169,389600,1,8,0:0:0:0:
120,167,389700,1,0,0:0:0:0:
208,169,389800,1,8,0:0:0:0:
120,167,389900,1,0,0:0:0:0:
208,169,390000,1,8,0:0:0:0:
120,167,390100,1,8,0:0:0:0:
208,169,390200,1,0,0:0:0:0:
120,167,390300,1,0,0:0:0:0:
208,169,390400,1,8,0:0:0:0:
96,192,390500,1,0,0:0:0:0:
120,167,390600,1,0,0:0:0:0:
208,169,390700,1,8,0:0:0:0:
96,192,390800,1,0,0:0:0:0:
120,167,390900,1,0,0:0:0:0:
208,169,391000,1,8,0:0:0:0:
96,192,391100,1,0,0:0:0:0:
120,167,391200,1,8,0:0:0:0:
208,169,391300,1,8,0:0:0:0:
120,167,391400,1,0,0:0:0:0:
208,169,391500,1,0,0:0:0:0:
120,167,391600,1,8,0:0:0:0:
96,192,391700,1,0,0:0:0:0:
208,169,391800,1,0,0:0:0:0:
153,289,391900,1,0,0:0:0:0:
153,289,392000,1,8,0:0:0:0:
96,192,392100,1,0,0:0:0:0:
153,289,392200,1,0,0:0:0:0:
123,295,392300,1,8,0:0:0:0:
96,192,392400,1,0,0:0:0:0:
104,166,392500,5,8,0:0:0:0:
85,145,392600,1,8,0:0:0:0:
96,160,392700,1,0,0:0:0:0:
123,295,392800,5,8,0:0:0:0:
105,245,392900,1,0,0:0:0:0:
101,187,393000,1,8,0:0:0:0:
97,129,393100,1,0,0:0:0:0:
70,134,393200,1,8,0:0:0:0:
70,134,393300,1,8,0:0:0:0:
70,134,393400,1,8,0:0:0:0:
70,134,393500,1,8,0:0:0:0:
15,153,393600,1,0,0:0:0:0:
15,153,393700,1,0,0:0:0:0:
15,153,393800,1,0,0:0:0:0:
15,153,393900,1,0,0:0:0:0:
71,139,394000,1,8,0:0:0:0:
127,127,394100,1,8,0:0:0:0:
127,127,394200,1,0,0:0:0:0:
12,136,394300,1,0,0:0:0:0:
70,134,394400,1,8,0:0:0:0:
70,134,394500,1,8,0:0:0:0:
70,134,394600,1,8,0:0:0:0:
70,134,394700,1,8,0:0:0:0:
12,136,394800,1,0,0:0:0:0:
12,136,394900,1,0,0:0:0:0:
70,134,395000,1,8,0:0:0:0:
70,134,395100,1,8,0:0:0:0:
70,134,395200,1,8,0:0:0:0:
70,134,395300,1,8,0:0:0:0:
12,130,395400,1,0,0:0:0:0:
12,130,395500,1,0,0:0:0:0:
70,134,395600,1,8,0:0:0:0:
70,134,395700,1,0,0:0:0:0:
12,130,395800,1,8,0:0:0:0:
12,130,395900,1,0,0:0:0:0:
70,134,396000,1,8,0:0:0:0:
12,130,396100,1,8,0:0:0:0:
12,130,396200,1,0,0:0:0:0:
12,130,396300,1,0,0:0:0:0:
70,134,396400,1,8,0:0:0:0:
70,134,396500,1,8,0:0:0:0:
12,130,396600,1,0,0:0:0:0:
12,130,396700,1,0,0:0:0:0:
12,130,396800,1,8,0:0:0:0:
263,174,396900,1,0,0:0:0:0:
128,129,397000,1,0,0:0:0:0:
128,129,397100,1,8,0:0:0:0:
263,174,397200,1,0,0:0:0:0:
132,111,397300,1,0,0:0:0:0:
132,111,397400,1,8,0:0:0:0:
263,184,397500,1,0,0:0:0:0:
201,116,397600,1,0,0:0:0:0:
201,116,397700,1,8,0:0:0:0:
201,116,397800,1,0,0:0:0:0:
201,116,397900,1,0,0:0:0:0:
120,118,398000,1,8,0:0:0:0:
1,112,398100,1,0,0:0:0:0:
204,121,398200,1,8,0:0:0:0:
1,112,398300,1,0,0:0:0:0:
1,112,398400,1,8,0:0:0:0:
1,112,398500,1,8,0:0:0:0:
1,112,398600,1,0,0:0:0:0:
2,96,398700,1,0,0:0:0:0:
102,184,398800,5,8,0:0:0:0:
102,184,398866,5,8,0:0:0:0:
63,187,398933,1,8,0:0:0:0:
63,189,399000,1,0,0:0:0:0:
63,189,399066,1,0,0:0:0:0:
63,189,399133,1,0,0:0:0:0:
102,184,399200,1,8,0:0:0:0:
106,129,399300,5,8,0:0:0:0:
106,129,399400,1,0,0:0:0:0:
106,129,399500,1,0,0:0:0:0:
106,129,399600,1,8,0:0:0:0:
106,129,399700,1,0,0:0:0:0:
48,157,399800,1,8,0:0:0:0:
49,149,399900,1,0,0:0:0:0:
53,149,400000,1,0,0:0:0:0:
48,149,400100,1,8,0:0:0:0:
85,184,400200,1,0,0:0:0:0:
85,184,400266,1,0,0:0:0:0:
85,184,400333,1,0,0:0:0:0:
85,184,400400,1,0,0:0:0:0:
85,184,400466,1,0,0:0:0:0:
85,184,400533,1,0,0:0:0:0:
85,184,400600,1,0,0:0:0:0:
85,184,400666,1,0,0:0:0:0:
85,184,400733,1,0,0:0:0:0:
85,184,400800,1,8,0:0:0:0:
