osu file format v14

[General]
AudioFilename: audio.mp3
AudioLeadIn: 0
PreviewTime: 138167
Countdown: 0
SampleSet: Drum
StackLeniency: 0.2
Mode: 0
LetterboxInBreaks: 0
WidescreenStoryboard: 0

[Editor]
Bookmarks: 26167,42167,43622,47985,49440,53804,55258,59622,66167,66895,74167,85804,87258,92349,93076,104713,122167,122895,130895,133804,136713,148349,148622,149167,149440,149622,149804,150076,151531,152349,152531,152713,152895,153440,154167,154440,154895,154985,155258,155440,155622,155895,157349,158076,158531,159985,161440,168713,170167,174530,180531,180713,183622,193440,193561,193682,193804,193925,193985,194046,194167,194288,194410,194531,194591,194652,194713,194804,194895,195076,195258,201076,206895,209804,222167,222895,231622,234531,236713,236955,237076,237258,237440,241076,241804,241985,244713,244895,247622,247804,250531,250713,286895,310167,321804,323258,324076
DistanceSpacing: 1.4
BeatDivisor: 6
GridSize: 8
TimelineZoom: 2

[Metadata]
Title:Kensei
TitleUnicode:劍聖
Artist:Whispered
ArtistUnicode:Whispered
Creator:MrKosiej
Version:Moonlight
Source:
Tags:metal death melodic eastern folk metsutan songs of the void LZD English
BeatmapID:2258310
BeatmapSetID:1079398

[Difficulty]
HPDrainRate:6.4
CircleSize:4.4
OverallDifficulty:8.8
ApproachRate:9.4
SliderMultiplier:2.2
SliderTickRate:1

[Events]
//Background and Video events
0,0,"samuraiarmyp.jpg",0,0
//Break Periods
//Storyboard Layer 0 (Background)
//Storyboard Layer 1 (Fail)
//Storyboard Layer 2 (Pass)
//Storyboard Layer 3 (Foreground)
//Storyboard Layer 4 (Overlay)
//Storyboard Sound Samples

[TimingPoints]
1440,363.636363636364,4,3,0,50,1,0
27440,-100,4,3,0,40,0,0
27622,-133.333333333333,4,3,0,40,0,0
27895,-133.333333333333,4,3,0,5,0,0
27985,-133.333333333333,4,3,0,40,0,0
28076,-133.333333333333,4,3,0,5,0,0
28167,-133.333333333333,4,3,0,40,0,0
28258,-133.333333333333,4,3,0,5,0,0
28349,-133.333333333333,4,3,0,40,0,0
28622,-133.333333333333,4,3,0,5,0,0
28713,-133.333333333333,4,3,0,40,0,0
28985,-133.333333333333,4,3,0,5,0,0
29076,-133.333333333333,4,3,0,50,0,0
30349,-133.333333333333,4,3,0,40,0,0
30804,-133.333333333333,4,3,0,5,0,0
30895,-133.333333333333,4,3,0,40,0,0
30985,-133.333333333333,4,3,0,5,0,0
31076,-133.333333333333,4,3,0,40,0,0
31167,-133.333333333333,4,3,0,5,0,0
31258,-133.333333333333,4,3,0,40,0,0
31985,-133.333333333333,4,3,0,50,0,0
33713,-133.333333333333,4,3,0,5,0,0
33804,-133.333333333333,4,3,0,50,0,0
33895,-133.333333333333,4,3,0,5,0,0
33985,-133.333333333333,4,3,0,50,0,0
34076,-133.333333333333,4,3,0,5,0,0
34167,-133.333333333333,4,3,0,50,0,0
34440,-133.333333333333,4,3,0,5,0,0
34531,-133.333333333333,4,3,0,50,0,0
34804,-133.333333333333,4,3,0,5,0,0
34895,-133.333333333333,4,3,0,50,0,0
36713,-100,4,3,0,50,0,0
37803,-100,4,3,0,60,0,0
75622,-133.333333333333,4,3,0,60,0,0
76895,-133.333333333333,4,3,0,40,0,0
77349,-133.333333333333,4,3,0,5,0,0
77440,-133.333333333333,4,3,0,40,0,0
77531,-133.333333333333,4,3,0,5,0,0
77622,-133.333333333333,4,3,0,40,0,0
77713,-133.333333333333,4,3,0,5,0,0
77804,-133.333333333333,4,3,0,40,0,0
78076,-133.333333333333,4,3,0,5,0,0
78167,-133.333333333333,4,3,0,40,0,0
78440,-133.333333333333,4,3,0,5,0,0
78531,-133.333333333333,4,3,0,50,0,0
80349,-100,4,3,0,50,0,0
81440,-100,4,3,0,60,0,0
91985,-100,4,3,0,5,0,0
92076,-100,4,3,0,60,0,0
96349,-133.333333333333,4,3,0,60,0,0
96713,-200,4,3,0,60,0,0
97076,-400,4,3,0,60,0,0
97440,-100,4,3,0,60,0,0
107622,-133.333333333333,4,3,0,60,0,0
107895,-133.333333333333,4,3,0,5,0,0
107985,-133.333333333333,4,3,0,60,0,0
108440,-100,4,3,0,60,0,0
109349,-100,4,3,0,5,0,0
109440,-100,4,3,0,60,0,0
109713,-100,4,3,0,5,0,0
109804,-100,4,3,0,40,0,0
110167,-100,4,3,0,50,0,0
110531,-100,4,3,0,60,0,0
123167,-100,4,3,0,5,0,0
123258,-100,4,3,0,60,0,0
123531,-100,4,3,0,5,0,0
123622,-100,4,3,0,60,0,0
137622,-100,4,3,0,35,0,0
138167,-100,4,3,0,40,0,0
139622,-100,4,3,0,50,0,0
164167,-100,4,3,0,20,0,0
164349,-400,4,3,0,25,0,0
164713,-200,4,3,0,30,0,0
165076,-133.333333333333,4,3,0,35,0,0
165440,-100,4,3,0,40,0,0
165804,-100,4,3,0,50,0,0
173076,363.636363636364,5,3,0,50,1,0
173076,-66.6666666666667,5,3,0,50,0,0
174894,363.636363636364,4,3,0,50,1,8
174895,363.636363636364,4,3,0,50,1,0
177076,-100,4,3,0,40,0,0
177804,-100,4,3,0,50,0,0
186076,-100,4,3,0,5,0,0
186167,-100,4,3,0,60,0,0
186440,-100,4,3,0,5,0,0
186531,-400,4,3,0,60,0,0
187985,-400,4,3,0,50,0,0
189440,-400,4,3,0,60,0,0
190713,-400,4,3,0,40,0,0
191258,-200,4,3,0,45,0,0
191622,-133.333333333333,4,3,0,50,0,0
191985,-100,4,3,0,55,0,0
192349,-100,4,3,0,60,0,0
196531,-100,4,3,0,40,0,0
196713,-400,4,3,0,45,0,0
197076,-200,4,3,0,50,0,0
197440,-133.333333333333,4,3,0,55,0,0
197804,-100,4,3,0,60,0,0
198167,-100,4,3,0,70,0,0
208349,-100,4,3,0,60,0,0
210258,-100,4,3,0,5,0,0
210349,-100,4,3,0,50,0,0
210804,-100,4,3,0,5,0,0
210895,-100,4,3,0,50,0,0
211258,-100,4,3,0,55,0,1
218531,-80,4,3,0,55,0,1
219258,-66.6666666666667,4,3,0,55,0,1
219895,-66.6666666666667,4,3,0,5,0,1
219985,-66.6666666666667,4,3,0,55,0,1
220622,-66.6666666666667,4,3,0,5,0,1
220713,-66.6666666666667,4,3,0,55,0,1
221349,-66.6666666666667,4,3,0,5,0,1
221440,-100,4,3,0,55,0,1
228440,-100,4,3,0,50,0,1
228622,-100,4,3,0,45,0,1
229440,-100,4,3,0,45,0,1
229804,-100,4,3,0,50,0,1
230167,-100,4,3,0,55,0,1
237713,-100,4,3,0,5,0,1
237804,-100,4,3,0,55,0,1
240349,-100,4,3,0,60,0,0
240713,-133.333333333333,4,3,0,50,0,0
243258,-100,4,3,0,60,0,0
243622,-133.333333333333,4,3,0,50,0,0
246167,-100,4,3,0,60,0,0
246531,-133.333333333333,4,3,0,50,0,0
249076,-100,4,3,0,60,0,0
249440,-133.333333333333,4,3,0,50,0,0
251985,-100,4,3,0,60,0,0
253349,-100,4,3,0,5,0,0
253440,-133.333333333333,4,3,0,50,0,0
254076,-133.333333333333,4,3,0,5,0,0
254167,-133.333333333333,4,3,0,50,0,0
254804,-133.333333333333,4,3,0,5,0,0
254895,-100,4,3,0,60,0,0
256258,-100,4,3,0,5,0,0
256349,-133.333333333333,4,3,0,50,0,0
256985,-133.333333333333,4,3,0,5,0,0
257076,-133.333333333333,4,3,0,50,0,0
257804,-100,4,3,0,60,0,0
259167,-100,4,3,0,5,0,0
259258,-133.333333333333,4,3,0,50,0,0
260713,-100,4,3,0,60,0,0
262076,-100,4,3,0,5,0,0
262167,-100,4,3,0,50,0,0
262713,-100,4,3,0,40,0,0
263258,-100,4,3,0,50,0,0
263622,-100,4,3,0,60,0,0
276258,-100,4,3,0,5,0,0
276349,-100,4,3,0,60,0,0
276622,-100,4,3,0,5,0,0
276713,-100,4,3,0,60,0,0
276985,-100,4,3,0,5,0,0
277076,-100,4,3,0,60,0,0
301985,-100,4,3,0,50,0,0
305531,-100,4,3,0,5,0,0
305622,-100,4,3,0,50,0,0
305713,-100,4,3,0,5,0,0
305804,-100,4,3,0,50,0,0
306985,-100,4,3,0,5,0,0
307076,-100,4,3,0,50,0,0
312349,-100,4,3,0,55,0,0
313076,-100,4,3,0,60,0,0

[Colours]
Combo1 : 219,100,112
Combo2 : 146,154,254
Combo3 : 242,170,203
Combo4 : 157,157,157

[HitObjects]
255,201,1076,5,8,0:0:0:0:
258,211,1258,1,0,0:0:0:0:
304,138,1440,5,2,0:0:0:0:
338,242,1622,2,0,L|356:296,1,55
344,230,1804,1,0,0:0:0:0:
167,169,1985,1,8,0:0:0:0:
473,164,2167,5,2,0:0:0:0:
211,292,2349,1,0,0:0:0:0:
291,97,2531,1,8,0:0:0:0:
294,107,2621,1,0,0:0:0:0:
297,117,2712,1,0,0:0:0:0:
301,128,2803,1,0,0:0:0:0:
304,138,2894,5,4,0:0:0:0:
262,7,3076,1,0,0:0:0:0:
396,36,3258,1,2,0:0:0:0:
304,138,3440,1,0,0:0:0:0:
262,7,3622,5,8,0:0:0:0:
355,294,3804,2,0,B|339:248|339:248|273:224,1,110,2|0,0:0|0:0,0:0:0:0:
372,301,4167,1,8,0:0:0:0:
77,188,4349,5,4,0:0:0:0:
179,228,4531,1,0,0:0:0:0:
93,296,4713,1,8,0:0:0:0:
474,261,4895,5,2,0:0:0:0:
372,301,5077,1,8,0:0:0:0:
458,369,5259,1,0,0:0:0:0:
77,188,5440,5,2,0:0:0:0:
179,228,5622,1,0,0:0:0:0:
93,296,5804,5,4,0:0:0:0:
60,79,5985,1,0,0:0:0:0:
264,158,6167,1,2,0:0:0:0:
93,296,6349,1,0,0:0:0:0:
60,79,6531,5,8,0:0:0:0:
429,220,6713,2,0,B|413:174|413:174|346:149,1,110,2|0,0:0|0:0,0:0:0:0:
445,226,7076,1,8,0:0:0:0:
385,49,7258,5,4,0:0:0:0:
475,314,7440,1,0,0:0:0:0:
419,146,7622,5,8,0:0:0:0:
445,226,7804,1,0,0:0:0:0:
385,49,7985,5,2,0:0:0:0:
329,373,8167,1,0,0:0:0:0:
288,187,8349,5,8,0:0:0:0:
329,373,8531,1,0,0:0:0:0:
138,165,8713,5,4,0:0:0:0:
46,267,8895,1,0,0:0:0:0:
4,137,9077,1,2,0:0:0:0:
138,165,9259,1,0,0:0:0:0:
46,267,9441,5,8,0:0:0:0:
271,18,9621,2,0,B|239:54|239:54|251:124,1,110,2|0,0:0|0:0,0:0:0:0:
269,0,9986,1,8,0:0:0:0:
512,60,10167,5,4,0:0:0:0:
410,100,10349,1,0,0:0:0:0:
496,168,10531,1,8,0:0:0:0:
291,250,10712,5,2,0:0:0:0:
393,290,10894,1,8,0:0:0:0:
307,358,11076,1,0,0:0:0:0:
512,60,11258,5,2,0:0:0:0:
410,100,11440,1,0,0:0:0:0:
496,168,11622,5,4,0:0:0:0:
323,31,11804,1,0,0:0:0:0:
291,250,11985,1,2,0:0:0:0:
496,168,12167,1,0,0:0:0:0:
323,31,12349,5,8,0:0:0:0:
291,250,12531,2,0,B|295:202|295:202|245:151,1,110,2|0,0:0|0:0,0:0:0:0:
301,263,12895,2,0,L|308:200,1,55,8|0,0:0|0:0,0:0:0:0:
323,31,13076,5,4,0:0:0:0:
293,384,13258,1,0,0:0:0:0:
132,0,13440,5,4,0:0:0:0:
168,384,13622,1,0,0:0:0:0:
506,204,13804,6,0,L|513:141,1,55,2|0,0:0|0:0,0:0:0:0:
0,145,13985,2,0,L|6:199,1,55
474,225,14167,6,0,L|481:162,1,55,2|0,0:0|0:0,0:0:0:0:
32,168,14349,2,0,L|38:222,1,55
365,134,14531,6,0,P|332:128|304:136,1,55,4|0,0:0|0:0,0:0:0:0:
315,262,14713,2,0,P|336:236|343:208,1,55
225,140,14895,2,0,P|236:171|257:191,1,55
358,127,15076,2,0,P|325:121|297:129,1,55
308,255,15258,2,0,P|329:229|336:201,1,55,8|0,0:0|0:0,0:0:0:0:
125,0,15440,5,2,0:0:0:0:
127,54,15530,1,0,0:0:0:0:
130,109,15621,1,0,0:0:0:0:
133,164,15712,1,0,0:0:0:0:
136,219,15804,1,8,0:0:0:0:
130,228,15895,1,0,0:0:0:0:
123,236,15985,6,0,L|120:172,1,55,4|0,0:0|0:0,0:0:0:0:
212,144,16167,2,0,L|209:80,1,55
301,55,16349,2,0,L|298:-9,1,55
479,236,16531,6,0,L|482:172,1,55,2|0,0:0|0:0,0:0:0:0:
390,144,16713,2,0,L|393:80,1,55
301,55,16895,2,0,L|298:-9,1,55
123,236,17076,6,0,L|120:172,1,55,2|0,0:0|0:0,0:0:0:0:
212,144,17258,2,0,L|209:80,1,55
356,346,17440,6,0,P|323:352|295:344,1,55,4|0,0:0|0:0,0:0:0:0:
306,218,17622,2,0,P|327:243|334:271,1,55
216,340,17804,2,0,P|227:308|248:288,1,55
349,353,17985,2,0,P|316:359|288:351,1,55
299,225,18167,2,0,P|320:250|327:278,1,55,8|0,0:0|0:0,0:0:0:0:
28,84,18349,5,2,0:0:0:0:
82,81,18439,1,0,0:0:0:0:
137,78,18530,1,0,0:0:0:0:
192,75,18621,1,0,0:0:0:0:
247,72,18713,1,8,0:0:0:0:
256,79,18804,1,0,0:0:0:0:
264,86,18894,6,0,L|200:89,1,55,4|0,0:0|0:0,0:0:0:0:
0,96,19076,2,0,L|54:93,1,55
336,174,19258,6,0,L|272:177,1,55,2|0,0:0|0:0,0:0:0:0:
181,179,19440,2,0,L|235:176,1,55
452,241,19621,6,0,L|388:244,1,55,8|0,0:0|0:0,0:0:0:0:
76,259,19803,2,0,L|130:256,1,55
408,257,19985,6,0,L|344:260,1,55,8|0,0:0|0:0,0:0:0:0:
114,270,20167,2,0,L|168:267,1,55
331,48,20349,6,0,P|298:42|270:50,1,55,4|0,0:0|0:0,0:0:0:0:
281,176,20531,2,0,P|302:151|309:123,1,55
191,54,20713,2,0,P|202:86|223:106,1,55
324,41,20894,2,0,P|291:35|263:43,1,55
274,169,21076,2,0,P|295:144|302:116,1,55,8|0,0:0|0:0,0:0:0:0:
508,0,21258,5,2,0:0:0:0:
506,54,21348,1,0,0:0:0:0:
503,109,21439,1,0,0:0:0:0:
500,164,21530,1,0,0:0:0:0:
497,219,21621,1,8,0:0:0:0:
503,228,21713,1,0,0:0:0:0:
510,236,21804,6,0,L|513:172,1,55,4|0,0:0|0:0,0:0:0:0:
383,313,21985,2,0,L|386:249,1,55
261,384,22167,2,0,L|264:320,1,55
12,236,22349,6,0,L|9:172,1,55,2|0,0:0|0:0,0:0:0:0:
139,313,22531,2,0,L|136:249,1,55
261,384,22713,2,0,L|264:320,1,55
510,236,22895,6,0,L|513:172,1,55,2|0,0:0|0:0,0:0:0:0:
383,313,23077,2,0,L|386:249,1,55
191,54,23258,6,0,P|202:85|223:105,1,55,4|0,0:0|0:0,0:0:0:0:
326,33,23440,2,0,P|293:27|266:35,1,55
266,172,23622,2,0,P|288:146|295:118,1,55
188,63,23804,2,0,P|199:94|220:114,1,55
324,42,23985,2,0,P|291:36|264:44,1,55,8|0,0:0|0:0,0:0:0:0:
42,372,24167,5,2,0:0:0:0:
96,375,24257,1,0,0:0:0:0:
151,378,24348,1,0,0:0:0:0:
206,381,24439,1,0,0:0:0:0:
261,384,24530,1,8,0:0:0:0:
270,377,24622,1,0,0:0:0:0:
278,370,24713,6,0,L|214:367,1,55,4|0,0:0|0:0,0:0:0:0:
0,357,24895,2,0,L|54:359,1,55
412,373,25076,6,0,L|382:316,1,55,2|0,0:0|0:0,0:0:0:0:
285,125,25259,2,0,L|310:173,1,55
319,176,25440,6,0,L|289:119,1,55,8|0,0:0|0:0,0:0:0:0:
166,121,25622,2,0,L|191:169,1,55
421,133,25804,6,0,L|391:76,1,55,8|0,0:0|0:0,0:0:0:0:
268,78,25986,2,0,L|293:126,1,55
358,249,26167,5,4,0:0:0:0:
251,206,26349,5,0,0:0:0:0:
266,235,26440,1,8,0:0:0:0:
134,157,26622,5,0,0:0:0:0:
148,186,26712,1,0,0:0:0:0:
162,216,26803,1,0,0:0:0:0:
176,246,26894,5,8,0:0:0:0:
173,302,26985,1,0,0:0:0:0:
173,302,27440,5,0,0:0:0:0:
148,186,27622,2,0,B|181:257|181:257|172:302,1,123.750004720688,2|0,0:0|0:0,0:0:0:0:
58,355,27985,2,0,L|115:360,1,41.2500015735627
228,373,28167,2,0,L|285:378,1,41.2500015735627
399,384,28349,6,0,P|377:328|428:295,1,123.750004720688,8|0,0:0|0:0,0:0:0:0:
442,205,28713,2,0,P|464:261|413:294,1,123.750004720688,8|0,0:0|0:0,0:0:0:0:
243,155,29076,6,0,L|335:168,1,82.5000031471254,4|0,0:0|0:0,0:0:0:0:
229,127,29349,1,0,0:0:0:0:
410,90,29531,5,0,0:0:0:0:
382,86,29621,1,0,0:0:0:0:
355,82,29712,1,0,0:0:0:0:
328,78,29803,5,8,0:0:0:0:
308,51,29894,1,0,0:0:0:0:
308,51,30349,5,0,0:0:0:0:
185,34,30531,2,0,L|319:52,1,123.750004720688,2|0,0:0|0:0,0:0:0:0:
512,82,30895,2,0,L|476:119,1,41.2500015735627
407,196,31076,2,0,L|371:233,1,41.2500015735627
245,366,31258,5,8,0:0:0:0:
372,375,31440,1,0,0:0:0:0:
105,244,31622,5,8,0:0:0:0:
232,235,31804,1,0,0:0:0:0:
15,346,31985,6,0,L|3:263,1,82.5000031471254,4|0,0:0|0:0,0:0:0:0:
19,366,32258,1,0,0:0:0:0:
105,244,32440,5,0,0:0:0:0:
110,273,32530,1,0,0:0:0:0:
114,300,32621,1,0,0:0:0:0:
118,326,32712,5,8,0:0:0:0:
96,353,32803,1,0,0:0:0:0:
96,353,33258,5,0,0:0:0:0:
89,124,33440,2,0,B|182:134|182:134|213:100,1,123.750004720688,2|0,0:0|0:0,0:0:0:0:
139,49,33804,2,0,L|93:44,1,41.2500015735627
281,63,33985,2,0,L|324:66,1,41.2500015735627
450,79,34167,6,0,L|347:188,1,123.750004720688,8|0,0:0|0:0,0:0:0:0:
253,289,34531,2,0,L|344:190,1,123.750004720688,8|0,0:0|0:0,0:0:0:0:
447,228,34895,6,0,L|385:292,1,82.5000031471254,4|0,0:0|0:0,0:0:0:0:
471,233,35167,1,0,0:0:0:0:
310,184,35349,2,0,L|345:147,2,41.2500015735627,8|0|0,0:0|0:0|0:0,0:0:0:0:
253,289,35622,6,0,L|315:223,1,82.5000031471254,4|0,0:0|0:0,0:0:0:0:
230,294,35894,1,0,0:0:0:0:
390,287,36076,2,0,L|347:332,2,41.2500015735627,8|0|0,0:0|0:0|0:0,0:0:0:0:
448,60,36349,5,2,0:0:0:0:
382,55,36440,1,0,0:0:0:0:
316,50,36531,1,8,0:0:0:0:
250,46,36622,1,0,0:0:0:0:
184,42,36713,2,0,L|149:100,1,55,2|0,0:0|0:0,0:0:0:0:
242,176,36895,2,0,L|270:128,1,55,8|0,0:0|0:0,0:0:0:0:
26,46,37076,5,2,0:0:0:0:
49,75,37166,1,0,0:0:0:0:
60,112,37257,1,8,0:0:0:0:
57,150,37348,1,0,0:0:0:0:
39,184,37440,1,2,0:0:0:0:
15,213,37530,1,0,0:0:0:0:
4,250,37622,2,0,L|63:262,1,55,8|0,0:0|0:0,0:0:0:0:
269,302,37804,6,0,L|215:291,1,55,4|0,0:0|0:0,0:0:0:0:
103,356,37985,1,0,0:0:0:0:
128,361,38076,2,0,L|181:371,1,55,8|0,0:0|0:0,0:0:0:0:
390,244,38258,1,0,0:0:0:0:
365,239,38349,2,0,L|311:228,1,55,8|0,0:0|0:0,0:0:0:0:
412,384,38531,6,0,L|394:331,1,55,2|0,0:0|0:0,0:0:0:0:
311,77,38712,1,0,0:0:0:0:
319,101,38804,2,0,L|336:153,1,55,8|0,0:0|0:0,0:0:0:0:
487,239,38985,1,0,0:0:0:0:
479,215,39076,2,0,L|461:162,1,55,8|0,0:0|0:0,0:0:0:0:
171,4,39258,6,0,L|149:121,1,110,4|0,0:0|0:0,0:0:0:0:
267,331,39531,2,0,L|287:222,1,110,8|0,0:0|0:0,0:0:0:0:
328,0,39804,1,8,0:0:0:0:
78,295,39985,6,0,L|182:259,1,110,2|0,0:0|0:0,0:0:0:0:
286,222,40258,2,0,L|181:259,1,110,8|0,0:0|0:0,0:0:0:0:
9,224,40531,1,8,0:0:0:0:
371,221,40713,6,0,L|388:273,1,55,4|0,0:0|0:0,0:0:0:0:
500,337,40894,1,0,0:0:0:0:
492,313,40985,2,0,L|474:260,1,55,8|0,0:0|0:0,0:0:0:0:
260,145,41167,1,0,0:0:0:0:
268,169,41258,2,0,L|285:221,1,55,8|0,0:0|0:0,0:0:0:0:
158,278,41440,6,0,L|194:236,1,55,2|0,0:0|0:0,0:0:0:0:
376,28,41621,1,0,0:0:0:0:
362,46,41713,2,0,L|325:87,1,55,8|0,0:0|0:0,0:0:0:0:
119,137,41894,1,0,0:0:0:0:
136,118,41985,2,0,L|173:77,1,55,8|0,0:0|0:0,0:0:0:0:
376,28,42167,5,4,0:0:0:0:
407,7,42257,1,0,0:0:0:0:
445,4,42348,1,8,0:0:0:0:
480,19,42439,1,0,0:0:0:0:
504,49,42530,1,2,0:0:0:0:
511,86,42621,1,0,0:0:0:0:
499,122,42712,1,8,0:0:0:0:
471,148,42803,1,0,0:0:0:0:
434,158,42895,5,2,0:0:0:0:
454,228,42985,1,0,0:0:0:0:
413,293,43076,1,8,0:0:0:0:
432,362,43166,1,0,0:0:0:0:
440,354,43258,2,0,L|474:300,1,55,2|0,0:0|0:0,0:0:0:0:
320,190,43440,2,0,L|290:236,1,55,8|0,0:0|0:0,0:0:0:0:
210,362,43622,6,0,L|193:310,1,55,4|0,0:0|0:0,0:0:0:0:
131,132,43804,1,0,0:0:0:0:
139,156,43895,2,0,L|157:209,1,55,8|0,0:0|0:0,0:0:0:0:
84,356,44077,1,0,0:0:0:0:
76,332,44168,2,0,L|59:280,1,55,8|0,0:0|0:0,0:0:0:0:
0,107,44349,6,0,L|53:118,1,55,2|0,0:0|0:0,0:0:0:0:
302,165,44531,1,0,0:0:0:0:
277,160,44622,2,0,L|222:149,1,55,8|0,0:0|0:0,0:0:0:0:
116,34,44804,1,0,0:0:0:0:
140,39,44895,2,0,L|193:50,1,55,8|0,0:0|0:0,0:0:0:0:
485,110,45076,6,0,P|439:159|437:210,1,110,4|0,0:0|0:0,0:0:0:0:
426,384,45349,1,0,0:0:0:0:
418,360,45440,2,0,P|414:332|401:308,1,55,8|0,0:0|0:0,0:0:0:0:
298,303,45622,2,0,P|302:331|315:355,1,55,8|0,0:0|0:0,0:0:0:0:
319,210,45804,6,0,P|258:214|217:251,1,110,2|0,0:0|0:0,0:0:0:0:
115,384,46076,1,0,0:0:0:0:
134,371,46167,2,0,P|129:310|92:269,1,110,2|0,0:0|0:0,0:0:0:0:
309,123,46531,6,0,L|255:134,1,55,4|0,0:0|0:0,0:0:0:0:
7,181,46713,1,0,0:0:0:0:
32,176,46804,2,0,L|86:165,1,55,8|0,0:0|0:0,0:0:0:0:
134,52,46986,1,0,0:0:0:0:
158,47,47077,2,0,L|211:35,1,55,8|0,0:0|0:0,0:0:0:0:
386,1,47258,6,0,L|422:41,1,55,2|0,0:0|0:0,0:0:0:0:
340,186,47440,1,0,0:0:0:0:
343,174,47531,1,0,0:0:0:0:
345,164,47622,2,0,L|308:121,1,55,8|0,0:0|0:0,0:0:0:0:
476,100,47804,2,0,L|512:142,1,55,8|0,0:0|0:0,0:0:0:0:
512,352,47985,5,4,0:0:0:0:
467,319,48075,1,0,0:0:0:0:
414,306,48166,1,8,0:0:0:0:
360,313,48257,1,0,0:0:0:0:
312,339,48349,1,2,0:0:0:0:
268,371,48439,1,0,0:0:0:0:
215,384,48530,1,8,0:0:0:0:
161,377,48621,1,0,0:0:0:0:
113,351,48712,5,2,0:0:0:0:
125,332,48804,1,0,0:0:0:0:
137,314,48895,1,8,0:0:0:0:
149,296,48985,1,0,0:0:0:0:
161,278,49076,1,2,0:0:0:0:
174,260,49167,1,0,0:0:0:0:
186,241,49258,2,0,L|173:183,1,55,8|0,0:0|0:0,0:0:0:0:
133,0,49440,6,0,L|187:11,1,55,4|0,0:0|0:0,0:0:0:0:
314,133,49621,1,0,0:0:0:0:
289,128,49713,2,0,L|236:118,1,55,8|0,0:0|0:0,0:0:0:0:
22,73,49894,1,0,0:0:0:0:
47,78,49985,2,0,L|101:89,1,55,8|0,0:0|0:0,0:0:0:0:
435,79,50167,6,0,L|452:131,1,55,2|0,0:0|0:0,0:0:0:0:
371,295,50348,1,0,0:0:0:0:
363,271,50440,2,0,L|345:220,1,55,8|0,0:0|0:0,0:0:0:0:
288,57,50621,1,0,0:0:0:0:
296,80,50713,2,0,L|313:132,1,55,8|0,0:0|0:0,0:0:0:0:
203,371,50895,6,0,L|225:254,1,110,4|0,0:0|0:0,0:0:0:0:
107,44,51168,2,0,L|87:153,1,110,8|0,0:0|0:0,0:0:0:0:
46,375,51441,1,8,0:0:0:0:
296,80,51622,6,0,L|192:116,1,110,2|0,0:0|0:0,0:0:0:0:
88,153,51895,2,0,L|193:116,1,110,8|0,0:0|0:0,0:0:0:0:
410,158,52168,1,8,0:0:0:0:
50,249,52349,6,0,L|104:260,1,55,4|0,0:0|0:0,0:0:0:0:
228,376,52530,1,0,0:0:0:0:
203,371,52622,2,0,L|150:361,1,55,8|0,0:0|0:0,0:0:0:0:
260,255,52804,1,0,0:0:0:0:
285,260,52895,2,0,L|338:270,1,55,8|0,0:0|0:0,0:0:0:0:
445,384,53076,6,0,L|427:331,1,55,2|0,0:0|0:0,0:0:0:0:
512,184,53258,1,0,0:0:0:0:
492,200,53349,2,0,L|451:235,1,55,8|0,0:0|0:0,0:0:0:0:
260,255,53531,1,0,0:0:0:0:
285,260,53622,2,0,L|338:270,1,55,8|0,0:0|0:0,0:0:0:0:
410,132,53804,5,4,0:0:0:0:
380,156,53894,1,0,0:0:0:0:
343,166,53985,1,8,0:0:0:0:
305,161,54076,1,0,0:0:0:0:
272,142,54167,1,2,0:0:0:0:
242,117,54257,1,0,0:0:0:0:
205,107,54348,1,8,0:0:0:0:
167,112,54439,1,0,0:0:0:0:
134,131,54530,5,2,0:0:0:0:
153,194,54622,1,0,0:0:0:0:
129,255,54713,1,8,0:0:0:0:
148,318,54803,1,0,0:0:0:0:
157,323,54895,2,0,L|141:267,1,55,2|0,0:0|0:0,0:0:0:0:
0,244,55076,2,0,L|15:296,1,55,8|0,0:0|0:0,0:0:0:0:
320,256,55258,6,0,L|266:267,1,55,4|0,0:0|0:0,0:0:0:0:
234,384,55439,1,0,0:0:0:0:
259,379,55531,2,0,L|312:369,1,55,8|0,0:0|0:0,0:0:0:0:
406,104,55713,1,0,0:0:0:0:
397,128,55804,2,0,L|379:178,1,55,8|0,0:0|0:0,0:0:0:0:
426,314,55985,6,0,L|444:262,1,55,2|0,0:0|0:0,0:0:0:0:
248,124,56167,1,0,0:0:0:0:
239,148,56258,2,0,L|221:198,1,55,8|0,0:0|0:0,0:0:0:0:
156,384,56440,1,0,0:0:0:0:
165,360,56531,2,0,L|182:309,1,55,8|0,0:0|0:0,0:0:0:0:
61,82,56713,6,0,P|107:131|109:182,1,110,4|0,0:0|0:0,0:0:0:0:
0,236,56986,1,0,0:0:0:0:
0,213,57077,2,0,P|4:185|17:161,1,55,8|0,0:0|0:0,0:0:0:0:
165,11,57259,2,0,P|177:35|181:62,1,55,8|0,0:0|0:0,0:0:0:0:
406,104,57441,6,0,P|362:71|308:70,1,110,2|0,0:0|0:0,0:0:0:0:
320,266,57713,1,0,0:0:0:0:
301,253,57804,2,0,P|306:192|343:151,1,110,2|0,0:0|0:0,0:0:0:0:
476,324,58167,6,0,L|422:335,1,55,4|0,0:0|0:0,0:0:0:0:
174,382,58349,1,0,0:0:0:0:
199,377,58440,2,0,L|253:366,1,55,8|0,0:0|0:0,0:0:0:0:
325,248,58622,1,0,0:0:0:0:
301,253,58713,2,0,L|248:265,1,55,8|0,0:0|0:0,0:0:0:0:
62,307,58895,6,0,L|26:267,1,55,2|0,0:0|0:0,0:0:0:0:
117,144,59077,1,0,0:0:0:0:
114,156,59168,1,0,0:0:0:0:
112,166,59259,2,0,L|149:209,1,55,8|0,0:0|0:0,0:0:0:0:
35,78,59441,2,0,L|-1:36,1,55,8|0,0:0|0:0,0:0:0:0:
247,0,59622,5,4,0:0:0:0:
289,33,59712,1,0,0:0:0:0:
308,84,59803,1,8,0:0:0:0:
297,138,59894,1,0,0:0:0:0:
261,178,59985,1,2,0:0:0:0:
218,211,60075,1,0,0:0:0:0:
199,262,60166,1,8,0:0:0:0:
210,316,60257,1,0,0:0:0:0:
246,356,60349,5,2,0:0:0:0:
240,278,60440,1,8,0:0:0:0:
311,248,60531,1,8,0:0:0:0:
360,306,60622,1,8,0:0:0:0:
324,374,60713,5,2,0:0:0:0:
316,297,60804,1,8,0:0:0:0:
373,245,60895,1,8,0:0:0:0:
365,168,60986,1,8,0:0:0:0:
358,92,61076,6,0,L|395:46,1,55,4|0,0:0|0:0,0:0:0:0:
154,92,61258,2,0,L|117:46,1,55
444,160,61440,6,0,L|481:114,1,55,2|0,0:0|0:0,0:0:0:0:
74,156,61622,2,0,L|37:110,1,55
259,0,61804,6,0,L|263:62,1,55,8|0,0:0|0:0,0:0:0:0:
250,14,61985,2,0,L|254:76,1,55
260,167,62167,2,0,L|256:229,1,55,8|0,0:0|0:0,0:0:0:0:
269,181,62349,2,0,L|265:243,1,55
383,375,62531,5,4,0:0:0:0:
350,355,62621,1,0,0:0:0:0:
313,344,62713,1,8,0:0:0:0:
274,343,62803,1,0,0:0:0:0:
237,351,62895,1,2,0:0:0:0:
204,371,62985,1,0,0:0:0:0:
167,382,63076,1,8,0:0:0:0:
128,383,63167,1,0,0:0:0:0:
91,375,63258,5,2,0:0:0:0:
96,365,63349,1,0,0:0:0:0:
101,355,63440,1,8,0:0:0:0:
106,345,63531,1,0,0:0:0:0:
111,335,63622,2,0,L|141:278,1,55,2|0,0:0|0:0,0:0:0:0:
0,194,63804,2,0,L|25:242,1,55,8|0,0:0|0:0,0:0:0:0:
195,174,63985,5,4,0:0:0:0:
227,194,64075,1,0,0:0:0:0:
265,203,64166,1,8,0:0:0:0:
303,200,64257,1,0,0:0:0:0:
338,185,64349,1,2,0:0:0:0:
371,165,64439,1,0,0:0:0:0:
409,157,64530,1,8,0:0:0:0:
447,160,64621,1,0,0:0:0:0:
481,176,64713,5,2,0:0:0:0:
446,200,64803,1,0,0:0:0:0:
403,197,64894,1,8,0:0:0:0:
373,166,64985,1,0,0:0:0:0:
369,124,65076,1,2,0:0:0:0:
393,88,65167,1,0,0:0:0:0:
435,77,65258,2,0,P|469:80|489:94,1,55,8|0,0:0|0:0,0:0:0:0:
158,0,65440,5,4,0:0:0:0:
160,43,65531,1,0,0:0:0:0:
162,86,65622,1,8,0:0:0:0:
164,129,65713,1,0,0:0:0:0:
195,174,65804,5,2,0:0:0:0:
193,217,65895,1,0,0:0:0:0:
191,260,65985,1,8,0:0:0:0:
189,303,66076,1,0,0:0:0:0:
163,351,66167,5,2,0:0:0:0:
184,345,66258,1,0,0:0:0:0:
247,363,66349,1,8,0:0:0:0:
268,357,66440,1,0,0:0:0:0:
330,377,66531,2,0,L|331:313,1,55,2|0,0:0|0:0,0:0:0:0:
52,237,66713,2,0,L|52:291,1,55,8|0,0:0|0:0,0:0:0:0:
367,210,66895,6,0,L|312:210,1,55,4|0,0:0|0:0,0:0:0:0:
0,119,67076,2,0,L|54:118,1,55
227,167,67258,2,0,L|172:167,1,55,2|0,0:0|0:0,0:0:0:0:
142,160,67440,2,0,L|196:159,1,55
449,35,67622,6,0,L|443:95,1,55,2|0,0:0|0:0,0:0:0:0:
415,384,67804,2,0,L|420:329,1,55
354,0,67985,6,0,L|360:60,1,55,2|0,0:0|0:0,0:0:0:0:
393,384,68167,2,0,L|387:329,1,55
155,46,68349,5,4,0:0:0:0:
101,39,68439,1,0,0:0:0:0:
53,65,68530,1,8,0:0:0:0:
31,114,68621,1,0,0:0:0:0:
41,167,68713,1,2,0:0:0:0:
81,203,68803,1,0,0:0:0:0:
135,209,68895,1,8,0:0:0:0:
182,182,68985,1,0,0:0:0:0:
203,133,69076,1,2,0:0:0:0:
245,100,69166,1,0,0:0:0:0:
299,98,69257,1,8,0:0:0:0:
343,130,69348,1,0,0:0:0:0:
361,181,69439,1,2,0:0:0:0:
344,232,69530,1,0,0:0:0:0:
300,264,69622,2,0,L|274:206,1,55,8|0,0:0|0:0,0:0:0:0:
460,0,69804,5,4,0:0:0:0:
436,30,69894,1,0,0:0:0:0:
423,66,69985,1,8,0:0:0:0:
423,104,70076,1,0,0:0:0:0:
435,140,70167,1,2,0:0:0:0:
458,170,70257,1,0,0:0:0:0:
471,206,70348,1,8,0:0:0:0:
471,244,70439,1,0,0:0:0:0:
459,280,70531,5,2,0:0:0:0:
461,285,70622,1,0,0:0:0:0:
463,290,70713,1,8,0:0:0:0:
465,295,70804,1,0,0:0:0:0:
467,300,70895,1,2,0:0:0:0:
469,304,70985,1,0,0:0:0:0:
471,309,71076,2,0,L|453:366,1,55,8|0,0:0|0:0,0:0:0:0:
222,384,71258,5,4,0:0:0:0:
170,366,71348,1,0,0:0:0:0:
131,328,71439,1,8,0:0:0:0:
113,276,71530,1,0,0:0:0:0:
120,222,71621,1,2,0:0:0:0:
151,177,71712,1,0,0:0:0:0:
198,150,71803,1,8,0:0:0:0:
252,146,71894,1,0,0:0:0:0:
302,167,71985,1,2,0:0:0:0:
338,208,72076,1,0,0:0:0:0:
352,261,72167,1,8,0:0:0:0:
341,314,72257,1,0,0:0:0:0:
308,357,72349,6,0,L|271:290,1,55,4|0,0:0|0:0,0:0:0:0:
238,232,72531,2,0,L|265:281,1,55,8|0,0:0|0:0,0:0:0:0:
42,384,72713,6,0,L|4:316,1,55,2|0,0:0|0:0,0:0:0:0:
6,169,72895,2,0,L|46:102,1,55
163,19,73076,2,0,L|240:20,1,55,8|0,0:0|0:0,0:0:0:0:
384,30,73258,2,0,L|421:97,1,55
102,349,73440,6,0,L|75:300,1,55,2|0,0:0|0:0,0:0:0:0:
76,196,73622,2,0,L|104:148,1,55
188,89,73804,2,0,L|243:90,1,55,8|0,0:0|0:0,0:0:0:0:
345,97,73985,2,0,L|371:145,1,55
184,330,74167,5,4,0:0:0:0:
155,278,74257,1,0,0:0:0:0:
163,219,74348,1,8,0:0:0:0:
206,178,74439,1,0,0:0:0:0:
265,171,74530,1,2,0:0:0:0:
316,203,74621,1,0,0:0:0:0:
337,258,74712,1,8,0:0:0:0:
320,315,74803,1,0,0:0:0:0:
271,349,74895,6,0,L|261:281,1,55,4|0,0:0|0:0,0:0:0:0:
432,231,75076,2,0,L|423:285,1,55
414,339,75258,2,0,L|422:284,1,55,2|0,0:0|0:0,0:0:0:0:
445,150,75440,2,0,L|453:95,1,55
468,0,75622,1,4,0:0:0:0:
348,16,75804,5,0,0:0:0:0:
363,45,75895,1,8,0:0:0:0:
226,26,76077,5,0,0:0:0:0:
240,55,76167,1,0,0:0:0:0:
254,85,76258,1,0,0:0:0:0:
268,115,76349,5,8,0:0:0:0:
265,171,76440,1,0,0:0:0:0:
361,245,76894,5,0,0:0:0:0:
386,361,77076,2,0,B|353:290|353:290|362:245,1,123.750004720688,4|0,0:0|0:0,0:0:0:0:
476,192,77440,2,0,L|419:187,1,41.2500015735627
306,174,77622,2,0,L|249:169,1,41.2500015735627
135,163,77804,6,0,P|157:219|106:252,1,123.750004720688,8|0,0:0|0:0,0:0:0:0:
92,342,78168,2,0,P|70:286|121:253,1,123.750004720688,8|0,0:0|0:0,0:0:0:0:
458,197,78531,6,0,L|396:133,1,82.5000031471254,4|0,0:0|0:0,0:0:0:0:
482,192,78803,1,0,0:0:0:0:
321,241,78985,2,0,L|356:278,2,41.2500015735627,8|0|0,0:0|0:0|0:0,0:0:0:0:
264,136,79258,6,0,L|326:202,1,82.5000031471254,4|0,0:0|0:0,0:0:0:0:
241,131,79530,1,0,0:0:0:0:
401,138,79713,2,0,L|358:93,2,41.2500015735627,8|0|0,0:0|0:0|0:0,0:0:0:0:
459,365,79985,5,2,0:0:0:0:
393,370,80076,1,0,0:0:0:0:
327,375,80167,1,0,0:0:0:0:
261,379,80258,1,0,0:0:0:0:
195,383,80349,2,0,L|160:325,1,55,2|0,0:0|0:0,0:0:0:0:
253,249,80531,2,0,L|281:297,1,55,8|0,0:0|0:0,0:0:0:0:
459,365,80712,5,4,0:0:0:0:
436,336,80804,1,0,0:0:0:0:
425,299,80895,1,0,0:0:0:0:
428,261,80984,1,0,0:0:0:0:
446,227,81076,1,2,0:0:0:0:
470,198,81166,1,0,0:0:0:0:
481,161,81258,2,0,L|422:149,1,55,8|0,0:0|0:0,0:0:0:0:
243,82,81440,6,0,L|297:93,1,55,4|0,0:0|0:0,0:0:0:0:
409,28,81621,1,0,0:0:0:0:
384,23,81713,2,0,L|331:13,1,55,8|0,0:0|0:0,0:0:0:0:
122,140,81894,1,0,0:0:0:0:
147,145,81985,2,0,L|201:156,1,55,8|0,0:0|0:0,0:0:0:0:
100,0,82167,6,0,L|118:53,1,55,2|0,0:0|0:0,0:0:0:0:
201,307,82348,1,0,0:0:0:0:
193,283,82440,2,0,L|176:231,1,55,8|0,0:0|0:0,0:0:0:0:
25,145,82621,1,0,0:0:0:0:
33,169,82713,2,0,L|51:222,1,55,8|0,0:0|0:0,0:0:0:0:
341,380,82894,6,0,L|363:263,1,110,4|0,0:0|0:0,0:0:0:0:
245,53,83167,2,0,L|225:162,1,110,8|0,0:0|0:0,0:0:0:0:
184,384,83440,1,8,0:0:0:0:
434,89,83622,6,0,L|330:125,1,110,2|0,0:0|0:0,0:0:0:0:
226,162,83894,2,0,L|331:125,1,110,8|0,0:0|0:0,0:0:0:0:
503,160,84167,1,8,0:0:0:0:
141,163,84349,6,0,L|124:111,1,55,4|0,0:0|0:0,0:0:0:0:
12,47,84530,1,0,0:0:0:0:
20,71,84622,2,0,L|38:124,1,55,8|0,0:0|0:0,0:0:0:0:
252,239,84803,1,0,0:0:0:0:
244,215,84894,2,0,L|227:163,1,55,8|0,0:0|0:0,0:0:0:0:
354,106,85076,6,0,L|318:148,1,55,2|0,0:0|0:0,0:0:0:0:
136,356,85257,1,0,0:0:0:0:
150,338,85349,2,0,L|187:297,1,55,8|0,0:0|0:0,0:0:0:0:
393,247,85530,1,0,0:0:0:0:
376,266,85622,2,0,L|339:307,1,55,8|0,0:0|0:0,0:0:0:0:
136,356,85803,5,4,0:0:0:0:
105,377,85895,1,0,0:0:0:0:
67,380,85984,1,8,0:0:0:0:
32,365,86075,1,0,0:0:0:0:
8,335,86166,1,2,0:0:0:0:
1,298,86257,1,0,0:0:0:0:
13,262,86348,1,8,0:0:0:0:
41,236,86439,1,0,0:0:0:0:
78,226,86531,5,2,0:0:0:0:
58,156,86621,1,0,0:0:0:0:
99,91,86712,1,8,0:0:0:0:
80,22,86804,1,0,0:0:0:0:
72,30,86894,2,0,L|38:84,1,55,2|0,0:0|0:0,0:0:0:0:
192,194,87076,2,0,L|222:148,1,55,8|0,0:0|0:0,0:0:0:0:
302,22,87258,6,0,L|319:74,1,55,4|0,0:0|0:0,0:0:0:0:
381,252,87440,1,0,0:0:0:0:
373,228,87531,2,0,L|355:175,1,55,8|0,0:0|0:0,0:0:0:0:
428,28,87713,1,0,0:0:0:0:
436,52,87804,2,0,L|453:104,1,55,8|0,0:0|0:0,0:0:0:0:
512,277,87985,6,0,L|459:266,1,55,2|0,0:0|0:0,0:0:0:0:
210,219,88167,1,0,0:0:0:0:
235,224,88258,2,0,L|290:235,1,55,8|0,0:0|0:0,0:0:0:0:
396,350,88440,1,0,0:0:0:0:
372,345,88531,2,0,L|319:334,1,55,8|0,0:0|0:0,0:0:0:0:
27,274,88713,6,0,P|73:225|75:174,1,110,4|0,0:0|0:0,0:0:0:0:
86,0,88985,1,0,0:0:0:0:
94,24,89076,2,0,P|98:52|111:76,1,55,8|0,0:0|0:0,0:0:0:0:
214,81,89258,2,0,P|210:53|197:29,1,55,8|0,0:0|0:0,0:0:0:0:
193,174,89440,6,0,P|254:170|295:133,1,110,2|0,0:0|0:0,0:0:0:0:
397,0,89712,1,0,0:0:0:0:
378,13,89803,2,0,P|383:74|420:115,1,110,2|0,0:0|0:0,0:0:0:0:
203,261,90167,6,0,L|257:250,1,55,4|0,0:0|0:0,0:0:0:0:
505,203,90349,1,0,0:0:0:0:
480,208,90440,2,0,L|426:219,1,55,8|0,0:0|0:0,0:0:0:0:
378,332,90622,1,0,0:0:0:0:
354,337,90713,2,0,L|301:349,1,55,8|0,0:0|0:0,0:0:0:0:
126,383,90894,6,0,L|90:343,1,55,2|0,0:0|0:0,0:0:0:0:
172,198,91076,1,0,0:0:0:0:
169,210,91167,1,0,0:0:0:0:
167,220,91258,2,0,L|204:263,1,55,8|0,0:0|0:0,0:0:0:0:
36,284,91440,2,0,L|0:242,1,55,8|0,0:0|0:0,0:0:0:0:
7,32,91622,6,0,L|81:117,1,110,2|0,0:0|0:0,0:0:0:0:
11,21,91895,2,0,L|47:63,1,55
217,145,92076,6,0,B|187:112|187:112|173:198,1,110,8|0,0:0|0:0,0:0:0:0:
167,220,92349,1,2,0:0:0:0:
323,0,92531,1,0,0:0:0:0:
311,18,92621,1,0,0:0:0:0:
299,36,92712,1,2,0:0:0:0:
286,54,92803,1,0,0:0:0:0:
274,73,92894,2,0,L|315:118,1,55,8|0,0:0|0:0,0:0:0:0:
475,45,93076,5,4,0:0:0:0:
438,37,93166,1,0,0:0:0:0:
411,63,93257,1,8,0:0:0:0:
416,99,93348,1,0,0:0:0:0:
449,116,93440,1,2,0:0:0:0:
485,108,93530,1,0,0:0:0:0:
512,134,93621,1,8,0:0:0:0:
507,170,93712,1,0,0:0:0:0:
474,187,93804,1,2,0:0:0:0:
438,179,93894,1,0,0:0:0:0:
411,205,93985,1,8,0:0:0:0:
416,241,94076,1,0,0:0:0:0:
449,258,94167,5,2,0:0:0:0:
445,268,94258,1,0,0:0:0:0:
441,278,94349,1,8,0:0:0:0:
437,288,94440,1,0,0:0:0:0:
433,298,94531,5,2,0:0:0:0:
367,302,94622,1,0,0:0:0:0:
311,337,94713,1,8,0:0:0:0:
245,341,94804,1,0,0:0:0:0:
183,364,94895,2,0,L|208:303,1,55,2|0,0:0|0:0,0:0:0:0:
255,189,95076,2,0,L|234:239,1,55,8|0,0:0|0:0,0:0:0:0:
180,374,95258,5,4,0:0:0:0:
242,351,95349,1,0,0:0:0:0:
308,347,95440,1,8,0:0:0:0:
364,312,95531,1,0,0:0:0:0:
430,308,95622,2,0,L|455:247,1,55,2|0,0:0|0:0,0:0:0:0:
502,133,95804,2,0,L|481:183,1,55,8|0,0:0|0:0,0:0:0:0:
255,189,95985,5,2,0:0:0:0:
218,148,96075,1,0,0:0:0:0:
226,96,96167,2,0,L|234:29,1,55,8|0,0:0|0:0,0:0:0:0:
333,205,96349,5,2,0:0:0:0:
316,251,96439,1,0,0:0:0:0:
272,268,96531,2,0,L|219:288,1,41.2500015735627,8|0,0:0|0:0,0:0:0:0:
313,131,96713,5,2,0:0:0:0:
351,124,96803,1,0,0:0:0:0:
382,148,96895,2,0,L|417:175,1,27.5,8|0,0:0|0:0,0:0:0:0:
255,189,97076,5,2,0:0:0:0:
234,165,97166,1,0,0:0:0:0:
239,134,97258,2,0,L|243:111,1,13.75,8|0,0:0|0:0,0:0:0:0:
511,352,97440,5,4,0:0:0:0:
466,319,97530,1,0,0:0:0:0:
413,306,97621,1,8,0:0:0:0:
359,313,97712,1,0,0:0:0:0:
311,339,97804,1,2,0:0:0:0:
267,371,97894,1,0,0:0:0:0:
214,384,97985,1,8,0:0:0:0:
160,377,98076,1,0,0:0:0:0:
112,351,98167,5,2,0:0:0:0:
124,332,98259,1,0,0:0:0:0:
136,314,98350,1,8,0:0:0:0:
148,296,98440,1,0,0:0:0:0:
160,278,98531,2,0,L|147:220,1,55,2|0,0:0|0:0,0:0:0:0:
30,384,98713,2,0,L|42:330,1,55,8|0,0:0|0:0,0:0:0:0:
13,82,98895,5,4,0:0:0:0:
5,118,98985,1,0,0:0:0:0:
30,144,99076,1,8,0:0:0:0:
66,139,99167,1,0,0:0:0:0:
82,107,99259,1,2,0:0:0:0:
74,72,99349,1,0,0:0:0:0:
100,45,99440,1,8,0:0:0:0:
135,50,99531,1,0,0:0:0:0:
152,82,99621,1,2,0:0:0:0:
144,118,99713,1,0,0:0:0:0:
170,144,99804,1,8,0:0:0:0:
205,139,99895,1,0,0:0:0:0:
222,107,99986,5,2,0:0:0:0:
232,111,100077,1,0,0:0:0:0:
242,115,100168,1,8,0:0:0:0:
251,119,100259,1,0,0:0:0:0:
259,121,100349,5,2,0:0:0:0:
325,117,100440,1,0,0:0:0:0:
381,82,100531,1,8,0:0:0:0:
447,78,100622,1,0,0:0:0:0:
509,55,100713,2,0,L|484:116,1,55,2|0,0:0|0:0,0:0:0:0:
437,230,100894,2,0,L|457:179,1,55,8|0,0:0|0:0,0:0:0:0:
512,45,101076,5,4,0:0:0:0:
450,68,101167,1,0,0:0:0:0:
384,72,101258,1,8,0:0:0:0:
328,107,101349,1,0,0:0:0:0:
262,111,101440,2,0,L|237:172,1,55,2|0,0:0|0:0,0:0:0:0:
190,286,101622,2,0,L|210:235,1,55,8|0,0:0|0:0,0:0:0:0:
199,0,101804,5,2,0:0:0:0:
178,50,101894,1,0,0:0:0:0:
157,101,101985,1,8,0:0:0:0:
136,152,102076,1,0,0:0:0:0:
115,203,102167,2,0,L|91:265,1,55,2|0,0:0|0:0,0:0:0:0:
95,213,102349,2,0,L|70:274,1,55,8|0,0:0|0:0,0:0:0:0:
0,379,102531,5,2,0:0:0:0:
54,380,102621,1,0,0:0:0:0:
109,381,102713,1,8,0:0:0:0:
164,383,102803,1,0,0:0:0:0:
219,384,102894,2,0,L|285:384,1,55,2|0,0:0|0:0,0:0:0:0:
347,328,103076,2,0,L|413:328,1,55,8|0,0:0|0:0,0:0:0:0:
480,384,103258,5,4,0:0:0:0:
491,347,103348,1,0,0:0:0:0:
490,309,103439,1,8,0:0:0:0:
478,272,103530,1,0,0:0:0:0:
454,242,103622,1,2,0:0:0:0:
442,205,103712,1,0,0:0:0:0:
443,167,103803,1,8,0:0:0:0:
455,130,103894,1,0,0:0:0:0:
479,100,103985,5,2,0:0:0:0:
424,137,104076,1,0,0:0:0:0:
359,125,104167,1,8,0:0:0:0:
313,77,104258,1,0,0:0:0:0:
315,10,104349,2,0,L|325:72,1,55,2|0,0:0|0:0,0:0:0:0:
286,160,104531,2,0,L|296:222,1,55,8|0,0:0|0:0,0:0:0:0:
355,281,104713,5,2,0:0:0:0:
300,244,104804,1,0,0:0:0:0:
235,256,104895,1,8,0:0:0:0:
189,304,104986,1,0,0:0:0:0:
191,371,105077,2,0,L|201:309,1,55,2|0,0:0|0:0,0:0:0:0:
199,384,105259,2,0,L|209:322,1,55,8|0,0:0|0:0,0:0:0:0:
11,384,105440,5,4,0:0:0:0:
0,347,105530,1,0,0:0:0:0:
1,309,105621,1,8,0:0:0:0:
13,272,105712,1,0,0:0:0:0:
37,242,105804,1,2,0:0:0:0:
49,205,105894,1,0,0:0:0:0:
48,167,105985,1,8,0:0:0:0:
36,130,106076,1,0,0:0:0:0:
12,100,106167,6,0,L|18:63,5,36.6666666666667,8|0|0|0|0|0,0:0|0:0|0:0|0:0|0:0|0:0,0:0:0:0:
89,81,106530,1,2,0:0:0:0:
98,87,106590,1,0,0:0:0:0:
108,90,106651,1,0,0:0:0:0:
118,92,106711,1,0,0:0:0:0:
129,92,106772,1,0,0:0:0:0:
140,91,106833,1,0,0:0:0:0:
150,87,106895,5,0,0:0:0:0:
83,325,107076,1,0,0:0:0:0:
80,0,107258,5,2,0:0:0:0:
139,258,107439,1,0,0:0:0:0:
323,0,107622,6,0,P|299:52|330:123,1,123.750004720688,4|0,0:0|0:0,0:0:0:0:
369,166,107985,2,0,P|393:218|328:302,1,165.000006294251,4|0,0:0|0:0,0:0:0:0:
279,358,108531,5,0,0:0:0:0:
268,354,108591,1,0,0:0:0:0:
257,352,108652,1,0,0:0:0:0:
246,350,108712,1,0,0:0:0:0:
473,285,108895,1,8,0:0:0:0:
127,384,109076,6,0,P|156:320|118:233,1,165,4|0,0:0|0:0,0:0:0:0:
70,180,109440,2,0,P|40:116|78:29,1,165,4|0,0:0|0:0,0:0:0:0:
187,40,109804,5,0,0:0:0:0:
231,67,109894,1,0,0:0:0:0:
227,119,109985,1,0,0:0:0:0:
179,140,110076,1,0,0:0:0:0:
139,106,110167,5,8,0:0:0:0:
149,101,110258,1,0,0:0:0:0:
158,96,110349,1,0,0:0:0:0:
167,91,110440,1,0,0:0:0:0:
176,86,110531,5,4,0:0:0:0:
128,58,110622,1,0,0:0:0:0:
81,87,110713,1,8,0:0:0:0:
68,140,110804,1,0,0:0:0:0:
95,187,110895,1,2,0:0:0:0:
140,217,110985,1,0,0:0:0:0:
159,268,111076,1,8,0:0:0:0:
141,320,111167,1,0,0:0:0:0:
87,334,111258,5,2,0:0:0:0:
42,301,111349,1,0,0:0:0:0:
42,245,111440,1,8,0:0:0:0:
85,211,111531,1,0,0:0:0:0:
140,217,111622,2,0,P|176:226|211:221,3,55,2|0|8|0,0:0|0:0|0:0|0:0,0:0:0:0:
381,346,111985,5,4,0:0:0:0:
349,366,112075,1,0,0:0:0:0:
311,369,112166,1,8,0:0:0:0:
276,354,112257,1,0,0:0:0:0:
253,323,112348,1,2,0:0:0:0:
248,285,112439,1,0,0:0:0:0:
262,250,112530,1,8,0:0:0:0:
291,225,112621,1,0,0:0:0:0:
329,217,112713,1,2,0:0:0:0:
366,211,112803,1,0,0:0:0:0:
397,189,112894,1,8,0:0:0:0:
413,156,112985,1,0,0:0:0:0:
411,117,113076,1,2,0:0:0:0:
391,85,113167,1,0,0:0:0:0:
358,67,113258,1,8,0:0:0:0:
320,66,113349,1,0,0:0:0:0:
287,85,113440,5,4,0:0:0:0:
292,94,113531,1,0,0:0:0:0:
297,101,113622,2,0,L|329:156,1,55,8|0,0:0|0:0,0:0:0:0:
173,65,113804,1,2,0:0:0:0:
178,56,113895,1,0,0:0:0:0:
183,49,113986,2,0,L|215:-6,1,55,8|0,0:0|0:0,0:0:0:0:
120,153,114167,5,2,0:0:0:0:
115,144,114258,1,0,0:0:0:0:
111,137,114349,2,0,L|79:82,1,55,8|0,0:0|0:0,0:0:0:0:
213,135,114531,1,2,0:0:0:0:
218,144,114622,1,0,0:0:0:0:
222,151,114713,2,0,L|254:206,1,55,8|0,0:0|0:0,0:0:0:0:
29,249,114895,5,4,0:0:0:0:
8,281,114985,1,0,0:0:0:0:
5,319,115076,1,8,0:0:0:0:
20,354,115167,1,0,0:0:0:0:
51,377,115258,1,2,0:0:0:0:
89,382,115349,1,0,0:0:0:0:
124,368,115440,1,8,0:0:0:0:
149,339,115531,1,0,0:0:0:0:
158,301,115622,1,2,0:0:0:0:
164,264,115713,1,0,0:0:0:0:
186,233,115804,1,8,0:0:0:0:
219,217,115895,1,0,0:0:0:0:
258,219,115986,1,2,0:0:0:0:
290,239,116077,1,0,0:0:0:0:
308,272,116168,1,8,0:0:0:0:
309,310,116259,1,0,0:0:0:0:
290,343,116349,5,4,0:0:0:0:
250,314,116440,1,0,0:0:0:0:
240,265,116531,1,8,0:0:0:0:
258,219,116622,1,0,0:0:0:0:
298,190,116713,1,2,0:0:0:0:
329,151,116803,1,0,0:0:0:0:
326,101,116894,1,8,0:0:0:0:
296,61,116985,1,0,0:0:0:0:
250,41,117076,2,0,P|214:50|179:45,3,55,2|0|8|0,0:0|0:0|0:0|0:0,0:0:0:0:
22,235,117440,5,2,0:0:0:0:
29,249,117530,1,0,0:0:0:0:
32,265,117621,1,8,0:0:0:0:
31,282,117712,1,0,0:0:0:0:
29,296,117804,5,4,0:0:0:0:
8,264,117894,1,0,0:0:0:0:
5,226,117985,1,8,0:0:0:0:
20,191,118076,1,0,0:0:0:0:
51,168,118167,1,2,0:0:0:0:
89,163,118258,1,0,0:0:0:0:
124,177,118349,1,8,0:0:0:0:
149,206,118440,1,0,0:0:0:0:
158,244,118530,1,2,0:0:0:0:
164,281,118622,1,0,0:0:0:0:
186,312,118713,1,8,0:0:0:0:
219,328,118804,1,0,0:0:0:0:
258,326,118895,1,2,0:0:0:0:
290,306,118986,1,0,0:0:0:0:
308,273,119077,1,8,0:0:0:0:
309,235,119168,1,0,0:0:0:0:
290,202,119258,5,4,0:0:0:0:
343,209,119348,1,0,0:0:0:0:
391,185,119439,1,8,0:0:0:0:
416,137,119530,1,0,0:0:0:0:
408,83,119621,1,2,0:0:0:0:
370,44,119712,1,0,0:0:0:0:
317,34,119804,5,4,0:0:0:0:
305,86,119894,1,0,0:0:0:0:
266,123,119985,1,2,0:0:0:0:
212,130,120076,1,0,0:0:0:0:
164,104,120167,1,8,0:0:0:0:
141,55,120258,1,0,0:0:0:0:
149,1,120349,5,2,0:0:0:0:
158,6,120440,1,0,0:0:0:0:
167,11,120531,1,8,0:0:0:0:
176,16,120622,1,0,0:0:0:0:
185,21,120713,2,0,L|240:48,3,55,2|0|8|0,0:0|0:0|0:0|0:0,0:0:0:0:
44,0,121076,5,4,0:0:0:0:
48,54,121166,1,0,0:0:0:0:
53,109,121257,1,8,0:0:0:0:
58,164,121348,1,0,0:0:0:0:
63,219,121439,5,2,0:0:0:0:
55,226,121531,1,0,0:0:0:0:
46,233,121622,1,8,0:0:0:0:
37,240,121713,1,0,0:0:0:0:
29,247,121804,5,2,0:0:0:0:
73,295,121895,1,0,0:0:0:0:
137,286,121985,1,8,0:0:0:0:
181,334,122076,1,0,0:0:0:0:
245,322,122167,6,0,L|309:310,1,55,4|0,0:0|0:0,0:0:0:0:
512,273,122349,2,0,L|457:283,1,55,2|0,0:0|0:0,0:0:0:0:
245,315,122531,6,0,L|299:325,1,55,8|0,0:0|0:0,0:0:0:0:
512,364,122713,2,0,L|448:352,1,55,8|0,0:0|0:0,0:0:0:0:
279,228,122895,6,0,P|230:190|306:164,1,165,4|0,0:0|0:0,0:0:0:0:
414,133,123258,2,0,P|463:95|387:69,1,165,4|0,0:0|0:0,0:0:0:0:
225,34,123622,6,0,P|172:81|77:50,1,165,2|0,0:0|0:0,0:0:0:0:
71,44,123985,1,0,0:0:0:0:
74,76,124076,1,0,0:0:0:0:
77,108,124167,1,8,0:0:0:0:
81,140,124258,1,0,0:0:0:0:
85,172,124349,5,2,0:0:0:0:
207,233,124531,1,0,0:0:0:0:
0,233,124713,5,2,0:0:0:0:
122,294,124895,1,0,0:0:0:0:
294,171,125076,5,4,0:0:0:0:
298,198,125166,1,0,0:0:0:0:
302,225,125257,1,8,0:0:0:0:
306,252,125348,1,0,0:0:0:0:
310,279,125439,5,2,0:0:0:0:
319,286,125531,1,0,0:0:0:0:
328,292,125622,1,8,0:0:0:0:
337,298,125713,1,0,0:0:0:0:
346,304,125804,5,2,0:0:0:0:
340,271,125894,1,0,0:0:0:0:
335,238,125985,1,8,0:0:0:0:
330,206,126076,1,0,0:0:0:0:
325,173,126167,1,2,0:0:0:0:
319,141,126258,1,0,0:0:0:0:
314,108,126349,2,0,L|304:44,1,55,8|0,0:0|0:0,0:0:0:0:
444,0,126531,5,4,0:0:0:0:
441,16,126621,1,0,0:0:0:0:
438,32,126713,2,0,L|428:93,1,55,8|0,0:0|0:0,0:0:0:0:
216,176,126895,1,2,0:0:0:0:
213,160,126985,1,0,0:0:0:0:
210,144,127077,2,0,L|200:82,1,55,8|0,0:0|0:0,0:0:0:0:
479,177,127258,5,2,0:0:0:0:
476,193,127348,1,0,0:0:0:0:
473,209,127440,2,0,L|463:270,1,55,8|0,0:0|0:0,0:0:0:0:
251,353,127622,1,2,0:0:0:0:
248,337,127712,1,0,0:0:0:0:
245,321,127804,2,0,L|235:259,1,55,8|0,0:0|0:0,0:0:0:0:
64,138,127985,5,4,0:0:0:0:
69,170,128076,1,0,0:0:0:0:
74,203,128167,1,8,0:0:0:0:
79,235,128258,1,0,0:0:0:0:
84,268,128349,1,2,0:0:0:0:
93,272,128440,1,0,0:0:0:0:
102,276,128531,1,8,0:0:0:0:
111,281,128622,1,0,0:0:0:0:
121,285,128713,6,0,L|131:357,1,55,2|0,0:0|0:0,0:0:0:0:
375,330,128895,2,0,L|365:402,1,55,8|0,0:0|0:0,0:0:0:0:
137,275,129076,2,0,L|147:347,3,55,2|0|0|0,0:0|0:0|0:0|0:0,0:0:0:0:
264,375,129440,5,4,0:0:0:0:
253,337,129530,1,0,0:0:0:0:
250,299,129621,1,8,0:0:0:0:
254,261,129712,1,0,0:0:0:0:
266,224,129804,1,2,0:0:0:0:
276,186,129894,1,0,0:0:0:0:
279,148,129985,1,8,0:0:0:0:
275,110,130076,1,0,0:0:0:0:
264,73,130167,6,0,L|208:96,3,55,4|0|0|0,0:0|0:0|0:0|0:0,0:0:0:0:
369,159,130531,2,0,L|419:138,3,55,2|0|0|0,0:0|0:0|0:0|0:0,0:0:0:0:
48,4,130895,6,0,L|26:121,1,110,4|0,0:0|0:0,0:0:0:0:
144,331,131168,2,0,L|164:222,1,110,8|0,0:0|0:0,0:0:0:0:
205,0,131441,1,8,0:0:0:0:
144,331,131622,6,0,L|248:295,1,110,2|0,0:0|0:0,0:0:0:0:
352,258,131895,2,0,L|247:295,1,110,8|0,0:0|0:0,0:0:0:0:
75,260,132168,1,8,0:0:0:0:
372,366,132349,6,0,L|350:249,1,110,2|0,0:0|0:0,0:0:0:0:
451,23,132622,2,0,L|471:132,1,110,8|0,0:0|0:0,0:0:0:0:
512,354,132895,1,8,0:0:0:0:
262,59,133076,6,0,L|366:95,1,110,2|0,0:0|0:0,0:0:0:0:
470,132,133349,2,0,L|365:95,1,110,8|0,0:0|0:0,0:0:0:0:
148,137,133622,1,8,0:0:0:0:
426,241,133804,1,4,0:0:0:0:
0,365,133985,6,0,L|51:384,1,55,8|0,0:0|0:0,0:0:0:0:
271,320,134167,2,0,L|220:301,1,55,8|0,0:0|0:0,0:0:0:0:
96,117,134349,2,0,L|147:136,1,55,8|0,0:0|0:0,0:0:0:0:
264,384,134531,6,0,L|290:335,1,55,2|0,0:0|0:0,0:0:0:0:
391,161,134713,2,0,L|364:209,1,55
271,320,134895,6,0,L|297:271,1,55,2|0,0:0|0:0,0:0:0:0:
340,195,135077,2,0,L|313:243,1,55,8|0,0:0|0:0,0:0:0:0:
512,384,135258,6,0,L|485:335,1,55,8|0,0:0|0:0,0:0:0:0:
498,384,135440,2,0,L|471:335,1,55
465,220,135622,2,0,L|491:171,1,55,8|0,0:0|0:0,0:0:0:0:
479,220,135804,2,0,L|505:171,1,55
297,78,135985,6,0,L|351:77,1,55,2|0,0:0|0:0,0:0:0:0:
439,75,136167,2,0,L|384:75,1,55
251,41,136349,1,2,0:0:0:0:
482,35,136531,1,0,0:0:0:0:
141,80,136713,5,4,0:0:0:0:
141,80,137622,5,0,0:0:0:0:
57,206,137804,1,2,0:0:0:0:
0,0,137985,1,0,0:0:0:0:
397,197,138167,6,0,L|379:264,1,55,4|0,0:0|0:0,0:0:0:0:
375,275,138349,2,0,L|429:260,1,55
454,254,138531,1,8,0:0:0:0:
57,206,138713,5,2,0:0:0:0:
79,284,138894,1,8,0:0:0:0:
0,263,139076,1,0,0:0:0:0:
397,197,139258,5,2,0:0:0:0:
375,275,139440,1,0,0:0:0:0:
208,246,139622,5,4,0:0:0:0:
250,377,139804,1,0,0:0:0:0:
116,348,139986,1,2,0:0:0:0:
208,246,140168,1,0,0:0:0:0:
250,377,140349,5,8,0:0:0:0:
157,90,140530,2,0,B|173:136|173:136|239:160,1,110,2|0,0:0|0:0,0:0:0:0:
140,83,140895,1,8,0:0:0:0:
435,196,141077,5,4,0:0:0:0:
333,156,141259,1,0,0:0:0:0:
419,88,141441,1,8,0:0:0:0:
38,123,141621,5,2,0:0:0:0:
140,83,141803,1,8,0:0:0:0:
54,15,141985,1,0,0:0:0:0:
435,196,142168,5,2,0:0:0:0:
333,156,142349,2,0,L|379:117,1,55
419,88,142531,5,4,0:0:0:0:
452,305,142713,1,0,0:0:0:0:
248,226,142895,1,2,0:0:0:0:
419,88,143077,1,0,0:0:0:0:
452,305,143259,5,8,0:0:0:0:
83,164,143441,2,0,B|99:210|99:210|166:235,1,110,2|0,0:0|0:0,0:0:0:0:
67,158,143804,1,8,0:0:0:0:
127,335,143986,5,4,0:0:0:0:
37,70,144168,1,0,0:0:0:0:
93,238,144350,5,2,0:0:0:0:
67,158,144530,1,0,0:0:0:0:
127,335,144713,5,8,0:0:0:0:
183,11,144895,1,0,0:0:0:0:
224,197,145077,5,2,0:0:0:0:
183,11,145259,1,0,0:0:0:0:
374,219,145441,5,4,0:0:0:0:
466,117,145621,1,0,0:0:0:0:
508,247,145803,1,2,0:0:0:0:
374,219,145985,2,0,L|418:171,1,55
466,117,146167,5,8,0:0:0:0:
241,366,146349,2,0,B|273:330|273:330|261:260,1,110,2|0,0:0|0:0,0:0:0:0:
243,384,146712,1,8,0:0:0:0:
20,129,146895,5,4,0:0:0:0:
14,167,146986,1,0,0:0:0:0:
9,205,147077,1,8,0:0:0:0:
4,243,147168,1,0,0:0:0:0:
0,281,147258,2,0,L|61:255,1,55,2|0,0:0|0:0,0:0:0:0:
148,218,147440,2,0,L|96:182,1,55,8|0,0:0|0:0,0:0:0:0:
19,128,147622,2,0,L|80:102,1,55,2|0,0:0|0:0,0:0:0:0:
162,63,147804,6,0,L|207:94,1,55,8|0,0:0|0:0,0:0:0:0:
291,160,147985,1,2,0:0:0:0:
255,174,148075,1,0,0:0:0:0:
219,189,148166,1,8,0:0:0:0:
184,203,148257,1,0,0:0:0:0:
148,218,148349,6,0,B|189:259|189:259|253:236,1,110,4|0,0:0|0:0,0:0:0:0:
487,153,148621,1,0,0:0:0:0:
488,174,148713,2,0,L|370:219,1,110,2|0,0:0|0:0,0:0:0:0:
323,295,149076,5,8,0:0:0:0:
324,316,149167,1,0,0:0:0:0:
239,332,149440,5,8,0:0:0:0:
240,353,149531,1,0,0:0:0:0:
241,374,149622,1,0,0:0:0:0:
146,320,149804,5,8,0:0:0:0:
147,341,149895,1,0,0:0:0:0:
148,362,149986,1,0,0:0:0:0:
150,383,150076,1,0,0:0:0:0:
138,244,150349,5,8,0:0:0:0:
23,157,150531,2,0,L|121:231,1,110,2|0,0:0|0:0,0:0:0:0:
18,135,150895,5,8,0:0:0:0:
331,375,151076,1,0,0:0:0:0:
512,243,151258,6,0,L|414:317,1,110,4|0,0:0|0:0,0:0:0:0:
407,323,151531,1,0,0:0:0:0:
393,334,151804,5,8,0:0:0:0:
441,117,151985,1,2,0:0:0:0:
512,384,152167,1,0,0:0:0:0:
256,277,152349,5,8,0:0:0:0:
249,255,152440,1,0,0:0:0:0:
243,233,152531,1,0,0:0:0:0:
339,180,152713,5,8,0:0:0:0:
345,202,152804,1,0,0:0:0:0:
352,224,152895,1,0,0:0:0:0:
220,384,153076,1,2,0:0:0:0:
441,117,153258,1,0,0:0:0:0:
37,0,153440,5,4,0:0:0:0:
11,28,153530,1,0,0:0:0:0:
0,64,153621,1,8,0:0:0:0:
7,102,153712,1,0,0:0:0:0:
30,132,153804,1,2,0:0:0:0:
55,160,153894,1,0,0:0:0:0:
66,196,153985,1,8,0:0:0:0:
59,234,154076,1,0,0:0:0:0:
36,264,154167,6,0,B|82:229|82:229|142:260,1,110,4|0,0:0|0:0,0:0:0:0:
361,374,154440,1,0,0:0:0:0:
366,353,154531,2,0,L|255:292,1,110,2|0,0:0|0:0,0:0:0:0:
151,343,154895,5,8,0:0:0:0:
152,364,154986,1,0,0:0:0:0:
269,299,155259,5,8,0:0:0:0:
270,320,155350,1,0,0:0:0:0:
271,341,155441,1,0,0:0:0:0:
36,264,155621,5,0,0:0:0:0:
37,285,155712,1,0,0:0:0:0:
38,306,155803,1,0,0:0:0:0:
40,327,155895,1,0,0:0:0:0:
345,233,156167,5,8,0:0:0:0:
460,146,156349,2,0,L|362:220,1,110,2|0,0:0|0:0,0:0:0:0:
465,124,156713,5,8,0:0:0:0:
152,364,156894,1,0,0:0:0:0:
60,110,157076,6,0,L|158:184,1,110,2|0,0:0|0:0,0:0:0:0:
165,190,157349,1,0,0:0:0:0:
181,203,157622,5,8,0:0:0:0:
214,0,157803,1,2,0:0:0:0:
308,313,157985,1,8,0:0:0:0:
326,324,158076,1,0,0:0:0:0:
380,384,158349,5,8,0:0:0:0:
376,262,158531,5,4,0:0:0:0:
348,236,158621,1,0,0:0:0:0:
312,225,158712,1,8,0:0:0:0:
274,232,158803,1,0,0:0:0:0:
244,255,158895,1,2,0:0:0:0:
216,280,158985,1,0,0:0:0:0:
180,291,159076,1,8,0:0:0:0:
142,284,159167,1,0,0:0:0:0:
112,261,159258,6,0,B|129:320,1,55,4|0,0:0|0:0,0:0:0:0:
57,62,159440,2,0,B|74:121,1,55,2|0,0:0|0:0,0:0:0:0:
88,332,159622,6,0,B|105:391,1,55,4|0,0:0|0:0,0:0:0:0:
33,133,159804,2,0,B|50:192,1,55,2|0,0:0|0:0,0:0:0:0:
244,255,159985,5,4,0:0:0:0:
351,298,160167,5,0,0:0:0:0:
336,269,160258,1,8,0:0:0:0:
468,347,160440,5,0,0:0:0:0:
454,318,160531,1,0,0:0:0:0:
440,288,160621,1,0,0:0:0:0:
426,258,160712,5,8,0:0:0:0:
429,202,160803,1,0,0:0:0:0:
246,249,162895,5,4,0:0:0:0:
353,292,163077,5,0,0:0:0:0:
338,263,163168,1,8,0:0:0:0:
470,341,163350,5,0,0:0:0:0:
456,312,163440,1,0,0:0:0:0:
442,282,163531,1,0,0:0:0:0:
428,252,163622,5,8,0:0:0:0:
431,196,163713,1,0,0:0:0:0:
424,247,164167,5,8,0:0:0:0:
427,191,164258,1,0,0:0:0:0:
431,136,164349,2,0,L|422:115,1,13.75
382,32,164531,2,0,L|373:11,1,13.75
188,39,164713,6,0,L|229:39,1,27.5
296,141,164895,2,0,L|337:141,1,27.5
166,202,165076,6,0,L|131:157,1,41.2500015735627
40,36,165258,2,0,L|5:-9,1,41.2500015735627
296,141,165440,6,0,L|232:141,1,55,2|0,0:0|0:0,0:0:0:0:
61,293,165622,2,0,L|116:293,1,55
512,291,165804,5,4,0:0:0:0:
405,334,165986,5,0,0:0:0:0:
420,305,166077,1,8,0:0:0:0:
288,383,166259,5,0,0:0:0:0:
302,354,166349,1,0,0:0:0:0:
316,324,166440,1,0,0:0:0:0:
330,294,166531,5,8,0:0:0:0:
327,238,166622,1,0,0:0:0:0:
335,289,167076,5,8,0:0:0:0:
332,233,167167,1,0,0:0:0:0:
328,178,167258,2,0,L|357:119,2,55,2|0|0,0:0|0:0|0:0,0:0:0:0:
470,131,167531,2,0,L|445:180,2,55,2|0|0,0:0|0:0|0:0,0:0:0:0:
316,11,167804,5,4,0:0:0:0:
292,41,167894,1,0,0:0:0:0:
259,61,167985,1,0,0:0:0:0:
222,67,168076,1,0,0:0:0:0:
184,60,168167,2,0,L|210:126,1,55,8|0,0:0|0:0,0:0:0:0:
172,197,168349,2,0,L|146:262,1,55,2|0,0:0|0:0,0:0:0:0:
185,333,168531,2,0,L|210:398,1,55,8|0,0:0|0:0,0:0:0:0:
279,292,168713,5,4,0:0:0:0:
386,335,168895,5,0,0:0:0:0:
371,306,168986,1,8,0:0:0:0:
503,384,169168,5,0,0:0:0:0:
489,355,169258,1,0,0:0:0:0:
475,325,169349,1,0,0:0:0:0:
461,295,169440,1,4,0:0:0:0:
497,154,169622,5,0,0:0:0:0:
512,183,169713,1,8,0:0:0:0:
329,224,169895,5,0,0:0:0:0:
315,195,169985,1,0,0:0:0:0:
301,165,170076,1,0,0:0:0:0:
287,135,170167,6,0,L|316:76,2,55,4|0|0,0:0|0:0|0:0,0:0:0:0:
218,260,170440,2,0,L|193:309,2,55,2|0|0,0:0|0:0|0:0,0:0:0:0:
419,213,170713,5,4,0:0:0:0:
406,237,170803,1,0,0:0:0:0:
394,262,170894,1,0,0:0:0:0:
382,286,170985,1,0,0:0:0:0:
370,311,171076,6,0,L|345:360,1,55,8|0,0:0|0:0,0:0:0:0:
105,335,171258,2,0,L|129:384,1,55,2|0,0:0|0:0,0:0:0:0:
512,270,171440,2,0,L|487:319,1,55,2|0,0:0|0:0,0:0:0:0:
18,263,171622,5,4,0:0:0:0:
0,189,171804,6,0,L|24:238,1,55,2|0,0:0|0:0,0:0:0:0:
306,201,171986,2,0,L|281:250,1,55,2|0,0:0|0:0,0:0:0:0:
155,220,172167,5,4,0:0:0:0:
155,165,172257,1,0,0:0:0:0:
155,110,172348,1,0,0:0:0:0:
155,55,172439,1,0,0:0:0:0:
155,0,172531,6,0,L|179:49,1,55,2|0,0:0|0:0,0:0:0:0:
24,75,172713,2,0,L|0:25,1,55,2|0,0:0|0:0,0:0:0:0:
304,74,172895,2,0,L|279:123,1,55,2|0,0:0|0:0,0:0:0:0:
69,372,173076,6,0,B|-1:350|10:266|58:232|132:252|138:281|142:329|126:358|126:358|180:277|255:303|255:303|311:343|311:343|274:375|274:375|235:348|235:348|289:303|289:303|376:271|462:348|462:348|352:308|322:214|325:145|384:89|481:96|537:202|483:242|457:265|393:242|422:172,1,1320.00005035401,4|0,0:0|0:0,0:0:0:0:
512,0,174895,6,0,P|446:35|353:5,1,165,4|0,0:0|0:0,0:0:0:0:
221,99,175440,1,0,0:0:0:0:
225,87,175622,5,8,0:0:0:0:
201,164,175713,1,0,0:0:0:0:
201,164,177076,1,8,0:0:0:0:
507,4,177804,6,0,P|441:39|348:9,1,165,4|0,0:0|0:0,0:0:0:0:
216,103,178349,1,0,0:0:0:0:
220,91,178531,5,8,0:0:0:0:
196,168,178622,1,0,0:0:0:0:
192,172,179076,5,0,0:0:0:0:
185,193,179167,1,0,0:0:0:0:
178,214,179258,5,10,0:0:0:0:
238,218,179349,1,0,0:0:0:0:
298,222,179440,1,0,0:0:0:0:
358,226,179531,2,0,L|426:232,1,55,8|0,0:0|0:0,0:0:0:0:
484,340,179713,1,0,0:0:0:0:
488,349,179804,2,0,L|433:344,1,55,8|0,0:0|0:0,0:0:0:0:
242,329,179985,6,0,B|165:319|165:319|140:298|140:298|106:311|106:311|76:282|24:295|24:295|30:334|62:352|94:337,1,330,2|0,0:0|0:0,0:0:0:0:
71,160,180622,5,0,0:0:0:0:
72,149,180713,2,0,P|37:83|67:-10,1,165,4|0,0:0|0:0,0:0:0:0:
329,87,181258,1,0,0:0:0:0:
341,91,181440,5,8,0:0:0:0:
264,67,181531,1,0,0:0:0:0:
260,78,181925,5,0,0:0:0:0:
290,149,182046,1,0,0:0:0:0:
260,222,182167,5,8,0:0:0:0:
338,211,182288,1,0,0:0:0:0:
310,284,182409,1,0,0:0:0:0:
232,299,182531,1,2,0:0:0:0:
184,235,182652,1,0,0:0:0:0:
205,157,182773,6,0,L|184:111,1,36.6666666666667
290,149,182895,2,0,L|315:87,2,55
0,220,183258,5,0,0:0:0:0:
8,199,183349,1,0,0:0:0:0:
15,179,183440,1,8,0:0:0:0:
23,159,183530,1,0,0:0:0:0:
30,137,183622,6,0,B|57:186|57:186|13:303,1,165,4|0,0:0|0:0,0:0:0:0:
157,318,184167,1,0,0:0:0:0:
161,306,184349,5,8,0:0:0:0:
137,383,184440,1,0,0:0:0:0:
414,224,184894,5,0,0:0:0:0:
421,203,184985,1,0,0:0:0:0:
428,182,185076,5,8,0:0:0:0:
368,178,185167,1,0,0:0:0:0:
308,174,185258,1,0,0:0:0:0:
248,170,185349,2,0,L|180:164,1,55,8|0,0:0|0:0,0:0:0:0:
122,56,185531,1,0,0:0:0:0:
118,47,185622,2,0,L|172:51,1,55,8|0,0:0|0:0,0:0:0:0:
323,65,185804,6,0,B|400:70|400:70|426:90|426:90|459:75|459:75|491:103,1,165,2|0,0:0|0:0,0:0:0:0:
483,96,186167,2,0,L|299:81,1,165,2|0,0:0|0:0,0:0:0:0:
248,62,186531,5,4,0:0:0:0:
206,187,186804,1,0,0:0:0:0:
164,311,187076,1,0,0:0:0:0:
168,299,187258,5,8,0:0:0:0:
144,376,187349,1,0,0:0:0:0:
144,376,187985,1,8,0:0:0:0:
144,376,188713,1,8,0:0:0:0:
244,57,189440,5,4,0:0:0:0:
202,182,189713,1,0,0:0:0:0:
160,306,189985,1,0,0:0:0:0:
164,294,190167,5,8,0:0:0:0:
140,371,190258,1,0,0:0:0:0:
385,153,190713,5,0,0:0:0:0:
402,206,190804,1,0,0:0:0:0:
421,258,190895,2,0,L|412:279,1,13.75,4|0,0:0|0:0,0:0:0:0:
372,362,191077,2,0,L|363:383,1,13.75
217,360,191259,6,0,L|258:360,1,27.5
311,264,191440,2,0,L|352:264,1,27.5,4|0,0:0|0:0,0:0:0:0:
202,182,191622,6,0,L|167:227,1,41.2500015735627
76,348,191804,2,0,L|41:393,1,41.2500015735627
311,264,191985,6,0,L|247:264,1,55,8|0,0:0|0:0,0:0:0:0:
0,267,192168,2,0,L|55:267,1,55
341,21,192349,5,4,0:0:0:0:
383,146,192622,1,0,0:0:0:0:
425,270,192894,1,0,0:0:0:0:
421,258,193076,5,8,0:0:0:0:
445,335,193167,1,0,0:0:0:0:
445,340,193440,6,0,L|361:355,1,73.3333333333333
272,293,193682,2,0,L|188:308,1,73.3333333333333
121,378,193925,2,0,L|84:384,2,36.6666666666667
275,280,194167,5,0,0:0:0:0:
203,295,194288,1,0,0:0:0:0:
226,225,194410,1,0,0:0:0:0:
297,207,194531,6,0,L|309:168,3,36.6666666666667
334,85,194804,2,0,L|350:33,1,55
161,35,194985,5,2,0:0:0:0:
157,24,195076,1,0,0:0:0:0:
153,13,195167,1,0,0:0:0:0:
150,2,195258,1,4,0:0:0:0:
192,123,195531,1,0,0:0:0:0:
230,236,195803,1,0,0:0:0:0:
226,225,195985,5,8,0:0:0:0:
248,295,196076,1,0,0:0:0:0:
405,252,196531,5,0,0:0:0:0:
422,199,196622,1,0,0:0:0:0:
441,147,196713,2,0,L|432:126,1,13.75,4|0,0:0|0:0,0:0:0:0:
392,43,196895,2,0,L|383:22,1,13.75
237,45,197077,6,0,L|278:45,1,27.5
331,141,197259,2,0,L|372:141,1,27.5
222,223,197440,6,0,L|187:178,1,41.2500015735627,4|0,0:0|0:0,0:0:0:0:
96,57,197622,2,0,L|61:12,1,41.2500015735627
331,141,197804,6,0,L|267:141,1,55,4|0,0:0|0:0,0:0:0:0:
20,138,197986,2,0,L|75:138,1,55
392,344,198167,5,4,0:0:0:0:
382,338,198257,1,0,0:0:0:0:
374,331,198348,1,8,0:0:0:0:
366,323,198439,1,0,0:0:0:0:
360,314,198530,1,2,0:0:0:0:
355,304,198621,1,0,0:0:0:0:
352,293,198712,1,8,0:0:0:0:
350,283,198803,1,0,0:0:0:0:
350,272,198894,1,2,0:0:0:0:
351,261,198985,1,0,0:0:0:0:
354,250,199076,1,8,0:0:0:0:
359,240,199166,1,0,0:0:0:0:
365,231,199257,1,2,0:0:0:0:
372,223,199348,1,0,0:0:0:0:
380,215,199439,1,8,0:0:0:0:
389,210,199530,1,0,0:0:0:0:
398,206,199622,1,2,0:0:0:0:
407,200,199712,1,0,0:0:0:0:
415,193,199803,1,8,0:0:0:0:
423,185,199894,1,0,0:0:0:0:
429,176,199985,1,2,0:0:0:0:
434,166,200076,1,0,0:0:0:0:
437,155,200167,1,8,0:0:0:0:
439,145,200258,1,0,0:0:0:0:
439,134,200349,1,2,0:0:0:0:
438,123,200440,1,0,0:0:0:0:
435,112,200531,1,8,0:0:0:0:
430,102,200621,1,0,0:0:0:0:
424,93,200712,1,2,0:0:0:0:
417,85,200803,1,0,0:0:0:0:
409,77,200894,1,8,0:0:0:0:
400,72,200985,1,0,0:0:0:0:
389,69,201076,5,4,0:0:0:0:
383,78,201166,1,0,0:0:0:0:
376,86,201257,1,8,0:0:0:0:
368,94,201348,1,0,0:0:0:0:
359,100,201439,1,2,0:0:0:0:
349,105,201530,1,0,0:0:0:0:
338,108,201621,1,8,0:0:0:0:
328,110,201712,1,0,0:0:0:0:
317,110,201803,1,2,0:0:0:0:
306,109,201894,1,0,0:0:0:0:
295,106,201985,1,8,0:0:0:0:
285,101,202075,1,0,0:0:0:0:
276,95,202166,1,2,0:0:0:0:
268,88,202257,1,0,0:0:0:0:
260,80,202348,1,8,0:0:0:0:
255,71,202439,1,0,0:0:0:0:
251,63,202531,1,2,0:0:0:0:
245,54,202621,1,0,0:0:0:0:
238,46,202712,1,8,0:0:0:0:
230,38,202803,1,0,0:0:0:0:
221,32,202894,1,2,0:0:0:0:
210,27,202985,1,0,0:0:0:0:
200,24,203076,1,8,0:0:0:0:
190,22,203167,1,0,0:0:0:0:
179,22,203258,1,2,0:0:0:0:
168,23,203349,1,0,0:0:0:0:
157,26,203440,1,8,0:0:0:0:
147,31,203530,1,0,0:0:0:0:
138,37,203621,1,2,0:0:0:0:
130,43,203712,1,0,0:0:0:0:
122,52,203803,1,8,0:0:0:0:
117,61,203894,1,0,0:0:0:0:
112,71,203985,5,4,0:0:0:0:
122,68,204075,1,0,0:0:0:0:
133,67,204167,1,8,0:0:0:0:
144,67,204257,1,0,0:0:0:0:
155,68,204348,1,2,0:0:0:0:
166,71,204439,1,0,0:0:0:0:
176,74,204530,1,8,0:0:0:0:
186,79,204621,1,0,0:0:0:0:
195,86,204712,1,2,0:0:0:0:
203,93,204803,1,0,0:0:0:0:
211,101,204894,1,8,0:0:0:0:
217,110,204984,1,0,0:0:0:0:
222,119,205075,1,2,0:0:0:0:
227,129,205166,1,0,0:0:0:0:
230,140,205257,1,8,0:0:0:0:
231,151,205348,1,0,0:0:0:0:
232,162,205440,1,2,0:0:0:0:
231,173,205530,1,0,0:0:0:0:
228,184,205621,1,8,0:0:0:0:
225,194,205712,1,0,0:0:0:0:
220,204,205803,1,2,0:0:0:0:
215,213,205894,1,0,0:0:0:0:
208,222,205984,1,8,0:0:0:0:
200,230,206075,1,0,0:0:0:0:
191,236,206166,1,2,0:0:0:0:
182,242,206257,1,0,0:0:0:0:
172,247,206348,1,8,0:0:0:0:
161,250,206439,1,0,0:0:0:0:
150,252,206530,1,2,0:0:0:0:
139,253,206621,1,0,0:0:0:0:
129,252,206712,1,8,0:0:0:0:
118,250,206803,1,0,0:0:0:0:
107,247,206895,5,4,0:0:0:0:
112,237,206985,1,0,0:0:0:0:
119,228,207076,1,8,0:0:0:0:
127,221,207167,1,0,0:0:0:0:
136,214,207258,1,2,0:0:0:0:
145,208,207349,1,0,0:0:0:0:
154,204,207440,1,8,0:0:0:0:
165,199,207531,1,0,0:0:0:0:
175,197,207622,1,2,0:0:0:0:
186,198,207713,1,0,0:0:0:0:
198,198,207804,1,8,0:0:0:0:
209,199,207894,1,0,0:0:0:0:
220,202,207985,1,2,0:0:0:0:
229,206,208076,1,0,0:0:0:0:
239,212,208167,1,8,0:0:0:0:
248,220,208258,1,0,0:0:0:0:
255,226,208349,6,0,L|232:263,5,36.6666666666667,4|0|0|0|0|0,0:0|0:0|0:0|0:0|0:0|0:0,0:0:0:0:
428,244,208713,1,2,0:0:0:0:
423,254,208804,1,0,0:0:0:0:
418,264,208895,1,8,0:0:0:0:
413,274,208985,1,0,0:0:0:0:
408,284,209076,5,4,0:0:0:0:
368,246,209167,1,0,0:0:0:0:
363,192,209258,1,8,0:0:0:0:
381,141,209349,1,0,0:0:0:0:
426,111,209440,1,2,0:0:0:0:
436,116,209531,1,0,0:0:0:0:
446,121,209622,1,8,0:0:0:0:
456,126,209712,1,0,0:0:0:0:
466,131,209804,6,0,B|411:178|411:178|313:172|313:172|224:247,1,275,4|0,0:0|0:0,0:0:0:0:
232,261,210349,2,0,L|279:221,1,55,2|0,0:0|0:0,0:0:0:0:
320,44,210531,2,0,L|193:152,1,165,4|0,0:0|0:0,0:0:0:0:
173,169,210895,1,8,0:0:0:0:
87,121,211076,5,8,0:0:0:0:
66,139,211167,1,0,0:0:0:0:
47,158,211258,2,0,P|66:218|46:268,1,110,4|0,0:0|0:0,0:0:0:0:
0,384,211531,2,0,P|60:365|110:385,1,110,2|0,0:0|0:0,0:0:0:0:
262,287,211804,6,0,L|199:290,1,55,2|0,0:0|0:0,0:0:0:0:
380,384,211985,2,0,P|365:331|384:281,1,110,4|0,0:0|0:0,0:0:0:0:
463,172,212258,1,0,0:0:0:0:
453,183,212349,6,0,L|450:120,1,55,10|0,0:0|0:0,0:0:0:0:
384,0,212531,2,0,L|381:54,1,55,8|0,0:0|0:0,0:0:0:0:
358,167,212713,5,4,0:0:0:0:
295,121,212804,1,0,0:0:0:0:
229,132,212895,1,8,0:0:0:0:
194,174,212985,1,0,0:0:0:0:
186,217,213076,5,2,0:0:0:0:
190,227,213167,1,0,0:0:0:0:
136,266,213258,1,8,0:0:0:0:
83,226,213349,1,0,0:0:0:0:
118,170,213440,5,2,0:0:0:0:
125,190,213531,1,0,0:0:0:0:
190,227,213622,1,2,0:0:0:0:
197,247,213713,1,0,0:0:0:0:
193,323,213804,5,2,0:0:0:0:
259,318,213895,1,0,0:0:0:0:
317,347,213985,1,8,0:0:0:0:
383,342,214076,1,0,0:0:0:0:
437,379,214167,6,0,B|427:318|427:318|458:268,1,110,4|0,0:0|0:0,0:0:0:0:
359,0,214440,2,0,B|373:46|373:46|348:102,1,110,2|0,0:0|0:0,0:0:0:0:
193,323,214713,5,8,0:0:0:0:
126,322,214804,1,0,0:0:0:0:
70,283,214895,2,0,B|116:242|116:242|125:185,1,110,4|0,0:0|0:0,0:0:0:0:
224,1,215168,2,0,B|205:45|205:45|224:104,1,110,2|0,0:0|0:0,0:0:0:0:
258,366,215440,5,8,0:0:0:0:
246,301,215531,1,0,0:0:0:0:
279,244,215622,1,2,0:0:0:0:
284,265,215713,1,0,0:0:0:0:
359,281,215804,1,2,0:0:0:0:
364,302,215895,1,0,0:0:0:0:
438,319,215985,5,2,0:0:0:0:
420,243,216076,1,0,0:0:0:0:
473,187,216167,1,8,0:0:0:0:
452,112,216258,1,0,0:0:0:0:
382,79,216349,5,4,0:0:0:0:
370,84,216440,1,0,0:0:0:0:
359,88,216531,1,8,0:0:0:0:
348,90,216622,1,0,0:0:0:0:
336,90,216713,5,2,0:0:0:0:
288,136,216804,1,0,0:0:0:0:
226,111,216895,1,8,0:0:0:0:
232,45,216985,1,0,0:0:0:0:
294,24,217076,1,4,0:0:0:0:
446,306,217258,5,0,0:0:0:0:
450,322,217349,2,0,L|339:277,1,110,2|0,0:0|0:0,0:0:0:0:
9,197,217622,5,0,0:0:0:0:
4,179,217713,1,0,0:0:0:0:
0,163,217804,2,0,L|62:188,1,55,2|0,0:0|0:0,0:0:0:0:
183,239,217985,2,0,L|131:218,1,55,8|0,0:0|0:0,0:0:0:0:
109,59,218167,6,0,L|118:125,1,55,2|0,0:0|0:0,0:0:0:0:
157,384,218349,2,0,L|149:329,1,55,8|0,0:0|0:0,0:0:0:0:
246,114,218531,6,0,P|311:92|261:167,1,206.25,4|0,0:0|0:0,0:0:0:0:
439,16,218895,5,2,0:0:0:0:
410,74,218985,1,0,0:0:0:0:
427,137,219076,1,8,0:0:0:0:
398,195,219166,1,0,0:0:0:0:
415,259,219258,6,0,B|355:210|285:221|285:221|296:335|396:353|396:353|395:308|355:280|312:278|312:278|236:263|196:332|196:332,1,577.500022029878,4|0,0:0|0:0,0:0:0:0:
50,262,219985,6,0,B|116:287|116:287|137:289|137:289|153:302|153:302|214:328,1,165.000006294251,4|0,0:0|0:0,0:0:0:0:
353,384,220258,2,0,B|304:363|304:363|288:350|288:350|267:349|267:349|201:323,1,165.000006294251,2|0,0:0|0:0,0:0:0:0:
38,166,220531,2,0,L|121:200,1,82.5000031471254,2|0,0:0|0:0,0:0:0:0:
407,217,220713,6,0,B|340:191|340:191|320:190|320:190|304:177|304:177|243:151,1,165.000006294251,4|0,0:0|0:0,0:0:0:0:
104,95,220985,2,0,B|152:115|152:115|168:128|168:128|189:129|189:129|255:155,1,165.000006294251,2|0,0:0|0:0,0:0:0:0:
419,313,221259,2,0,L|336:279,1,82.5000031471254,2|0,0:0|0:0,0:0:0:0:
333,2,221440,5,4,0:0:0:0:
298,58,221531,1,0,0:0:0:0:
322,107,221622,1,8,0:0:0:0:
301,145,221713,1,0,0:0:0:0:
314,174,221804,1,2,0:0:0:0:
324,171,221895,1,0,0:0:0:0:
334,171,221985,1,8,0:0:0:0:
344,173,222076,1,0,0:0:0:0:
354,176,222167,5,2,0:0:0:0:
345,196,222258,1,0,0:0:0:0:
357,238,222349,1,8,0:0:0:0:
343,291,222440,1,0,0:0:0:0:
377,359,222531,5,2,0:0:0:0:
310,360,222622,1,8,0:0:0:0:
239,327,222713,1,8,0:0:0:0:
142,349,222804,1,8,0:0:0:0:
61,291,222895,6,0,L|78:223,1,55,4|0,0:0|0:0,0:0:0:0:
136,0,223076,2,0,L|122:53,1,55,2|0,0:0|0:0,0:0:0:0:
217,249,223258,6,0,L|200:181,1,55,4|0,0:0|0:0,0:0:0:0:
153,0,223440,2,0,L|166:53,1,55,2|0,0:0|0:0,0:0:0:0:
239,327,223622,5,4,0:0:0:0:
282,330,223713,1,0,0:0:0:0:
325,334,223804,1,8,0:0:0:0:
368,339,223895,1,0,0:0:0:0:
411,344,223985,6,0,L|397:290,1,55,2|0,0:0|0:0,0:0:0:0:
375,201,224167,2,0,L|388:147,1,55,8|0,0:0|0:0,0:0:0:0:
418,33,224349,5,4,0:0:0:0:
387,56,224439,1,0,0:0:0:0:
351,69,224530,1,8,0:0:0:0:
313,70,224621,1,0,0:0:0:0:
277,58,224713,1,2,0:0:0:0:
246,34,224803,1,0,0:0:0:0:
210,21,224895,1,8,0:0:0:0:
172,20,224985,1,0,0:0:0:0:
136,32,225076,5,2,0:0:0:0:
173,70,225166,1,0,0:0:0:0:
175,123,225257,1,8,0:0:0:0:
141,164,225348,1,0,0:0:0:0:
87,171,225439,1,2,0:0:0:0:
44,140,225530,1,0,0:0:0:0:
32,87,225622,2,0,P|33:51|17:17,1,55,8|0,0:0|0:0,0:0:0:0:
28,331,225804,6,0,L|59:274,1,55,6|0,0:0|0:0,0:0:0:0:
67,278,225985,2,0,L|46:319,2,36.6666666666667
171,347,226167,6,0,L|202:290,1,55,2|0,0:0|0:0,0:0:0:0:
210,294,226349,2,0,L|189:335,2,36.6666666666667
321,362,226531,6,0,L|352:305,1,55,2|0,0:0|0:0,0:0:0:0:
360,309,226712,2,0,L|339:350,2,36.6666666666667
472,384,226895,5,2,0:0:0:0:
445,336,226985,1,0,0:0:0:0:
449,281,227076,1,8,0:0:0:0:
422,232,227167,1,0,0:0:0:0:
422,176,227258,5,2,0:0:0:0:
390,185,227349,1,0,0:0:0:0:
356,185,227440,1,8,0:0:0:0:
325,171,227531,1,0,0:0:0:0:
301,148,227622,5,4,0:0:0:0:
355,158,227713,1,0,0:0:0:0:
366,211,227804,1,8,0:0:0:0:
335,256,227895,1,0,0:0:0:0:
280,249,227985,5,2,0:0:0:0:
282,259,228076,1,0,0:0:0:0:
284,269,228167,1,8,0:0:0:0:
287,279,228258,1,0,0:0:0:0:
290,289,228349,5,2,0:0:0:0:
237,232,228440,1,0,0:0:0:0:
162,252,228531,1,8,0:0:0:0:
153,328,228622,1,0,0:0:0:0:
217,370,228713,6,0,L|205:313,1,55,4|0,0:0|0:0,0:0:0:0:
30,244,228895,1,0,0:0:0:0:
28,233,228985,1,0,0:0:0:0:
44,218,229076,2,0,L|55:271,1,55,2|0,0:0|0:0,0:0:0:0:
211,149,229258,5,0,0:0:0:0:
217,128,229348,1,0,0:0:0:0:
196,101,229440,2,0,L|184:154,1,55,2|0,0:0|0:0,0:0:0:0:
46,117,229622,5,0,0:0:0:0:
37,85,229712,1,0,0:0:0:0:
60,47,229804,2,0,L|71:100,1,55,2|0,0:0|0:0,0:0:0:0:
333,90,229985,5,0,0:0:0:0:
345,48,230075,1,0,0:0:0:0:
315,0,230167,2,0,L|303:53,3,55,4|0|0|0,0:0|0:0|0:0|0:0,0:0:0:0:
462,0,230531,5,2,0:0:0:0:
429,29,230622,1,0,0:0:0:0:
433,72,230713,1,8,0:0:0:0:
438,81,230804,1,0,0:0:0:0:
443,90,230895,5,2,0:0:0:0:
471,136,230985,1,0,0:0:0:0:
458,189,231076,1,8,0:0:0:0:
450,196,231167,1,0,0:0:0:0:
442,203,231258,5,2,0:0:0:0:
378,183,231349,1,0,0:0:0:0:
322,219,231440,1,8,0:0:0:0:
327,284,231531,1,0,0:0:0:0:
385,314,231622,5,4,0:0:0:0:
371,238,231713,1,0,0:0:0:0:
294,226,231804,1,8,0:0:0:0:
262,296,231895,1,0,0:0:0:0:
315,349,231985,5,2,0:0:0:0:
297,336,232076,1,0,0:0:0:0:
275,330,232167,1,8,0:0:0:0:
253,331,232258,1,0,0:0:0:0:
233,341,232349,5,4,0:0:0:0:
273,275,232440,1,0,0:0:0:0:
219,219,232531,1,8,0:0:0:0:
148,249,232622,1,0,0:0:0:0:
147,331,232713,5,2,0:0:0:0:
158,311,232804,1,0,0:0:0:0:
162,289,232895,1,8,0:0:0:0:
159,267,232986,1,0,0:0:0:0:
148,249,233076,5,4,0:0:0:0:
81,287,233167,1,0,0:0:0:0:
13,249,233258,1,8,0:0:0:0:
8,172,233349,1,0,0:0:0:0:
71,128,233440,5,2,0:0:0:0:
135,170,233531,1,0,0:0:0:0:
210,156,233622,1,8,0:0:0:0:
261,98,233713,1,0,0:0:0:0:
243,34,233804,5,2,0:0:0:0:
200,69,233895,1,0,0:0:0:0:
196,123,233985,1,8,0:0:0:0:
237,159,234076,1,0,0:0:0:0:
291,161,234167,6,0,P|319:139|331:115,1,55,2|0,0:0|0:0,0:0:0:0:
139,24,234349,2,0,P|125:57|127:84,1,55,8|0,0:0|0:0,0:0:0:0:
37,284,234531,5,4,0:0:0:0:
46,278,234622,1,0,0:0:0:0:
56,275,234713,1,2,0:0:0:0:
67,275,234804,1,0,0:0:0:0:
77,277,234895,5,2,0:0:0:0:
63,259,234985,1,0,0:0:0:0:
43,248,235076,1,2,0:0:0:0:
20,247,235167,1,0,0:0:0:0:
0,256,235258,5,2,0:0:0:0:
30,224,235349,1,0,0:0:0:0:
70,207,235440,1,2,0:0:0:0:
113,210,235531,1,0,0:0:0:0:
152,228,235622,1,2,0:0:0:0:
185,255,235713,1,0,0:0:0:0:
225,269,235804,1,2,0:0:0:0:
268,263,235895,1,0,0:0:0:0:
306,240,235986,5,2,0:0:0:0:
240,242,236076,1,0,0:0:0:0:
207,184,236167,1,2,0:0:0:0:
239,126,236258,1,0,0:0:0:0:
304,122,236349,1,2,0:0:0:0:
337,178,236440,1,0,0:0:0:0:
403,180,236531,1,2,0:0:0:0:
437,123,236622,1,0,0:0:0:0:
405,65,236713,6,0,L|366:74,4,36.6666666666667
401,50,237076,1,0,0:0:0:0:
512,384,237258,1,0,0:0:0:0:
489,183,237440,6,0,P|451:246|356:251,1,165,4|0,0:0|0:0,0:0:0:0:
273,225,237804,2,0,P|193:238|175:366,1,220,4|2,0:0|0:0,0:0:0:0:
0,0,238349,5,8,0:0:0:0:
29,162,238531,1,0,0:0:0:0:
58,324,238713,1,8,0:0:0:0:
512,0,238895,5,4,0:0:0:0:
489,183,239076,2,0,L|481:240,3,36.6666666666667,8|0|0|0,0:0|0:0|0:0|0:0,0:0:0:0:
242,0,239440,5,0,0:0:0:0:
216,192,239622,1,2,0:0:0:0:
319,282,239804,1,0,0:0:0:0:
309,365,239985,1,2,0:0:0:0:
329,381,240167,1,0,0:0:0:0:
242,0,240349,6,0,L|226:117,1,110,4|0,0:0|0:0,0:0:0:0:
347,81,240713,2,0,L|358:0,1,82.5000031471254
182,39,241076,6,0,L|231:115,1,82.5000031471254,8|0,0:0|0:0,0:0:0:0:
391,150,241440,2,0,L|346:80,1,82.5000031471254
94,144,241804,5,10,0:0:0:0:
512,148,241985,1,10,0:0:0:0:
503,161,242167,2,0,B|472:205|472:205|474:242,1,82.5000031471254,8|0,0:0|0:0,0:0:0:0:
197,229,242531,5,0,0:0:0:0:
391,237,242712,1,0,0:0:0:0:
382,250,242894,2,0,B|351:294|351:294|353:331,1,82.5000031471254,8|0,0:0|0:0,0:0:0:0:
14,384,243258,6,0,L|-2:267,1,110,4|0,0:0|0:0,0:0:0:0:
119,303,243622,2,0,L|130:384,1,82.5000031471254
94,144,243985,6,0,L|186:167,1,82.5000031471254,8|0,0:0|0:0,0:0:0:0:
199,323,244349,2,0,L|118:302,1,82.5000031471254
512,43,244713,5,10,0:0:0:0:
223,87,244894,1,10,0:0:0:0:
232,100,245076,2,0,B|263:144|263:144|261:181,1,82.5000031471254,8|0,0:0|0:0,0:0:0:0:
451,112,245440,5,0,0:0:0:0:
341,128,245621,1,0,0:0:0:0:
350,141,245803,2,0,B|381:185|381:185|379:222,1,82.5000031471254,8|0,0:0|0:0,0:0:0:0:
512,369,246167,6,0,L|392:353,1,110,4|0,0:0|0:0,0:0:0:0:
199,323,246531,2,0,L|287:340,1,82.5000031471254
286,335,246895,6,0,L|204:319,1,82.5000031471254,8|0,0:0|0:0,0:0:0:0:
0,279,247258,2,0,L|81:294,1,82.5000031471254
137,384,247622,5,10,0:0:0:0:
100,0,247804,1,10,0:0:0:0:
101,15,247986,2,0,B|105:68|105:68|80:96,1,82.5000031471254,8|0,0:0|0:0,0:0:0:0:
199,323,248349,5,0,0:0:0:0:
179,135,248531,1,0,0:0:0:0:
180,150,248713,2,0,B|184:203|184:203|159:230,1,82.5000031471254,8|0,0:0|0:0,0:0:0:0:
0,279,249076,6,0,L|118:305,1,110,4|0,0:0|0:0,0:0:0:0:
259,155,249440,2,0,L|175:134,1,82.5000031471254
293,262,249804,6,0,L|363:195,1,82.5000031471254,8|0,0:0|0:0,0:0:0:0:
318,97,250167,2,0,L|258:154,1,82.5000031471254
447,384,250531,5,10,0:0:0:0:
419,0,250713,1,10,0:0:0:0:
420,15,250895,2,0,B|424:68|424:68|399:95,1,82.5000031471254,8|0,0:0|0:0,0:0:0:0:
279,384,251258,5,0,0:0:0:0:
258,154,251440,1,0,0:0:0:0:
259,169,251622,2,0,B|263:222|263:222|238:249,1,82.5000031471254,8|0,0:0|0:0,0:0:0:0:
101,316,251985,6,0,B|115:253|222:327|149:405|23:423|-30:342|60:230|146:204|98:71|44:54|44:54|19:100|36:156|90:153|90:153|175:146|206:39|271:55,1,825,4|0,0:0|0:0,0:0:0:0:
283,57,253440,1,10,0:0:0:0:
466,185,253622,2,0,P|397:179|457:95,1,206.250007867813,10|0,0:0|0:0,0:0:0:0:
492,294,254167,2,0,B|435:272|353:302|353:302|267:333|202:298,1,288.750011014939,8|0,0:0|0:0,0:0:0:0:
203,243,254895,6,0,B|264:242|266:298|260:318|232:357|180:358|153:315|153:315|81:352|36:287|36:287|80:241|135:247|135:247|52:172|153:106|48:27|48:27|30:108|104:127,1,825,4|0,0:0|0:0,0:0:0:0:
119,123,256349,1,10,0:0:0:0:
265,24,256531,2,0,P|210:39|292:89,1,206.250007867813,10|0,0:0|0:0,0:0:0:0:
306,83,257076,5,8,0:0:0:0:
281,179,257258,1,0,0:0:0:0:
327,266,257440,1,0,0:0:0:0:
302,362,257622,1,0,0:0:0:0:
472,368,257804,6,0,B|407:383|356:313|416:241|443:261|443:261|408:201|465:165|462:103|462:103|408:177|332:151|331:2|466:31|466:31|419:33|397:70|397:70|324:43|257:78,1,825,4|0,0:0|0:0,0:0:0:0:
233,159,259258,2,0,P|194:128|197:14,1,165.000006294251,8|0,0:0|0:0,0:0:0:0:
0,238,259985,2,0,P|39:207|36:93,1,165.000006294251,8|0,0:0|0:0,0:0:0:0:
186,259,260713,6,0,B|116:221|60:264|51:342|100:372|145:374|145:374|195:324|276:325|342:373|342:373|306:322|330:243|440:210|516:312|426:374|426:374|393:322,1,825,4|0,0:0|0:0,0:0:0:0:
485,192,262167,2,0,P|417:178|503:71,1,275,4|0,0:0|0:0,0:0:0:0:
313,154,262713,5,0,0:0:0:0:
310,143,262804,1,0,0:0:0:0:
307,132,262895,5,8,0:0:0:0:
264,124,262985,1,0,0:0:0:0:
220,116,263076,1,0,0:0:0:0:
176,108,263167,1,0,0:0:0:0:
132,101,263258,5,8,0:0:0:0:
182,159,263349,1,8,0:0:0:0:
144,226,263440,1,8,0:0:0:0:
68,210,263531,1,8,0:0:0:0:
60,133,263622,5,4,0:0:0:0:
108,106,263713,1,0,0:0:0:0:
159,126,263804,1,8,0:0:0:0:
173,179,263895,1,0,0:0:0:0:
144,226,263986,1,2,0:0:0:0:
99,257,264076,1,0,0:0:0:0:
79,308,264167,1,8,0:0:0:0:
94,360,264258,1,0,0:0:0:0:
146,375,264349,5,2,0:0:0:0:
192,344,264440,1,0,0:0:0:0:
195,289,264531,1,8,0:0:0:0:
154,251,264622,1,0,0:0:0:0:
99,257,264713,2,0,P|63:266|28:261,3,55,2|0|0|0,0:0|0:0|0:0|0:0,0:0:0:0:
363,361,265076,5,4,0:0:0:0:
395,381,265166,1,0,0:0:0:0:
433,384,265257,1,8,0:0:0:0:
468,369,265348,1,0,0:0:0:0:
491,338,265439,1,2,0:0:0:0:
496,300,265530,1,0,0:0:0:0:
482,265,265621,1,8,0:0:0:0:
453,240,265712,1,0,0:0:0:0:
415,232,265804,1,2,0:0:0:0:
378,226,265894,1,0,0:0:0:0:
347,204,265985,1,8,0:0:0:0:
331,171,266076,1,0,0:0:0:0:
333,132,266167,1,2,0:0:0:0:
353,100,266258,1,0,0:0:0:0:
386,82,266349,1,8,0:0:0:0:
424,81,266440,1,0,0:0:0:0:
459,96,266531,5,4,0:0:0:0:
454,105,266622,1,0,0:0:0:0:
449,112,266713,2,0,L|417:167,1,55,8|0,0:0|0:0,0:0:0:0:
255,134,266895,1,2,0:0:0:0:
250,125,266986,1,0,0:0:0:0:
245,118,267077,2,0,L|213:63,1,55,8|0,0:0|0:0,0:0:0:0:
512,199,267258,5,2,0:0:0:0:
507,208,267349,1,0,0:0:0:0:
503,215,267440,2,0,L|471:270,1,55,8|0,0:0|0:0,0:0:0:0:
404,384,267622,1,2,0:0:0:0:
409,375,267713,1,0,0:0:0:0:
413,368,267804,2,0,L|445:313,1,55,8|0,0:0|0:0,0:0:0:0:
311,224,267985,5,4,0:0:0:0:
332,256,268075,1,0,0:0:0:0:
335,294,268166,1,8,0:0:0:0:
320,329,268257,1,0,0:0:0:0:
289,352,268348,1,2,0:0:0:0:
251,357,268439,1,0,0:0:0:0:
216,343,268530,1,8,0:0:0:0:
191,314,268621,1,0,0:0:0:0:
182,276,268713,1,2,0:0:0:0:
176,239,268803,1,0,0:0:0:0:
154,208,268894,1,8,0:0:0:0:
121,192,268985,1,0,0:0:0:0:
82,194,269076,1,2,0:0:0:0:
50,214,269167,1,0,0:0:0:0:
32,247,269258,1,8,0:0:0:0:
31,285,269349,1,0,0:0:0:0:
50,318,269440,5,4,0:0:0:0:
90,289,269530,1,0,0:0:0:0:
100,240,269622,1,8,0:0:0:0:
82,194,269712,1,0,0:0:0:0:
42,165,269803,1,2,0:0:0:0:
11,126,269895,1,0,0:0:0:0:
14,76,269984,1,8,0:0:0:0:
44,36,270075,1,0,0:0:0:0:
93,25,270167,2,0,P|129:34|164:29,3,55,2|0|8|0,0:0|0:0|0:0|0:0,0:0:0:0:
393,248,270531,5,2,0:0:0:0:
386,262,270621,1,0,0:0:0:0:
383,278,270712,1,8,0:0:0:0:
384,295,270803,1,0,0:0:0:0:
387,309,270895,5,4,0:0:0:0:
408,277,270985,1,0,0:0:0:0:
411,239,271076,1,8,0:0:0:0:
396,204,271167,1,0,0:0:0:0:
365,181,271258,1,2,0:0:0:0:
327,176,271349,1,0,0:0:0:0:
292,190,271440,1,8,0:0:0:0:
267,219,271531,1,0,0:0:0:0:
258,257,271623,1,2,0:0:0:0:
252,294,271713,1,0,0:0:0:0:
230,325,271804,1,8,0:0:0:0:
197,341,271895,1,0,0:0:0:0:
158,339,271986,1,2,0:0:0:0:
126,319,272077,1,0,0:0:0:0:
108,286,272168,1,8,0:0:0:0:
107,248,272259,1,0,0:0:0:0:
126,215,272349,5,4,0:0:0:0:
73,222,272439,1,0,0:0:0:0:
25,198,272530,1,8,0:0:0:0:
0,150,272621,1,0,0:0:0:0:
8,96,272713,1,2,0:0:0:0:
46,57,272803,1,0,0:0:0:0:
99,47,272895,5,8,0:0:0:0:
111,99,272985,1,0,0:0:0:0:
150,136,273076,1,2,0:0:0:0:
204,143,273167,1,0,0:0:0:0:
252,117,273258,1,8,0:0:0:0:
275,68,273349,1,0,0:0:0:0:
267,14,273440,5,4,0:0:0:0:
258,19,273531,1,0,0:0:0:0:
249,24,273622,1,8,0:0:0:0:
240,29,273713,1,0,0:0:0:0:
231,34,273804,2,0,L|176:61,3,55,2|0|8|0,0:0|0:0|0:0|0:0,0:0:0:0:
471,49,274167,5,4,0:0:0:0:
467,103,274257,1,0,0:0:0:0:
462,158,274348,1,8,0:0:0:0:
457,213,274439,1,0,0:0:0:0:
452,268,274530,5,2,0:0:0:0:
460,275,274622,1,0,0:0:0:0:
469,282,274713,1,8,0:0:0:0:
478,289,274804,1,0,0:0:0:0:
486,296,274895,5,2,0:0:0:0:
442,344,274986,1,0,0:0:0:0:
378,335,275076,1,8,0:0:0:0:
334,383,275167,1,0,0:0:0:0:
270,371,275258,6,0,L|206:359,1,55,2|0,0:0|0:0,0:0:0:0:
3,321,275440,2,0,L|58:331,1,55,8|0,0:0|0:0,0:0:0:0:
312,282,275622,6,0,L|248:270,1,55,2|0,0:0|0:0,0:0:0:0:
1,225,275804,2,0,L|56:235,1,55,8|0,0:0|0:0,0:0:0:0:
334,0,275985,6,0,B|280:8|280:8|263:25|263:25|241:15|241:15|179:24,1,165,4|0,0:0|0:0,0:0:0:0:
0,101,276349,2,0,B|62:110|62:110|84:100|84:100|101:117|101:117|154:125,1,165,2|0,0:0|0:0,0:0:0:0:
356,181,276713,6,0,P|409:228|504:197,1,165,4|0,0:0|0:0,0:0:0:0:
510,191,277076,1,0,0:0:0:0:
507,223,277167,1,0,0:0:0:0:
504,255,277258,1,8,0:0:0:0:
500,287,277349,1,0,0:0:0:0:
496,319,277440,5,2,0:0:0:0:
438,142,277622,1,0,0:0:0:0:
409,384,277804,5,2,0:0:0:0:
512,84,277986,1,0,0:0:0:0:
260,310,278167,5,4,0:0:0:0:
233,306,278257,1,0,0:0:0:0:
206,302,278349,1,8,0:0:0:0:
179,298,278439,1,0,0:0:0:0:
152,294,278530,5,2,0:0:0:0:
145,285,278622,1,0,0:0:0:0:
139,276,278713,1,8,0:0:0:0:
133,267,278804,1,0,0:0:0:0:
127,258,278895,5,4,0:0:0:0:
160,264,278985,1,0,0:0:0:0:
193,269,279076,1,8,0:0:0:0:
225,274,279167,1,0,0:0:0:0:
258,279,279258,1,2,0:0:0:0:
290,285,279349,1,0,0:0:0:0:
323,290,279440,2,0,L|387:300,1,55,8|0,0:0|0:0,0:0:0:0:
243,103,279622,5,4,0:0:0:0:
246,119,279712,1,0,0:0:0:0:
249,135,279804,2,0,L|259:196,1,55,8|0,0:0|0:0,0:0:0:0:
0,325,279985,1,2,0:0:0:0:
3,309,280075,1,0,0:0:0:0:
6,293,280167,2,0,L|16:231,1,55,8|0,0:0|0:0,0:0:0:0:
327,104,280349,5,2,0:0:0:0:
330,120,280440,1,0,0:0:0:0:
333,136,280531,2,0,L|343:197,1,55,8|0,0:0|0:0,0:0:0:0:
28,160,280714,1,2,0:0:0:0:
31,144,280804,1,0,0:0:0:0:
34,128,280896,2,0,L|44:66,1,55,8|0,0:0|0:0,0:0:0:0:
448,138,281076,5,4,0:0:0:0:
443,170,281167,1,0,0:0:0:0:
438,203,281258,1,8,0:0:0:0:
433,235,281349,1,0,0:0:0:0:
428,268,281440,1,2,0:0:0:0:
419,272,281531,1,0,0:0:0:0:
410,276,281622,1,8,0:0:0:0:
401,281,281713,1,0,0:0:0:0:
391,285,281804,6,0,L|381:357,1,55,2|0,0:0|0:0,0:0:0:0:
137,330,281986,2,0,L|147:402,1,55,8|0,0:0|0:0,0:0:0:0:
375,275,282167,2,0,L|365:347,3,55,2|0|0|0,0:0|0:0|0:0|0:0,0:0:0:0:
248,375,282531,5,4,0:0:0:0:
259,337,282621,1,0,0:0:0:0:
262,299,282712,1,8,0:0:0:0:
258,261,282803,1,0,0:0:0:0:
246,224,282895,1,2,0:0:0:0:
236,186,282985,1,0,0:0:0:0:
233,148,283076,1,8,0:0:0:0:
237,110,283167,1,0,0:0:0:0:
248,73,283258,6,0,L|304:96,3,55,4|0|0|0,0:0|0:0|0:0|0:0,0:0:0:0:
143,159,283622,2,0,L|93:138,3,55,2|0|0|0,0:0|0:0|0:0|0:0,0:0:0:0:
464,4,283985,6,0,L|486:121,1,110,4|0,0:0|0:0,0:0:0:0:
368,331,284258,2,0,L|348:222,1,110,8|0,0:0|0:0,0:0:0:0:
307,0,284531,1,8,0:0:0:0:
368,331,284713,6,0,L|264:295,1,110,2|0,0:0|0:0,0:0:0:0:
160,258,284985,2,0,L|265:295,1,110,8|0,0:0|0:0,0:0:0:0:
437,260,285258,1,8,0:0:0:0:
140,366,285440,6,0,L|162:249,1,110,4|0,0:0|0:0,0:0:0:0:
61,23,285713,2,0,L|41:132,1,110,8|0,0:0|0:0,0:0:0:0:
0,354,285985,1,8,0:0:0:0:
250,59,286167,6,0,L|146:95,1,110,2|0,0:0|0:0,0:0:0:0:
42,132,286440,2,0,L|147:95,1,110,8|0,0:0|0:0,0:0:0:0:
364,137,286712,1,8,0:0:0:0:
128,226,286895,6,0,L|193:201,1,55,4|0,0:0|0:0,0:0:0:0:
389,249,287076,2,0,L|337:268,1,55
122,223,287258,2,0,L|187:198,1,55,2|0,0:0|0:0,0:0:0:0:
383,246,287440,2,0,L|331:265,1,55
42,384,287622,5,4,0:0:0:0:
3,330,287713,1,0,0:0:0:0:
43,277,287804,1,0,0:0:0:0:
106,294,287895,1,0,0:0:0:0:
111,359,287985,5,2,0:0:0:0:
100,354,288076,1,0,0:0:0:0:
89,349,288167,1,0,0:0:0:0:
79,344,288258,1,0,0:0:0:0:
68,339,288349,5,4,0:0:0:0:
101,320,288439,1,0,0:0:0:0:
138,311,288530,1,8,0:0:0:0:
177,312,288621,1,0,0:0:0:0:
213,325,288713,1,2,0:0:0:0:
249,337,288804,1,0,0:0:0:0:
287,339,288895,1,8,0:0:0:0:
324,330,288986,1,0,0:0:0:0:
358,311,289076,5,2,0:0:0:0:
282,294,289166,1,0,0:0:0:0:
272,217,289257,1,8,0:0:0:0:
340,181,289348,1,0,0:0:0:0:
398,232,289440,2,0,L|444:271,1,55,2|0,0:0|0:0,0:0:0:0:
237,95,289622,2,0,L|279:130,1,55,8|0,0:0|0:0,0:0:0:0:
73,217,289804,5,4,0:0:0:0:
83,191,289894,1,0,0:0:0:0:
83,164,289985,1,8,0:0:0:0:
73,139,290076,1,0,0:0:0:0:
54,119,290167,1,2,0:0:0:0:
34,99,290258,1,0,0:0:0:0:
24,74,290349,1,8,0:0:0:0:
24,47,290440,1,0,0:0:0:0:
35,21,290531,5,2,0:0:0:0:
41,29,290621,1,0,0:0:0:0:
49,37,290712,1,8,0:0:0:0:
57,44,290803,1,0,0:0:0:0:
67,49,290894,1,2,0:0:0:0:
77,53,290985,1,0,0:0:0:0:
88,55,291076,2,0,P|117:48|144:50,1,55,8|0,0:0|0:0,0:0:0:0:
512,0,291258,5,4,0:0:0:0:
493,33,291348,1,0,0:0:0:0:
484,70,291439,1,8,0:0:0:0:
485,109,291530,1,0,0:0:0:0:
498,145,291622,1,2,0:0:0:0:
510,181,291713,1,0,0:0:0:0:
512,219,291804,1,8,0:0:0:0:
503,256,291895,1,0,0:0:0:0:
484,290,291985,5,2,0:0:0:0:
465,256,292075,1,0,0:0:0:0:
456,219,292166,1,8,0:0:0:0:
458,181,292257,1,0,0:0:0:0:
470,145,292349,2,0,L|405:182,1,55,2|0,0:0|0:0,0:0:0:0:
365,66,292531,2,0,L|300:103,1,55,8|0,0:0|0:0,0:0:0:0:
300,318,292713,5,4,0:0:0:0:
274,297,292803,1,0,0:0:0:0:
264,266,292894,1,8,0:0:0:0:
273,234,292985,1,0,0:0:0:0:
297,213,293076,1,2,0:0:0:0:
329,207,293167,1,0,0:0:0:0:
359,220,293258,1,8,0:0:0:0:
377,247,293349,1,0,0:0:0:0:
377,280,293440,5,2,0:0:0:0:
370,288,293530,1,0,0:0:0:0:
365,298,293621,1,8,0:0:0:0:
361,308,293712,1,0,0:0:0:0:
358,319,293803,1,2,0:0:0:0:
358,330,293894,1,0,0:0:0:0:
359,341,293985,1,8,0:0:0:0:
361,351,294076,1,0,0:0:0:0:
365,361,294167,5,4,0:0:0:0:
333,339,294257,1,0,0:0:0:0:
296,329,294348,1,8,0:0:0:0:
257,331,294439,1,0,0:0:0:0:
222,346,294531,1,2,0:0:0:0:
186,360,294622,1,0,0:0:0:0:
148,362,294713,1,8,0:0:0:0:
111,352,294804,1,0,0:0:0:0:
79,331,294894,5,2,0:0:0:0:
86,322,294985,1,0,0:0:0:0:
93,313,295076,1,8,0:0:0:0:
100,304,295167,1,0,0:0:0:0:
107,295,295258,2,0,L|146:247,3,55,2|0|8|0,0:0|0:0|0:0|0:0,0:0:0:0:
464,380,295622,6,0,L|486:263,1,110,4|0,0:0|0:0,0:0:0:0:
368,53,295895,2,0,L|348:162,1,110,8|0,0:0|0:0,0:0:0:0:
307,384,296168,1,8,0:0:0:0:
368,53,296349,6,0,L|264:89,1,110,2|0,0:0|0:0,0:0:0:0:
160,126,296622,2,0,L|265:89,1,110,8|0,0:0|0:0,0:0:0:0:
437,124,296895,1,8,0:0:0:0:
140,18,297076,6,0,L|162:135,1,110,4|0,0:0|0:0,0:0:0:0:
61,361,297349,2,0,L|41:252,1,110,8|0,0:0|0:0,0:0:0:0:
0,30,297622,1,8,0:0:0:0:
250,325,297803,6,0,L|146:289,1,110,2|0,0:0|0:0,0:0:0:0:
42,252,298076,2,0,L|147:289,1,110,8|0,0:0|0:0,0:0:0:0:
364,247,298349,1,8,0:0:0:0:
86,143,298531,1,0,0:0:0:0:
512,19,298713,6,0,L|461:0,1,55
241,64,298895,2,0,L|292:83,1,55
416,267,299076,2,0,L|365:248,1,55
248,0,299258,6,0,L|222:49,1,55,2|0,0:0|0:0,0:0:0:0:
121,223,299440,2,0,L|148:175,1,55
241,64,299622,6,0,L|215:113,1,55,2|0,0:0|0:0,0:0:0:0:
172,189,299804,2,0,L|199:141,1,55
0,0,299985,6,0,L|27:49,1,55,8|0,0:0|0:0,0:0:0:0:
14,0,300167,2,0,L|41:49,1,55
47,164,300349,2,0,L|21:213,1,55,8|0,0:0|0:0,0:0:0:0:
33,164,300531,2,0,L|7:213,1,55
215,306,300713,6,0,L|161:307,1,55,4|0,0:0|0:0,0:0:0:0:
73,309,300894,2,0,L|128:309,1,55
261,343,301076,1,2,0:0:0:0:
30,349,301258,1,0,0:0:0:0:
399,384,301440,6,0,B|364:300|364:300|417:235|417:235|393:177,1,220,4|0,0:0|0:0,0:0:0:0:
345,51,301985,2,0,L|324:-5,2,55,8|0|2,0:0|0:0|0:0,0:0:0:0:
461,318,302349,5,8,0:0:0:0:
313,216,302531,1,2,0:0:0:0:
475,138,302713,1,2,0:0:0:0:
130,303,302895,6,0,L|78:184,1,110,4|0,0:0|0:0,0:0:0:0:
128,34,303258,1,0,0:0:0:0:
47,347,303440,1,0,0:0:0:0:
43,357,303531,1,0,0:0:0:0:
41,367,303622,1,2,0:0:0:0:
214,256,303804,1,0,0:0:0:0:
0,252,303985,5,2,0:0:0:0:
261,358,304167,1,0,0:0:0:0:
393,5,304349,5,4,0:0:0:0:
330,157,304531,1,0,0:0:0:0:
404,237,304713,1,0,0:0:0:0:
362,338,304895,6,0,L|379:298,3,36.6666666666667,0|0|0|8,0:0|0:0|0:0|0:0,0:0:0:0:
499,0,305258,2,0,L|432:166,1,165,4|0,0:0|0:0,0:0:0:0:
441,159,305622,2,0,L|464:103,1,55,2|0,0:0|0:0,0:0:0:0:
393,5,305804,5,4,0:0:0:0:
489,305,305985,1,0,0:0:0:0:
182,239,306167,1,0,0:0:0:0:
258,84,306349,5,0,0:0:0:0:
261,94,306440,1,0,0:0:0:0:
264,104,306531,1,8,0:0:0:0:
354,384,306713,1,0,0:0:0:0:
343,381,306804,1,0,0:0:0:0:
332,378,306895,2,0,L|261:363,1,55,2|0,0:0|0:0,0:0:0:0:
219,122,307076,2,0,L|262:79,1,55,8|0,0:0|0:0,0:0:0:0:
423,0,307258,6,0,B|458:84|458:84|404:148|404:148|429:207,1,220,4|0,0:0|0:0,0:0:0:0:
482,324,307804,1,0,0:0:0:0:
485,333,307864,1,0,0:0:0:0:
489,343,307925,1,0,0:0:0:0:
494,353,307985,1,0,0:0:0:0:
361,66,308167,5,0,0:0:0:0:
509,168,308349,1,2,0:0:0:0:
346,245,308531,1,2,0:0:0:0:
142,86,308713,6,0,L|194:205,1,110,4|0,0:0|0:0,0:0:0:0:
128,320,309076,1,0,0:0:0:0:
233,76,309258,1,0,0:0:0:0:
237,66,309349,1,0,0:0:0:0:
241,56,309440,1,8,0:0:0:0:
45,115,309622,1,0,0:0:0:0:
256,158,309803,5,2,0:0:0:0:
2,18,309985,1,0,0:0:0:0:
128,320,310167,5,4,0:0:0:0:
156,303,310257,1,0,0:0:0:0:
188,293,310348,1,8,0:0:0:0:
220,288,310439,1,0,0:0:0:0:
253,290,310530,1,2,0:0:0:0:
285,297,310621,1,0,0:0:0:0:
315,310,310713,2,0,L|301:253,1,55,8|0,0:0|0:0,0:0:0:0:
410,384,310895,5,4,0:0:0:0:
415,357,310985,1,0,0:0:0:0:
421,330,311076,1,8,0:0:0:0:
426,303,311167,1,0,0:0:0:0:
432,276,311258,2,0,L|445:215,1,55,2|0,0:0|0:0,0:0:0:0:
467,111,311440,2,0,L|479:52,1,55,8|0,0:0|0:0,0:0:0:0:
272,110,311622,5,4,0:0:0:0:
267,58,311712,1,0,0:0:0:0:
312,32,311803,1,8,0:0:0:0:
355,61,311894,1,0,0:0:0:0:
346,113,311985,5,2,0:0:0:0:
340,122,312075,1,0,0:0:0:0:
335,132,312166,1,8,0:0:0:0:
334,143,312257,1,0,0:0:0:0:
335,153,312349,5,4,0:0:0:0:
282,141,312439,1,0,0:0:0:0:
228,148,312530,1,8,0:0:0:0:
180,174,312621,1,0,0:0:0:0:
149,221,312713,1,2,0:0:0:0:
88,247,312804,1,0,0:0:0:0:
29,215,312895,1,8,0:0:0:0:
29,149,312985,1,0,0:0:0:0:
82,110,313076,5,4,0:0:0:0:
103,160,313166,1,0,0:0:0:0:
102,214,313257,1,8,0:0:0:0:
79,264,313348,1,0,0:0:0:0:
37,299,313440,2,0,L|97:326,1,55,2|0,0:0|0:0,0:0:0:0:
244,271,313622,5,8,0:0:0:0:
216,318,313713,1,0,0:0:0:0:
218,372,313804,1,2,0:0:0:0:
228,367,313895,1,0,0:0:0:0:
238,362,313985,2,0,L|303:362,1,55,8|0,0:0|0:0,0:0:0:0:
346,256,314167,2,0,L|411:256,1,55,2|0,0:0|0:0,0:0:0:0:
457,139,314349,2,0,L|522:139,1,55,8|0,0:0|0:0,0:0:0:0:
377,30,314531,5,4,0:0:0:0:
367,50,314622,1,0,0:0:0:0:
358,70,314713,2,0,L|332:126,1,55,8|0,0:0|0:0,0:0:0:0:
88,61,314895,1,2,0:0:0:0:
98,81,314986,1,0,0:0:0:0:
107,101,315077,2,0,L|132:157,1,55,8|0,0:0|0:0,0:0:0:0:
289,207,315258,5,4,0:0:0:0:
279,227,315349,1,0,0:0:0:0:
270,247,315440,2,0,L|244:303,1,55,8|0,0:0|0:0,0:0:0:0:
0,238,315622,1,2,0:0:0:0:
10,258,315713,1,0,0:0:0:0:
19,278,315804,2,0,L|44:334,1,55,8|0,0:0|0:0,0:0:0:0:
424,139,315985,6,0,L|401:189,1,55,4|0,0:0|0:0,0:0:0:0:
430,384,316167,2,0,L|407:333,1,55
430,137,316349,6,0,L|407:187,1,55,2|0,0:0|0:0,0:0:0:0:
436,382,316531,2,0,L|413:331,1,55
291,102,316713,5,8,0:0:0:0:
290,113,316804,1,0,0:0:0:0:
289,122,316895,1,2,0:0:0:0:
254,137,316986,1,0,0:0:0:0:
216,141,317077,1,8,0:0:0:0:
178,131,317168,1,0,0:0:0:0:
146,110,317258,2,0,L|198:86,1,55,8|0,0:0|0:0,0:0:0:0:
165,231,317440,5,4,0:0:0:0:
138,203,317530,1,0,0:0:0:0:
102,193,317621,1,8,0:0:0:0:
65,202,317712,1,0,0:0:0:0:
38,229,317803,1,2,0:0:0:0:
28,265,317894,1,0,0:0:0:0:
38,302,317985,1,8,0:0:0:0:
65,329,318076,1,0,0:0:0:0:
101,338,318167,5,2,0:0:0:0:
135,321,318257,1,0,0:0:0:0:
173,315,318348,1,8,0:0:0:0:
211,318,318439,1,0,0:0:0:0:
248,331,318531,2,0,L|266:399,1,55,2|0,0:0|0:0,0:0:0:0:
364,296,318713,2,0,L|346:364,1,55,8|0,0:0|0:0,0:0:0:0:
483,343,318895,5,4,0:0:0:0:
447,301,318985,1,0,0:0:0:0:
433,249,319076,1,8,0:0:0:0:
444,195,319167,1,0,0:0:0:0:
477,152,319258,1,2,0:0:0:0:
481,162,319349,1,0,0:0:0:0:
485,172,319440,2,0,L|463:107,1,55,8|0,0:0|0:0,0:0:0:0:
430,18,319622,5,4,0:0:0:0:
391,48,319712,1,0,0:0:0:0:
350,77,319804,2,0,L|299:115,1,55,8|0,0:0|0:0,0:0:0:0:
171,72,319985,1,2,0:0:0:0:
132,102,320075,1,0,0:0:0:0:
91,131,320167,2,0,L|40:169,1,55,8|0,0:0|0:0,0:0:0:0:
273,200,320349,5,4,0:0:0:0:
234,169,320440,1,0,0:0:0:0:
184,173,320531,1,8,0:0:0:0:
149,208,320622,1,0,0:0:0:0:
149,218,320713,5,2,0:0:0:0:
187,256,320804,1,0,0:0:0:0:
170,308,320895,1,8,0:0:0:0:
117,322,320985,1,0,0:0:0:0:
110,313,321076,5,2,0:0:0:0:
163,281,321167,1,0,0:0:0:0:
229,283,321258,1,8,0:0:0:0:
281,322,321349,1,0,0:0:0:0:
281,333,321440,5,2,0:0:0:0:
333,372,321531,1,0,0:0:0:0:
399,374,321622,1,8,0:0:0:0:
452,342,321713,1,0,0:0:0:0:
452,352,321804,5,4,0:0:0:0:
393,320,321895,1,0,0:0:0:0:
367,260,321985,1,8,0:0:0:0:
389,197,322076,1,0,0:0:0:0:
448,167,322167,1,2,0:0:0:0:
478,108,322258,1,0,0:0:0:0:
450,48,322349,1,8,0:0:0:0:
387,25,322440,1,0,0:0:0:0:
330,59,322531,6,0,P|315:137|289:155,1,110,4|0,0:0|0:0,0:0:0:0:
149,94,322804,2,0,P|224:67|252:81,1,110,2|0,0:0|0:0,0:0:0:0:
217,207,323076,2,0,L|209:152,1,55,8|0,0:0|0:0,0:0:0:0:
31,78,323258,5,4,0:0:0:0:
38,132,323349,1,0,0:0:0:0:
71,175,323440,1,8,0:0:0:0:
78,229,323531,1,0,0:0:0:0:
12,348,323713,5,0,0:0:0:0:
88,338,323804,1,8,0:0:0:0:
161,362,323895,1,0,0:0:0:0:
237,352,323986,1,2,0:0:0:0:
308,378,324076,1,4,0:0:0:0:
