osu file format v14

[General]
AudioFilename: audio.mp3
AudioLeadIn: 0
PreviewTime: 138167
Countdown: 0
SampleSet: Normal
StackLeniency: 0.2
Mode: 1
LetterboxInBreaks: 0
WidescreenStoryboard: 1

[Editor]
Bookmarks: 13803,14530,164167,165803
DistanceSpacing: 1.4
BeatDivisor: 4
GridSize: 8
TimelineZoom: 2.1

[Metadata]
Title:Kensei
TitleUnicode:劍聖
Artist:Whispered
ArtistUnicode:Whispered
Creator:MrKosiej
Version:LZD's Sacred Sword
Source:
Tags:metal death melodic eastern folk metsutan songs of the void LZD English
BeatmapID:2420863
BeatmapSetID:1079398

[Difficulty]
HPDrainRate:4.5
CircleSize:4.4
OverallDifficulty:6
ApproachRate:9.4
SliderMultiplier:1.4
SliderTickRate:1

[Events]
//Background and Video events
0,0,"samuraiarmyp.jpg",0,0
//Break Periods
//Storyboard Layer 0 (Background)
//Storyboard Layer 1 (Fail)
//Storyboard Layer 2 (Pass)
//Storyboard Layer 3 (Foreground)
//Storyboard Layer 4 (Overlay)
//Storyboard Sound Samples

[TimingPoints]
1440,363.636363636364,4,1,0,50,1,0
13801,-98.0392156862745,4,1,0,55,0,0
13892,-97.0873786407767,4,1,0,55,0,0
13983,-96.1538461538461,4,1,0,60,0,0
14074,-95.2380952380952,4,1,0,60,0,0
14165,-94.3396226415094,4,1,0,65,0,0
14256,-93.4579439252336,4,1,0,65,0,0
14347,-92.5925925925926,4,1,0,70,0,0
14438,-91.743119266055,4,1,0,75,0,0
14528,-90.9090909090909,4,1,0,80,0,0
24710,-90.0900900900901,4,1,0,80,0,0
24801,-89.2857142857143,4,1,0,81,0,0
24892,-88.4955752212389,4,1,0,81,0,0
24983,-87.719298245614,4,1,0,82,0,0
25074,-86.9565217391304,4,1,0,82,0,0
25165,-86.2068965517241,4,1,0,83,0,0
25256,-85.4700854700855,4,1,0,83,0,0
25347,-84.7457627118644,4,1,0,84,0,0
25438,-84.0336134453781,4,1,0,84,0,0
25528,-83.3333333333333,4,1,0,85,0,0
25619,-82.6446280991736,4,1,0,85,0,0
25710,-81.9672131147541,4,1,0,86,0,0
25801,-81.3008130081301,4,1,0,86,0,0
25892,-80.6451612903226,4,1,0,87,0,0
25983,-80,4,1,0,88,0,0
26074,-79.3650793650794,4,1,0,89,0,0
26165,-78.7401574803149,4,1,0,90,0,0
26347,-76.9230769230769,4,1,0,85,0,0
27438,-125,4,1,0,40,0,0
29074,-78.7401574803149,4,1,0,90,0,0
29256,-76.9230769230769,4,1,0,85,0,0
30347,-125,4,1,0,40,0,0
31983,-78.7401574803149,4,1,0,90,0,0
32165,-76.9230769230769,4,1,0,85,0,0
33256,-125,4,1,0,40,0,0
34892,-78.7401574803149,4,1,0,90,0,0
35074,-76.9230769230769,4,1,0,80,0,0
35165,-77.5176972902914,4,1,0,80,0,0
35347,-78.735011806315,4,1,0,80,0,0
35438,-79.3580882953962,4,1,0,80,0,0
35528,-79.9911049891252,4,1,0,80,0,0
35619,-80.6343666896206,4,1,0,80,0,0
35801,-81.9523004830269,4,1,0,80,0,0
35892,-82.6276245632097,4,1,0,80,0,0
36074,-84.0336134453782,4,1,0,80,0,0
36165,-84.7457627118644,4,1,0,80,0,0
36256,-85.4700854700855,4,1,0,80,0,0
36347,-86.2068965517241,4,1,0,80,0,0
36438,-86.9565217391304,4,1,0,80,0,0
36528,-87.719298245614,4,1,0,80,0,0
36619,-88.495575221239,4,1,0,80,0,0
36710,-89.2857142857143,4,1,0,80,0,0
36801,-90.0900900900901,4,1,0,80,0,0
36892,-90.9090909090909,4,1,0,80,0,0
36983,-91.743119266055,4,1,0,80,0,0
37074,-92.5925925925926,4,1,0,80,0,0
37165,-93.4579439252336,4,1,0,80,0,0
37256,-94.3396226415094,4,1,0,80,0,0
37347,-95.2380952380952,4,1,0,80,0,0
37438,-96.1538461538461,4,1,0,80,0,0
37528,-97.0873786407767,4,1,0,80,0,0
37619,-98.0392156862745,4,1,0,80,0,0
37710,-99.009900990099,4,1,0,80,0,0
37801,-100,4,1,0,80,0,0
37983,-100,4,1,0,75,0,0
42165,-83.3333333333333,4,1,0,75,0,0
42256,-84.2059171497981,4,1,0,75,0,0
42347,-85.0969679950303,4,1,0,75,0,0
42438,-86.0071523547898,4,1,0,75,0,0
42528,-86.936942027839,4,1,0,75,0,0
42619,-87.8870545884074,4,1,0,75,0,0
42710,-88.8581637105037,4,1,0,75,0,0
42801,-89.8510539079368,4,1,0,75,0,0
42892,-90.8663011418259,4,1,0,75,0,0
42983,-91.9047535895699,4,1,0,75,0,0
43074,-92.9672160409353,4,1,0,75,0,0
43165,-94.0546193985771,4,1,0,75,0,0
43256,-95.1676711614358,4,1,0,75,0,0
43347,-96.3073823460863,4,1,0,75,0,0
43438,-97.474722367622,4,1,0,75,0,0
43528,-98.6707082188753,4,1,0,75,0,0
43619,-99.8965072185216,4,1,0,75,0,0
47983,-83.3333333333333,4,1,0,75,0,0
48074,-84.2059171497981,4,1,0,75,0,0
48165,-85.0969679950303,4,1,0,75,0,0
48256,-86.0071523547898,4,1,0,75,0,0
48347,-86.936942027839,4,1,0,75,0,0
48438,-87.8870545884074,4,1,0,75,0,0
48528,-88.8581637105037,4,1,0,75,0,0
48619,-89.8510539079368,4,1,0,75,0,0
48710,-90.8663011418259,4,1,0,75,0,0
48801,-91.9047535895699,4,1,0,75,0,0
48892,-92.9672160409353,4,1,0,75,0,0
48983,-94.0546193985771,4,1,0,75,0,0
49074,-95.1676711614358,4,1,0,75,0,0
49165,-96.3073823460863,4,1,0,75,0,0
49256,-97.474722367622,4,1,0,75,0,0
49347,-98.6707082188753,4,1,0,75,0,0
49438,-99.8965072185216,4,1,0,75,0,0
53801,-83.3333333333333,4,1,0,75,0,0
53892,-84.2059171497981,4,1,0,75,0,0
53983,-85.0969679950303,4,1,0,75,0,0
54074,-86.0071523547898,4,1,0,75,0,0
54165,-86.936942027839,4,1,0,75,0,0
54256,-87.8870545884074,4,1,0,75,0,0
54347,-88.8581637105037,4,1,0,75,0,0
54438,-89.8510539079368,4,1,0,75,0,0
54528,-90.8663011418259,4,1,0,75,0,0
54619,-91.9047535895699,4,1,0,75,0,0
54710,-92.9672160409353,4,1,0,75,0,0
54801,-94.0546193985771,4,1,0,75,0,0
54892,-95.1676711614358,4,1,0,75,0,0
54983,-96.3073823460863,4,1,0,75,0,0
55074,-97.474722367622,4,1,0,75,0,0
55165,-98.6707082188753,4,1,0,75,0,0
55256,-99.8965072185216,4,1,0,75,0,0
59619,-83.3333333333333,4,1,0,75,0,0
59710,-84.2059171497981,4,1,0,75,0,0
59801,-85.0969679950303,4,1,0,75,0,0
59892,-86.0071523547898,4,1,0,75,0,0
59983,-86.936942027839,4,1,0,75,0,0
60074,-87.8870545884074,4,1,0,75,0,0
60165,-88.8581637105037,4,1,0,75,0,0
60256,-89.8510539079368,4,1,0,75,0,0
60347,-90.8663011418259,4,1,0,75,0,0
60438,-91.9047535895699,4,1,0,75,0,0
60528,-92.9672160409353,4,1,0,75,0,0
60619,-94.0546193985771,4,1,0,75,0,0
60710,-95.1676711614358,4,1,0,75,0,0
60801,-96.3073823460863,4,1,0,75,0,0
60892,-97.474722367622,4,1,0,75,0,0
60983,-98.6707082188753,4,1,0,75,0,0
61074,-99.8965072185216,4,1,0,80,0,0
72710,-99.009900990099,4,1,0,81,0,0
72801,-98.0392156862745,4,1,0,81,0,0
72892,-97.0873786407767,4,1,0,81,0,0
72983,-96.1538461538461,4,1,0,81,0,0
73074,-95.2380952380952,4,1,0,82,0,0
73165,-94.3396226415094,4,1,0,82,0,0
73256,-93.4579439252336,4,1,0,82,0,0
73347,-92.5925925925926,4,1,0,82,0,0
73438,-91.743119266055,4,1,0,83,0,0
73528,-90.9090909090909,4,1,0,83,0,0
73619,-90.0900900900901,4,1,0,83,0,0
73710,-89.2857142857143,4,1,0,83,0,0
73801,-88.4955752212389,4,1,0,84,0,0
73892,-87.719298245614,4,1,0,84,0,0
73983,-86.9565217391304,4,1,0,84,0,0
74074,-86.2068965517241,4,1,0,84,0,0
74165,-85.4700854700855,4,1,0,84,0,0
74256,-84.7457627118644,4,1,0,84,0,0
74347,-84.0336134453781,4,1,0,84,0,0
74438,-83.3333333333333,4,1,0,84,0,0
74528,-82.6446280991736,4,1,0,84,0,0
74619,-81.9672131147541,4,1,0,84,0,0
74710,-81.3008130081301,4,1,0,84,0,0
74801,-80.6451612903226,4,1,0,84,0,0
74892,-80,4,1,0,85,0,0
75438,-78.125,4,1,0,75,0,0
75528,-77.5193798449612,4,1,0,75,0,0
75619,-76.9230769230769,4,1,0,90,0,0
75802,-76.9230769230769,4,1,0,85,0,0
76892,-111.111111111111,4,1,0,40,0,0
78528,-78.7401574803149,4,1,0,90,0,0
78710,-76.9230769230769,4,1,0,80,0,0
78801,-77.5176972902914,4,1,0,80,0,0
78983,-78.735011806315,4,1,0,80,0,0
79074,-79.3580882953962,4,1,0,80,0,0
79165,-79.9911049891252,4,1,0,80,0,0
79256,-80.6343666896206,4,1,0,80,0,0
79438,-81.9523004830269,4,1,0,80,0,0
79528,-82.6276245632097,4,1,0,80,0,0
79710,-84.0120809372388,4,1,0,80,0,0
79801,-84.7219256954823,4,1,0,80,0,0
79983,-86.1780714726454,4,1,0,80,0,0
80165,-89.2857142857143,4,1,0,80,0,0
80710,-92.5925925925926,4,1,0,80,0,0
81256,-97.9646856901024,4,1,0,80,0,0
81347,-98.9312457521396,4,1,0,80,0,0
81438,-100,4,1,0,80,0,0
81620,-100,4,1,0,75,0,0
85801,-83.3333333333333,4,1,0,75,0,0
85892,-84.2059171497981,4,1,0,75,0,0
85983,-85.0969679950303,4,1,0,75,0,0
86074,-86.0071523547898,4,1,0,75,0,0
86165,-86.936942027839,4,1,0,75,0,0
86256,-87.8870545884074,4,1,0,75,0,0
86347,-88.8581637105037,4,1,0,75,0,0
86438,-89.8510539079368,4,1,0,75,0,0
86528,-90.8663011418259,4,1,0,75,0,0
86619,-91.9047535895699,4,1,0,75,0,0
86710,-92.9672160409353,4,1,0,75,0,0
86801,-94.0546193985771,4,1,0,75,0,0
86892,-95.1676711614358,4,1,0,75,0,0
86983,-96.3073823460863,4,1,0,75,0,0
87074,-97.474722367622,4,1,0,75,0,0
87165,-98.6707082188753,4,1,0,75,0,0
87256,-99.8965072185216,4,1,0,75,0,0
93074,-100,4,1,0,80,0,0
104710,-99.009900990099,4,1,0,76,0,0
104801,-98.0392156862745,4,1,0,76,0,0
104892,-97.0873786407767,4,1,0,77,0,0
104983,-96.1538461538461,4,1,0,77,0,0
105074,-95.2380952380952,4,1,0,78,0,0
105165,-94.3396226415094,4,1,0,78,0,0
105256,-93.4579439252336,4,1,0,79,0,0
105347,-92.5925925925926,4,1,0,79,0,0
105438,-91.743119266055,4,1,0,80,0,0
105528,-90.9090909090909,4,1,0,80,0,0
105619,-90.0900900900901,4,1,0,81,0,0
105710,-89.2857142857143,4,1,0,81,0,0
105801,-88.4955752212389,4,1,0,82,0,0
105892,-87.719298245614,4,1,0,82,0,0
105983,-86.9565217391304,4,1,0,83,0,0
106074,-86.2068965517241,4,1,0,84,0,0
106165,-85.4700854700855,4,1,0,85,0,0
108528,-142.857142857143,4,1,0,60,0,0
109074,-100,4,1,0,75,0,0
109438,-100,4,1,0,50,0,0
109802,-100,4,1,0,61,0,0
109893,-100,4,1,0,62,0,0
109983,-100,4,1,0,63,0,0
110074,-100,4,1,0,64,0,0
110165,-100,4,1,0,66,0,0
110256,-100,4,1,0,68,0,0
110347,-100,4,1,0,71,0,0
110438,-100,4,1,0,73,0,0
110530,-100,4,1,0,75,0,1
130710,-95.2380952380952,4,1,0,75,0,1
130801,-94.4916115071885,4,1,0,75,0,1
130894,-93.7567387655988,4,1,0,75,0,0
131074,-92.320759245924,4,1,0,75,0,0
131165,-91.6191392381869,4,1,0,75,0,0
131347,-90.2474132835168,4,1,0,75,0,0
131438,-89.5769192526777,4,1,0,75,0,0
131528,-88.9162355711179,4,1,0,75,0,0
131619,-88.2652264135455,4,1,0,75,0,0
131801,-86.9913939413974,4,1,0,75,0,0
131892,-86.3681667665658,4,1,0,75,0,0
132074,-85.1481236759467,4,1,0,75,0,0
132165,-84.5509372894153,4,1,0,75,0,0
132347,-83.3813470923674,4,1,0,75,0,0
133074,-81.9672131147541,4,1,0,75,0,0
133256,-80.9716599190283,4,1,0,75,0,0
133347,-80.4828973843058,4,1,0,75,0,0
133528,-79.5228628230616,4,1,0,75,0,0
133619,-79.0513833992095,4,1,0,75,0,0
133801,-78.125,4,1,0,75,0,0
136165,-83.3333333333333,4,1,0,75,0,0
136528,-90.9090909090909,4,1,0,75,0,0
137619,-100,4,1,0,50,0,0
137801,-100,4,1,0,55,0,0
137983,-100,4,1,0,60,0,0
138165,-99.7267487085386,4,1,0,70,0,0
139620,-100,4,1,0,75,0,0
146892,-100,4,1,0,75,0,0
146983,-99.3820424599838,4,1,0,75,0,0
147074,-98.7717730027113,4,1,0,75,0,0
147165,-98.1688563230069,4,1,0,75,0,0
147256,-97.5733507664387,4,1,0,75,0,0
147347,-96.9849324208991,4,1,0,75,0,0
147438,-96.4035684744906,4,1,0,75,0,0
147619,-95.261593097726,4,1,0,75,0,0
147801,-94.1463561594312,4,1,0,75,0,0
147983,-93.0569294377221,4,1,0,75,0,0
148074,-92.5215737179517,4,1,0,75,0,0
148165,-91.9923425574055,4,1,0,75,0,0
148256,-91.4692151209589,4,1,0,75,0,0
148347,-90.9519209955233,4,1,0,75,0,0
158074,-90.9090909090909,4,1,0,75,0,0
158165,-90.1287398920618,4,1,0,75,0,0
158347,-88.6076285851754,4,1,0,75,0,0
158528,-87.1369330762213,4,1,0,75,0,0
158619,-86.4197424173157,4,1,0,75,0,0
158710,-85.7142612244968,4,1,0,75,0,0
158801,-85.0202773361447,4,1,0,75,0,0
158892,-84.3373697198481,4,1,0,75,0,0
158983,-83.6653453119797,4,1,0,75,0,0
159074,-83.0039460075932,4,1,0,75,0,0
159165,-82.3529217993125,4,1,0,75,0,0
159256,-81.712030462245,4,1,0,75,0,0
159347,-81.0811029948927,4,1,0,75,0,0
159438,-80.459779363193,4,1,0,75,0,0
159528,-79.8479057092051,4,1,0,75,0,0
159619,-79.2452680669305,4,1,0,75,0,0
159710,-78.6516588814633,4,1,0,75,0,0
159801,-78.0669377150744,4,1,0,75,0,0
159892,-77.4907863455035,4,1,0,75,0,0
159983,-76.9230769230769,4,1,0,75,0,0
160165,-76.9230769230769,4,1,0,85,0,0
161256,-125,4,1,0,40,0,0
162892,-78.7401574803149,4,1,0,90,0,0
163074,-76.9230769230769,4,1,0,85,0,0
164165,-100,4,1,0,70,0,0
164256,-98.5221674876847,4,1,0,70,0,0
164347,-97.0873786407767,4,1,0,70,0,0
164438,-95.6937799043062,4,1,0,70,0,0
164528,-94.3396226415094,4,1,0,70,0,0
164619,-93.0232558139535,4,1,0,70,0,0
164710,-91.743119266055,4,1,0,70,0,0
164801,-90.4977375565611,4,1,0,70,0,0
164892,-89.2857142857143,4,1,0,70,0,0
164983,-88.1057268722467,4,1,0,70,0,0
165074,-86.9565217391304,4,1,0,70,0,0
165165,-85.8369098712446,4,1,0,70,0,0
165256,-84.7457627118644,4,1,0,70,0,0
165347,-83.6820083682008,4,1,0,70,0,0
165438,-82.6446280991736,4,1,0,70,0,0
165528,-81.6326530612245,4,1,0,70,0,0
165619,-80.6451612903226,4,1,0,70,0,0
165710,-79.6812749003984,4,1,0,70,0,0
165801,-78.740157480315,4,1,0,90,0,0
165983,-76.9230769230769,4,1,0,85,0,0
167074,-100,4,1,0,75,0,0
168528,-100,4,1,0,75,0,0
168619,-98.9060985500366,4,1,0,75,0,0
168710,-97.8358705435761,4,1,0,75,0,0
168892,-95.7634260323297,4,1,0,75,0,0
168983,-94.7597839476926,4,1,0,75,0,0
169165,-92.8144018251024,4,1,0,75,0,0
169256,-91.8713176827481,4,1,0,75,0,0
169347,-90.9472060563563,4,1,0,75,0,0
169438,-90.0415001274087,4,1,0,75,0,0
169619,-88.2831487774108,4,1,0,75,0,0
169710,-87.4294771979552,4,1,0,75,0,0
169892,-85.770722849921,4,1,0,75,0,0
169983,-84.9647268936301,4,1,0,75,0,0
170165,-83.3333333333333,4,1,0,75,0,0
170256,-82.9492781753813,4,1,0,75,0,0
170347,-82.5688149145702,4,1,0,75,0,0
170438,-82.1917583036279,4,1,0,75,0,0
170528,-81.8181966942176,4,1,0,75,0,0
170619,-81.4479490591947,4,1,0,75,0,0
170710,-81.0811029948927,4,1,0,75,0,0
170801,-80.7174815500017,4,1,0,75,0,0
170892,-80.3571715561327,4,1,0,75,0,0
170983,-80,4,1,0,75,0,0
171074,-79.6459895058444,4,1,0,75,0,0
171165,-79.2951611713798,4,1,0,75,0,0
171256,-78.9473476454348,4,1,0,75,0,0
171347,-78.6026338170539,4,1,0,75,0,0
171438,-78.2608559546337,4,1,0,75,0,0
171619,-77.5862002080862,4,1,0,75,0,0
171801,-76.9230769230769,4,1,0,75,0,0
173076,363.636363636364,5,1,0,50,1,0
173076,-71.4285714285714,5,1,0,50,0,0
174528,-66.6666666666667,5,1,0,75,0,0
174894,363.636363636364,4,1,0,75,1,8
174895,363.636363636364,4,1,0,75,1,0
181923,-100,5,1,0,60,0,0
183620,-100,5,1,0,75,0,0
185256,-98.0392156862745,5,1,0,75,0,0
185529,-95.2380952380952,5,1,0,75,0,0
185802,-93.4579439252336,5,1,0,75,0,0
185893,-92.5925925925926,5,1,0,75,0,0
185983,-91.743119266055,5,1,0,75,0,0
186074,-90.9090909090909,5,1,0,75,0,0
186165,-90.0900900900901,5,1,0,75,0,0
186256,-89.2857142857143,5,1,0,75,0,0
186347,-88.4955752212389,5,1,0,75,0,0
186438,-87.719298245614,5,1,0,75,0,0
186529,-86.9565217391304,5,1,0,75,0,0
198167,-86.9565217391304,5,1,0,85,0,1
208893,-86.9565217391304,5,1,0,75,0,1
209804,-86.9565217391304,5,1,0,75,0,0
210347,-142.857142857143,5,1,0,40,0,0
210893,-100,5,1,0,75,0,0
211256,-100,4,1,0,75,0,0
219983,-98.0392156862745,4,1,0,75,0,0
220165,-96.5096326264324,4,1,0,75,0,0
220256,-95.7626006824043,4,1,0,75,0,0
220438,-94.3027022439328,4,1,0,75,0,0
220529,-93.5894064279076,4,1,0,75,0,0
220711,-92.1945341548481,4,1,0,75,0,0
220893,-90.8406301069467,4,1,0,75,0,0
220983,-90.1784812500902,4,1,0,75,0,0
221165,-88.8827263531951,4,1,0,75,0,0
221256,-88.248713113141,4,1,0,75,0,0
221438,-87.007515709207,4,1,0,75,0,0
235983,-83.3333333333333,4,1,0,75,0,0
236347,-80,4,1,0,75,0,0
236711,-76.9230769230769,4,1,0,75,0,0
238347,-100,4,1,0,60,0,0
240165,-90.9090909090909,4,1,0,60,0,0
240347,-83.3333333333333,4,1,0,90,0,0
240711,-83.3333333333333,4,1,0,60,0,0
241802,-83.3333333333333,4,1,0,90,0,0
242347,-83.3333333333333,4,1,0,60,0,0
243256,-83.3333333333333,4,1,0,90,0,0
243620,-83.3333333333333,4,1,0,60,0,0
244711,-83.3333333333333,4,1,0,90,0,0
245256,-83.3333333333333,4,1,0,60,0,0
246165,-83.3333333333333,4,1,0,90,0,0
246529,-83.3333333333333,4,1,0,60,0,0
247620,-83.3333333333333,4,1,0,90,0,0
248165,-83.3333333333333,4,1,0,60,0,0
249074,-83.3333333333333,4,1,0,90,0,0
249438,-83.3333333333333,4,1,0,60,0,0
250529,-83.3333333333333,4,1,0,90,0,0
251074,-83.3333333333333,4,1,0,60,0,0
251983,-83.3333333333333,4,1,0,90,0,0
252347,-83.3333333333333,4,1,0,60,0,0
253438,-83.3333333333333,4,1,0,90,0,0
253983,-83.3333333333333,4,1,0,60,0,0
254893,-83.3333333333333,4,1,0,90,0,0
255257,-83.3333333333333,4,1,0,60,0,0
256347,-83.3333333333333,4,1,0,90,0,0
256892,-83.3333333333333,4,1,0,60,0,0
257802,-83.3333333333333,4,1,0,90,0,0
258166,-83.3333333333333,4,1,0,60,0,0
259256,-83.3333333333333,4,1,0,90,0,0
259801,-83.3333333333333,4,1,0,60,0,0
260711,-83.3333333333333,4,1,0,90,0,0
261075,-83.3333333333333,4,1,0,60,0,0
261256,-86.9565217391304,4,1,0,60,0,0
261438,-90.9090909090909,4,1,0,60,0,0
261802,-100,4,1,0,60,0,0
262165,-66.6666666666667,4,1,0,80,0,0
262711,-100,4,1,0,75,0,0
263622,-100,4,1,0,75,0,1
283802,-98.9036530064238,4,1,0,75,0,1
283893,-98.3643968098459,4,1,0,75,0,1
283985,-97.8309891397819,4,1,0,75,0,0
284165,-96.7814365462189,4,1,0,75,0,0
284256,-96.2650137322042,4,1,0,75,0,0
284438,-95.2485272196479,4,1,0,75,0,0
284529,-94.7483814607737,4,1,0,75,0,0
284620,-94.2533719143802,4,1,0,75,0,0
284711,-93.7635078053432,4,1,0,75,0,0
284893,-92.7989844079146,4,1,0,75,0,0
284983,-92.3240833834192,4,1,0,75,0,0
285165,-91.3887990232365,4,1,0,75,0,0
285256,-90.9281858281148,4,1,0,75,0,0
285438,-90.020749782825,4,1,0,75,0,0
285529,-89.5738702271683,4,1,0,75,0,0
285620,-89.1313260958697,4,1,0,75,0,0
285711,-88.6931332889276,4,1,0,75,0,0
285802,-88.2593058405596,4,1,0,75,0,0
285893,-87.8296245810527,4,1,0,75,0,0
285983,-87.4041067693607,4,1,0,75,0,0
286165,-86.5653966945869,4,1,0,75,0,0
286347,-85.7425562599783,4,1,0,75,0,0
286438,-85.3370472016276,4,1,0,75,0,0
286620,-84.5372851696241,4,1,0,75,0,0
286711,-84.142999344526,4,1,0,75,0,0
286895,-83.3654290235074,4,1,0,75,0,1
292711,-83.8509030323002,4,1,0,75,0,1
292802,-84.3750131835958,4,1,0,75,0,1
292893,-84.9056443574256,4,1,0,75,0,1
292983,-85.4430650136282,4,1,0,75,0,1
293074,-85.9872584080491,4,1,0,75,0,1
293165,-86.5384282544507,4,1,0,75,0,1
293256,-87.0967854318433,4,1,0,75,0,1
293347,-87.6623177390836,4,1,0,75,0,1
293438,-88.2353200692118,4,1,0,75,0,1
293529,-88.8157836305406,4,1,0,75,0,1
293620,-89.4039350247962,4,1,0,75,0,1
293711,-90.0000090000009,4,1,0,75,0,1
293802,-90.6040025224154,4,1,0,75,0,1
293893,-91.2162408692543,4,1,0,75,0,1
293983,-91.8367253227831,4,1,0,75,0,1
294074,-92.465794590936,4,1,0,75,0,1
294165,-93.10345469679,4,1,0,75,0,1
294256,-93.7499707031342,4,1,0,75,0,1
294347,-94.4056175118644,4,1,0,75,0,1
294438,-95.0704091450128,4,1,0,75,0,1
294529,-95.7447215934986,4,1,0,75,0,1
294620,-96.4285748724491,4,1,0,75,0,1
294711,-97.122267222206,4,1,0,75,0,1
294802,-97.826108223067,4,1,0,75,0,1
294893,-98.5401280036263,4,1,0,75,0,1
295074,-100,4,1,0,75,0,1
295622,-100,4,1,0,75,0,0
295802,-98.5915215235151,4,1,0,75,0,0
295893,-97.9020568243118,4,1,0,75,0,0
296074,-96.5517507728968,4,1,0,75,0,0
296165,-95.8904240945786,4,1,0,75,0,0
296256,-95.2380952380952,4,1,0,75,0,0
296347,-94.594581811543,4,1,0,75,0,0
296529,-93.3332960000149,4,1,0,75,0,0
296620,-92.7152686285836,4,1,0,75,0,0
296802,-91.5032799350693,4,1,0,75,0,0
296893,-90.9090909090909,4,1,0,75,0,0
297074,-89.7435667324188,4,1,0,75,0,0
297256,-88.6076285851754,4,1,0,75,0,0
297347,-88.0503366164369,4,1,0,75,0,0
297529,-86.9565217391304,4,1,0,75,0,0
297620,-86.4197424173157,4,1,0,75,0,0
297711,-85.8895494749572,4,1,0,75,0,0
297802,-85.3658224271381,4,1,0,75,0,0
297983,-84.3373697198481,4,1,0,75,0,0
298165,-83.3333333333333,4,1,0,75,0,0
301802,-100,4,1,0,75,0,0
313076,-100,4,1,0,75,0,1
318893,-99.2736149593425,4,1,0,75,0,1
318983,-98.5577065227461,4,1,0,75,0,1
319074,-97.8520496579582,4,1,0,75,0,1
319165,-97.156425731685,4,1,0,75,0,1
319256,-96.470622283749,4,1,0,75,0,1
319347,-95.7944328107428,4,1,0,75,0,1
319438,-95.1275660660946,4,1,0,75,0,1
319529,-94.4700090785679,4,1,0,75,0,1
319620,-93.821480240258,4,1,0,75,0,1
319711,-93.1817948863694,4,1,0,75,0,1
319802,-92.5507733542622,4,1,0,75,0,1
319893,-91.9282408152197,4,1,0,75,0,1
319983,-91.3140271129609,4,1,0,75,0,1
320074,-90.7079666085833,4,1,0,75,0,1
320165,-90.1098980316394,4,1,0,75,0,1
320256,-89.5196643370666,4,1,0,75,0,1
320347,-88.9371125677034,4,1,0,75,0,1
320438,-88.3620937221383,4,1,0,75,0,1
320529,-87.7944626276531,4,1,0,75,0,1
320620,-87.2340778180315,4,1,0,75,0,1
320711,-86.6807262804694,4,1,0,75,0,1
320802,-86.1344248287648,4,1,0,75,0,1
320893,-85.59496633122,4,1,0,75,0,1
320983,-85.0622230161363,4,1,0,75,0,1
321074,-84.5360702731445,4,1,0,75,0,1
321165,-84.0163865560339,4,1,0,75,0,1
321256,-83.5030532891435,4,1,0,75,0,1
321347,-82.9959547771642,4,1,0,75,0,1
321438,-82.4949781182071,4,1,0,75,0,1
321529,-82.0000131200021,4,1,0,75,0,1
321620,-81.5109522190949,4,1,0,75,0,1
321711,-81.0276904029183,4,1,0,75,0,1
321802,-80.5501251346194,4,1,0,75,0,1
321983,-79.6116226600154,4,1,0,75,0,1
322074,-79.1505562305339,4,1,0,75,0,1
322165,-78.6947995328677,4,1,0,75,0,1
322256,-78.2442613702604,4,1,0,75,0,1
322347,-77.7988526225215,4,1,0,75,0,1
322438,-77.3584861872555,4,1,0,75,0,1
322529,-76.9230769230769,4,1,0,75,0,1
323256,-74.0740740740741,5,1,0,90,0,1
323438,-71.4285714285714,5,1,0,85,0,1
323711,-66.6666666666667,5,1,0,85,0,1
324076,-66.6666666666667,5,1,0,85,0,0

[Colours]
Combo1 : 147,215,123
Combo2 : 148,40,255
Combo3 : 163,163,163
Combo4 : 255,60,60

[HitObjects]
335,265,1076,5,8,0:0:0:0:
152,138,1121,1,8,0:0:0:0:
91,180,1258,1,0,0:0:0:0:
335,265,1440,1,12,0:0:0:0:
152,138,1621,1,0,0:0:0:0:
152,138,1712,1,0,0:0:0:0:
152,138,1803,1,8,0:0:0:0:
152,138,1985,1,8,0:0:0:0:
152,138,2167,1,0,0:0:0:0:
152,138,2258,1,0,0:0:0:0:
152,138,2349,1,8,0:0:0:0:
142,142,2530,1,0,0:0:0:0:
142,142,2621,1,0,0:0:0:0:
142,142,2712,1,0,0:0:0:0:
142,142,2803,1,0,0:0:0:0:
142,142,2894,1,12,0:0:0:0:
87,156,3076,1,0,0:0:0:0:
87,156,3258,1,0,0:0:0:0:
87,156,3440,1,8,0:0:0:0:
87,156,3621,1,0,0:0:0:0:
87,156,3803,1,8,0:0:0:0:
87,156,3985,1,0,0:0:0:0:
108,173,4167,1,0,0:0:0:0:
129,191,4349,1,8,0:0:0:0:
129,191,4530,1,8,0:0:0:0:
199,154,4712,1,0,0:0:0:0:
129,191,4894,1,8,0:0:0:0:
129,191,5076,1,8,0:0:0:0:
129,191,5258,1,0,0:0:0:0:
199,154,5440,1,8,0:0:0:0:
218,174,5621,1,0,0:0:0:0:
142,142,5803,1,8,0:0:0:0:
87,156,5985,1,8,0:0:0:0:
87,156,6167,1,0,0:0:0:0:
87,156,6349,1,8,0:0:0:0:
87,156,6530,1,0,0:0:0:0:
87,156,6712,1,8,0:0:0:0:
87,156,6894,1,8,0:0:0:0:
108,173,7076,1,0,0:0:0:0:
129,191,7258,1,8,0:0:0:0:
129,191,7440,1,8,0:0:0:0:
199,154,7621,1,0,0:0:0:0:
129,191,7803,1,8,0:0:0:0:
129,191,7985,1,0,0:0:0:0:
129,191,8167,1,0,0:0:0:0:
199,154,8349,1,8,0:0:0:0:
218,174,8530,1,0,0:0:0:0:
142,142,8712,1,8,0:0:0:0:
87,156,8894,1,8,0:0:0:0:
87,156,9076,1,0,0:0:0:0:
87,156,9258,1,8,0:0:0:0:
87,156,9440,1,0,0:0:0:0:
87,156,9621,1,8,0:0:0:0:
87,156,9803,1,0,0:0:0:0:
108,173,9985,1,0,0:0:0:0:
129,191,10167,1,8,0:0:0:0:
129,191,10349,1,8,0:0:0:0:
199,154,10530,1,0,0:0:0:0:
129,191,10712,1,8,0:0:0:0:
129,191,10894,1,8,0:0:0:0:
129,191,11076,1,0,0:0:0:0:
199,154,11258,1,8,0:0:0:0:
218,174,11440,1,0,0:0:0:0:
193,160,11621,1,8,0:0:0:0:
168,146,11803,1,8,0:0:0:0:
143,132,11985,1,0,0:0:0:0:
118,117,12167,1,8,0:0:0:0:
118,117,12349,1,0,0:0:0:0:
118,117,12530,1,0,0:0:0:0:
197,154,12712,1,8,0:0:0:0:
171,166,12894,1,0,0:0:0:0:
171,166,12985,1,0,0:0:0:0:
146,178,13076,1,8,0:0:0:0:
173,181,13258,1,8,0:0:0:0:
200,184,13440,1,0,0:0:0:0:
227,187,13621,1,8,0:0:0:0:
200,184,13803,1,0,0:0:0:0:
200,184,13894,1,0,0:0:0:0:
200,184,13985,1,8,0:0:0:0:
200,184,14076,1,8,0:0:0:0:
200,184,14167,1,0,0:0:0:0:
152,184,14258,1,0,0:0:0:0:
104,192,14349,1,8,0:0:0:0:
56,192,14440,1,0,0:0:0:0:
152,280,14530,1,8,0:0:0:0:
152,280,14621,1,8,0:0:0:0:
144,264,14712,1,0,0:0:0:0:
136,256,14803,1,0,0:0:0:0:
128,240,14894,1,8,0:0:0:0:
112,208,14985,1,0,0:0:0:0:
112,208,15076,1,8,0:0:0:0:
112,192,15167,1,8,0:0:0:0:
112,176,15258,1,0,0:0:0:0:
112,176,15349,1,0,0:0:0:0:
96,168,15440,1,8,0:0:0:0:
80,160,15530,1,0,0:0:0:0:
80,160,15621,1,8,0:0:0:0:
96,168,15712,1,0,0:0:0:0:
96,168,15803,1,0,0:0:0:0:
80,160,15894,1,0,0:0:0:0:
152,280,15985,1,8,0:0:0:0:
152,264,16076,1,0,0:0:0:0:
152,280,16167,1,8,0:0:0:0:
152,280,16258,1,8,0:0:0:0:
152,264,16349,1,0,0:0:0:0:
152,248,16440,1,8,0:0:0:0:
152,280,16530,1,0,0:0:0:0:
152,280,16621,1,0,0:0:0:0:
152,280,16712,1,8,0:0:0:0:
152,280,16803,1,0,0:0:0:0:
152,280,16894,1,8,0:0:0:0:
152,280,16985,1,0,0:0:0:0:
152,280,17076,1,8,0:0:0:0:
152,296,17167,1,8,0:0:0:0:
152,296,17258,1,8,0:0:0:0:
152,296,17349,1,8,0:0:0:0:
152,296,17440,1,0,0:0:0:0:
152,280,17530,1,0,0:0:0:0:
152,264,17621,1,8,0:0:0:0:
152,248,17712,1,0,0:0:0:0:
152,280,17803,1,8,0:0:0:0:
152,280,17894,1,8,0:0:0:0:
144,264,17985,1,0,0:0:0:0:
136,256,18076,1,0,0:0:0:0:
128,240,18167,1,8,0:0:0:0:
112,208,18258,1,0,0:0:0:0:
112,208,18349,1,8,0:0:0:0:
112,192,18440,1,0,0:0:0:0:
112,176,18530,1,8,0:0:0:0:
112,176,18621,1,8,0:0:0:0:
96,168,18712,1,8,0:0:0:0:
80,160,18803,1,0,0:0:0:0:
80,160,18894,1,8,0:0:0:0:
96,168,18985,1,8,0:0:0:0:
96,168,19076,1,0,0:0:0:0:
80,160,19167,1,0,0:0:0:0:
152,280,19258,1,8,0:0:0:0:
152,264,19349,1,0,0:0:0:0:
152,280,19440,1,8,0:0:0:0:
152,280,19530,1,8,0:0:0:0:
152,264,19621,1,0,0:0:0:0:
152,248,19712,1,0,0:0:0:0:
152,280,19803,1,8,0:0:0:0:
152,280,19894,1,8,0:0:0:0:
152,280,19985,1,0,0:0:0:0:
152,280,20076,1,8,0:0:0:0:
152,280,20167,1,0,0:0:0:0:
152,280,20258,1,0,0:0:0:0:
152,280,20349,1,8,0:0:0:0:
152,280,20440,1,8,0:0:0:0:
144,264,20530,1,0,0:0:0:0:
136,256,20621,1,0,0:0:0:0:
128,240,20712,1,8,0:0:0:0:
112,208,20803,1,0,0:0:0:0:
112,208,20894,1,8,0:0:0:0:
112,192,20985,1,8,0:0:0:0:
112,176,21076,1,0,0:0:0:0:
112,176,21167,1,0,0:0:0:0:
96,168,21258,1,8,0:0:0:0:
80,160,21349,1,0,0:0:0:0:
80,160,21440,1,8,0:0:0:0:
96,168,21530,1,0,0:0:0:0:
96,168,21621,1,0,0:0:0:0:
80,160,21712,1,0,0:0:0:0:
152,280,21803,1,8,0:0:0:0:
152,264,21894,1,0,0:0:0:0:
152,280,21985,1,8,0:0:0:0:
152,280,22076,1,8,0:0:0:0:
152,264,22167,1,0,0:0:0:0:
152,248,22258,1,8,0:0:0:0:
152,280,22349,1,0,0:0:0:0:
152,280,22440,1,0,0:0:0:0:
152,280,22530,1,8,0:0:0:0:
152,280,22621,1,0,0:0:0:0:
152,280,22712,1,8,0:0:0:0:
152,280,22803,1,0,0:0:0:0:
152,280,22894,1,8,0:0:0:0:
152,296,22985,1,8,0:0:0:0:
152,296,23076,1,8,0:0:0:0:
152,296,23167,1,0,0:0:0:0:
80,160,23258,1,8,0:0:0:0:
96,168,23349,1,8,0:0:0:0:
96,168,23440,1,0,0:0:0:0:
80,160,23530,1,0,0:0:0:0:
152,280,23621,1,8,0:0:0:0:
152,264,23712,1,0,0:0:0:0:
152,280,23803,1,8,0:0:0:0:
152,280,23894,1,8,0:0:0:0:
152,264,23985,1,0,0:0:0:0:
152,248,24076,1,0,0:0:0:0:
152,280,24167,1,8,0:0:0:0:
152,280,24258,1,0,0:0:0:0:
152,280,24349,1,8,0:0:0:0:
152,280,24440,1,0,0:0:0:0:
152,280,24530,1,0,0:0:0:0:
152,280,24621,1,0,0:0:0:0:
141,268,24712,1,8,0:0:0:0:
130,257,24803,1,0,0:0:0:0:
152,168,24894,1,8,0:0:0:0:
136,176,24985,1,8,0:0:0:0:
120,176,25076,1,0,0:0:0:0:
112,168,25167,1,0,0:0:0:0:
120,176,25258,1,8,0:0:0:0:
104,176,25349,1,0,0:0:0:0:
96,176,25440,1,8,0:0:0:0:
80,176,25530,1,8,0:0:0:0:
56,160,25621,1,0,0:0:0:0:
56,160,25712,1,8,0:0:0:0:
56,160,25803,1,0,0:0:0:0:
56,160,25894,1,0,0:0:0:0:
56,160,25985,1,8,0:0:0:0:
56,160,26076,1,0,0:0:0:0:
108,150,26167,5,12,0:0:0:0:
138,155,26349,1,0,0:0:0:0:
138,155,26440,1,0,0:0:0:0:
138,155,26621,1,0,0:0:0:0:
138,155,26712,1,0,0:0:0:0:
138,155,26803,1,0,0:0:0:0:
138,155,26894,1,8,0:0:0:0:
138,155,26985,1,8,0:0:0:0:
295,201,27440,1,0,0:0:0:0:
267,196,27621,1,8,0:0:0:0:
267,196,27985,1,8,0:0:0:0:
267,196,28167,1,8,0:0:0:0:
267,196,28349,1,0,0:0:0:0:
267,196,28712,1,0,0:0:0:0:
267,196,29076,1,12,0:0:0:0:
240,187,29258,1,0,0:0:0:0:
226,182,29349,1,0,0:0:0:0:
199,173,29530,1,0,0:0:0:0:
185,168,29621,1,0,0:0:0:0:
171,163,29712,1,0,0:0:0:0:
158,159,29803,1,8,0:0:0:0:
144,154,29894,1,8,0:0:0:0:
81,140,30349,1,0,0:0:0:0:
55,129,30530,1,8,0:0:0:0:
74,181,30894,1,8,0:0:0:0:
74,181,31076,1,0,0:0:0:0:
74,181,31258,1,8,0:0:0:0:
74,181,31440,1,8,0:0:0:0:
74,181,31621,1,0,0:0:0:0:
74,181,31803,1,0,0:0:0:0:
55,129,31985,1,12,0:0:0:0:
74,181,32167,1,0,0:0:0:0:
74,181,32258,1,0,0:0:0:0:
74,181,32440,1,0,0:0:0:0:
74,181,32530,1,0,0:0:0:0:
74,181,32621,1,0,0:0:0:0:
74,181,32712,1,8,0:0:0:0:
74,181,32803,1,8,0:0:0:0:
74,181,33258,1,0,0:0:0:0:
74,181,33440,1,8,0:0:0:0:
24,206,33803,1,8,0:0:0:0:
48,192,33985,1,8,0:0:0:0:
48,192,34167,1,0,0:0:0:0:
48,192,34530,1,0,0:0:0:0:
48,192,34894,1,12,0:0:0:0:
67,172,35076,1,0,0:0:0:0:
75,161,35167,1,0,0:0:0:0:
102,165,35349,1,8,0:0:0:0:
115,167,35440,1,0,0:0:0:0:
128,169,35530,1,0,0:0:0:0:
144,171,35621,1,8,0:0:0:0:
171,174,35803,1,0,0:0:0:0:
184,175,35894,1,0,0:0:0:0:
211,179,36076,1,0,0:0:0:0:
224,181,36167,1,8,0:0:0:0:
191,228,36258,1,0,0:0:0:0:
237,183,36349,1,8,0:0:0:0:
213,169,36440,1,8,0:0:0:0:
206,179,36530,1,0,0:0:0:0:
191,228,36621,1,0,0:0:0:0:
174,175,36712,1,8,0:0:0:0:
158,173,36803,1,0,0:0:0:0:
191,228,36894,1,8,0:0:0:0:
191,228,36985,1,8,0:0:0:0:
111,167,37076,1,0,0:0:0:0:
191,228,37167,1,0,0:0:0:0:
237,183,37258,1,8,0:0:0:0:
237,183,37349,1,8,0:0:0:0:
237,183,37440,1,0,0:0:0:0:
237,183,37530,1,0,0:0:0:0:
237,183,37621,1,0,0:0:0:0:
237,183,37712,1,0,0:0:0:0:
237,183,37803,1,12,0:0:0:0:
152,216,37985,1,0,0:0:0:0:
152,216,38076,1,0,0:0:0:0:
152,208,38258,1,8,0:0:0:0:
152,208,38349,1,0,0:0:0:0:
152,208,38440,1,0,0:0:0:0:
152,208,38530,1,8,0:0:0:0:
128,88,38712,1,0,0:0:0:0:
136,96,38803,1,0,0:0:0:0:
128,88,38985,1,8,0:0:0:0:
128,88,39076,1,0,0:0:0:0:
128,88,39258,1,8,0:0:0:0:
136,96,39440,1,0,0:0:0:0:
136,96,39530,1,0,0:0:0:0:
128,88,39712,1,8,0:0:0:0:
128,88,39803,1,0,0:0:0:0:
128,88,39894,1,0,0:0:0:0:
128,88,39985,1,8,0:0:0:0:
168,168,40167,1,0,0:0:0:0:
168,168,40349,1,8,0:0:0:0:
168,168,40440,1,8,0:0:0:0:
168,168,40530,1,0,0:0:0:0:
168,168,40621,1,0,0:0:0:0:
168,168,40712,1,8,0:0:0:0:
168,168,40894,1,0,0:0:0:0:
168,168,40985,1,0,0:0:0:0:
168,168,41167,1,8,0:0:0:0:
168,168,41258,1,0,0:0:0:0:
168,168,41349,1,0,0:0:0:0:
168,168,41440,1,8,0:0:0:0:
168,168,41621,1,0,0:0:0:0:
168,168,41712,1,0,0:0:0:0:
168,168,41894,1,8,0:0:0:0:
168,168,41985,1,0,0:0:0:0:
99,139,42167,1,8,0:0:0:0:
99,139,42258,1,8,0:0:0:0:
99,139,42349,1,0,0:0:0:0:
99,139,42440,1,8,0:0:0:0:
99,139,42530,1,0,0:0:0:0:
99,139,42621,1,0,0:0:0:0:
99,139,42712,1,8,0:0:0:0:
99,139,42803,1,0,0:0:0:0:
99,139,42894,1,8,0:0:0:0:
99,139,42985,1,8,0:0:0:0:
99,139,43076,1,0,0:0:0:0:
99,139,43167,1,8,0:0:0:0:
99,139,43258,1,0,0:0:0:0:
80,240,43349,1,0,0:0:0:0:
80,240,43440,1,0,0:0:0:0:
80,240,43530,1,0,0:0:0:0:
80,240,43621,1,12,0:0:0:0:
152,216,43803,1,0,0:0:0:0:
152,216,43894,1,0,0:0:0:0:
152,208,44076,1,8,0:0:0:0:
152,208,44167,1,0,0:0:0:0:
152,208,44258,1,0,0:0:0:0:
152,208,44349,1,8,0:0:0:0:
128,88,44530,1,0,0:0:0:0:
136,96,44621,1,0,0:0:0:0:
128,88,44803,1,8,0:0:0:0:
128,88,44894,1,0,0:0:0:0:
128,88,45076,1,8,0:0:0:0:
136,96,45258,1,0,0:0:0:0:
136,96,45349,1,0,0:0:0:0:
168,104,45440,1,8,0:0:0:0:
96,200,45530,1,8,0:0:0:0:
96,200,45621,1,0,0:0:0:0:
96,200,45803,1,8,0:0:0:0:
96,168,45985,1,0,0:0:0:0:
96,168,46076,1,0,0:0:0:0:
168,168,46167,1,8,0:0:0:0:
168,168,46349,1,0,0:0:0:0:
168,168,46440,1,0,0:0:0:0:
168,168,46530,1,8,0:0:0:0:
168,168,46712,1,0,0:0:0:0:
168,168,46803,1,0,0:0:0:0:
168,168,46985,1,8,0:0:0:0:
168,168,47076,1,0,0:0:0:0:
168,168,47167,1,0,0:0:0:0:
168,168,47258,1,8,0:0:0:0:
176,88,47440,1,0,0:0:0:0:
176,88,47530,1,0,0:0:0:0:
176,88,47621,1,8,0:0:0:0:
176,88,47712,1,8,0:0:0:0:
176,80,47803,1,0,0:0:0:0:
135,151,47985,5,8,0:0:0:0:
135,151,48076,1,0,0:0:0:0:
135,151,48167,1,0,0:0:0:0:
135,151,48258,1,8,0:0:0:0:
135,151,48349,1,0,0:0:0:0:
135,151,48440,1,0,0:0:0:0:
135,151,48530,1,8,0:0:0:0:
135,151,48621,1,0,0:0:0:0:
135,151,48712,1,8,0:0:0:0:
135,151,48803,1,0,0:0:0:0:
135,151,48894,1,0,0:0:0:0:
135,151,48985,1,8,0:0:0:0:
135,151,49076,1,0,0:0:0:0:
135,151,49167,1,0,0:0:0:0:
135,151,49258,1,0,0:0:0:0:
48,232,49349,5,0,0:0:0:0:
48,224,49440,5,12,0:0:0:0:
152,216,49621,1,0,0:0:0:0:
152,216,49712,1,0,0:0:0:0:
152,208,49894,1,8,0:0:0:0:
152,208,49985,1,0,0:0:0:0:
152,208,50076,1,0,0:0:0:0:
152,208,50167,1,8,0:0:0:0:
128,88,50349,1,0,0:0:0:0:
136,96,50440,1,0,0:0:0:0:
128,88,50621,1,8,0:0:0:0:
128,88,50712,1,0,0:0:0:0:
128,88,50894,1,8,0:0:0:0:
136,96,51076,1,0,0:0:0:0:
136,96,51167,1,0,0:0:0:0:
128,88,51349,1,8,0:0:0:0:
128,88,51440,1,0,0:0:0:0:
128,88,51530,1,0,0:0:0:0:
128,88,51621,1,8,0:0:0:0:
168,168,51803,1,0,0:0:0:0:
168,168,51985,1,8,0:0:0:0:
168,168,52076,1,8,0:0:0:0:
168,168,52167,1,0,0:0:0:0:
168,168,52258,1,0,0:0:0:0:
168,168,52349,1,8,0:0:0:0:
168,168,52530,1,0,0:0:0:0:
168,168,52621,1,0,0:0:0:0:
168,168,52803,1,8,0:0:0:0:
168,168,52894,1,0,0:0:0:0:
168,168,52985,1,0,0:0:0:0:
168,168,53076,1,8,0:0:0:0:
168,168,53258,1,0,0:0:0:0:
168,168,53349,1,0,0:0:0:0:
168,168,53530,1,8,0:0:0:0:
168,168,53621,1,0,0:0:0:0:
48,224,53803,1,8,0:0:0:0:
48,224,53894,1,8,0:0:0:0:
48,224,53985,1,0,0:0:0:0:
48,224,54076,1,8,0:0:0:0:
48,224,54167,1,0,0:0:0:0:
48,224,54258,1,0,0:0:0:0:
48,224,54349,1,8,0:0:0:0:
48,224,54440,1,0,0:0:0:0:
48,224,54530,1,8,0:0:0:0:
48,224,54621,1,8,0:0:0:0:
48,224,54712,1,0,0:0:0:0:
48,224,54803,1,8,0:0:0:0:
48,224,54894,1,0,0:0:0:0:
48,224,54985,1,0,0:0:0:0:
48,224,55076,1,0,0:0:0:0:
48,224,55167,1,0,0:0:0:0:
48,224,55258,1,12,0:0:0:0:
152,216,55440,1,0,0:0:0:0:
152,216,55530,1,0,0:0:0:0:
152,208,55712,1,8,0:0:0:0:
152,208,55803,1,0,0:0:0:0:
152,208,55894,1,0,0:0:0:0:
152,208,55985,1,8,0:0:0:0:
128,88,56167,1,0,0:0:0:0:
136,96,56258,1,0,0:0:0:0:
128,88,56440,1,8,0:0:0:0:
128,88,56530,1,0,0:0:0:0:
128,88,56712,1,8,0:0:0:0:
136,96,56894,1,0,0:0:0:0:
136,96,56985,1,0,0:0:0:0:
168,104,57076,1,8,0:0:0:0:
96,200,57167,1,8,0:0:0:0:
96,200,57258,1,0,0:0:0:0:
96,200,57440,1,8,0:0:0:0:
96,168,57621,1,0,0:0:0:0:
96,168,57712,1,0,0:0:0:0:
168,168,57803,1,8,0:0:0:0:
168,168,57985,1,0,0:0:0:0:
168,168,58076,1,0,0:0:0:0:
168,168,58167,1,8,0:0:0:0:
168,168,58349,1,0,0:0:0:0:
168,168,58440,1,0,0:0:0:0:
168,168,58621,1,8,0:0:0:0:
168,168,58712,1,0,0:0:0:0:
168,168,58803,1,0,0:0:0:0:
168,168,58894,1,8,0:0:0:0:
176,88,59076,1,0,0:0:0:0:
176,88,59167,1,0,0:0:0:0:
176,88,59258,1,8,0:0:0:0:
176,88,59349,1,8,0:0:0:0:
176,80,59440,1,0,0:0:0:0:
135,151,59621,5,8,0:0:0:0:
135,151,59712,1,0,0:0:0:0:
135,151,59803,1,0,0:0:0:0:
135,151,59894,1,8,0:0:0:0:
135,151,59985,1,0,0:0:0:0:
135,151,60076,1,0,0:0:0:0:
135,151,60167,1,8,0:0:0:0:
135,151,60258,1,0,0:0:0:0:
110,166,60349,5,8,0:0:0:0:
110,166,60440,1,8,0:0:0:0:
110,166,60530,1,0,0:0:0:0:
110,166,60621,1,0,0:0:0:0:
110,166,60712,1,8,0:0:0:0:
110,166,60803,1,8,0:0:0:0:
110,166,60894,1,0,0:0:0:0:
110,166,60985,1,0,0:0:0:0:
188,160,61076,5,8,0:0:0:0:
188,160,61167,1,0,0:0:0:0:
188,160,61258,1,8,0:0:0:0:
188,160,61349,1,0,0:0:0:0:
188,160,61440,1,8,0:0:0:0:
188,160,61530,1,8,0:0:0:0:
188,160,61621,1,0,0:0:0:0:
188,160,61712,1,0,0:0:0:0:
188,160,61803,1,8,0:0:0:0:
188,160,61894,1,8,0:0:0:0:
188,160,61985,1,8,0:0:0:0:
188,160,62076,1,0,0:0:0:0:
188,160,62167,1,8,0:0:0:0:
188,160,62258,1,8,0:0:0:0:
188,160,62349,1,8,0:0:0:0:
188,160,62440,1,8,0:0:0:0:
188,160,62530,1,0,0:0:0:0:
188,160,62621,1,0,0:0:0:0:
188,160,62712,1,8,0:0:0:0:
188,160,62803,1,0,0:0:0:0:
188,160,62894,1,0,0:0:0:0:
188,160,62985,1,0,0:0:0:0:
188,160,63076,1,8,0:0:0:0:
188,160,63167,1,0,0:0:0:0:
188,160,63258,1,0,0:0:0:0:
188,160,63349,1,0,0:0:0:0:
188,160,63440,1,8,0:0:0:0:
188,160,63530,1,8,0:0:0:0:
188,160,63621,1,0,0:0:0:0:
188,160,63712,1,0,0:0:0:0:
188,160,63803,1,8,0:0:0:0:
188,160,63894,1,0,0:0:0:0:
188,160,63985,1,8,0:0:0:0:
188,160,64076,1,8,0:0:0:0:
188,160,64167,1,8,0:0:0:0:
188,160,64258,1,8,0:0:0:0:
188,160,64349,1,8,0:0:0:0:
188,160,64440,1,8,0:0:0:0:
188,160,64530,1,0,0:0:0:0:
188,160,64621,1,0,0:0:0:0:
188,160,64712,1,8,0:0:0:0:
188,160,64803,1,8,0:0:0:0:
188,160,64894,1,8,0:0:0:0:
188,160,64985,1,8,0:0:0:0:
188,160,65076,1,0,0:0:0:0:
188,160,65167,1,0,0:0:0:0:
188,160,65258,1,8,0:0:0:0:
188,160,65349,1,0,0:0:0:0:
188,160,65440,1,8,0:0:0:0:
188,160,65530,1,8,0:0:0:0:
188,160,65621,1,8,0:0:0:0:
188,160,65712,1,8,0:0:0:0:
188,160,65803,1,0,0:0:0:0:
188,160,65894,1,0,0:0:0:0:
188,160,65985,1,8,0:0:0:0:
188,160,66076,1,0,0:0:0:0:
188,160,66167,1,0,0:0:0:0:
188,160,66258,1,8,0:0:0:0:
188,160,66349,1,0,0:0:0:0:
188,160,66440,1,0,0:0:0:0:
188,160,66530,1,8,0:0:0:0:
188,160,66621,1,0,0:0:0:0:
188,160,66712,1,8,0:0:0:0:
188,160,66803,1,0,0:0:0:0:
188,160,66894,1,8,0:0:0:0:
188,160,66985,1,8,0:0:0:0:
188,160,67076,1,0,0:0:0:0:
188,160,67167,1,0,0:0:0:0:
188,160,67258,1,8,0:0:0:0:
188,160,67349,1,0,0:0:0:0:
188,160,67440,1,8,0:0:0:0:
188,160,67530,1,0,0:0:0:0:
188,160,67621,1,8,0:0:0:0:
188,160,67712,1,8,0:0:0:0:
188,160,67803,1,8,0:0:0:0:
188,160,67894,1,0,0:0:0:0:
188,160,67985,1,8,0:0:0:0:
188,160,68076,1,8,0:0:0:0:
188,160,68167,1,0,0:0:0:0:
188,160,68258,1,0,0:0:0:0:
188,160,68349,1,8,0:0:0:0:
188,160,68440,1,8,0:0:0:0:
188,160,68530,1,8,0:0:0:0:
188,160,68621,1,8,0:0:0:0:
188,160,68712,1,8,0:0:0:0:
188,160,68803,1,8,0:0:0:0:
188,160,68894,1,8,0:0:0:0:
188,160,68985,1,8,0:0:0:0:
188,160,69076,1,8,0:0:0:0:
188,160,69167,1,8,0:0:0:0:
188,160,69258,1,8,0:0:0:0:
188,160,69349,1,8,0:0:0:0:
188,160,69440,1,0,0:0:0:0:
188,160,69530,1,0,0:0:0:0:
188,160,69621,1,8,0:0:0:0:
188,160,69712,1,0,0:0:0:0:
188,160,69803,1,8,0:0:0:0:
188,160,69894,1,8,0:0:0:0:
188,160,69985,1,8,0:0:0:0:
176,168,70076,1,8,0:0:0:0:
160,176,70167,1,8,0:0:0:0:
144,184,70258,1,8,0:0:0:0:
128,184,70349,1,0,0:0:0:0:
112,192,70440,1,0,0:0:0:0:
96,200,70530,1,8,0:0:0:0:
96,200,70621,1,8,0:0:0:0:
96,200,70712,1,8,0:0:0:0:
96,200,70803,1,8,0:0:0:0:
96,200,70894,1,0,0:0:0:0:
96,200,70985,1,0,0:0:0:0:
96,200,71076,1,8,0:0:0:0:
96,200,71167,1,0,0:0:0:0:
96,200,71258,1,8,0:0:0:0:
96,200,71349,1,8,0:0:0:0:
96,200,71440,1,0,0:0:0:0:
96,200,71530,1,0,0:0:0:0:
96,200,71621,1,8,0:0:0:0:
96,200,71712,1,8,0:0:0:0:
96,200,71803,1,0,0:0:0:0:
96,200,71894,1,0,0:0:0:0:
96,200,71985,1,8,0:0:0:0:
96,200,72076,1,8,0:0:0:0:
96,200,72167,1,0,0:0:0:0:
96,200,72258,1,0,0:0:0:0:
96,200,72349,1,8,0:0:0:0:
104,192,72440,1,0,0:0:0:0:
112,184,72530,1,0,0:0:0:0:
120,176,72621,1,0,0:0:0:0:
128,168,72712,1,8,0:0:0:0:
144,160,72803,1,0,0:0:0:0:
144,160,72894,1,8,0:0:0:0:
144,160,72985,1,0,0:0:0:0:
144,160,73076,1,8,0:0:0:0:
144,160,73167,1,0,0:0:0:0:
144,160,73258,1,0,0:0:0:0:
144,160,73349,1,0,0:0:0:0:
144,160,73440,1,8,0:0:0:0:
144,160,73530,1,0,0:0:0:0:
144,160,73621,1,8,0:0:0:0:
144,160,73712,1,0,0:0:0:0:
144,160,73803,1,8,0:0:0:0:
144,160,73894,1,0,0:0:0:0:
144,160,73985,1,8,0:0:0:0:
144,160,74076,1,0,0:0:0:0:
88,136,74167,1,8,0:0:0:0:
88,136,74258,1,8,0:0:0:0:
88,136,74349,1,8,0:0:0:0:
88,136,74440,1,8,0:0:0:0:
72,128,74530,1,0,0:0:0:0:
88,136,74621,1,0,0:0:0:0:
88,136,74712,1,8,0:0:0:0:
88,136,74803,1,0,0:0:0:0:
88,136,74894,1,8,0:0:0:0:
249,184,74955,1,8,0:0:0:0:
249,184,75015,1,0,0:0:0:0:
249,184,75076,1,0,0:0:0:0:
249,184,75136,1,0,0:0:0:0:
249,184,75197,1,0,0:0:0:0:
249,184,75258,1,8,0:0:0:0:
249,184,75440,1,0,0:0:0:0:
249,184,75530,1,0,0:0:0:0:
249,184,75621,1,12,0:0:0:0:
219,174,75803,1,0,0:0:0:0:
204,169,75894,1,0,0:0:0:0:
174,159,76076,1,0,0:0:0:0:
159,154,76167,1,0,0:0:0:0:
144,149,76258,1,0,0:0:0:0:
129,145,76349,1,8,0:0:0:0:
129,145,76440,1,8,0:0:0:0:
74,181,76894,1,0,0:0:0:0:
74,181,77076,1,8,0:0:0:0:
24,206,77440,1,8,0:0:0:0:
48,192,77621,1,8,0:0:0:0:
48,192,77803,1,0,0:0:0:0:
48,192,78167,1,0,0:0:0:0:
48,192,78530,1,12,0:0:0:0:
67,172,78712,1,0,0:0:0:0:
75,161,78803,1,0,0:0:0:0:
102,165,78985,1,8,0:0:0:0:
115,167,79076,1,0,0:0:0:0:
128,169,79167,1,0,0:0:0:0:
144,171,79258,1,8,0:0:0:0:
171,174,79440,1,0,0:0:0:0:
184,175,79530,1,0,0:0:0:0:
211,179,79712,1,0,0:0:0:0:
224,181,79803,1,8,0:0:0:0:
160,142,79985,1,8,0:0:0:0:
159,140,80167,1,0,0:0:0:0:
136,168,80227,1,0,0:0:0:0:
120,202,80288,1,8,0:0:0:0:
135,153,80349,1,8,0:0:0:0:
124,151,80409,1,8,0:0:0:0:
113,149,80470,1,8,0:0:0:0:
102,147,80530,1,0,0:0:0:0:
72,155,80712,1,8,0:0:0:0:
62,157,80773,1,8,0:0:0:0:
52,160,80833,1,0,0:0:0:0:
42,163,80894,1,0,0:0:0:0:
42,163,80955,1,0,0:0:0:0:
42,163,81015,1,0,0:0:0:0:
42,163,81076,1,8,0:0:0:0:
42,163,81258,1,0,0:0:0:0:
42,163,81349,1,0,0:0:0:0:
42,163,81440,1,12,0:0:0:0:
152,216,81621,1,0,0:0:0:0:
152,216,81712,1,0,0:0:0:0:
152,208,81894,1,8,0:0:0:0:
152,208,81985,1,0,0:0:0:0:
152,208,82076,1,0,0:0:0:0:
152,208,82167,1,8,0:0:0:0:
128,88,82349,1,0,0:0:0:0:
136,96,82440,1,0,0:0:0:0:
128,88,82621,1,8,0:0:0:0:
128,88,82712,1,0,0:0:0:0:
128,88,82894,1,8,0:0:0:0:
136,96,83076,1,0,0:0:0:0:
136,96,83167,1,0,0:0:0:0:
128,88,83349,1,8,0:0:0:0:
128,88,83440,1,0,0:0:0:0:
128,88,83530,1,0,0:0:0:0:
128,88,83621,1,8,0:0:0:0:
168,168,83803,1,0,0:0:0:0:
168,168,83985,1,8,0:0:0:0:
168,168,84076,1,8,0:0:0:0:
168,168,84167,1,0,0:0:0:0:
168,168,84258,1,0,0:0:0:0:
168,168,84349,1,8,0:0:0:0:
168,168,84530,1,0,0:0:0:0:
168,168,84621,1,0,0:0:0:0:
168,168,84803,1,8,0:0:0:0:
168,168,84894,1,0,0:0:0:0:
168,168,84985,1,0,0:0:0:0:
168,168,85076,1,8,0:0:0:0:
168,168,85258,1,0,0:0:0:0:
168,168,85349,1,0,0:0:0:0:
168,168,85530,1,8,0:0:0:0:
168,168,85621,1,0,0:0:0:0:
99,139,85803,1,8,0:0:0:0:
99,139,85894,1,8,0:0:0:0:
99,139,85985,1,0,0:0:0:0:
99,139,86076,1,8,0:0:0:0:
99,139,86167,1,0,0:0:0:0:
99,139,86258,1,0,0:0:0:0:
99,139,86349,1,8,0:0:0:0:
99,139,86440,1,0,0:0:0:0:
99,139,86530,1,8,0:0:0:0:
99,139,86621,1,8,0:0:0:0:
99,139,86712,1,0,0:0:0:0:
99,139,86803,1,8,0:0:0:0:
99,139,86894,1,0,0:0:0:0:
80,240,86985,1,0,0:0:0:0:
80,240,87076,1,0,0:0:0:0:
80,240,87167,1,0,0:0:0:0:
80,240,87258,1,12,0:0:0:0:
152,216,87440,1,0,0:0:0:0:
152,216,87530,1,0,0:0:0:0:
152,208,87712,1,8,0:0:0:0:
152,208,87803,1,0,0:0:0:0:
152,208,87894,1,0,0:0:0:0:
152,208,87985,1,8,0:0:0:0:
128,88,88167,1,0,0:0:0:0:
136,96,88258,1,0,0:0:0:0:
128,88,88440,1,8,0:0:0:0:
128,88,88530,1,0,0:0:0:0:
128,88,88712,1,8,0:0:0:0:
136,96,88894,1,0,0:0:0:0:
136,96,88985,1,0,0:0:0:0:
168,104,89076,1,8,0:0:0:0:
96,200,89167,1,8,0:0:0:0:
96,200,89258,1,0,0:0:0:0:
96,200,89440,1,8,0:0:0:0:
96,168,89621,1,0,0:0:0:0:
96,168,89712,1,0,0:0:0:0:
168,168,89803,1,8,0:0:0:0:
168,168,89985,1,0,0:0:0:0:
168,168,90076,1,0,0:0:0:0:
168,168,90167,1,8,0:0:0:0:
168,168,90349,1,0,0:0:0:0:
168,168,90440,1,0,0:0:0:0:
168,168,90621,1,8,0:0:0:0:
168,168,90712,1,0,0:0:0:0:
168,168,90803,1,0,0:0:0:0:
168,168,90894,1,8,0:0:0:0:
176,88,91076,1,0,0:0:0:0:
176,88,91167,1,0,0:0:0:0:
176,88,91258,1,8,0:0:0:0:
176,88,91349,1,8,0:0:0:0:
176,80,91440,1,0,0:0:0:0:
135,151,91621,5,8,0:0:0:0:
135,151,91803,1,0,0:0:0:0:
135,151,91894,1,8,0:0:0:0:
135,151,92076,1,0,0:0:0:0:
135,151,92167,1,8,0:0:0:0:
135,151,92349,1,0,0:0:0:0:
135,151,92530,1,8,0:0:0:0:
135,151,92621,1,8,0:0:0:0:
135,151,92712,1,8,0:0:0:0:
135,151,92803,1,8,0:0:0:0:
135,151,92894,1,0,0:0:0:0:
48,232,92985,5,0,0:0:0:0:
48,224,93076,5,8,0:0:0:0:
152,216,93167,1,0,0:0:0:0:
152,216,93258,1,0,0:0:0:0:
152,216,93349,1,0,0:0:0:0:
152,216,93440,1,8,0:0:0:0:
152,208,93530,1,8,0:0:0:0:
152,208,93621,1,0,0:0:0:0:
152,208,93712,1,0,0:0:0:0:
152,208,93803,1,8,0:0:0:0:
143,260,93894,1,8,0:0:0:0:
128,88,93985,1,0,0:0:0:0:
136,96,94076,1,0,0:0:0:0:
143,260,94167,1,8,0:0:0:0:
128,88,94258,1,0,0:0:0:0:
128,88,94349,1,8,0:0:0:0:
143,260,94440,1,0,0:0:0:0:
128,88,94530,1,8,0:0:0:0:
143,260,94621,1,0,0:0:0:0:
136,96,94712,1,0,0:0:0:0:
136,96,94803,1,8,0:0:0:0:
143,260,94894,1,0,0:0:0:0:
128,88,94985,1,8,0:0:0:0:
128,88,95076,1,8,0:0:0:0:
128,88,95167,1,0,0:0:0:0:
128,88,95258,1,8,0:0:0:0:
143,260,95349,1,0,0:0:0:0:
168,168,95440,1,0,0:0:0:0:
143,260,95530,1,0,0:0:0:0:
168,168,95621,1,8,0:0:0:0:
168,168,95712,1,8,0:0:0:0:
168,168,95803,1,0,0:0:0:0:
168,168,95894,1,0,0:0:0:0:
168,168,95985,1,8,0:0:0:0:
143,260,96076,1,8,0:0:0:0:
168,168,96167,1,0,0:0:0:0:
168,168,96258,1,0,0:0:0:0:
143,260,96349,1,8,0:0:0:0:
168,168,96440,1,8,0:0:0:0:
168,168,96530,1,0,0:0:0:0:
168,168,96621,1,0,0:0:0:0:
168,168,96712,1,8,0:0:0:0:
115,178,96803,1,0,0:0:0:0:
168,168,96894,1,8,0:0:0:0:
168,168,96985,1,0,0:0:0:0:
116,178,97076,1,0,0:0:0:0:
168,168,97167,1,8,0:0:0:0:
168,168,97258,1,0,0:0:0:0:
115,178,97349,1,0,0:0:0:0:
48,224,97440,1,8,0:0:0:0:
48,224,97530,1,8,0:0:0:0:
48,224,97621,1,0,0:0:0:0:
48,224,97712,1,8,0:0:0:0:
48,224,97803,1,0,0:0:0:0:
48,224,97894,1,0,0:0:0:0:
48,224,97985,1,8,0:0:0:0:
48,224,98076,1,0,0:0:0:0:
48,224,98167,1,8,0:0:0:0:
48,224,98258,1,8,0:0:0:0:
48,224,98349,1,0,0:0:0:0:
48,224,98440,1,8,0:0:0:0:
48,224,98530,1,0,0:0:0:0:
48,224,98621,1,0,0:0:0:0:
48,224,98712,1,8,0:0:0:0:
48,224,98803,1,0,0:0:0:0:
48,224,98894,1,8,0:0:0:0:
77,179,98985,1,0,0:0:0:0:
152,216,99076,1,0,0:0:0:0:
152,216,99167,1,0,0:0:0:0:
134,165,99258,1,8,0:0:0:0:
152,208,99349,1,8,0:0:0:0:
152,208,99440,1,0,0:0:0:0:
152,208,99530,1,0,0:0:0:0:
152,208,99621,1,8,0:0:0:0:
133,157,99712,1,0,0:0:0:0:
128,88,99803,1,0,0:0:0:0:
136,96,99894,1,8,0:0:0:0:
100,135,99985,1,0,0:0:0:0:
128,88,100076,1,8,0:0:0:0:
128,88,100167,1,8,0:0:0:0:
110,138,100258,1,0,0:0:0:0:
128,88,100349,1,8,0:0:0:0:
110,138,100440,1,0,0:0:0:0:
136,96,100530,1,0,0:0:0:0:
136,96,100621,1,0,0:0:0:0:
168,104,100712,1,8,0:0:0:0:
96,200,100803,1,8,0:0:0:0:
96,200,100894,1,0,0:0:0:0:
109,148,100985,1,0,0:0:0:0:
96,200,101076,1,8,0:0:0:0:
109,148,101167,1,0,0:0:0:0:
96,168,101258,1,0,0:0:0:0:
96,168,101349,1,0,0:0:0:0:
168,168,101440,1,8,0:0:0:0:
131,129,101530,1,0,0:0:0:0:
168,168,101621,1,8,0:0:0:0:
168,168,101712,1,0,0:0:0:0:
168,168,101803,1,8,0:0:0:0:
131,129,101894,1,8,0:0:0:0:
168,168,101985,1,0,0:0:0:0:
168,168,102076,1,0,0:0:0:0:
131,129,102167,1,8,0:0:0:0:
168,168,102258,1,8,0:0:0:0:
168,168,102349,1,0,0:0:0:0:
168,168,102440,1,0,0:0:0:0:
168,168,102530,1,8,0:0:0:0:
131,129,102621,1,0,0:0:0:0:
176,88,102712,1,8,0:0:0:0:
176,88,102803,1,0,0:0:0:0:
176,88,102894,1,8,0:0:0:0:
176,88,102985,1,8,0:0:0:0:
176,80,103076,1,0,0:0:0:0:
130,108,103167,1,0,0:0:0:0:
135,151,103258,5,8,0:0:0:0:
135,151,103349,1,0,0:0:0:0:
135,151,103440,1,0,0:0:0:0:
135,151,103530,1,8,0:0:0:0:
135,151,103621,1,0,0:0:0:0:
135,151,103712,1,0,0:0:0:0:
135,151,103803,1,8,0:0:0:0:
135,151,103894,1,0,0:0:0:0:
110,166,103985,5,8,0:0:0:0:
160,183,104076,1,0,0:0:0:0:
211,200,104167,1,0,0:0:0:0:
261,217,104258,1,0,0:0:0:0:
129,123,104349,1,8,0:0:0:0:
129,123,104440,1,8,0:0:0:0:
129,123,104530,1,0,0:0:0:0:
85,91,104621,1,0,0:0:0:0:
27,82,104712,1,8,0:0:0:0:
120,136,104803,1,0,0:0:0:0:
120,136,104894,1,8,0:0:0:0:
120,136,104985,1,0,0:0:0:0:
120,136,105076,1,8,0:0:0:0:
120,136,105167,1,0,0:0:0:0:
120,136,105258,1,0,0:0:0:0:
120,136,105349,1,0,0:0:0:0:
120,136,105440,1,8,0:0:0:0:
120,136,105530,1,0,0:0:0:0:
120,136,105621,1,8,0:0:0:0:
120,136,105712,1,0,0:0:0:0:
120,136,105803,1,8,0:0:0:0:
120,136,105894,1,8,0:0:0:0:
120,136,105985,1,0,0:0:0:0:
120,136,106076,1,0,0:0:0:0:
120,136,106167,1,8,0:0:0:0:
158,144,106227,1,8,0:0:0:0:
158,144,106288,1,0,0:0:0:0:
158,144,106349,1,0,0:0:0:0:
168,139,106409,1,0,0:0:0:0:
168,139,106470,5,0,0:0:0:0:
158,144,106530,1,8,0:0:0:0:
158,144,106591,1,8,0:0:0:0:
158,144,106652,1,0,0:0:0:0:
168,139,106712,1,0,0:0:0:0:
168,139,106773,1,0,0:0:0:0:
168,139,106833,1,0,0:0:0:0:
166,142,106894,5,8,0:0:0:0:
106,160,107076,1,8,0:0:0:0:
110,169,107258,1,0,0:0:0:0:
110,169,107440,1,0,0:0:0:0:
110,169,107621,1,12,0:0:0:0:
134,197,108530,1,0,0:0:0:0:
134,197,108591,1,0,0:0:0:0:
134,197,108652,1,0,0:0:0:0:
158,155,108712,1,8,0:0:0:0:
174,211,109076,1,12,0:0:0:0:
249,30,109440,1,0,0:0:0:0:
152,192,109803,1,8,0:0:0:0:
152,192,109894,1,8,0:0:0:0:
152,192,109985,1,8,0:0:0:0:
152,192,110076,1,8,0:0:0:0:
152,192,110167,1,0,0:0:0:0:
152,192,110258,1,0,0:0:0:0:
152,192,110349,1,0,0:0:0:0:
152,192,110440,1,0,0:0:0:0:
168,240,110530,1,8,0:0:0:0:
168,240,110621,1,8,0:0:0:0:
168,240,110712,1,8,0:0:0:0:
168,240,110803,1,8,0:0:0:0:
168,240,110894,1,8,0:0:0:0:
168,240,110985,1,8,0:0:0:0:
168,240,111076,1,8,0:0:0:0:
168,240,111167,1,8,0:0:0:0:
168,240,111258,1,0,0:0:0:0:
168,240,111349,1,0,0:0:0:0:
168,240,111440,1,0,0:0:0:0:
168,240,111530,1,0,0:0:0:0:
168,240,111621,1,8,0:0:0:0:
168,240,111712,1,8,0:0:0:0:
168,240,111803,1,0,0:0:0:0:
168,240,111894,1,0,0:0:0:0:
168,240,111985,1,8,0:0:0:0:
168,240,112076,1,8,0:0:0:0:
168,240,112167,1,8,0:0:0:0:
168,240,112258,1,8,0:0:0:0:
168,240,112349,1,8,0:0:0:0:
168,240,112440,1,8,0:0:0:0:
168,240,112530,1,8,0:0:0:0:
168,240,112621,1,8,0:0:0:0:
168,240,112712,1,0,0:0:0:0:
168,240,112803,1,0,0:0:0:0:
168,240,112894,1,0,0:0:0:0:
168,240,112985,1,0,0:0:0:0:
168,240,113076,1,0,0:0:0:0:
168,240,113167,1,0,0:0:0:0:
168,240,113258,1,0,0:0:0:0:
168,240,113349,1,0,0:0:0:0:
168,240,113440,1,8,0:0:0:0:
168,240,113530,1,8,0:0:0:0:
168,240,113621,1,8,0:0:0:0:
168,240,113712,1,8,0:0:0:0:
168,240,113803,1,8,0:0:0:0:
168,240,113894,1,8,0:0:0:0:
168,240,113985,1,8,0:0:0:0:
168,240,114076,1,8,0:0:0:0:
168,240,114167,1,0,0:0:0:0:
168,240,114258,1,0,0:0:0:0:
168,240,114349,1,0,0:0:0:0:
168,240,114440,1,0,0:0:0:0:
168,240,114530,1,8,0:0:0:0:
168,240,114621,1,8,0:0:0:0:
168,240,114712,1,8,0:0:0:0:
168,240,114803,1,8,0:0:0:0:
168,240,114894,1,0,0:0:0:0:
168,240,114985,1,0,0:0:0:0:
168,240,115076,1,8,0:0:0:0:
168,240,115167,1,0,0:0:0:0:
168,240,115258,1,8,0:0:0:0:
168,240,115349,1,8,0:0:0:0:
168,240,115440,1,0,0:0:0:0:
168,240,115530,1,0,0:0:0:0:
168,240,115621,1,8,0:0:0:0:
168,240,115712,1,8,0:0:0:0:
168,240,115803,1,8,0:0:0:0:
168,240,115894,1,8,0:0:0:0:
168,240,115985,1,8,0:0:0:0:
168,240,116076,1,8,0:0:0:0:
168,240,116167,1,0,0:0:0:0:
168,240,116258,1,0,0:0:0:0:
168,240,116349,1,8,0:0:0:0:
168,240,116440,1,8,0:0:0:0:
168,240,116530,1,8,0:0:0:0:
168,240,116621,1,8,0:0:0:0:
168,240,116712,1,8,0:0:0:0:
168,240,116803,1,8,0:0:0:0:
168,240,116894,1,8,0:0:0:0:
168,240,116985,1,8,0:0:0:0:
168,240,117076,1,0,0:0:0:0:
168,240,117167,1,0,0:0:0:0:
168,240,117258,1,0,0:0:0:0:
168,240,117349,1,0,0:0:0:0:
168,240,117440,1,8,0:0:0:0:
168,240,117530,1,8,0:0:0:0:
168,240,117621,1,0,0:0:0:0:
168,240,117712,1,0,0:0:0:0:
168,240,117803,1,8,0:0:0:0:
168,240,117894,1,8,0:0:0:0:
168,240,117985,1,8,0:0:0:0:
168,240,118076,1,8,0:0:0:0:
168,240,118167,1,8,0:0:0:0:
168,240,118258,1,8,0:0:0:0:
168,240,118349,1,8,0:0:0:0:
168,240,118440,1,8,0:0:0:0:
168,240,118530,1,0,0:0:0:0:
168,240,118621,1,0,0:0:0:0:
168,240,118712,1,0,0:0:0:0:
168,240,118803,1,0,0:0:0:0:
168,240,118894,1,0,0:0:0:0:
168,240,118985,1,0,0:0:0:0:
168,240,119076,1,0,0:0:0:0:
168,240,119167,1,0,0:0:0:0:
168,240,119258,1,8,0:0:0:0:
168,240,119349,1,8,0:0:0:0:
168,240,119440,1,8,0:0:0:0:
168,240,119530,1,8,0:0:0:0:
168,240,119621,1,0,0:0:0:0:
168,240,119712,1,0,0:0:0:0:
168,240,119803,1,8,0:0:0:0:
168,240,119894,1,0,0:0:0:0:
168,240,119985,1,8,0:0:0:0:
168,240,120076,1,8,0:0:0:0:
168,240,120167,1,0,0:0:0:0:
168,240,120258,1,0,0:0:0:0:
168,240,120349,1,8,0:0:0:0:
168,240,120440,1,8,0:0:0:0:
168,240,120530,1,8,0:0:0:0:
168,240,120621,1,8,0:0:0:0:
168,240,120712,1,0,0:0:0:0:
168,240,120803,1,0,0:0:0:0:
168,240,120894,1,0,0:0:0:0:
168,240,120985,1,0,0:0:0:0:
168,240,121076,1,8,0:0:0:0:
168,240,121167,1,8,0:0:0:0:
168,240,121258,1,8,0:0:0:0:
168,240,121349,1,8,0:0:0:0:
168,240,121440,1,0,0:0:0:0:
168,240,121530,1,0,0:0:0:0:
168,240,121621,1,8,0:0:0:0:
168,240,121712,1,0,0:0:0:0:
168,240,121803,1,8,0:0:0:0:
168,240,121894,1,8,0:0:0:0:
168,240,121985,1,0,0:0:0:0:
168,240,122076,1,0,0:0:0:0:
168,240,122167,1,8,0:0:0:0:
128,208,122258,1,0,0:0:0:0:
168,240,122349,1,0,0:0:0:0:
168,240,122440,1,0,0:0:0:0:
168,240,122530,1,8,0:0:0:0:
128,208,122621,1,0,0:0:0:0:
96,176,122712,1,0,0:0:0:0:
168,240,122803,1,0,0:0:0:0:
168,240,122894,1,8,0:0:0:0:
68,100,123076,1,0,0:0:0:0:
68,100,123167,1,0,0:0:0:0:
168,240,123258,1,8,0:0:0:0:
168,240,123440,1,0,0:0:0:0:
168,240,123621,1,12,0:0:0:0:
168,240,123985,1,0,0:0:0:0:
168,240,124076,1,0,0:0:0:0:
168,240,124167,1,0,0:0:0:0:
168,240,124258,1,0,0:0:0:0:
168,240,124349,1,8,0:0:0:0:
77,172,124530,1,0,0:0:0:0:
77,172,124621,1,0,0:0:0:0:
168,240,124712,1,8,0:0:0:0:
168,240,124894,1,0,0:0:0:0:
168,240,125076,1,8,0:0:0:0:
168,240,125440,1,0,0:0:0:0:
168,240,125530,1,0,0:0:0:0:
168,240,125621,1,0,0:0:0:0:
168,240,125712,1,0,0:0:0:0:
168,240,125803,1,8,0:0:0:0:
168,240,125894,1,8,0:0:0:0:
86,203,125985,1,8,0:0:0:0:
168,240,126076,1,8,0:0:0:0:
168,240,126167,1,0,0:0:0:0:
168,240,126258,1,0,0:0:0:0:
168,240,126349,1,8,0:0:0:0:
86,203,126440,1,0,0:0:0:0:
168,240,126530,1,8,0:0:0:0:
168,240,126621,1,8,0:0:0:0:
168,240,126712,1,0,0:0:0:0:
168,240,126803,1,0,0:0:0:0:
168,240,126894,1,8,0:0:0:0:
168,240,126985,1,8,0:0:0:0:
168,240,127076,1,0,0:0:0:0:
168,240,127167,1,0,0:0:0:0:
168,240,127258,1,8,0:0:0:0:
168,240,127349,1,8,0:0:0:0:
168,240,127440,1,0,0:0:0:0:
168,240,127530,1,0,0:0:0:0:
168,240,127621,1,8,0:0:0:0:
168,240,127712,1,0,0:0:0:0:
168,240,127803,1,8,0:0:0:0:
168,240,127894,1,0,0:0:0:0:
168,240,127985,1,8,0:0:0:0:
168,240,128076,1,8,0:0:0:0:
168,240,128167,1,8,0:0:0:0:
168,240,128258,1,8,0:0:0:0:
168,240,128349,1,0,0:0:0:0:
168,240,128440,1,0,0:0:0:0:
168,240,128530,1,0,0:0:0:0:
168,240,128621,1,0,0:0:0:0:
168,240,128712,1,8,0:0:0:0:
168,240,128803,1,8,0:0:0:0:
168,240,128894,1,8,0:0:0:0:
168,240,128985,1,8,0:0:0:0:
168,240,129076,1,0,0:0:0:0:
168,240,129167,1,0,0:0:0:0:
168,240,129258,1,0,0:0:0:0:
168,240,129349,1,0,0:0:0:0:
168,240,129440,1,8,0:0:0:0:
168,240,129530,1,8,0:0:0:0:
168,240,129621,1,8,0:0:0:0:
168,240,129712,1,8,0:0:0:0:
168,240,129803,1,8,0:0:0:0:
168,240,129894,1,8,0:0:0:0:
168,240,129985,1,8,0:0:0:0:
168,240,130076,1,8,0:0:0:0:
168,240,130167,1,0,0:0:0:0:
168,240,130258,1,0,0:0:0:0:
168,240,130349,1,0,0:0:0:0:
168,240,130440,1,0,0:0:0:0:
168,240,130530,1,8,0:0:0:0:
145,144,130712,1,0,0:0:0:0:
157,191,130803,1,0,0:0:0:0:
183,203,130894,1,8,0:0:0:0:
118,130,131076,1,0,0:0:0:0:
216,240,131167,1,0,0:0:0:0:
151,167,131349,1,8,0:0:0:0:
151,167,131440,1,0,0:0:0:0:
151,167,131530,1,0,0:0:0:0:
151,167,131621,1,8,0:0:0:0:
151,167,131803,1,0,0:0:0:0:
151,167,131894,1,0,0:0:0:0:
103,177,132076,1,8,0:0:0:0:
7,197,132167,1,0,0:0:0:0:
103,177,132349,1,8,0:0:0:0:
103,177,132440,1,0,0:0:0:0:
103,177,132530,1,8,0:0:0:0:
103,177,132621,1,8,0:0:0:0:
103,177,132712,1,0,0:0:0:0:
103,177,132803,1,0,0:0:0:0:
103,177,132894,1,8,0:0:0:0:
103,177,133076,1,8,0:0:0:0:
103,177,133258,1,0,0:0:0:0:
103,177,133349,1,0,0:0:0:0:
103,177,133530,1,8,0:0:0:0:
103,177,133621,1,0,0:0:0:0:
103,177,133803,1,8,0:0:0:0:
70,140,133894,1,0,0:0:0:0:
42,149,133985,1,0,0:0:0:0:
42,149,134076,1,8,0:0:0:0:
42,149,134167,1,0,0:0:0:0:
63,104,134258,1,0,0:0:0:0:
84,60,134349,1,8,0:0:0:0:
63,104,134440,1,0,0:0:0:0:
42,149,134530,1,8,0:0:0:0:
42,149,134621,1,8,0:0:0:0:
91,151,134712,1,8,0:0:0:0:
42,149,134803,1,8,0:0:0:0:
42,149,134894,1,0,0:0:0:0:
42,149,134985,1,0,0:0:0:0:
42,149,135076,1,8,0:0:0:0:
42,149,135167,1,0,0:0:0:0:
129,170,135258,5,8,0:0:0:0:
191,171,135349,1,0,0:0:0:0:
129,170,135440,1,0,0:0:0:0:
129,170,135530,1,0,0:0:0:0:
129,170,135621,1,8,0:0:0:0:
129,170,135712,1,8,0:0:0:0:
129,170,135803,1,0,0:0:0:0:
129,170,135894,1,0,0:0:0:0:
129,170,135985,1,8,0:0:0:0:
193,181,136167,5,0,0:0:0:0:
193,181,136258,5,0,0:0:0:0:
193,181,136349,5,8,0:0:0:0:
108,219,136530,5,0,0:0:0:0:
108,219,136621,1,0,0:0:0:0:
108,219,136712,1,12,0:0:0:0:
343,314,137621,5,8,0:0:0:0:
343,314,137803,1,0,0:0:0:0:
343,314,137985,1,0,0:0:0:0:
261,227,138167,5,8,0:0:0:0:
261,227,138212,1,8,0:0:0:0:
108,183,138349,1,0,0:0:0:0:
108,183,138409,1,0,0:0:0:0:
40,191,138470,1,0,0:0:0:0:
94,166,138530,1,8,0:0:0:0:
176,224,138712,1,0,0:0:0:0:
176,224,138894,1,8,0:0:0:0:
176,224,139076,1,0,0:0:0:0:
176,224,139167,1,0,0:0:0:0:
176,224,139258,1,8,0:0:0:0:
176,224,139440,1,0,0:0:0:0:
142,142,139621,1,12,0:0:0:0:
87,156,139803,1,0,0:0:0:0:
87,156,139985,1,0,0:0:0:0:
87,156,140167,1,8,0:0:0:0:
87,156,140349,1,0,0:0:0:0:
87,156,140530,1,8,0:0:0:0:
87,156,140712,1,0,0:0:0:0:
108,173,140894,1,0,0:0:0:0:
129,191,141076,1,8,0:0:0:0:
129,191,141258,1,8,0:0:0:0:
199,154,141440,1,0,0:0:0:0:
129,191,141621,1,8,0:0:0:0:
129,191,141803,1,8,0:0:0:0:
129,191,141985,1,0,0:0:0:0:
199,154,142167,1,8,0:0:0:0:
218,174,142349,1,0,0:0:0:0:
168,168,142440,1,0,0:0:0:0:
142,142,142530,1,8,0:0:0:0:
87,156,142712,1,8,0:0:0:0:
87,156,142894,1,0,0:0:0:0:
87,156,143076,1,8,0:0:0:0:
87,156,143258,1,0,0:0:0:0:
87,156,143440,1,8,0:0:0:0:
87,156,143621,1,8,0:0:0:0:
108,173,143803,1,0,0:0:0:0:
129,191,143985,1,8,0:0:0:0:
129,191,144167,1,8,0:0:0:0:
199,154,144349,1,0,0:0:0:0:
129,191,144530,1,8,0:0:0:0:
129,191,144712,1,0,0:0:0:0:
129,191,144894,1,0,0:0:0:0:
199,154,145076,1,8,0:0:0:0:
218,174,145258,1,0,0:0:0:0:
142,142,145440,1,8,0:0:0:0:
87,156,145621,1,8,0:0:0:0:
87,156,145803,1,0,0:0:0:0:
87,156,145985,1,8,0:0:0:0:
136,160,146076,1,0,0:0:0:0:
87,156,146167,1,0,0:0:0:0:
87,156,146349,1,8,0:0:0:0:
87,156,146530,1,0,0:0:0:0:
108,173,146712,1,0,0:0:0:0:
136,240,146894,5,8,0:0:0:0:
136,240,146985,1,8,0:0:0:0:
136,240,147076,1,0,0:0:0:0:
136,240,147167,1,8,0:0:0:0:
136,240,147258,1,0,0:0:0:0:
136,240,147349,1,0,0:0:0:0:
136,240,147440,1,8,0:0:0:0:
168,248,147621,1,0,0:0:0:0:
200,256,147803,1,0,0:0:0:0:
232,264,147985,1,8,0:0:0:0:
248,264,148076,1,8,0:0:0:0:
264,264,148167,1,0,0:0:0:0:
280,264,148258,1,0,0:0:0:0:
296,272,148349,1,12,0:0:0:0:
344,280,148621,1,0,0:0:0:0:
392,288,148894,1,0,0:0:0:0:
392,288,149076,1,8,0:0:0:0:
376,288,149167,1,8,0:0:0:0:
344,280,149440,1,0,0:0:0:0:
328,272,149530,1,0,0:0:0:0:
312,272,149621,1,0,0:0:0:0:
280,264,149803,1,8,0:0:0:0:
264,256,149894,1,8,0:0:0:0:
248,248,149985,1,8,0:0:0:0:
232,248,150076,1,8,0:0:0:0:
96,184,150349,1,0,0:0:0:0:
184,224,150530,1,8,0:0:0:0:
96,184,150894,1,8,0:0:0:0:
96,184,151076,1,8,0:0:0:0:
96,184,151258,1,0,0:0:0:0:
72,160,151530,1,8,0:0:0:0:
72,160,151803,1,0,0:0:0:0:
488,136,151985,1,8,0:0:0:0:
96,184,152076,1,8,0:0:0:0:
96,184,152349,1,0,0:0:0:0:
96,184,152440,1,0,0:0:0:0:
96,184,152530,1,0,0:0:0:0:
16,128,152712,1,0,0:0:0:0:
56,152,152803,1,0,0:0:0:0:
56,152,152894,1,0,0:0:0:0:
56,152,153076,1,8,0:0:0:0:
56,152,153258,1,0,0:0:0:0:
56,152,153440,1,8,0:0:0:0:
56,152,153530,1,0,0:0:0:0:
56,152,153621,1,8,0:0:0:0:
56,152,153712,1,0,0:0:0:0:
56,152,153803,1,8,0:0:0:0:
56,152,153894,1,8,0:0:0:0:
56,152,153985,1,0,0:0:0:0:
56,152,154076,1,0,0:0:0:0:
56,152,154167,1,12,0:0:0:0:
344,280,154440,1,0,0:0:0:0:
392,288,154712,1,0,0:0:0:0:
392,288,154894,1,8,0:0:0:0:
376,288,154985,1,8,0:0:0:0:
344,280,155258,1,0,0:0:0:0:
328,272,155349,1,0,0:0:0:0:
312,272,155440,1,0,0:0:0:0:
280,264,155621,1,8,0:0:0:0:
264,256,155712,1,8,0:0:0:0:
248,248,155803,1,8,0:0:0:0:
232,248,155894,1,8,0:0:0:0:
96,184,156167,1,0,0:0:0:0:
184,224,156349,1,8,0:0:0:0:
96,184,156712,1,8,0:0:0:0:
96,184,156894,1,8,0:0:0:0:
96,184,157076,1,0,0:0:0:0:
72,160,157349,1,8,0:0:0:0:
72,160,157621,1,0,0:0:0:0:
488,136,157803,1,8,0:0:0:0:
96,184,158076,1,0,0:0:0:0:
96,184,158167,5,8,0:0:0:0:
96,184,158349,1,0,0:0:0:0:
48,208,158530,5,8,0:0:0:0:
48,208,158621,1,8,0:0:0:0:
88,144,158712,1,0,0:0:0:0:
88,144,158803,1,0,0:0:0:0:
48,208,158894,1,8,0:0:0:0:
88,144,158985,1,0,0:0:0:0:
48,208,159076,1,8,0:0:0:0:
88,144,159167,1,0,0:0:0:0:
48,208,159258,1,8,0:0:0:0:
48,208,159349,1,8,0:0:0:0:
88,144,159440,1,0,0:0:0:0:
88,144,159530,1,0,0:0:0:0:
48,200,159621,1,8,0:0:0:0:
368,288,159712,1,8,0:0:0:0:
48,200,159803,1,0,0:0:0:0:
48,200,159894,1,0,0:0:0:0:
48,200,159985,1,12,0:0:0:0:
138,155,160167,1,0,0:0:0:0:
138,155,160258,1,0,0:0:0:0:
138,155,160440,1,0,0:0:0:0:
138,155,160530,1,0,0:0:0:0:
138,155,160621,1,0,0:0:0:0:
138,155,160712,1,8,0:0:0:0:
138,155,160803,1,8,0:0:0:0:
112,152,161258,1,0,0:0:0:0:
112,152,161440,1,8,0:0:0:0:
104,152,161803,1,0,0:0:0:0:
104,152,161985,1,0,0:0:0:0:
104,152,162167,1,8,0:0:0:0:
104,144,162530,1,8,0:0:0:0:
120,160,162894,1,12,0:0:0:0:
138,155,163076,1,0,0:0:0:0:
138,155,163167,1,0,0:0:0:0:
138,155,163349,1,0,0:0:0:0:
138,155,163440,1,0,0:0:0:0:
138,155,163530,1,0,0:0:0:0:
138,155,163621,1,8,0:0:0:0:
138,155,163712,1,8,0:0:0:0:
331,306,164167,1,0,0:0:0:0:
292,275,164258,1,0,0:0:0:0:
160,168,164349,1,8,0:0:0:0:
160,168,164440,1,0,0:0:0:0:
120,160,164530,1,0,0:0:0:0:
160,160,164621,1,0,0:0:0:0:
160,160,164712,1,8,0:0:0:0:
120,152,164803,1,8,0:0:0:0:
160,160,164894,1,0,0:0:0:0:
120,152,164985,1,0,0:0:0:0:
160,160,165076,1,8,0:0:0:0:
160,160,165167,1,0,0:0:0:0:
160,160,165258,1,0,0:0:0:0:
160,160,165349,1,0,0:0:0:0:
160,160,165440,1,8,0:0:0:0:
192,195,165530,1,8,0:0:0:0:
160,160,165621,1,0,0:0:0:0:
192,195,165712,1,0,0:0:0:0:
144,168,165803,1,12,0:0:0:0:
138,155,165985,1,0,0:0:0:0:
138,155,166076,1,0,0:0:0:0:
138,155,166258,1,0,0:0:0:0:
138,155,166349,1,0,0:0:0:0:
138,155,166440,1,0,0:0:0:0:
138,155,166530,1,8,0:0:0:0:
138,155,166621,1,8,0:0:0:0:
144,208,167076,1,0,0:0:0:0:
102,182,167167,1,0,0:0:0:0:
144,208,167258,1,8,0:0:0:0:
136,208,167349,1,8,0:0:0:0:
136,208,167440,1,0,0:0:0:0:
136,208,167530,1,8,0:0:0:0:
136,208,167621,1,0,0:0:0:0:
136,208,167712,1,0,0:0:0:0:
136,208,167803,1,8,0:0:0:0:
136,208,167894,1,8,0:0:0:0:
168,152,167985,1,0,0:0:0:0:
168,152,168076,1,8,0:0:0:0:
168,152,168167,1,0,0:0:0:0:
168,152,168258,1,0,0:0:0:0:
80,168,168349,1,8,0:0:0:0:
80,168,168440,1,8,0:0:0:0:
56,160,168530,1,0,0:0:0:0:
56,160,168621,1,0,0:0:0:0:
80,168,168712,1,8,0:0:0:0:
138,155,168894,1,0,0:0:0:0:
138,155,168985,1,0,0:0:0:0:
138,155,169167,1,8,0:0:0:0:
138,155,169258,1,0,0:0:0:0:
138,155,169349,1,0,0:0:0:0:
138,155,169440,1,8,0:0:0:0:
138,155,169621,1,0,0:0:0:0:
200,168,169712,1,0,0:0:0:0:
200,168,169894,1,0,0:0:0:0:
200,168,169985,1,0,0:0:0:0:
257,173,170076,1,0,0:0:0:0:
200,168,170167,1,8,0:0:0:0:
200,176,170258,1,8,0:0:0:0:
200,176,170349,1,0,0:0:0:0:
200,176,170440,1,8,0:0:0:0:
200,176,170530,1,0,0:0:0:0:
200,176,170621,1,0,0:0:0:0:
200,176,170712,1,8,0:0:0:0:
152,96,170803,1,0,0:0:0:0:
312,192,170894,1,8,0:0:0:0:
96,144,170985,1,8,0:0:0:0:
96,144,171076,1,0,0:0:0:0:
96,144,171167,1,0,0:0:0:0:
96,144,171258,1,8,0:0:0:0:
232,152,171349,1,8,0:0:0:0:
176,152,171440,1,0,0:0:0:0:
104,104,171621,1,8,0:0:0:0:
168,144,171803,1,0,0:0:0:0:
168,144,171894,1,0,0:0:0:0:
168,144,171985,1,8,0:0:0:0:
168,144,172076,1,8,0:0:0:0:
168,144,172167,1,0,0:0:0:0:
168,144,172258,1,0,0:0:0:0:
168,144,172349,1,8,0:0:0:0:
144,80,172440,1,0,0:0:0:0:
168,144,172530,1,8,0:0:0:0:
144,80,172621,1,8,0:0:0:0:
168,144,172712,1,0,0:0:0:0:
144,80,172803,1,0,0:0:0:0:
168,144,172894,1,8,0:0:0:0:
168,144,173076,6,4,L|253:120,14,48.9999985046387
88,160,174530,5,4,0:0:0:0:
88,160,174894,5,12,0:0:0:0:
88,160,175167,1,0,0:0:0:0:
88,160,175440,1,0,0:0:0:0:
88,160,175622,1,8,0:0:0:0:
72,152,175713,1,8,0:0:0:0:
112,168,177076,1,8,0:0:0:0:
48,176,177804,1,12,0:0:0:0:
48,176,178076,1,0,0:0:0:0:
48,176,178349,1,0,0:0:0:0:
48,176,178531,1,8,0:0:0:0:
48,176,178622,1,8,0:0:0:0:
48,176,179076,1,0,0:0:0:0:
48,176,179167,1,0,0:0:0:0:
48,176,179258,1,8,0:0:0:0:
48,176,179440,1,0,0:0:0:0:
48,176,179531,1,0,0:0:0:0:
72,176,179713,1,8,0:0:0:0:
88,176,179804,1,0,0:0:0:0:
112,176,179985,1,8,0:0:0:0:
128,168,180076,1,8,0:0:0:0:
144,168,180167,1,8,0:0:0:0:
160,168,180258,1,8,0:0:0:0:
168,168,180349,1,8,0:0:0:0:
184,160,180440,1,8,0:0:0:0:
200,160,180531,1,0,0:0:0:0:
216,160,180622,1,0,0:0:0:0:
224,160,180713,1,12,0:0:0:0:
184,160,180985,1,0,0:0:0:0:
144,160,181258,1,0,0:0:0:0:
112,160,181440,1,8,0:0:0:0:
96,160,181531,1,8,0:0:0:0:
40,144,181925,1,0,0:0:0:0:
56,152,182046,1,0,0:0:0:0:
96,160,182167,1,8,0:0:0:0:
96,176,182288,1,0,0:0:0:0:
96,192,182410,1,0,0:0:0:0:
96,208,182531,1,8,0:0:0:0:
96,224,182652,1,8,0:0:0:0:
96,160,182773,1,0,0:0:0:0:
88,152,182834,1,0,0:0:0:0:
80,152,182895,1,8,0:0:0:0:
120,136,183076,1,8,0:0:0:0:
80,128,183258,1,0,0:0:0:0:
88,112,183349,1,0,0:0:0:0:
80,128,183440,1,0,0:0:0:0:
88,112,183531,1,0,0:0:0:0:
48,176,183622,1,12,0:0:0:0:
48,176,183895,1,0,0:0:0:0:
48,176,184167,1,0,0:0:0:0:
48,176,184349,1,8,0:0:0:0:
48,176,184440,1,8,0:0:0:0:
192,104,184895,1,0,0:0:0:0:
192,104,184985,1,0,0:0:0:0:
192,104,185076,1,8,0:0:0:0:
48,176,185258,1,0,0:0:0:0:
48,176,185349,1,0,0:0:0:0:
72,176,185531,1,8,0:0:0:0:
88,176,185622,1,0,0:0:0:0:
112,176,185804,1,8,0:0:0:0:
128,168,185895,1,8,0:0:0:0:
144,168,185985,1,8,0:0:0:0:
160,168,186076,1,8,0:0:0:0:
168,168,186167,1,8,0:0:0:0:
184,160,186258,1,8,0:0:0:0:
200,160,186349,1,0,0:0:0:0:
216,160,186440,1,0,0:0:0:0:
224,160,186531,1,12,0:0:0:0:
249,15,186804,1,0,0:0:0:0:
48,176,187076,1,0,0:0:0:0:
48,176,187258,1,8,0:0:0:0:
48,176,187349,1,8,0:0:0:0:
365,46,187985,1,0,0:0:0:0:
0,190,188713,1,8,0:0:0:0:
175,103,189076,1,0,0:0:0:0:
87,146,189258,1,0,0:0:0:0:
351,17,189440,1,12,0:0:0:0:
87,146,189713,1,0,0:0:0:0:
87,146,189985,1,0,0:0:0:0:
87,146,190167,1,8,0:0:0:0:
87,146,190258,1,8,0:0:0:0:
382,276,190713,1,0,0:0:0:0:
328,256,190804,1,0,0:0:0:0:
96,160,190895,1,8,0:0:0:0:
115,114,190985,1,8,0:0:0:0:
112,87,191076,1,0,0:0:0:0:
112,87,191167,1,0,0:0:0:0:
112,87,191258,1,8,0:0:0:0:
112,87,191349,1,0,0:0:0:0:
112,87,191440,1,8,0:0:0:0:
112,87,191531,1,0,0:0:0:0:
112,87,191622,1,8,0:0:0:0:
112,87,191713,1,8,0:0:0:0:
112,87,191804,1,8,0:0:0:0:
112,87,191895,1,8,0:0:0:0:
80,128,191985,1,0,0:0:0:0:
88,112,192076,1,0,0:0:0:0:
80,128,192167,1,0,0:0:0:0:
88,112,192258,1,0,0:0:0:0:
48,176,192349,1,12,0:0:0:0:
192,150,192622,1,0,0:0:0:0:
47,178,192895,1,0,0:0:0:0:
142,159,193076,1,8,0:0:0:0:
142,159,193167,1,8,0:0:0:0:
96,160,193440,1,8,0:0:0:0:
40,144,193561,1,0,0:0:0:0:
56,152,193682,1,0,0:0:0:0:
96,160,193804,1,8,0:0:0:0:
63,177,193864,1,8,0:0:0:0:
63,177,193925,1,0,0:0:0:0:
63,177,193985,1,0,0:0:0:0:
96,192,194046,1,8,0:0:0:0:
96,208,194167,1,8,0:0:0:0:
96,224,194288,1,0,0:0:0:0:
120,136,194410,1,0,0:0:0:0:
120,136,194531,1,8,0:0:0:0:
56,152,194591,1,8,0:0:0:0:
175,127,194652,1,8,0:0:0:0:
120,136,194713,1,0,0:0:0:0:
231,121,194895,1,8,0:0:0:0:
175,127,194985,1,8,0:0:0:0:
43,167,195076,1,0,0:0:0:0:
43,167,195167,1,0,0:0:0:0:
48,176,195258,1,12,0:0:0:0:
48,176,195531,1,0,0:0:0:0:
48,176,195804,1,0,0:0:0:0:
48,176,195985,1,8,0:0:0:0:
48,176,196076,1,8,0:0:0:0:
190,209,196349,1,8,0:0:0:0:
60,147,196531,1,0,0:0:0:0:
96,160,196713,1,8,0:0:0:0:
115,114,196804,1,8,0:0:0:0:
112,87,196895,1,0,0:0:0:0:
112,87,196985,1,0,0:0:0:0:
112,87,197076,1,8,0:0:0:0:
112,87,197167,1,0,0:0:0:0:
112,87,197258,1,8,0:0:0:0:
112,87,197349,1,0,0:0:0:0:
112,87,197440,1,8,0:0:0:0:
112,87,197531,1,8,0:0:0:0:
112,87,197622,1,8,0:0:0:0:
112,87,197713,5,8,0:0:0:0:
80,128,197804,1,0,0:0:0:0:
88,112,197895,1,0,0:0:0:0:
80,128,197985,1,0,0:0:0:0:
88,112,198076,1,0,0:0:0:0:
88,200,198167,5,8,0:0:0:0:
144,168,198258,1,8,0:0:0:0:
144,168,198349,1,8,0:0:0:0:
144,168,198440,1,8,0:0:0:0:
144,168,198531,1,8,0:0:0:0:
144,168,198622,1,8,0:0:0:0:
144,168,198713,1,0,0:0:0:0:
144,168,198804,1,0,0:0:0:0:
144,168,198895,1,8,0:0:0:0:
144,168,198985,1,8,0:0:0:0:
144,168,199076,1,8,0:0:0:0:
144,168,199167,1,0,0:0:0:0:
144,168,199258,1,8,0:0:0:0:
144,168,199349,1,8,0:0:0:0:
144,168,199440,1,0,0:0:0:0:
144,168,199531,1,0,0:0:0:0:
144,168,199622,1,8,0:0:0:0:
144,168,199713,1,8,0:0:0:0:
144,168,199804,1,8,0:0:0:0:
144,168,199895,1,8,0:0:0:0:
144,168,199985,1,8,0:0:0:0:
144,168,200076,1,8,0:0:0:0:
144,168,200167,1,0,0:0:0:0:
144,168,200258,1,0,0:0:0:0:
144,168,200349,1,8,0:0:0:0:
144,168,200440,1,8,0:0:0:0:
144,168,200531,1,8,0:0:0:0:
144,168,200622,1,0,0:0:0:0:
144,168,200713,1,8,0:0:0:0:
144,168,200804,1,8,0:0:0:0:
144,168,200895,1,0,0:0:0:0:
144,168,200985,1,0,0:0:0:0:
144,168,201076,1,8,0:0:0:0:
144,168,201167,1,8,0:0:0:0:
144,168,201258,1,8,0:0:0:0:
144,168,201349,1,8,0:0:0:0:
144,168,201440,1,8,0:0:0:0:
144,168,201531,1,8,0:0:0:0:
144,168,201622,1,0,0:0:0:0:
144,168,201713,1,0,0:0:0:0:
144,168,201804,1,8,0:0:0:0:
144,168,201895,1,8,0:0:0:0:
144,168,201985,1,0,0:0:0:0:
144,168,202076,1,0,0:0:0:0:
144,168,202167,1,8,0:0:0:0:
144,168,202258,1,8,0:0:0:0:
144,168,202349,1,8,0:0:0:0:
144,168,202440,1,0,0:0:0:0:
144,168,202531,1,8,0:0:0:0:
144,168,202622,1,8,0:0:0:0:
144,168,202713,1,8,0:0:0:0:
144,168,202804,1,8,0:0:0:0:
144,168,202895,1,8,0:0:0:0:
144,168,202985,1,8,0:0:0:0:
144,168,203076,1,0,0:0:0:0:
144,168,203167,1,0,0:0:0:0:
144,168,203258,1,8,0:0:0:0:
144,168,203349,1,8,0:0:0:0:
144,168,203440,1,0,0:0:0:0:
144,168,203531,1,0,0:0:0:0:
144,168,203622,1,8,0:0:0:0:
144,168,203713,1,0,0:0:0:0:
144,168,203804,1,8,0:0:0:0:
144,168,203895,1,0,0:0:0:0:
144,168,203985,1,8,0:0:0:0:
144,168,204076,1,8,0:0:0:0:
144,168,204167,1,8,0:0:0:0:
144,168,204258,1,0,0:0:0:0:
144,168,204349,1,8,0:0:0:0:
144,168,204440,1,8,0:0:0:0:
144,168,204531,1,0,0:0:0:0:
144,168,204622,1,0,0:0:0:0:
144,168,204713,1,8,0:0:0:0:
144,168,204804,1,8,0:0:0:0:
144,168,204895,1,8,0:0:0:0:
144,168,204985,1,8,0:0:0:0:
144,168,205076,1,8,0:0:0:0:
144,168,205167,1,8,0:0:0:0:
144,168,205258,1,0,0:0:0:0:
144,168,205349,1,0,0:0:0:0:
144,168,205440,1,8,0:0:0:0:
144,168,205531,1,8,0:0:0:0:
144,168,205622,1,8,0:0:0:0:
144,168,205713,1,0,0:0:0:0:
144,168,205804,1,8,0:0:0:0:
144,168,205895,1,8,0:0:0:0:
144,168,205985,1,0,0:0:0:0:
144,168,206076,1,0,0:0:0:0:
144,168,206167,1,8,0:0:0:0:
144,168,206258,1,8,0:0:0:0:
144,168,206349,1,8,0:0:0:0:
144,168,206440,1,8,0:0:0:0:
144,168,206531,1,8,0:0:0:0:
144,168,206622,1,8,0:0:0:0:
144,168,206713,1,0,0:0:0:0:
144,168,206804,1,0,0:0:0:0:
144,168,206895,1,8,0:0:0:0:
144,168,206985,1,8,0:0:0:0:
144,168,207076,1,0,0:0:0:0:
144,168,207167,1,0,0:0:0:0:
144,168,207258,1,8,0:0:0:0:
144,168,207349,1,8,0:0:0:0:
144,168,207440,1,0,0:0:0:0:
144,168,207531,1,0,0:0:0:0:
144,168,207622,1,8,0:0:0:0:
144,168,207713,1,8,0:0:0:0:
144,168,207804,1,8,0:0:0:0:
144,168,207895,1,0,0:0:0:0:
144,168,207985,1,8,0:0:0:0:
144,168,208076,1,8,0:0:0:0:
144,168,208167,1,0,0:0:0:0:
88,128,208258,1,0,0:0:0:0:
144,168,208349,1,8,0:0:0:0:
144,168,208410,1,8,0:0:0:0:
109,153,208470,1,0,0:0:0:0:
109,153,208531,1,0,0:0:0:0:
144,168,208591,1,0,0:0:0:0:
107,156,208652,1,0,0:0:0:0:
400,288,208713,5,8,0:0:0:0:
400,288,208895,1,0,0:0:0:0:
400,288,208985,1,0,0:0:0:0:
400,288,209076,1,8,0:0:0:0:
312,248,209258,1,0,0:0:0:0:
272,224,209349,1,0,0:0:0:0:
232,200,209440,1,0,0:0:0:0:
184,176,209531,1,0,0:0:0:0:
136,152,209622,1,0,0:0:0:0:
136,152,209713,1,0,0:0:0:0:
195,220,209804,5,12,0:0:0:0:
158,172,210349,1,0,0:0:0:0:
158,172,210440,1,0,0:0:0:0:
158,172,210531,1,0,0:0:0:0:
120,160,210895,1,8,0:0:0:0:
120,160,211076,1,0,0:0:0:0:
120,160,211167,1,0,0:0:0:0:
120,160,211258,1,8,0:0:0:0:
120,160,211440,1,0,0:0:0:0:
120,160,211531,1,0,0:0:0:0:
120,160,211713,1,0,0:0:0:0:
120,160,211804,1,0,0:0:0:0:
120,160,211985,1,8,0:0:0:0:
120,160,212167,1,0,0:0:0:0:
120,160,212258,1,0,0:0:0:0:
120,160,212349,1,8,0:0:0:0:
120,160,212531,1,0,0:0:0:0:
120,160,212713,1,8,0:0:0:0:
112,152,212804,1,8,0:0:0:0:
96,144,212895,1,0,0:0:0:0:
104,160,212985,1,8,0:0:0:0:
104,160,213076,1,0,0:0:0:0:
96,144,213167,1,0,0:0:0:0:
96,144,213258,1,8,0:0:0:0:
96,144,213349,1,8,0:0:0:0:
96,144,213440,1,0,0:0:0:0:
96,144,213531,1,0,0:0:0:0:
96,144,213622,1,8,0:0:0:0:
96,144,213713,1,0,0:0:0:0:
96,144,213804,1,8,0:0:0:0:
96,144,213895,1,8,0:0:0:0:
104,160,213985,1,0,0:0:0:0:
96,144,214076,1,0,0:0:0:0:
120,160,214167,1,8,0:0:0:0:
96,152,214349,1,0,0:0:0:0:
104,120,214440,1,8,0:0:0:0:
112,144,214622,1,0,0:0:0:0:
112,144,214713,1,0,0:0:0:0:
104,120,214895,1,8,0:0:0:0:
104,120,215076,1,0,0:0:0:0:
104,120,215167,1,8,0:0:0:0:
112,144,215349,1,0,0:0:0:0:
112,144,215440,1,0,0:0:0:0:
112,144,215622,1,8,0:0:0:0:
112,144,215713,1,8,0:0:0:0:
112,144,215804,1,0,0:0:0:0:
112,144,215895,1,8,0:0:0:0:
112,144,215985,1,0,0:0:0:0:
112,144,216076,1,0,0:0:0:0:
112,144,216167,1,8,0:0:0:0:
112,144,216258,1,0,0:0:0:0:
112,144,216349,1,0,0:0:0:0:
112,144,216440,1,8,0:0:0:0:
112,144,216531,1,0,0:0:0:0:
112,144,216622,1,0,0:0:0:0:
112,144,216713,1,8,0:0:0:0:
112,144,216804,1,8,0:0:0:0:
112,144,216895,1,0,0:0:0:0:
112,144,216985,1,0,0:0:0:0:
112,144,217076,1,8,0:0:0:0:
200,186,217258,1,0,0:0:0:0:
160,152,217349,1,0,0:0:0:0:
216,168,217531,1,8,0:0:0:0:
286,228,217622,1,8,0:0:0:0:
286,228,217804,1,0,0:0:0:0:
200,186,217985,1,8,0:0:0:0:
160,152,218076,1,8,0:0:0:0:
128,120,218167,1,0,0:0:0:0:
80,120,218258,1,0,0:0:0:0:
200,186,218349,1,8,0:0:0:0:
200,186,218440,1,8,0:0:0:0:
200,186,218531,1,0,0:0:0:0:
37,213,218713,1,8,0:0:0:0:
37,213,218804,1,8,0:0:0:0:
37,213,218895,1,0,0:0:0:0:
37,213,218985,1,8,0:0:0:0:
51,213,219076,1,0,0:0:0:0:
65,213,219167,1,0,0:0:0:0:
83,143,219258,1,8,0:0:0:0:
160,80,219440,1,0,0:0:0:0:
83,143,219622,1,8,0:0:0:0:
128,128,219713,1,0,0:0:0:0:
176,112,219804,1,0,0:0:0:0:
280,168,219985,1,8,0:0:0:0:
184,160,220167,1,0,0:0:0:0:
136,152,220258,1,8,0:0:0:0:
136,152,220440,1,0,0:0:0:0:
136,152,220531,1,0,0:0:0:0:
136,152,220713,1,8,0:0:0:0:
40,152,220895,1,0,0:0:0:0:
8,112,220985,1,8,0:0:0:0:
8,112,221167,1,0,0:0:0:0:
8,112,221258,1,0,0:0:0:0:
56,211,221440,5,8,0:0:0:0:
56,211,221531,1,0,0:0:0:0:
56,211,221622,1,8,0:0:0:0:
56,211,221713,1,0,0:0:0:0:
56,211,221804,1,0,0:0:0:0:
56,211,221895,1,0,0:0:0:0:
56,211,221985,1,8,0:0:0:0:
56,211,222076,1,0,0:0:0:0:
56,211,222167,1,8,0:0:0:0:
56,211,222258,1,0,0:0:0:0:
56,211,222349,1,8,0:0:0:0:
56,211,222440,1,8,0:0:0:0:
56,211,222531,1,0,0:0:0:0:
56,211,222622,1,0,0:0:0:0:
59,214,222713,5,8,0:0:0:0:
63,160,222804,1,8,0:0:0:0:
188,160,222895,5,0,0:0:0:0:
188,160,222985,1,0,0:0:0:0:
188,160,223076,1,8,0:0:0:0:
188,160,223167,1,0,0:0:0:0:
188,160,223258,1,8,0:0:0:0:
188,160,223349,1,8,0:0:0:0:
188,160,223440,1,0,0:0:0:0:
188,160,223531,1,0,0:0:0:0:
188,160,223622,1,8,0:0:0:0:
188,160,223713,1,8,0:0:0:0:
188,160,223804,1,8,0:0:0:0:
188,160,223895,1,0,0:0:0:0:
188,160,223985,1,8,0:0:0:0:
188,160,224076,1,8,0:0:0:0:
188,160,224167,1,8,0:0:0:0:
188,160,224258,1,8,0:0:0:0:
188,160,224349,1,0,0:0:0:0:
188,160,224440,1,0,0:0:0:0:
188,160,224531,1,8,0:0:0:0:
188,160,224622,1,0,0:0:0:0:
188,160,224713,1,0,0:0:0:0:
188,160,224804,1,0,0:0:0:0:
188,160,224895,1,8,0:0:0:0:
188,160,224985,1,0,0:0:0:0:
188,160,225076,1,0,0:0:0:0:
188,160,225167,1,0,0:0:0:0:
188,160,225258,1,8,0:0:0:0:
188,160,225349,1,0,0:0:0:0:
188,160,225440,1,8,0:0:0:0:
188,160,225531,1,8,0:0:0:0:
188,160,225622,1,0,0:0:0:0:
80,147,225713,1,0,0:0:0:0:
80,147,225804,1,8,0:0:0:0:
112,192,225864,1,8,0:0:0:0:
133,205,225925,1,8,0:0:0:0:
133,205,225985,1,0,0:0:0:0:
133,205,226167,1,8,0:0:0:0:
170,115,226228,1,8,0:0:0:0:
133,205,226288,1,8,0:0:0:0:
133,205,226349,1,0,0:0:0:0:
159,213,226531,1,8,0:0:0:0:
175,217,226591,1,8,0:0:0:0:
167,215,226652,1,8,0:0:0:0:
183,219,226713,1,0,0:0:0:0:
183,219,226804,1,0,0:0:0:0:
183,219,226895,1,8,0:0:0:0:
152,176,226985,1,8,0:0:0:0:
183,219,227076,1,0,0:0:0:0:
144,176,227167,1,0,0:0:0:0:
112,136,227258,1,8,0:0:0:0:
112,136,227349,1,8,0:0:0:0:
112,136,227440,1,0,0:0:0:0:
112,136,227531,1,8,0:0:0:0:
112,136,227622,1,0,0:0:0:0:
112,136,227713,1,0,0:0:0:0:
112,136,227804,1,8,0:0:0:0:
112,136,227895,1,8,0:0:0:0:
112,136,227985,1,0,0:0:0:0:
112,136,228076,1,0,0:0:0:0:
112,136,228167,1,8,0:0:0:0:
164,114,228258,1,8,0:0:0:0:
216,168,228349,1,0,0:0:0:0:
312,208,228531,1,8,0:0:0:0:
264,192,228622,1,8,0:0:0:0:
216,176,228713,1,0,0:0:0:0:
160,176,228804,1,0,0:0:0:0:
104,184,228895,1,0,0:0:0:0:
104,184,228985,1,0,0:0:0:0:
104,184,229076,1,8,0:0:0:0:
104,184,229167,1,8,0:0:0:0:
104,184,229258,1,0,0:0:0:0:
104,184,229349,1,0,0:0:0:0:
104,184,229440,1,8,0:0:0:0:
104,184,229531,1,0,0:0:0:0:
104,184,229622,1,0,0:0:0:0:
104,184,229713,1,0,0:0:0:0:
104,184,229804,1,8,0:0:0:0:
104,184,229895,1,8,0:0:0:0:
104,184,229985,1,0,0:0:0:0:
104,184,230076,1,0,0:0:0:0:
320,304,230167,1,8,0:0:0:0:
320,304,230258,1,8,0:0:0:0:
320,304,230349,1,8,0:0:0:0:
320,304,230440,1,8,0:0:0:0:
320,304,230531,1,0,0:0:0:0:
320,304,230622,1,8,0:0:0:0:
320,304,230713,1,8,0:0:0:0:
320,304,230804,1,0,0:0:0:0:
320,304,230895,1,8,0:0:0:0:
320,304,230985,1,8,0:0:0:0:
320,304,231076,1,0,0:0:0:0:
144,120,231167,1,8,0:0:0:0:
240,232,231258,1,8,0:0:0:0:
200,200,231349,1,0,0:0:0:0:
160,168,231440,1,8,0:0:0:0:
144,120,231531,1,0,0:0:0:0:
144,120,231622,1,8,0:0:0:0:
144,120,231713,1,8,0:0:0:0:
144,120,231804,1,0,0:0:0:0:
104,160,231895,1,8,0:0:0:0:
136,120,231985,1,0,0:0:0:0:
136,120,232076,1,0,0:0:0:0:
136,120,232167,1,8,0:0:0:0:
136,120,232258,1,0,0:0:0:0:
136,120,232349,1,8,0:0:0:0:
136,120,232440,1,0,0:0:0:0:
136,120,232531,1,8,0:0:0:0:
136,120,232622,1,8,0:0:0:0:
136,120,232713,1,0,0:0:0:0:
136,120,232804,1,8,0:0:0:0:
136,120,232895,1,8,0:0:0:0:
136,120,232985,1,0,0:0:0:0:
136,120,233076,1,8,0:0:0:0:
136,120,233167,1,8,0:0:0:0:
136,120,233258,1,8,0:0:0:0:
136,120,233349,1,0,0:0:0:0:
176,160,233440,1,8,0:0:0:0:
208,208,233531,1,8,0:0:0:0:
176,160,233622,1,0,0:0:0:0:
208,208,233713,1,0,0:0:0:0:
320,320,233804,1,8,0:0:0:0:
352,360,233895,1,0,0:0:0:0:
104,152,233985,1,0,0:0:0:0:
104,152,234076,1,8,0:0:0:0:
248,240,234167,1,0,0:0:0:0:
200,208,234258,1,8,0:0:0:0:
152,176,234349,1,8,0:0:0:0:
104,152,234440,1,8,0:0:0:0:
240,264,234531,1,0,0:0:0:0:
104,152,234622,1,0,0:0:0:0:
240,264,234713,1,8,0:0:0:0:
240,264,234804,1,0,0:0:0:0:
240,264,234895,1,8,0:0:0:0:
240,264,234985,1,8,0:0:0:0:
240,264,235076,1,0,0:0:0:0:
192,224,235167,1,8,0:0:0:0:
240,264,235258,1,0,0:0:0:0:
240,264,235319,1,0,0:0:0:0:
240,264,235379,1,0,0:0:0:0:
240,264,235440,1,8,0:0:0:0:
208,224,235531,1,8,0:0:0:0:
240,264,235622,1,0,0:0:0:0:
192,232,235713,1,0,0:0:0:0:
168,184,235804,1,8,0:0:0:0:
136,144,235985,1,0,0:0:0:0:
240,264,236046,1,0,0:0:0:0:
240,264,236107,1,0,0:0:0:0:
240,264,236167,1,8,0:0:0:0:
240,264,236349,1,0,0:0:0:0:
240,264,236410,1,0,0:0:0:0:
240,264,236470,1,0,0:0:0:0:
240,264,236531,1,8,0:0:0:0:
96,152,236713,5,8,0:0:0:0:
96,152,236773,1,8,0:0:0:0:
96,152,236834,1,0,0:0:0:0:
96,152,236895,1,8,0:0:0:0:
96,152,236955,1,0,0:0:0:0:
96,152,237016,1,0,0:0:0:0:
96,152,237076,1,8,0:0:0:0:
147,114,237137,1,8,0:0:0:0:
96,152,237198,1,0,0:0:0:0:
200,176,237258,1,8,0:0:0:0:
304,208,237440,1,12,0:0:0:0:
240,192,238349,1,8,0:0:0:0:
240,192,238531,1,0,0:0:0:0:
240,192,238713,1,0,0:0:0:0:
240,192,238895,1,12,0:0:0:0:
240,192,239076,1,0,0:0:0:0:
240,192,239137,1,0,0:0:0:0:
240,192,239198,1,0,0:0:0:0:
240,192,239258,1,0,0:0:0:0:
240,192,239440,1,0,0:0:0:0:
240,192,239622,1,8,0:0:0:0:
240,192,239804,1,8,0:0:0:0:
240,192,240167,1,0,0:0:0:0:
176,176,240349,5,12,0:0:0:0:
8,8,240713,1,0,0:0:0:0:
88,96,240895,1,0,0:0:0:0:
176,176,241076,1,8,0:0:0:0:
176,176,241440,1,0,0:0:0:0:
176,176,241804,1,12,0:0:0:0:
176,176,241985,1,12,0:0:0:0:
88,136,242349,1,0,0:0:0:0:
88,136,242440,1,0,0:0:0:0:
78,167,242531,1,0,0:0:0:0:
187,210,242713,1,0,0:0:0:0:
77,166,242895,1,0,0:0:0:0:
402,303,243076,1,0,0:0:0:0:
216,168,243258,1,12,0:0:0:0:
160,168,243622,1,0,0:0:0:0:
128,168,243804,1,0,0:0:0:0:
128,168,243985,1,8,0:0:0:0:
128,168,244349,1,0,0:0:0:0:
152,176,244713,5,12,0:0:0:0:
152,176,244895,1,12,0:0:0:0:
296,360,245258,1,0,0:0:0:0:
256,312,245349,1,0,0:0:0:0:
72,144,245440,1,0,0:0:0:0:
96,152,245622,1,0,0:0:0:0:
112,176,245804,1,0,0:0:0:0:
72,144,245985,1,0,0:0:0:0:
152,176,246167,1,12,0:0:0:0:
152,176,246531,1,0,0:0:0:0:
152,176,246713,1,0,0:0:0:0:
152,176,246895,1,8,0:0:0:0:
152,176,247258,1,0,0:0:0:0:
176,176,247622,1,12,0:0:0:0:
176,176,247804,1,12,0:0:0:0:
88,136,248167,1,0,0:0:0:0:
88,136,248258,1,0,0:0:0:0:
78,167,248349,1,0,0:0:0:0:
187,210,248531,1,0,0:0:0:0:
77,166,248713,1,0,0:0:0:0:
402,303,248895,1,0,0:0:0:0:
216,168,249076,1,12,0:0:0:0:
160,168,249440,1,0,0:0:0:0:
128,168,249622,1,0,0:0:0:0:
128,168,249804,1,8,0:0:0:0:
128,168,250167,1,0,0:0:0:0:
176,176,250531,1,12,0:0:0:0:
176,176,250713,1,12,0:0:0:0:
88,136,251076,1,0,0:0:0:0:
88,136,251167,1,0,0:0:0:0:
78,167,251258,1,0,0:0:0:0:
187,210,251440,1,0,0:0:0:0:
77,166,251622,1,0,0:0:0:0:
402,303,251804,1,0,0:0:0:0:
216,168,251985,1,12,0:0:0:0:
160,168,252349,1,0,0:0:0:0:
128,168,252531,1,0,0:0:0:0:
128,168,252713,1,8,0:0:0:0:
128,168,253076,1,0,0:0:0:0:
176,176,253440,1,12,0:0:0:0:
176,176,253622,1,12,0:0:0:0:
88,136,253985,1,0,0:0:0:0:
88,136,254076,1,0,0:0:0:0:
78,167,254167,1,0,0:0:0:0:
187,210,254349,1,0,0:0:0:0:
77,166,254531,1,0,0:0:0:0:
402,303,254713,1,0,0:0:0:0:
216,168,254895,1,12,0:0:0:0:
160,168,255258,1,0,0:0:0:0:
128,168,255440,1,0,0:0:0:0:
128,168,255622,1,8,0:0:0:0:
128,168,255985,1,0,0:0:0:0:
176,176,256349,1,12,0:0:0:0:
176,176,256531,1,12,0:0:0:0:
88,136,256895,1,0,0:0:0:0:
88,136,256985,1,0,0:0:0:0:
78,167,257076,1,0,0:0:0:0:
187,210,257258,1,0,0:0:0:0:
77,166,257440,1,0,0:0:0:0:
402,303,257622,1,0,0:0:0:0:
216,168,257804,1,12,0:0:0:0:
160,168,258167,1,0,0:0:0:0:
128,168,258349,1,0,0:0:0:0:
128,168,258531,1,8,0:0:0:0:
128,168,258895,1,0,0:0:0:0:
176,176,259258,1,12,0:0:0:0:
176,176,259440,1,12,0:0:0:0:
88,136,259804,1,0,0:0:0:0:
78,167,259985,1,0,0:0:0:0:
187,210,260167,1,0,0:0:0:0:
77,166,260349,1,0,0:0:0:0:
402,303,260531,1,0,0:0:0:0:
216,168,260713,1,12,0:0:0:0:
160,168,261076,1,0,0:0:0:0:
128,168,261258,1,0,0:0:0:0:
128,168,261440,1,8,0:0:0:0:
128,168,261804,5,8,0:0:0:0:
96,160,262167,5,4,0:0:0:0:
124,124,262713,1,8,0:0:0:0:
124,124,262804,1,8,0:0:0:0:
124,124,262895,1,0,0:0:0:0:
124,124,262985,1,0,0:0:0:0:
124,124,263076,1,8,0:0:0:0:
124,124,263167,1,0,0:0:0:0:
124,124,263258,1,8,0:0:0:0:
124,124,263349,1,8,0:0:0:0:
124,124,263440,1,0,0:0:0:0:
124,124,263531,1,0,0:0:0:0:
168,240,263622,1,8,0:0:0:0:
168,240,263713,1,8,0:0:0:0:
168,240,263804,1,8,0:0:0:0:
168,240,263895,1,8,0:0:0:0:
168,240,263985,1,8,0:0:0:0:
168,240,264076,1,8,0:0:0:0:
168,240,264167,1,8,0:0:0:0:
168,240,264258,1,8,0:0:0:0:
168,240,264349,1,0,0:0:0:0:
168,240,264440,1,0,0:0:0:0:
168,240,264531,1,0,0:0:0:0:
168,240,264622,1,0,0:0:0:0:
168,240,264713,1,8,0:0:0:0:
168,240,264804,1,8,0:0:0:0:
168,240,264895,1,0,0:0:0:0:
168,240,264985,1,0,0:0:0:0:
168,240,265076,1,8,0:0:0:0:
168,240,265167,1,8,0:0:0:0:
168,240,265258,1,8,0:0:0:0:
168,240,265349,1,8,0:0:0:0:
168,240,265440,1,8,0:0:0:0:
168,240,265531,1,8,0:0:0:0:
168,240,265622,1,8,0:0:0:0:
168,240,265713,1,8,0:0:0:0:
168,240,265804,1,0,0:0:0:0:
168,240,265895,1,0,0:0:0:0:
168,240,265985,1,0,0:0:0:0:
168,240,266076,1,0,0:0:0:0:
168,240,266167,1,0,0:0:0:0:
168,240,266258,1,0,0:0:0:0:
168,240,266349,1,0,0:0:0:0:
168,240,266440,1,0,0:0:0:0:
168,240,266531,1,8,0:0:0:0:
168,240,266622,1,8,0:0:0:0:
168,240,266713,1,8,0:0:0:0:
168,240,266804,1,8,0:0:0:0:
168,240,266895,1,8,0:0:0:0:
168,240,266985,1,8,0:0:0:0:
168,240,267076,1,8,0:0:0:0:
168,240,267167,1,8,0:0:0:0:
168,240,267258,1,0,0:0:0:0:
168,240,267349,1,0,0:0:0:0:
168,240,267440,1,0,0:0:0:0:
168,240,267531,1,0,0:0:0:0:
168,240,267622,1,8,0:0:0:0:
168,240,267713,1,8,0:0:0:0:
168,240,267804,1,8,0:0:0:0:
168,240,267895,1,8,0:0:0:0:
168,240,267985,1,0,0:0:0:0:
168,240,268076,1,0,0:0:0:0:
168,240,268167,1,8,0:0:0:0:
168,240,268258,1,0,0:0:0:0:
168,240,268349,1,8,0:0:0:0:
168,240,268440,1,8,0:0:0:0:
168,240,268531,1,0,0:0:0:0:
168,240,268622,1,0,0:0:0:0:
168,240,268713,1,8,0:0:0:0:
168,240,268804,1,8,0:0:0:0:
168,240,268895,1,8,0:0:0:0:
168,240,268985,1,8,0:0:0:0:
168,240,269076,1,8,0:0:0:0:
168,240,269167,1,8,0:0:0:0:
168,240,269258,1,0,0:0:0:0:
168,240,269349,1,0,0:0:0:0:
168,240,269440,1,8,0:0:0:0:
168,240,269531,1,8,0:0:0:0:
168,240,269622,1,8,0:0:0:0:
168,240,269713,1,8,0:0:0:0:
168,240,269804,1,8,0:0:0:0:
168,240,269895,1,8,0:0:0:0:
168,240,269985,1,8,0:0:0:0:
168,240,270076,1,8,0:0:0:0:
168,240,270167,1,0,0:0:0:0:
168,240,270258,1,0,0:0:0:0:
168,240,270349,1,0,0:0:0:0:
168,240,270440,1,0,0:0:0:0:
168,240,270531,1,8,0:0:0:0:
168,240,270622,1,8,0:0:0:0:
168,240,270713,1,0,0:0:0:0:
168,240,270804,1,0,0:0:0:0:
168,240,270895,1,8,0:0:0:0:
168,240,270985,1,8,0:0:0:0:
168,240,271076,1,8,0:0:0:0:
168,240,271167,1,8,0:0:0:0:
168,240,271258,1,8,0:0:0:0:
168,240,271349,1,8,0:0:0:0:
168,240,271440,1,8,0:0:0:0:
168,240,271531,1,8,0:0:0:0:
168,240,271622,1,0,0:0:0:0:
168,240,271713,1,0,0:0:0:0:
168,240,271804,1,0,0:0:0:0:
168,240,271895,1,0,0:0:0:0:
168,240,271985,1,0,0:0:0:0:
168,240,272076,1,0,0:0:0:0:
168,240,272167,1,0,0:0:0:0:
168,240,272258,1,0,0:0:0:0:
168,240,272349,1,8,0:0:0:0:
168,240,272440,1,8,0:0:0:0:
168,240,272531,1,8,0:0:0:0:
168,240,272622,1,8,0:0:0:0:
168,240,272713,1,0,0:0:0:0:
168,240,272804,1,0,0:0:0:0:
168,240,272895,1,8,0:0:0:0:
168,240,272985,1,0,0:0:0:0:
168,240,273076,1,8,0:0:0:0:
168,240,273167,1,8,0:0:0:0:
168,240,273258,1,0,0:0:0:0:
168,240,273349,1,0,0:0:0:0:
168,240,273440,1,8,0:0:0:0:
168,240,273531,1,8,0:0:0:0:
168,240,273622,1,8,0:0:0:0:
168,240,273713,1,8,0:0:0:0:
168,240,273804,1,0,0:0:0:0:
168,240,273895,1,0,0:0:0:0:
168,240,273985,1,0,0:0:0:0:
168,240,274076,1,0,0:0:0:0:
168,240,274167,1,8,0:0:0:0:
168,240,274258,1,8,0:0:0:0:
168,240,274349,1,8,0:0:0:0:
168,240,274440,1,8,0:0:0:0:
168,240,274531,1,0,0:0:0:0:
168,240,274622,1,0,0:0:0:0:
168,240,274713,1,8,0:0:0:0:
168,240,274804,1,0,0:0:0:0:
168,240,274895,1,8,0:0:0:0:
168,240,274985,1,8,0:0:0:0:
168,240,275076,1,0,0:0:0:0:
168,240,275167,1,0,0:0:0:0:
168,240,275258,1,8,0:0:0:0:
168,240,275349,1,0,0:0:0:0:
168,240,275440,1,0,0:0:0:0:
168,240,275531,1,0,0:0:0:0:
168,240,275622,1,8,0:0:0:0:
168,240,275713,1,0,0:0:0:0:
168,240,275804,1,0,0:0:0:0:
168,240,275895,1,0,0:0:0:0:
168,240,275985,1,8,0:0:0:0:
168,240,276167,1,0,0:0:0:0:
168,240,276258,1,0,0:0:0:0:
168,240,276349,1,8,0:0:0:0:
168,240,276531,1,0,0:0:0:0:
168,240,276713,1,12,0:0:0:0:
168,240,277076,1,0,0:0:0:0:
168,240,277167,1,0,0:0:0:0:
168,240,277258,1,0,0:0:0:0:
168,240,277349,1,0,0:0:0:0:
168,240,277440,1,8,0:0:0:0:
168,240,277622,1,0,0:0:0:0:
168,240,277713,1,0,0:0:0:0:
168,240,277804,1,8,0:0:0:0:
168,240,277985,1,0,0:0:0:0:
168,240,278167,1,8,0:0:0:0:
64,161,278258,1,8,0:0:0:0:
64,161,278349,1,8,0:0:0:0:
64,161,278440,1,8,0:0:0:0:
64,161,278531,1,0,0:0:0:0:
64,161,278622,1,0,0:0:0:0:
168,240,278713,1,0,0:0:0:0:
168,240,278804,1,0,0:0:0:0:
168,240,278895,1,8,0:0:0:0:
64,161,278985,1,8,0:0:0:0:
64,161,279076,1,8,0:0:0:0:
168,240,279167,1,8,0:0:0:0:
168,240,279258,1,0,0:0:0:0:
168,240,279349,1,0,0:0:0:0:
168,240,279440,1,8,0:0:0:0:
168,240,279531,1,0,0:0:0:0:
168,240,279622,1,8,0:0:0:0:
168,240,279713,1,8,0:0:0:0:
168,240,279804,1,0,0:0:0:0:
168,240,279895,1,0,0:0:0:0:
168,240,279985,1,8,0:0:0:0:
168,240,280076,1,8,0:0:0:0:
168,240,280167,1,0,0:0:0:0:
168,240,280258,1,0,0:0:0:0:
168,240,280349,1,8,0:0:0:0:
168,240,280440,1,8,0:0:0:0:
168,240,280531,1,0,0:0:0:0:
168,240,280622,1,0,0:0:0:0:
168,240,280713,1,8,0:0:0:0:
168,240,280804,1,0,0:0:0:0:
168,240,280895,1,8,0:0:0:0:
168,240,280985,1,0,0:0:0:0:
168,240,281076,1,8,0:0:0:0:
168,240,281167,1,8,0:0:0:0:
168,240,281258,1,8,0:0:0:0:
168,240,281349,1,8,0:0:0:0:
168,240,281440,1,0,0:0:0:0:
168,240,281531,1,0,0:0:0:0:
168,240,281622,1,0,0:0:0:0:
168,240,281713,1,0,0:0:0:0:
168,240,281804,1,8,0:0:0:0:
168,240,281895,1,8,0:0:0:0:
168,240,281985,1,8,0:0:0:0:
168,240,282076,1,8,0:0:0:0:
168,240,282167,1,0,0:0:0:0:
168,240,282258,1,0,0:0:0:0:
168,240,282349,1,0,0:0:0:0:
168,240,282440,1,0,0:0:0:0:
168,240,282531,1,8,0:0:0:0:
168,240,282622,1,8,0:0:0:0:
168,240,282713,1,8,0:0:0:0:
168,240,282804,1,8,0:0:0:0:
168,240,282895,1,8,0:0:0:0:
168,240,282985,1,8,0:0:0:0:
168,240,283076,1,8,0:0:0:0:
168,240,283167,1,8,0:0:0:0:
168,240,283258,1,8,0:0:0:0:
168,240,283349,1,8,0:0:0:0:
168,240,283440,1,0,0:0:0:0:
168,240,283622,1,8,0:0:0:0:
145,144,283804,1,0,0:0:0:0:
157,191,283895,1,0,0:0:0:0:
183,203,283985,1,8,0:0:0:0:
118,130,284167,1,0,0:0:0:0:
216,240,284258,1,0,0:0:0:0:
151,167,284440,1,8,0:0:0:0:
151,167,284531,1,0,0:0:0:0:
151,167,284622,1,0,0:0:0:0:
151,167,284713,1,8,0:0:0:0:
151,167,284895,1,0,0:0:0:0:
151,167,284985,1,0,0:0:0:0:
103,177,285167,1,8,0:0:0:0:
7,197,285258,1,0,0:0:0:0:
103,177,285440,1,8,0:0:0:0:
103,177,285531,1,0,0:0:0:0:
103,177,285622,1,8,0:0:0:0:
103,177,285713,1,8,0:0:0:0:
103,177,285804,1,0,0:0:0:0:
103,177,285895,1,0,0:0:0:0:
103,177,285985,1,8,0:0:0:0:
103,177,286167,1,8,0:0:0:0:
103,177,286349,1,0,0:0:0:0:
103,177,286440,1,0,0:0:0:0:
103,177,286622,1,8,0:0:0:0:
103,177,286713,1,0,0:0:0:0:
103,177,286895,1,8,0:0:0:0:
100,128,286985,1,8,0:0:0:0:
102,78,287076,1,8,0:0:0:0:
100,127,287167,1,8,0:0:0:0:
102,78,287258,1,0,0:0:0:0:
100,127,287349,1,0,0:0:0:0:
102,77,287440,1,0,0:0:0:0:
100,126,287531,1,0,0:0:0:0:
102,76,287622,1,8,0:0:0:0:
102,78,287713,1,8,0:0:0:0:
102,78,287804,1,8,0:0:0:0:
102,78,287895,1,0,0:0:0:0:
102,78,287985,1,8,0:0:0:0:
102,78,288076,1,8,0:0:0:0:
102,78,288167,1,0,0:0:0:0:
102,77,288258,1,0,0:0:0:0:
102,77,288349,1,8,0:0:0:0:
136,112,288440,1,8,0:0:0:0:
169,147,288531,1,8,0:0:0:0:
203,182,288622,1,8,0:0:0:0:
236,217,288713,1,8,0:0:0:0:
236,217,288804,1,8,0:0:0:0:
236,217,288895,1,8,0:0:0:0:
236,217,288985,1,8,0:0:0:0:
373,359,289076,1,0,0:0:0:0:
236,217,289167,1,0,0:0:0:0:
236,217,289258,1,0,0:0:0:0:
236,217,289349,1,0,0:0:0:0:
236,217,289440,1,8,0:0:0:0:
189,200,289531,1,0,0:0:0:0:
142,183,289622,1,8,0:0:0:0:
142,183,289713,1,0,0:0:0:0:
142,183,289804,1,8,0:0:0:0:
142,183,289895,1,8,0:0:0:0:
94,193,289985,1,8,0:0:0:0:
94,193,290076,1,8,0:0:0:0:
94,193,290167,1,8,0:0:0:0:
94,193,290258,1,8,0:0:0:0:
94,193,290349,1,8,0:0:0:0:
94,193,290440,1,8,0:0:0:0:
94,193,290531,1,0,0:0:0:0:
94,193,290622,1,0,0:0:0:0:
94,193,290713,1,0,0:0:0:0:
94,193,290804,1,0,0:0:0:0:
94,193,290895,1,0,0:0:0:0:
94,193,290985,1,0,0:0:0:0:
94,193,291076,1,8,0:0:0:0:
94,193,291167,1,8,0:0:0:0:
94,193,291258,1,0,0:0:0:0:
94,193,291349,1,0,0:0:0:0:
94,193,291440,1,0,0:0:0:0:
94,193,291531,1,0,0:0:0:0:
94,193,291622,1,8,0:0:0:0:
94,193,291713,1,0,0:0:0:0:
94,193,291804,1,0,0:0:0:0:
94,193,291895,1,0,0:0:0:0:
94,193,291985,1,8,0:0:0:0:
94,193,292076,1,0,0:0:0:0:
94,193,292167,1,0,0:0:0:0:
94,193,292258,1,0,0:0:0:0:
94,193,292349,1,8,0:0:0:0:
94,193,292440,1,8,0:0:0:0:
94,193,292531,1,0,0:0:0:0:
94,193,292622,1,0,0:0:0:0:
94,193,292713,1,8,0:0:0:0:
104,144,292804,1,8,0:0:0:0:
96,192,292895,1,8,0:0:0:0:
96,192,292985,1,8,0:0:0:0:
96,192,293076,1,8,0:0:0:0:
96,192,293167,1,8,0:0:0:0:
96,192,293258,1,0,0:0:0:0:
96,192,293349,1,0,0:0:0:0:
96,192,293440,1,8,0:0:0:0:
96,192,293531,1,8,0:0:0:0:
96,192,293622,1,8,0:0:0:0:
96,192,293713,1,8,0:0:0:0:
96,192,293804,1,8,0:0:0:0:
96,192,293895,1,8,0:0:0:0:
96,192,293985,1,8,0:0:0:0:
96,192,294076,1,8,0:0:0:0:
96,192,294167,1,0,0:0:0:0:
96,192,294258,1,0,0:0:0:0:
96,192,294349,1,0,0:0:0:0:
96,192,294440,1,0,0:0:0:0:
96,192,294531,1,0,0:0:0:0:
96,192,294622,1,0,0:0:0:0:
96,192,294713,1,0,0:0:0:0:
96,192,294804,1,0,0:0:0:0:
24,144,294895,5,8,0:0:0:0:
144,176,295076,5,0,0:0:0:0:
144,176,295167,1,0,0:0:0:0:
144,176,295258,1,0,0:0:0:0:
144,176,295349,1,0,0:0:0:0:
144,176,295440,1,0,0:0:0:0:
144,176,295531,1,0,0:0:0:0:
48,224,295622,5,12,0:0:0:0:
152,216,295804,1,0,0:0:0:0:
152,216,295895,1,0,0:0:0:0:
152,208,296076,1,8,0:0:0:0:
152,208,296167,1,0,0:0:0:0:
152,208,296258,1,0,0:0:0:0:
152,208,296349,1,8,0:0:0:0:
128,88,296531,1,0,0:0:0:0:
136,96,296622,1,0,0:0:0:0:
128,88,296804,1,8,0:0:0:0:
128,88,296895,1,0,0:0:0:0:
128,88,297076,1,8,0:0:0:0:
136,96,297258,1,0,0:0:0:0:
136,96,297349,1,0,0:0:0:0:
128,88,297531,1,8,0:0:0:0:
128,88,297622,1,0,0:0:0:0:
128,88,297713,1,0,0:0:0:0:
128,88,297804,1,8,0:0:0:0:
168,168,297985,1,0,0:0:0:0:
168,168,298167,1,8,0:0:0:0:
168,168,298258,1,8,0:0:0:0:
168,168,298349,1,0,0:0:0:0:
168,168,298440,1,0,0:0:0:0:
168,168,298531,1,8,0:0:0:0:
109,166,298622,1,8,0:0:0:0:
50,166,298713,1,8,0:0:0:0:
108,166,298804,1,8,0:0:0:0:
50,155,298895,1,0,0:0:0:0:
104,168,298985,1,0,0:0:0:0:
164,177,299076,1,8,0:0:0:0:
104,168,299167,1,0,0:0:0:0:
48,152,299258,1,8,0:0:0:0:
104,168,299349,1,8,0:0:0:0:
48,152,299440,1,8,0:0:0:0:
104,168,299531,1,8,0:0:0:0:
160,192,299622,1,0,0:0:0:0:
114,135,299713,1,0,0:0:0:0:
56,144,299804,1,0,0:0:0:0:
114,135,299895,1,0,0:0:0:0:
39,163,299985,1,8,0:0:0:0:
39,163,300167,1,0,0:0:0:0:
39,163,300228,1,0,0:0:0:0:
39,163,300288,1,0,0:0:0:0:
39,163,300349,1,8,0:0:0:0:
152,184,300531,1,0,0:0:0:0:
174,211,300713,5,12,0:0:0:0:
104,112,300895,1,0,0:0:0:0:
176,208,301076,1,0,0:0:0:0:
104,120,301258,1,0,0:0:0:0:
48,224,301440,1,12,0:0:0:0:
56,168,301804,1,8,0:0:0:0:
56,168,301985,1,0,0:0:0:0:
56,168,302076,1,0,0:0:0:0:
56,168,302167,1,8,0:0:0:0:
168,128,302349,1,4,0:0:0:0:
48,120,302531,1,8,0:0:0:0:
168,112,302713,1,0,0:0:0:0:
48,120,302895,1,12,0:0:0:0:
104,144,303258,1,8,0:0:0:0:
40,40,303440,1,0,0:0:0:0:
72,88,303531,1,0,0:0:0:0:
104,136,303622,1,8,0:0:0:0:
83,232,303804,1,0,0:0:0:0:
40,192,303985,1,8,0:0:0:0:
24,72,304167,1,8,0:0:0:0:
40,192,304349,1,4,0:0:0:0:
40,192,304531,1,0,0:0:0:0:
40,192,304713,1,8,0:0:0:0:
128,176,304895,1,0,0:0:0:0:
128,176,304955,1,0,0:0:0:0:
128,176,305016,1,0,0:0:0:0:
128,176,305076,1,8,0:0:0:0:
128,176,305258,1,4,0:0:0:0:
128,176,305622,1,4,0:0:0:0:
128,176,305804,1,12,0:0:0:0:
96,136,305985,1,0,0:0:0:0:
96,136,306076,1,0,0:0:0:0:
96,136,306167,1,8,0:0:0:0:
96,136,306349,1,0,0:0:0:0:
96,136,306440,1,0,0:0:0:0:
96,136,306531,1,0,0:0:0:0:
128,176,306713,1,0,0:0:0:0:
128,176,306804,1,0,0:0:0:0:
56,168,306895,1,8,0:0:0:0:
56,168,307076,1,0,0:0:0:0:
56,168,307167,1,0,0:0:0:0:
56,168,307258,1,12,0:0:0:0:
16,160,307622,1,8,0:0:0:0:
56,168,307804,1,0,0:0:0:0:
56,168,307864,1,0,0:0:0:0:
56,168,307925,1,0,0:0:0:0:
56,168,307985,1,8,0:0:0:0:
48,144,308167,1,4,0:0:0:0:
48,144,308531,1,4,0:0:0:0:
48,144,308713,1,12,0:0:0:0:
48,144,309076,1,8,0:0:0:0:
40,120,309258,1,0,0:0:0:0:
40,120,309349,1,0,0:0:0:0:
40,120,309440,1,8,0:0:0:0:
144,184,309622,1,8,0:0:0:0:
48,144,309804,1,0,0:0:0:0:
152,200,309985,1,0,0:0:0:0:
16,144,310167,1,8,0:0:0:0:
16,144,310258,1,0,0:0:0:0:
16,144,310349,1,0,0:0:0:0:
16,144,310440,1,0,0:0:0:0:
16,144,310531,1,0,0:0:0:0:
16,144,310622,1,0,0:0:0:0:
16,144,310713,1,8,0:0:0:0:
16,144,310804,1,0,0:0:0:0:
16,144,310895,1,8,0:0:0:0:
16,144,310985,1,8,0:0:0:0:
16,144,311076,1,0,0:0:0:0:
16,144,311167,1,0,0:0:0:0:
16,144,311258,1,8,0:0:0:0:
16,144,311349,1,8,0:0:0:0:
16,144,311440,1,0,0:0:0:0:
16,144,311531,1,0,0:0:0:0:
16,144,311622,1,8,0:0:0:0:
70,166,311713,1,8,0:0:0:0:
70,166,311804,1,8,0:0:0:0:
70,166,311895,1,8,0:0:0:0:
70,166,311985,1,0,0:0:0:0:
70,166,312076,1,0,0:0:0:0:
342,276,312167,1,8,0:0:0:0:
287,253,312258,1,8,0:0:0:0:
232,231,312349,1,8,0:0:0:0:
177,209,312440,1,8,0:0:0:0:
122,186,312531,1,0,0:0:0:0:
67,164,312622,1,0,0:0:0:0:
67,164,312713,1,8,0:0:0:0:
67,164,312804,1,8,0:0:0:0:
67,164,312895,1,0,0:0:0:0:
67,164,312985,1,0,0:0:0:0:
67,164,313076,1,8,0:0:0:0:
67,164,313167,1,8,0:0:0:0:
67,164,313258,1,8,0:0:0:0:
67,164,313349,1,8,0:0:0:0:
67,164,313440,1,0,0:0:0:0:
67,164,313531,1,0,0:0:0:0:
67,164,313622,1,8,0:0:0:0:
67,164,313713,1,8,0:0:0:0:
67,164,313804,1,0,0:0:0:0:
67,164,313895,1,0,0:0:0:0:
67,164,313985,1,8,0:0:0:0:
67,164,314076,1,0,0:0:0:0:
67,164,314167,1,0,0:0:0:0:
67,164,314258,1,0,0:0:0:0:
67,164,314349,1,8,0:0:0:0:
67,164,314440,1,0,0:0:0:0:
67,164,314531,1,8,0:0:0:0:
112,128,314622,1,8,0:0:0:0:
88,120,314713,1,0,0:0:0:0:
88,120,314804,1,0,0:0:0:0:
88,120,314895,1,8,0:0:0:0:
88,120,314985,1,8,0:0:0:0:
88,120,315076,1,0,0:0:0:0:
88,120,315167,1,0,0:0:0:0:
104,96,315258,1,8,0:0:0:0:
104,96,315349,1,8,0:0:0:0:
104,96,315440,1,8,0:0:0:0:
104,96,315531,1,8,0:0:0:0:
104,96,315622,1,0,0:0:0:0:
104,96,315713,1,0,0:0:0:0:
104,96,315804,1,0,0:0:0:0:
104,96,315895,1,0,0:0:0:0:
67,164,315985,1,8,0:0:0:0:
67,164,316076,1,0,0:0:0:0:
67,164,316167,1,8,0:0:0:0:
67,164,316258,1,8,0:0:0:0:
67,164,316349,1,0,0:0:0:0:
67,164,316440,1,0,0:0:0:0:
67,164,316531,1,8,0:0:0:0:
67,164,316622,1,0,0:0:0:0:
67,164,316713,1,0,0:0:0:0:
67,164,316804,1,0,0:0:0:0:
67,164,316895,1,8,0:0:0:0:
67,164,316985,1,0,0:0:0:0:
67,164,317076,1,8,0:0:0:0:
67,164,317167,1,8,0:0:0:0:
67,164,317258,1,0,0:0:0:0:
67,164,317349,1,0,0:0:0:0:
67,164,317440,1,8,0:0:0:0:
128,160,317531,1,8,0:0:0:0:
72,144,317622,1,8,0:0:0:0:
16,128,317713,1,8,0:0:0:0:
72,144,317804,1,0,0:0:0:0:
16,128,317895,1,0,0:0:0:0:
72,144,317985,1,0,0:0:0:0:
16,128,318076,1,0,0:0:0:0:
304,200,318167,1,8,0:0:0:0:
16,128,318258,1,8,0:0:0:0:
16,128,318349,1,8,0:0:0:0:
16,128,318440,1,0,0:0:0:0:
112,144,318531,1,8,0:0:0:0:
112,144,318622,1,8,0:0:0:0:
112,144,318713,1,0,0:0:0:0:
112,144,318804,1,0,0:0:0:0:
67,164,318895,1,8,0:0:0:0:
67,164,318985,1,8,0:0:0:0:
67,164,319076,1,8,0:0:0:0:
67,164,319167,1,8,0:0:0:0:
67,164,319258,1,0,0:0:0:0:
67,164,319349,1,0,0:0:0:0:
67,164,319440,1,8,0:0:0:0:
67,164,319531,1,8,0:0:0:0:
67,164,319622,1,0,0:0:0:0:
67,164,319713,1,0,0:0:0:0:
67,164,319804,1,8,0:0:0:0:
67,164,319895,1,0,0:0:0:0:
67,164,319985,1,0,0:0:0:0:
67,164,320076,1,0,0:0:0:0:
67,164,320167,1,8,0:0:0:0:
67,164,320258,1,0,0:0:0:0:
67,164,320349,1,8,0:0:0:0:
112,128,320440,1,8,0:0:0:0:
88,120,320531,1,0,0:0:0:0:
88,120,320622,1,0,0:0:0:0:
88,120,320713,1,8,0:0:0:0:
88,120,320804,1,8,0:0:0:0:
88,120,320895,1,0,0:0:0:0:
88,120,320985,1,0,0:0:0:0:
104,96,321076,1,8,0:0:0:0:
104,96,321167,1,8,0:0:0:0:
104,96,321258,1,8,0:0:0:0:
104,96,321349,1,8,0:0:0:0:
104,96,321440,1,0,0:0:0:0:
104,96,321531,1,0,0:0:0:0:
104,96,321622,1,0,0:0:0:0:
104,96,321713,1,0,0:0:0:0:
67,164,321804,1,8,0:0:0:0:
168,224,321985,1,0,0:0:0:0:
120,192,322076,1,0,0:0:0:0:
64,168,322167,1,0,0:0:0:0:
8,168,322258,1,0,0:0:0:0:
64,176,322349,1,0,0:0:0:0:
8,168,322440,1,0,0:0:0:0:
296,120,322531,1,12,0:0:0:0:
120,160,322804,1,4,0:0:0:0:
120,160,322985,1,12,0:0:0:0:
120,160,323076,1,4,0:0:0:0:
6,193,323258,5,12,0:0:0:0:
33,190,323440,1,0,0:0:0:0:
33,190,323531,1,0,0:0:0:0:
33,190,323713,1,0,0:0:0:0:
33,190,323804,1,0,0:0:0:0:
33,190,323895,1,0,0:0:0:0:
33,190,323985,1,8,0:0:0:0:
33,190,324076,1,8,0:0:0:0:
