osu file format v14

[General]
AudioFilename: audio.mp3
AudioLeadIn: 0
PreviewTime: 126227
Countdown: 0
SampleSet: Drum
StackLeniency: 0.3
Mode: 0
LetterboxInBreaks: 0
WidescreenStoryboard: 1

[Editor]
Bookmarks: 14955,23682,45500,47682,52045,78227,97864,104409,121864,129500,131682,140409,149136,172045,180773,200409,215682,235318,241864,259318,269136
DistanceSpacing: 2.4
BeatDivisor: 3
GridSize: 4
TimelineZoom: 1.9

[Metadata]
Title:Jikininki
TitleUnicode:Jikininki
Artist:Whispered
ArtistUnicode:Whispered
Creator:MrKosiej
Version:mithew's Extra
Source:
Tags:english death power itswinter silence player melodic metal Shogunate Macabre LMT mithew Maakkeli Makeli MKL
BeatmapID:1614500
BeatmapSetID:750201

[Difficulty]
HPDrainRate:6.2
CircleSize:4
OverallDifficulty:8.5
ApproachRate:9.5
SliderMultiplier:1.75
SliderTickRate:1

[Events]
//Background and Video events
0,0,"3l9kVQi.jpg",0,0
//Break Periods
2,48018,50430
//Storyboard Layer 0 (Background)
//Storyboard Layer 1 (Fail)
//Storyboard Layer 2 (Pass)
//Storyboard Layer 3 (Foreground)
//Storyboard Layer 4 (Overlay)
//Storyboard Sound Samples

[TimingPoints]
14955,272.727272727273,4,3,1,60,1,0
14955,-80,4,3,1,60,0,0
15568,-80,4,1,1,5,0,0
15636,-80,4,3,1,60,0,0
15705,-80,4,1,1,5,0,0
15773,-80,4,3,1,60,0,0
16318,-80,4,1,1,5,0,0
18227,-100,4,3,1,60,0,0
18636,-80,4,3,1,60,0,0
18976,-80,4,3,1,5,0,0
19045,-80,4,3,1,60,0,0
19932,-80,4,1,1,5,0,0
20000,-80,4,3,1,60,0,0
20681,-80,4,1,1,5,0,0
23136,-500,4,3,10,60,0,0
23545,-500,4,1,10,5,0,0
23682,-90.9090909090909,4,3,1,60,0,0
32614,-90.9090909090909,4,1,1,5,0,0
32682,-90.9090909090909,4,3,1,60,0,0
42636,-90.9090909090909,4,3,8,60,0,0
42909,-90.9090909090909,4,3,1,60,0,0
43455,-90.9090909090909,4,3,8,60,0,0
43727,-90.9090909090909,4,3,9,60,0,0
43864,-90.9090909090909,4,3,1,60,0,0
44682,-133.333333333333,4,3,1,60,0,0
44818,-90.9090909090909,4,3,1,60,0,0
45091,-100,4,3,1,60,0,0
45227,-133.333333333333,4,3,1,60,0,0
45364,-200,4,3,1,60,0,0
45500,-90.9090909090909,4,3,1,80,0,0
45704,-90.9090909090909,4,3,1,5,0,0
45773,-90.9090909090909,4,3,1,80,0,0
46522,-90.9090909090909,4,3,1,5,0,0
46591,-90.9090909090909,4,3,1,80,0,0
47682,-90.9090909090909,4,3,1,60,0,0
51500,-133.333333333333,4,3,8,60,0,0
51773,-133.333333333333,4,3,9,60,0,0
51909,-133.333333333333,4,3,10,60,0,0
52045,-100,4,3,1,60,0,0
59682,-100,4,3,8,60,0,0
59818,-100,4,3,1,60,0,0
59955,-100,4,3,9,60,0,0
60091,-100,4,3,1,60,0,0
60227,-133.333333333333,4,3,10,60,0,0
60364,-133.333333333333,4,3,1,60,0,0
60500,-133.333333333333,4,3,10,60,0,0
60636,-133.333333333333,4,3,1,60,0,0
60773,-200,4,3,1,60,0,0
61727,-200,4,3,1,5,0,0
61864,-200,4,3,1,60,0,0
62818,-200,4,3,1,5,0,0
62955,-200,4,3,1,60,0,0
65136,-100,4,3,1,60,0,0
66773,-100,4,3,8,60,0,0
66909,-100,4,3,1,60,0,0
67045,-100,4,3,9,60,0,0
67181,-100,4,3,10,60,0,0
67317,-100,4,3,1,60,0,0
71136,-100,4,3,8,60,0,0
71409,-100,4,3,9,60,0,0
71682,-100,4,3,1,60,0,0
75500,-100,4,3,8,60,0,0
75636,-100,4,3,1,60,0,0
75773,-100,4,3,9,60,0,0
75909,-100,4,3,10,60,0,0
76045,-100,4,3,1,60,0,0
77682,-133.333333333333,4,3,1,60,0,0
78227,-100,4,3,1,60,0,0
79932,-100,4,1,1,5,0,0
80000,-100,4,3,1,60,0,0
80136,-100,4,3,8,60,0,0
80273,-100,4,3,9,60,0,0
80409,-100,4,3,1,60,0,0
83477,-100,4,1,1,5,0,0
83545,-100,4,3,1,60,0,0
86273,-100,4,3,8,60,0,0
86545,-100,4,3,1,60,0,0
86682,-100,4,3,9,60,0,0
86955,-100,4,3,1,60,0,0
88659,-100,4,1,1,5,0,0
88727,-100,4,3,1,60,0,0
88864,-100,4,3,8,60,0,0
89136,-100,4,3,1,60,0,0
91795,-100,4,3,1,5,0,0
91864,-100,4,3,1,60,0,0
96500,-100,4,3,8,60,0,0
96773,-100,4,3,1,60,0,0
97045,-100,4,3,9,60,0,0
97318,-100,4,3,1,60,0,0
97591,-100,4,3,10,60,0,0
97864,-200,4,3,1,60,0,0
103864,-133.333333333333,4,3,1,60,0,0
104409,-83.3333333333333,4,3,1,60,0,1
104614,-83.3333333333333,4,1,1,5,0,1
104682,-83.3333333333333,4,3,1,60,0,1
104955,-76.9230769230769,4,3,1,60,0,1
105159,-83.3333333333333,4,1,1,5,0,1
105227,-83.3333333333333,4,3,1,60,0,1
105500,-71.4285714285714,4,3,1,60,0,1
105705,-83.3333333333333,4,1,1,5,0,1
105773,-83.3333333333333,4,3,1,60,0,1
106045,-66.6666666666667,4,3,1,60,0,1
106250,-83.3333333333333,4,1,1,5,0,1
106318,-83.3333333333333,4,3,1,60,0,1
106591,-83.3333333333333,4,3,1,60,0,1
106795,-83.3333333333333,4,1,1,5,0,1
106863,-83.3333333333333,4,3,1,60,0,1
107136,-76.9230769230769,4,3,1,60,0,1
107341,-83.3333333333333,4,1,1,5,0,1
107409,-83.3333333333333,4,3,1,60,0,1
107682,-71.4285714285714,4,3,1,60,0,1
107886,-83.3333333333333,4,3,1,5,0,1
107954,-100,4,3,1,60,0,1
108227,-100,4,3,1,60,0,1
108773,-83.3333333333333,4,3,1,60,0,1
108977,-83.3333333333333,4,1,1,5,0,1
109045,-83.3333333333333,4,3,1,60,0,1
109318,-76.9230769230769,4,3,1,60,0,1
109523,-83.3333333333333,4,1,1,5,0,1
109591,-83.3333333333333,4,3,1,60,0,1
109864,-71.4285714285714,4,3,1,60,0,1
110068,-83.3333333333333,4,1,1,5,0,1
110136,-83.3333333333333,4,3,1,60,0,1
110409,-66.6666666666667,4,3,1,60,0,1
110614,-83.3333333333333,4,1,1,5,0,1
110682,-83.3333333333333,4,3,1,60,0,1
110955,-83.3333333333333,4,3,1,60,0,1
111159,-83.3333333333333,4,1,1,5,0,1
111227,-83.3333333333333,4,3,1,60,0,1
111500,-76.9230769230769,4,3,1,60,0,1
111705,-83.3333333333333,4,1,1,5,0,1
111773,-83.3333333333333,4,3,1,60,0,1
112045,-83.3333333333333,4,3,1,60,0,1
112318,-83.3333333333333,4,3,8,60,0,1
112591,-76.9230769230769,4,3,1,60,0,1
112864,-111.111111111111,4,3,9,60,0,1
113136,-100,4,3,1,60,0,1
114773,-80,4,3,1,60,0,1
115318,-100,4,3,1,60,0,1
117704,-100,4,3,1,5,0,1
117773,-100,4,3,1,60,0,1
121455,-100,4,3,8,60,0,1
121591,-100,4,3,1,60,0,1
122273,-142.857142857143,4,3,1,60,0,1
122409,-100,4,3,1,60,0,1
125955,-100,4,3,8,60,0,1
126227,-100,4,3,1,60,0,1
126363,-100,4,1,1,5,0,1
126500,-100,4,3,1,60,0,1
128409,-90.9090909090909,4,3,1,60,0,0
129500,-100,4,3,1,60,0,1
130045,-100,4,3,1,70,0,1
130591,-100,4,3,1,80,0,1
131136,-100,4,3,1,90,0,1
131682,-80,4,3,1,60,0,0
133045,-80,4,1,1,5,0,0
134955,-80,4,3,1,60,0,0
135705,-80,4,3,1,5,0,0
135773,-80,4,3,1,60,0,0
136659,-80,4,1,1,5,0,0
136727,-80,4,3,1,60,0,0
137409,-80,4,1,1,5,0,0
138636,-80,4,3,1,60,0,0
139045,-80,4,3,8,60,0,0
139181,-80,4,3,10,60,0,0
139318,-80,4,3,1,60,0,0
140409,-90.9090909090909,4,3,1,60,0,0
141841,-90.9090909090909,4,1,1,5,0,0
141909,-90.9090909090909,4,3,1,60,0,0
144363,-90.9090909090909,4,1,1,60,0,0
144500,-90.9090909090909,4,3,1,60,0,0
145455,-90.9090909090909,4,1,1,60,0,0
145591,-90.9090909090909,4,3,1,60,0,0
146205,-90.9090909090909,4,1,1,5,0,0
146273,-90.9090909090909,4,3,1,60,0,0
148591,-90.9090909090909,4,3,8,60,0,0
148863,-90.9090909090909,4,3,9,60,0,0
149136,-90.9090909090909,4,3,1,40,0,0
151250,-90.9090909090909,4,3,1,5,0,0
151318,-200,4,3,1,40,0,0
155682,-200,4,3,10,40,0,0
155955,-200,4,3,1,15,0,0
156023,-200,4,3,1,20,0,0
156091,-200,4,3,1,25,0,0
156159,-200,4,3,1,30,0,0
156227,-200,4,3,10,40,0,0
156500,-200,4,3,1,5,0,0
156591,-200,4,1,1,35,0,0
156773,-200,4,3,10,40,0,0
157318,-200,4,3,1,40,0,0
157773,-200,4,3,1,5,0,0
157864,-200,4,3,1,40,0,0
158864,-200,4,3,1,5,0,0
158955,-200,4,3,1,40,0,0
159955,-200,4,3,1,5,0,0
160045,-200,4,3,1,40,0,0
163318,-200,4,3,1,40,0,0
167045,-200,4,1,1,5,0,0
167136,-200,4,3,1,40,0,0
167318,-200,4,3,8,40,0,0
167500,-200,4,3,10,40,0,0
167682,-200,4,3,1,40,0,0
172045,-100,4,3,1,40,0,0
172318,-100,4,1,1,5,0,0
172409,-100,4,3,1,40,0,0
173409,-100,4,1,1,5,0,0
173500,-100,4,3,1,40,0,0
174500,-100,4,1,1,5,0,0
174591,-100,4,3,1,40,0,0
175591,-100,4,1,1,5,0,0
175682,-100,4,3,1,40,0,0
176682,-100,4,1,1,5,0,0
176773,-100,4,3,1,40,0,0
177773,-100,4,1,1,5,0,0
177864,-100,4,3,1,40,0,0
178864,-100,4,1,1,5,0,0
178955,-100,4,3,1,40,0,0
180409,-100,4,3,8,40,0,0
180591,-100,4,3,9,40,0,0
180773,-100,4,3,1,60,0,0
189136,-100,4,3,8,60,0,0
189318,-100,4,3,9,60,0,0
189500,-100,4,3,1,60,0,0
190045,-133.333333333333,4,3,1,60,0,0
190681,-133.333333333333,4,1,1,60,0,0
190772,-133.333333333333,4,3,1,60,0,0
192227,-100,4,3,1,60,0,0
192773,-200,4,3,1,60,0,0
192863,-200,4,3,1,5,0,0
192955,-100,4,3,1,60,0,0
193227,-100,4,3,1,5,0,0
193318,-100,4,3,1,60,0,0
200000,-100,4,3,8,60,0,0
200136,-100,4,3,1,60,0,0
204228,-100,4,3,8,60,0,0
204500,-100,4,3,9,60,0,0
204772,-100,4,3,1,60,0,0
208591,-100,4,3,8,60,0,0
208864,-100,4,3,9,60,0,0
209137,-100,4,3,1,60,0,0
212614,-100,4,1,1,60,0,0
212682,-100,4,3,1,60,0,0
212887,-100,4,1,1,60,0,0
212955,-100,4,3,9,60,0,0
213364,-100,4,3,10,60,0,0
213500,-100,4,3,1,60,0,0
216909,-100,4,1,1,60,0,0
217046,-100,4,3,1,60,0,0
217386,-100,4,1,1,5,0,0
217455,-100,4,3,1,60,0,0
217591,-100,4,3,8,60,0,0
217864,-100,4,3,1,60,0,0
219636,-100,4,3,8,60,0,0
219773,-100,4,3,1,60,0,0
220932,-100,4,1,1,5,0,0
221000,-100,4,3,1,60,0,0
223591,-100,4,3,8,60,0,0
223864,-100,4,3,1,60,0,0
224137,-100,4,3,9,60,0,0
224410,-100,4,3,1,60,0,0
226181,-100,4,3,8,60,0,0
226591,-100,4,3,1,60,0,0
229250,-100,4,1,1,5,0,0
229318,-100,4,3,1,60,0,0
233955,-100,4,3,8,60,0,0
234228,-100,4,3,1,60,0,0
234500,-100,4,3,9,60,0,0
234773,-100,4,3,1,60,0,0
235046,-100,4,3,10,60,0,0
235318,-200,4,3,1,60,0,0
241864,-83.3333333333333,4,3,1,60,0,1
242069,-83.3333333333333,4,1,1,5,0,1
242137,-83.3333333333333,4,3,1,60,0,1
242409,-76.9230769230769,4,3,1,60,0,1
242614,-83.3333333333333,4,1,1,5,0,1
242682,-83.3333333333333,4,3,1,60,0,1
242955,-71.4285714285714,4,3,1,60,0,1
243160,-83.3333333333333,4,1,1,5,0,1
243228,-83.3333333333333,4,3,1,60,0,1
243500,-66.6666666666667,4,3,1,60,0,1
243705,-83.3333333333333,4,1,1,5,0,1
243773,-83.3333333333333,4,3,1,60,0,1
244046,-83.3333333333333,4,3,1,60,0,1
244250,-83.3333333333333,4,1,1,5,0,1
244318,-83.3333333333333,4,3,1,60,0,1
244591,-76.9230769230769,4,3,1,60,0,1
244796,-83.3333333333333,4,1,1,5,0,1
244864,-83.3333333333333,4,3,1,60,0,1
245136,-71.4285714285714,4,3,1,60,0,1
245341,-83.3333333333333,4,3,1,60,0,1
245409,-100,4,3,1,60,0,1
245682,-100,4,3,1,60,0,1
246228,-83.3333333333333,4,3,1,60,0,1
246432,-83.3333333333333,4,1,1,5,0,1
246500,-83.3333333333333,4,3,1,60,0,1
246773,-76.9230769230769,4,3,1,60,0,1
246978,-83.3333333333333,4,1,1,5,0,1
247046,-83.3333333333333,4,3,1,60,0,1
247318,-71.4285714285714,4,3,1,60,0,1
247523,-83.3333333333333,4,1,1,5,0,1
247591,-83.3333333333333,4,3,1,60,0,1
247864,-66.6666666666667,4,3,1,60,0,1
248069,-83.3333333333333,4,1,1,5,0,1
248137,-83.3333333333333,4,3,1,60,0,1
248410,-83.3333333333333,4,3,1,60,0,1
248614,-83.3333333333333,4,1,1,5,0,1
248682,-83.3333333333333,4,3,1,60,0,1
248955,-76.9230769230769,4,3,1,60,0,1
249160,-83.3333333333333,4,1,1,5,0,1
249228,-83.3333333333333,4,3,1,60,0,1
249500,-83.3333333333333,4,3,1,60,0,1
249773,-83.3333333333333,4,3,8,60,0,1
250046,-76.9230769230769,4,3,1,60,0,1
250318,-76.9230769230769,4,3,9,60,0,1
250591,-100,4,3,1,60,0,1
259591,-100,4,3,1,60,0,1
259727,-142.857142857143,4,3,1,60,0,1
259864,-100,4,3,1,60,0,1
262864,-100,4,3,8,60,0,1
263136,-100,4,3,1,60,0,1
263409,-100,4,3,9,60,0,1
263682,-100,4,3,1,60,0,1
263818,-100,4,1,1,60,0,1
263955,-100,4,3,1,60,0,1
265864,-90.9090909090909,4,3,1,60,0,0
266955,-90.9090909090909,4,3,1,60,0,1
267500,-90.9090909090909,4,3,1,70,0,1
268045,-90.9090909090909,4,3,1,80,0,1
268591,-90.9090909090909,4,3,1,90,0,1
269136,-80,4,3,1,60,0,0
271727,-86.9565217391304,4,3,1,60,0,0
272136,-95.2380952380951,4,3,1,60,0,0
272545,-105.263157894737,4,3,10,60,0,0
272681,-105.263157894737,4,3,1,60,0,0
273499,-105.263157894737,4,3,10,60,0,0

[Colours]
Combo1 : 201,158,133
Combo2 : 162,162,162
Combo3 : 164,111,87
Combo4 : 201,201,201

[HitObjects]
232,113,14955,6,0,L|221:4,1,109.375,8|0,0:0|0:0,0:0:0:0:
335,213,15227,2,0,L|345:104,1,109.375,8|0,0:0|0:0,0:0:0:0:
167,207,15500,2,0,L|161:152,1,54.6875,8|0,0:0|2:0,0:0:0:0:
251,232,15636,2,0,L|244:286,1,54.6875,8|0,0:0|2:0,0:0:0:0:
235,362,15773,1,0,0:0:0:0:
335,213,15909,38,0,B|376:196|376:196|441:204,1,109.375,8|0,0:0|0:0,0:0:0:0:
167,207,16182,2,0,B|127:225|127:225|62:217,1,109.375,8|0,0:0|0:0,0:0:0:0:
253,233,18227,6,0,P|244:277|247:320,2,87.5,2|2|2,0:2|0:2|0:2,0:0:0:0:
461,171,18636,2,0,B|420:180|384:146|384:146|335:180|335:180|297:117|206:142,1,273.4375,2|0,0:2|0:0,0:0:0:0:
143,132,19045,1,8,2:3:0:0:
144,118,19113,1,0,0:3:0:0:
145,104,19181,1,0,0:3:0:0:
146,91,19249,1,0,0:3:0:0:
147,77,19318,6,0,L|34:84,1,109.375,8|0,0:0|0:0,0:0:0:0:
143,226,19591,2,0,L|253:233,1,109.375,8|0,0:0|0:0,0:0:0:0:
43,193,19864,2,0,L|39:247,1,54.6875,8|0,0:0|2:0,0:0:0:0:
37,83,20000,2,0,L|147:77,1,109.375,8|0,0:0|0:0,0:0:0:0:
345,124,20273,38,0,B|334:75|334:75|346:-4,1,109.375,8|0,0:0|0:0,0:0:0:0:
253,233,20545,2,0,B|263:281|263:281|252:361,1,109.375,8|0,0:0|0:0,0:0:0:0:
419,203,23136,6,0,L|415:260,1,52.5,8|0,2:3|0:0,0:0:0:0:
298,326,23682,6,0,B|349:320|349:320|394:332,1,96.250002937317,14|0,0:0|0:0,0:0:0:0:
213,273,23955,2,0,B|162:279|162:279|118:266,1,96.250002937317,10|0,0:0|0:0,0:0:0:0:
301,225,24227,1,10,0:0:0:0:
210,374,24364,1,0,0:0:0:0:
118,266,24500,1,10,0:0:0:0:
298,326,24636,6,0,B|327:278|301:225|301:225|354:255|351:290,1,192.500005874634
213,273,25045,1,10,0:0:0:0:
300,357,25182,1,0,0:0:0:0:
297,121,25318,2,0,P|251:129|216:161,1,96.250002937317,10|0,0:0|0:0,0:0:0:0:
396,139,25591,2,0,P|442:131|477:99,1,96.250002937317,10|0,0:0|0:0,0:0:0:0:
201,52,25864,5,10,0:0:0:0:
301,225,26000,1,0,0:0:0:0:
122,204,26136,5,10,0:0:0:0:
112,283,26273,1,0,0:0:0:0:
39,154,26409,5,10,0:0:0:0:
49,233,26546,1,0,0:0:0:0:
120,50,26682,5,10,0:0:0:0:
110,129,26819,1,0,0:0:0:0:
281,103,26955,6,0,L|184:98,1,96.250002937317,10|0,0:0|0:0,0:0:0:0:
300,224,27227,2,0,L|397:220,1,96.250002937317,10|0,0:0|0:0,0:0:0:0:
232,174,27500,1,10,0:0:0:0:
239,330,27636,1,0,0:0:0:0:
300,224,27773,1,10,0:0:0:0:
112,283,27909,1,0,0:0:0:0:
184,98,28045,6,0,B|235:104|235:104|280:92,1,96.250002937317,14|0,0:0|0:0,0:0:0:0:
99,151,28318,2,0,B|48:145|48:145|4:158,1,96.250002937317,10|0,0:0|0:0,0:0:0:0:
95,50,28591,1,10,0:0:0:0:
57,236,28727,1,0,0:0:0:0:
184,98,28864,1,10,0:0:0:0:
190,337,29000,6,0,B|212:281|186:233|186:233|208:270|279:276,1,192.500005874634
121,285,29409,1,10,0:0:0:0:
254,193,29545,1,0,0:0:0:0:
343,365,29682,2,0,P|351:317|339:271,1,96.250002937317,10|0,0:0|0:0,0:0:0:0:
425,130,29955,2,0,P|416:177|428:223,1,96.250002937317,10|0,0:0|0:0,0:0:0:0:
320,113,30227,5,10,0:0:0:0:
496,175,30364,1,0,0:0:0:0:
339,271,30500,5,10,0:0:0:0:
330,192,30636,1,0,0:0:0:0:
218,303,30773,5,10,0:0:0:0:
267,240,30909,1,0,0:0:0:0:
109,240,31045,5,10,0:0:0:0:
188,230,31181,1,0,0:0:0:0:
54,114,31318,5,10,0:0:0:0:
45,304,31455,1,10,0:0:0:0:
39,114,31591,5,10,0:0:0:0:
59,303,31728,1,10,0:0:0:0:
237,164,31864,5,10,0:0:0:0:
23,212,32000,1,10,0:0:0:0:
319,215,32136,5,10,0:0:0:0:
105,167,32272,1,10,0:0:0:0:
329,17,32409,6,0,B|301:70|312:126|312:126|318:102|347:91,1,144.375004405975,14|0,0:0|0:0,0:0:0:0:
384,147,32682,2,0,P|432:135|496:138,1,96.250002937317,10|0,0:0|0:0,0:0:0:0:
319,215,32955,1,10,0:0:0:0:
398,61,33091,1,0,0:0:0:0:
406,257,33227,1,10,0:0:0:0:
256,148,33364,6,0,B|215:192|233:244|233:244|205:206|146:215,1,192.500005874634
319,215,33773,1,10,0:0:0:0:
166,303,33909,1,0,0:0:0:0:
59,148,34045,2,0,P|40:196|53:250,1,96.250002937317,10|0,0:0|0:0,0:0:0:0:
168,107,34318,2,0,P|187:59|174:5,1,96.250002937317,10|0,0:0|0:0,0:0:0:0:
154,213,34591,5,10,0:0:0:0:
57,49,34727,1,0,0:0:0:0:
244,122,34864,5,10,0:0:0:0:
168,107,35000,1,0,0:0:0:0:
333,32,35136,5,10,0:0:0:0:
257,47,35272,1,0,0:0:0:0:
422,122,35409,5,10,0:0:0:0:
346,107,35545,1,0,0:0:0:0:
362,275,35682,6,0,B|355:237|355:237|367:181,1,96.250002937317,10|0,0:0|0:0,0:0:0:0:
499,290,35955,2,0,B|506:328|506:328|494:384,1,96.250002937317,10|0,0:0|0:0,0:0:0:0:
253,201,36227,1,10,0:0:0:0:
434,236,36364,1,0,0:0:0:0:
313,375,36500,1,10,0:0:0:0:
367,180,36636,1,0,0:0:0:0:
174,238,36773,6,0,B|180:289|180:289|168:334,1,96.250002937317,14|0,0:0|0:0,0:0:0:0:
306,116,37046,2,0,B|300:65|300:65|313:21,1,96.250002937317,10|0,0:0|0:0,0:0:0:0:
353,204,37318,1,10,0:0:0:0:
205,114,37455,1,0,0:0:0:0:
379,71,37591,1,10,0:0:0:0:
195,7,37727,6,0,B|188:66|205:114|205:114|167:77|114:85,1,192.500005874634
137,173,38136,1,10,0:0:0:0:
101,13,38273,1,0,0:0:0:0:
46,227,38409,2,0,P|39:179|55:134,1,96.250002937317,10|0,0:0|0:0,0:0:0:0:
135,259,38682,2,0,P|141:306|125:351,1,96.250002937317,10|0,0:0|0:0,0:0:0:0:
318,201,38955,5,10,0:0:0:0:
137,173,39091,1,0,0:0:0:0:
236,67,39227,5,10,0:0:0:0:
230,147,39364,1,0,0:0:0:0:
364,61,39500,5,10,0:0:0:0:
303,113,39637,1,0,0:0:0:0:
459,147,39773,5,10,0:0:0:0:
379,140,39910,1,10,0:0:0:0:
411,262,40045,5,14,0:1:0:0:
412,241,40114,1,0,0:0:0:0:
413,220,40182,1,0,0:0:0:0:
450,347,40318,1,10,0:0:0:0:
286,289,40455,5,6,0:2:0:0:
286,307,40524,1,0,0:0:0:0:
287,326,40592,1,0,0:0:0:0:
321,212,40728,1,10,0:0:0:0:
163,227,40864,5,6,0:0:0:0:
163,210,40933,1,0,0:0:0:0:
163,193,41001,1,0,0:0:0:0:
194,296,41137,1,0,0:0:0:0:
41,258,41273,5,14,0:0:0:0:
41,273,41342,1,0,0:0:0:0:
41,288,41410,1,0,0:0:0:0:
70,189,41546,1,0,0:0:0:0:
68,376,41682,5,4,0:2:0:0:
80,375,41750,1,0,0:0:0:0:
92,374,41818,1,0,0:0:0:0:
104,374,41886,1,0,0:0:0:0:
138,340,41955,5,4,0:2:0:0:
150,339,42023,1,0,0:0:0:0:
162,338,42091,1,0,0:0:0:0:
174,338,42159,1,0,0:0:0:0:
209,301,42227,6,0,L|211:251,2,48.1250014686585,8|8|8,2:0|2:0|2:0,0:0:0:0:
165,144,42500,1,0,0:0:0:0:
287,377,42636,6,0,L|313:334,2,48.1250014686585,8|8|8,0:0|0:0|0:0,0:0:0:0:
327,219,42909,1,0,0:0:0:0:
461,384,43045,6,0,B|454:312|454:312|467:271|467:271|460:193,1,192.500005874634,6|0,0:0|0:0,0:0:0:0:
447,51,43455,1,8,0:0:0:0:
459,180,43591,1,8,0:0:0:0:
444,0,43727,1,8,0:0:0:0:
307,118,43864,6,0,B|358:113|358:113|419:125,1,96.250002937317,6|0,0:0|0:0,0:0:0:0:
205,70,44136,2,0,B|154:75|154:75|93:63,1,96.250002937317,6|0,0:0|0:0,0:0:0:0:
37,193,44409,6,0,L|43:258,3,48.1250014686585,6|8|2|8,0:2|0:0|0:2|0:0,0:0:0:0:
108,283,44682,2,0,L|106:315,1,32.8125012516976,2|8,0:2|0:0,0:0:0:0:
203,217,44818,2,0,B|180:209|180:209|154:209,3,48.1250014686585,2|8|2|8,0:2|0:0|0:2|0:0,0:0:0:0:
276,262,45091,2,0,L|279:213,1,43.75,2|8,0:2|0:0,0:0:0:0:
206,299,45227,2,0,L|208:333,1,32.8125012516976,2|8,0:2|0:0,0:0:0:0:
286,362,45364,2,0,L|288:335,1,21.875,2|8,0:2|0:0,0:0:0:0:
366,122,45500,6,0,L|357:272,1,144.375004405975,14|0,0:0|0:0,0:0:0:0:
428,326,45773,1,6,0:0:0:0:
428,314,45841,1,0,0:0:0:0:
429,302,45909,1,0,0:0:0:0:
430,290,45977,1,0,0:0:0:0:
431,278,46045,2,0,L|433:229,3,48.1250014686585,2|0|0|0,0:0|0:0|0:0|0:0,0:0:0:0:
437,150,46318,6,0,L|287:141,1,144.375004405975,14|0,0:0|0:0,0:0:0:0:
331,71,46591,1,2,0:0:0:0:
343,71,46659,1,0,0:0:0:0:
355,72,46727,2,0,L|403:74,1,48.1250014686585
179,147,46863,6,0,L|130:149,3,48.1250014686585,14|0|0|0,0:0|0:0|0:0|0:0,0:0:0:0:
233,223,47136,2,0,L|200:259,3,48.1250014686585,14|0|0|0,0:0|0:0|0:0|0:0,0:0:0:0:
325,238,47409,2,0,L|327:287,3,48.1250014686585,14|0|0|0,0:0|0:0|0:0|0:0,0:0:0:0:
292,141,47682,5,8,2:3:0:0:
152,319,47818,1,8,2:3:0:0:
81,261,50955,5,8,2:0:0:0:
57,258,51023,1,8,2:0:0:0:
33,255,51091,1,8,2:0:0:0:
185,202,51227,1,8,2:0:0:0:
209,199,51295,1,8,2:0:0:0:
233,197,51363,1,8,2:0:0:0:
104,45,51500,6,0,L|66:39,1,32.8125012516976,8|8,0:0|0:0,0:0:0:0:
147,109,51636,2,0,L|185:103,1,32.8125012516976,8|8,0:0|0:0,0:0:0:0:
66,181,51773,1,8,0:0:0:0:
65,189,51841,1,8,0:0:0:0:
64,197,51909,1,8,0:0:0:0:
64,205,51977,1,8,0:0:0:0:
63,213,52045,6,0,L|53:119,1,87.5,6|8,0:0|0:0,0:0:0:0:
17,287,52318,1,2,0:0:0:0:
45,99,52455,1,8,0:0:0:0:
177,272,52591,2,0,B|130:267|130:267|82:286,1,87.5,2|8,0:0|0:0,0:0:0:0:
141,357,52864,1,2,0:0:0:0:
197,194,53000,1,8,0:0:0:0:
299,344,53136,6,0,L|301:300,2,43.75,2|0|8,0:0|0:0|0:0,0:0:0:0:
327,140,53409,2,0,L|329:184,2,43.75,2|0|8,0:0|0:0|0:0,0:0:0:0:
409,299,53682,5,2,0:0:0:0:
232,204,53818,1,8,0:0:0:0:
442,288,53955,1,2,0:0:0:0:
300,300,54091,1,8,0:0:0:0:
438,110,54227,6,0,L|441:197,1,87.5,2|8,0:0|0:0,0:0:0:0:
378,47,54500,1,2,0:0:0:0:
442,210,54636,1,8,0:0:0:0:
243,124,54773,2,0,B|288:123|288:123|327:140,1,87.5,2|8,0:0|0:0,0:0:0:0:
169,18,55045,6,0,L|165:61,2,43.75,2|0|8,0:0|0:0|0:0,0:0:0:0:
124,212,55318,2,0,L|120:168,2,43.75,2|0|8,0:0|0:0|0:0,0:0:0:0:
21,22,55591,1,2,0:0:0:0:
40,32,55659,1,0,0:0:0:0:
62,36,55727,1,8,0:0:0:0:
83,35,55795,1,0,0:0:0:0:
104,29,55863,5,2,0:0:0:0:
124,212,56000,1,8,0:0:0:0:
52,132,56136,1,2,0:0:0:0:
239,104,56273,1,8,0:0:0:0:
166,283,56409,6,0,L|171:190,1,87.5,2|8,0:0|0:0,0:0:0:0:
201,355,56682,1,2,0:0:0:0:
174,160,56818,1,8,0:0:0:0:
37,336,56955,2,0,B|81:334|81:334|122:350,1,87.5,2|8,0:0|0:0,0:0:0:0:
166,283,57227,1,2,0:0:0:0:
2,261,57364,1,8,0:0:0:0:
173,116,57500,6,0,L|173:159,2,43.75,2|0|8,0:0|0:0|0:0,0:0:0:0:
247,287,57773,2,0,L|247:243,2,43.75,2|0|8,0:0|0:0|0:0,0:0:0:0:
345,168,58045,1,2,0:0:0:0:
317,367,58182,1,8,0:0:0:0:
248,208,58318,1,2,0:0:0:0:
320,335,58455,1,8,0:0:0:0:
454,234,58591,6,0,L|341:250,1,87.5,2|8,0:0|0:0,0:0:0:0:
480,156,58864,1,2,0:0:0:0:
341,253,59000,1,8,0:0:0:0:
415,100,59136,6,0,P|414:78|412:57,1,43.75
335,26,59273,1,12,2:0:0:0:
305,39,59341,1,8,2:0:0:0:
272,42,59409,1,8,2:0:0:0:
241,33,59477,1,8,2:0:0:0:
215,13,59545,2,0,L|211:71,1,43.75
135,129,59682,6,0,P|130:148|130:172,3,43.75,8|8|0|0,0:0|0:0|0:0|0:0,0:0:0:0:
177,271,59955,1,8,0:0:0:0:
187,272,60023,1,8,0:0:0:0:
198,273,60091,1,0,0:0:0:0:
209,273,60159,1,0,0:0:0:0:
220,272,60227,6,0,L|218:316,1,32.8125012516976,8|8,0:0|0:0,0:0:0:0:
277,212,60364,2,0,L|275:168,1,32.8125012516976
334,272,60500,2,0,L|332:316,1,32.8125012516976,8|8,0:0|0:0,0:0:0:0:
391,212,60636,2,0,L|389:168,1,32.8125012516976
512,297,60773,6,0,B|467:282|437:306|437:306|432:273|432:273|393:330|333:304|333:304|378:324|395:366,1,306.25,14|0,0:0|0:0,0:0:0:0:
240,113,61864,2,0,B|175:120|151:174|159:262|259:260|259:260|239:291|253:324,1,306.25,6|0,0:0|0:0,0:0:0:0:
243,186,62955,1,6,0:0:0:0:
75,320,65136,5,10,0:0:0:0:
75,320,65204,1,0,0:0:0:0:
75,320,65273,2,0,L|13:330,1,43.75
160,258,65409,1,10,0:0:0:0:
160,258,65477,1,0,0:0:0:0:
160,258,65546,2,0,L|222:268,1,43.75
84,158,65682,5,10,0:0:0:0:
84,158,65750,1,0,0:0:0:0:
84,158,65818,2,0,P|74:190|78:218,1,43.75
175,76,65955,1,10,0:0:0:0:
175,76,66023,1,0,0:0:0:0:
175,76,66091,2,0,P|145:60|128:37,1,43.75
300,160,66227,5,10,0:0:0:0:
299,149,66295,1,0,0:0:0:0:
298,138,66364,2,0,L|294:81,1,43.75
406,218,66500,1,10,0:0:0:0:
407,207,66568,1,0,0:0:0:0:
408,196,66637,2,0,L|412:139,1,43.75
493,347,66773,5,8,0:0:0:0:
457,321,66841,1,8,0:0:0:0:
415,311,66909,1,8,2:0:0:0:
372,317,66977,1,8,2:0:0:0:
326,357,67045,5,8,0:0:0:0:
326,347,67113,1,8,0:0:0:0:
327,336,67181,1,8,0:0:0:0:
327,325,67249,1,8,0:0:0:0:
302,279,67317,5,6,0:0:0:0:
427,294,69500,6,0,L|475:305,2,43.75,10|0|0,0:0|0:0|0:0,0:0:0:0:
275,253,69773,2,0,L|227:264,2,43.75,10|0|0,0:0|0:0|0:0,0:0:0:0:
443,327,70045,6,0,L|491:338,2,43.75,10|0|0,0:0|0:0|0:0,0:0:0:0:
247,219,70318,2,0,L|199:230,2,43.75,10|0|0,0:0|0:0|0:0,0:0:0:0:
459,360,70591,6,0,L|507:371,2,43.75,10|0|0,0:0|0:0|0:0,0:0:0:0:
219,185,70864,2,0,L|171:196,2,43.75,10|0|0,0:0|0:0|0:0,0:0:0:0:
432,41,71136,5,8,0:0:0:0:
431,51,71204,1,8,0:0:0:0:
430,62,71272,1,8,0:0:0:0:
430,73,71340,1,8,0:0:0:0:
396,110,71409,5,8,0:0:0:0:
396,120,71477,1,8,0:0:0:0:
395,131,71545,1,8,0:0:0:0:
395,142,71613,1,8,0:0:0:0:
364,180,71682,5,6,0:0:0:0:
344,67,73864,6,0,L|250:57,1,87.5,2|8,0:0|0:0,0:0:0:0:
418,21,74137,1,2,0:0:0:0:
230,49,74274,1,8,0:0:0:0:
403,181,74410,2,0,B|398:134|398:134|417:86,1,87.5,2|8,0:0|0:0,0:0:0:0:
357,264,74683,1,2,0:0:0:0:
301,144,74819,1,8,0:0:0:0:
475,303,74955,5,2,0:0:0:0:
475,303,75023,1,0,0:0:0:0:
475,303,75091,2,0,L|431:305,1,43.75,8|0,0:0|0:0,0:0:0:0:
271,331,75227,1,2,0:0:0:0:
271,331,75295,1,0,0:0:0:0:
271,331,75364,2,0,L|315:333,1,43.75,8|0,0:0|0:0,0:0:0:0:
166,224,75500,5,8,0:0:0:0:
164,256,75568,1,8,0:0:0:0:
163,289,75636,1,8,2:0:0:0:
162,322,75704,1,8,2:0:0:0:
161,355,75773,5,8,0:0:0:0:
158,344,75841,1,8,0:0:0:0:
156,333,75909,1,8,0:0:0:0:
153,322,75977,1,8,0:0:0:0:
103,295,76045,5,6,0:0:0:0:
479,172,77682,6,0,L|477:238,1,65.6250025033952,10|0,0:0|0:0,0:0:0:0:
382,250,77955,2,0,L|380:316,1,65.6250025033952,10|0,0:0|0:0,0:0:0:0:
240,117,78227,6,0,P|323:103|383:162,1,175,6|10,0:0|0:0,0:0:0:0:
226,208,78636,1,0,0:0:0:0:
226,37,78773,1,2,0:0:0:0:
226,37,78841,1,0,0:0:0:0:
226,37,78909,1,0,0:0:0:0:
134,242,79045,2,0,P|140:192|135:150,1,87.5,10|0,0:0|0:0,0:0:0:0:
11,76,79318,6,0,L|3:185,1,87.5,2|0,0:1|0:0,0:0:0:0:
0,242,79591,1,10,0:0:0:0:
145,24,79727,6,0,L|135:154,1,131.25,6|0,0:0|0:0,0:0:0:0:
133,173,80000,1,0,0:0:0:0:
126,260,80136,1,8,0:0:0:0:
119,347,80273,1,8,0:0:0:0:
355,293,80409,6,0,B|270:264|270:264|199:309,1,175,6|10,0:0|0:0,0:0:0:0:
427,350,80818,2,0,L|433:256,1,87.5,0|2,0:0|0:0,0:0:0:0:
441,95,81091,1,0,0:0:0:0:
433,230,81227,1,10,0:0:0:0:
270,129,81364,5,0,0:0:0:0:
465,87,81500,1,2,0:0:0:0:
294,70,81636,1,0,0:0:0:0:
493,79,81772,1,10,0:0:0:0:
318,11,81909,1,0,0:0:0:0:
272,172,82045,5,2,0:1:0:0:
271,161,82113,1,0,0:0:0:0:
270,150,82181,1,0,0:0:0:0:
270,139,82249,1,0,0:0:0:0:
269,128,82318,1,8,2:0:0:0:
230,147,82386,1,8,2:0:0:0:
186,153,82454,1,8,2:0:0:0:
144,144,82522,1,8,2:0:0:0:
107,121,82591,6,0,B|57:95|3:106|3:106|32:139|33:177,1,175,6|10,0:0|0:0,0:0:0:0:
43,324,83000,1,0,0:0:0:0:
163,254,83136,1,2,0:0:0:0:
269,380,83273,2,0,B|261:311|261:311|277:249,1,131.25,10|0,0:0|0:0,0:0:0:0:
290,219,83545,1,0,0:0:0:0:
491,307,83682,6,0,B|447:314|410:299|410:299|419:319|419:319|381:305|349:316,1,175,2|10,0:0|0:0,0:0:0:0:
395,139,84091,1,0,0:0:0:0:
465,231,84227,1,2,0:0:0:0:
349,316,84364,1,10,0:0:0:0:
307,73,84500,5,6,0:0:0:0:
290,219,84636,1,0,0:0:0:0:
146,94,84773,6,0,L|232:83,1,87.5,14|0,0:0|0:0,0:0:0:0:
83,240,85045,2,0,L|13:186,1,87.5,10|0,0:0|0:0,0:0:0:0:
230,282,85318,2,0,L|240:368,1,87.5,10|0,0:0|0:0,0:0:0:0:
179,152,85591,2,0,L|232:82,1,87.5,10|0,0:0|0:0,0:0:0:0:
506,39,85864,5,8,2:0:0:0:
473,68,85932,1,8,2:0:0:0:
431,81,86000,1,8,2:0:0:0:
389,74,86068,1,8,2:0:0:0:
353,50,86136,6,0,L|350:94,1,43.75
283,193,86273,2,0,L|280:149,1,43.75,8|8,0:0|0:0,0:0:0:0:
509,149,86409,5,8,0:0:0:0:
509,159,86477,1,8,0:0:0:0:
510,170,86545,1,0,0:0:0:0:
511,181,86613,1,0,0:0:0:0:
487,221,86682,5,8,0:0:0:0:
487,231,86750,1,8,0:0:0:0:
488,242,86818,1,8,0:0:0:0:
489,253,86886,1,8,0:0:0:0:
468,295,86955,6,0,P|412:272|310:328,1,175,6|10,0:0|0:0,0:0:0:0:
479,384,87364,1,0,0:0:0:0:
512,217,87500,1,2,0:0:0:0:
512,217,87568,1,0,0:0:0:0:
512,217,87636,1,0,0:0:0:0:
314,319,87773,2,0,P|356:316|403:330,1,87.5,10|0,0:0|0:0,0:0:0:0:
199,264,88045,6,0,L|90:272,1,87.5,2|0,0:0|0:0,0:0:0:0:
33,275,88318,1,10,0:0:0:0:
216,140,88454,6,0,L|86:150,1,131.25,6|0,0:0|0:0,0:0:0:0:
67,152,88727,1,0,0:0:0:0:
148,55,88864,1,8,0:0:0:0:
234,138,89000,1,8,0:0:0:0:
153,235,89136,5,6,0:0:0:0:
173,263,89409,2,0,P|165:312|170:351,1,87.5,10|0,0:0|0:0,0:0:0:0:
319,119,89682,2,0,P|291:78|259:54,1,87.5,10|0,0:0|0:0,0:0:0:0:
318,323,89955,2,0,P|366:331|405:326,1,87.5,10|0,0:0|0:0,0:0:0:0:
235,134,90227,5,10,0:0:0:0:
440,159,90364,1,0,0:0:0:0:
359,40,90500,1,10,0:0:0:0:
340,236,90636,1,0,0:0:0:0:
141,158,90773,5,10,0:0:0:0:
336,127,90909,1,0,0:0:0:0:
149,244,91045,1,14,0:0:0:0:
146,35,91182,1,0,0:0:0:0:
10,181,91318,6,0,B|63:173|63:173|94:186,1,87.5,6|0,0:0|0:0,0:0:0:0:
220,286,91591,2,0,L|89:298,1,131.25,10|0,0:0|0:0,0:0:0:0:
54,304,91864,1,2,0:0:0:0:
293,228,92000,2,0,L|302:316,1,87.5,10|2,0:0|0:0,0:0:0:0:
266,193,92273,1,0,0:0:0:0:
389,384,92409,6,0,P|396:331|506:273,1,175,6|10,0:0|0:0,0:0:0:0:
405,163,92818,1,0,0:0:0:0:
507,92,92955,1,2,0:0:0:0:
379,150,93091,1,10,0:0:0:0:
430,0,93227,2,0,P|419:47|432:92,1,87.5,2|0,0:0|0:0,0:0:0:0:
212,111,93500,6,0,L|301:99,1,87.5,14|0,0:0|0:0,0:0:0:0:
99,270,93773,2,0,L|27:215,1,87.5,10|0,0:0|0:0,0:0:0:0:
298,248,94045,2,0,L|310:337,1,87.5,10|0,0:0|0:0,0:0:0:0:
110,101,94318,2,0,L|164:29,1,87.5,10|0,0:0|0:0,0:0:0:0:
169,329,94591,5,10,0:0:0:0:
179,195,94727,1,0,0:0:0:0:
215,355,94864,1,10,0:0:0:0:
65,269,95000,1,0,0:0:0:0:
282,193,95136,5,10,0:0:0:0:
93,257,95273,1,0,0:0:0:0:
197,81,95409,1,10,0:0:0:0:
215,337,95545,1,0,0:0:0:0:
298,104,95682,6,0,P|319:99|352:100,3,43.75,6|0|0|0,0:0|0:0|0:0|0:0,0:0:0:0:
492,30,95955,1,8,2:0:0:0:
451,46,96023,1,8,2:0:0:0:
423,78,96091,1,8,2:0:0:0:
412,120,96159,1,8,2:0:0:0:
422,162,96227,6,0,L|419:215,3,43.75,6|0|0|0,0:0|0:0|0:0|0:0,0:0:0:0:
477,332,96500,2,0,L|474:279,3,43.75,8|8|8|8,0:0|0:0|0:0|0:0,0:0:0:0:
371,311,96773,5,6,0:0:0:0:
360,306,96841,1,0,0:0:0:0:
350,303,96909,1,0,0:0:0:0:
339,302,96977,1,0,0:0:0:0:
328,302,97045,1,8,0:0:0:0:
317,304,97113,1,8,0:0:0:0:
307,307,97182,1,8,0:0:0:0:
297,311,97250,1,8,0:0:0:0:
288,317,97318,5,6,0:0:0:0:
255,288,97386,1,0,0:0:0:0:
212,279,97454,1,0,0:0:0:0:
171,291,97523,1,0,0:0:0:0:
129,302,97591,1,8,0:0:0:0:
88,290,97659,1,8,0:0:0:0:
59,258,97727,1,8,0:0:0:0:
51,215,97795,1,8,0:0:0:0:
66,175,97864,6,0,L|78:364,1,175,6|2,0:0|0:0,0:0:0:0:
322,135,100045,5,6,0:0:0:0:
128,86,102227,5,6,0:0:0:0:
138,270,103864,6,0,L|134:315,3,32.8125012516976,14|0|0|0,0:0|0:0|0:0|0:0,0:0:0:0:
209,174,104136,2,0,L|205:129,3,32.8125012516976,14|0|0|0,0:0|0:0|0:0|0:0,0:0:0:0:
305,281,104409,6,0,B|337:281|356:252|356:252|380:300|464:290,1,157.499995193482,6|0,0:0|0:0,0:0:0:0:
511,218,104682,1,2,0:0:0:0:
509,204,104750,1,0,0:0:0:0:
508,191,104818,1,0,0:0:0:0:
507,178,104886,1,0,0:0:0:0:
506,165,104955,6,0,B|493:61|493:61|475:90|439:100,1,170.624992189408,10|0,0:0|0:0,0:0:0:0:
375,15,105227,1,2,0:0:0:0:
371,28,105295,1,0,0:0:0:0:
364,41,105363,1,0,0:0:0:0:
356,52,105431,1,0,0:0:0:0:
345,62,105500,6,0,B|300:42|242:52|242:52|275:91|253:146,1,183.749994392395,2|0,0:0|0:0,0:0:0:0:
160,111,105773,1,2,0:0:0:0:
145,116,105841,1,0,0:0:0:0:
130,119,105909,1,0,0:0:0:0:
115,119,105977,1,0,0:0:0:0:
100,117,106045,6,0,B|75:169|84:245|84:245|81:202|30:156,1,196.875007510186,10|0,0:0|0:0,0:0:0:0:
0,325,106318,1,2,0:0:0:0:
16,322,106386,1,0,0:0:0:0:
32,321,106454,1,0,0:0:0:0:
48,323,106522,1,0,0:0:0:0:
64,327,106591,6,0,B|118:344|165:320|165:320|156:349|169:380,1,157.499995193482,6|0,0:0|0:0,0:0:0:0:
253,315,106864,1,2,0:0:0:0:
255,302,106932,1,0,0:0:0:0:
257,289,107000,1,0,0:0:0:0:
260,276,107068,1,0,0:0:0:0:
262,263,107136,6,0,B|278:152|278:152|285:188|301:213,1,170.624992189408,10|0,0:0|0:0,0:0:0:0:
413,249,107409,1,2,0:0:0:0:
426,253,107477,1,0,0:0:0:0:
440,257,107545,1,0,0:0:0:0:
454,258,107613,1,0,0:0:0:0:
471,257,107682,6,0,B|524:245|540:316|500:338|500:338|465:330|440:369,1,183.749994392395,6|0,0:0|0:0,0:0:0:0:
368,358,107955,2,0,L|363:313,3,43.75,2|0|0|0,0:0|0:0|0:0|0:0,0:0:0:0:
272,354,108227,5,8,2:0:0:0:
235,330,108295,1,8,2:0:0:0:
192,322,108363,1,8,2:0:0:0:
150,330,108431,1,8,2:0:0:0:
113,354,108500,1,2,0:0:0:0:
92,360,108568,1,0,0:0:0:0:
70,361,108636,1,2,0:0:0:0:
49,355,108704,1,0,0:0:0:0:
31,341,108773,6,0,B|40:311|23:283|23:283|54:240|36:191,1,157.499995193482,6|0,0:0|0:0,0:0:0:0:
28,100,109045,1,2,0:0:0:0:
28,86,109113,1,0,0:0:0:0:
29,73,109181,1,0,0:0:0:0:
29,60,109249,1,0,0:0:0:0:
30,47,109318,6,0,B|65:55|89:37|89:37|101:58|101:58|140:28|192:51,1,170.624992189408,10|0,0:0|0:0,0:0:0:0:
289,108,109591,1,2,0:0:0:0:
290,123,109659,1,0,0:0:0:0:
289,137,109727,1,0,0:0:0:0:
285,150,109795,1,0,0:0:0:0:
279,163,109864,6,0,B|234:147|222:109|222:109|263:61|241:-6,1,183.749994392395,6|0,0:0|0:0,0:0:0:0:
134,133,110136,1,2,0:0:0:0:
136,148,110204,1,0,0:0:0:0:
141,162,110272,1,0,0:0:0:0:
149,175,110340,1,0,0:0:0:0:
158,188,110409,6,0,B|206:229|205:278|205:278|170:246|108:270,1,196.875007510186,10|0,0:0|0:0,0:0:0:0:
157,344,110682,1,2,0:0:0:0:
169,354,110750,1,0,0:0:0:0:
183,362,110818,1,0,0:0:0:0:
199,366,110886,1,0,0:0:0:0:
215,366,110955,6,0,B|263:329|321:352|321:352|310:327|316:304,1,157.499995193482,6|0,0:0|0:0,0:0:0:0:
333,204,111227,1,2,0:0:0:0:
335,191,111295,1,0,0:0:0:0:
337,178,111363,1,0,0:0:0:0:
339,165,111431,1,0,0:0:0:0:
341,152,111500,6,0,B|354:93|348:55|348:55|387:74|390:111,1,170.624992189408,10|0,0:0|0:0,0:0:0:0:
494,101,111773,1,2,0:0:0:0:
492,87,111841,1,0,0:0:0:0:
489,75,111909,1,0,0:0:0:0:
483,63,111977,1,0,0:0:0:0:
476,52,112045,6,0,L|480:-1,3,52.4999983978272,8|8|8|8,2:0|2:0|2:0|2:0,0:0:0:0:
389,110,112318,1,8,0:0:0:0:
389,123,112386,1,8,0:0:0:0:
390,136,112454,1,8,0:0:0:0:
391,149,112522,1,8,0:0:0:0:
392,162,112591,2,0,L|397:241,3,56.8749973964692,8|8|8|8,2:0|2:0|2:0|2:0,0:0:0:0:
381,314,112864,6,0,L|419:320,1,39.3749987983704,8|8,0:0|0:0,0:0:0:0:
295,263,113000,2,0,L|257:269,1,39.3749987983704,8|8,0:0|0:0,0:0:0:0:
158,384,113136,5,6,0:0:0:0:
129,368,113204,1,0,0:0:0:0:
96,362,113272,1,0,0:0:0:0:
63,366,113341,1,0,0:0:0:0:
32,372,113409,1,2,0:0:0:0:
5,354,113477,1,0,0:0:0:0:
0,322,113545,1,0,0:0:0:0:
18,296,113613,1,0,0:0:0:0:
49,290,113682,6,0,L|57:232,3,43.75,10|0|0|0,0:0|0:0|0:0|0:0,0:0:0:0:
13,153,113955,2,0,L|5:95,3,43.75,2|0|0|0,0:0|0:0|0:0|0:0,0:0:0:0:
56,16,114227,5,6,0:0:0:0:
83,33,114295,1,0,0:0:0:0:
115,40,114363,1,0,0:0:0:0:
147,37,114432,1,0,0:0:0:0:
180,34,114500,1,2,0:0:0:0:
211,45,114568,1,0,0:0:0:0:
235,67,114636,1,0,0:0:0:0:
248,97,114704,1,0,0:0:0:0:
248,129,114773,6,0,L|239:207,3,54.6875,10|0|0|0,0:0|0:0|0:0|0:0,0:0:0:0:
359,82,115045,2,0,L|350:4,3,54.6875,2|0|0|0,0:0|0:0|0:0|0:0,0:0:0:0:
495,37,115318,5,6,0:0:0:0:
486,56,115386,1,0,0:0:0:0:
481,78,115454,1,0,0:0:0:0:
481,100,115522,1,0,0:0:0:0:
485,121,115590,1,2,0:0:0:0:
494,140,115659,1,0,0:0:0:0:
499,162,115727,1,0,0:0:0:0:
499,184,115795,1,0,0:0:0:0:
495,205,115864,6,0,P|467:202|429:213,3,43.75,10|0|0|0,0:0|0:0|0:0|0:0,0:0:0:0:
372,256,116136,2,0,P|354:269|340:286,3,43.75,2|0|0|0,0:0|0:0|0:0|0:0,0:0:0:0:
226,287,116409,5,6,0:0:0:0:
221,277,116477,1,0,0:0:0:0:
217,266,116545,1,0,0:0:0:0:
215,256,116613,1,0,0:0:0:0:
214,245,116681,1,2,0:0:0:0:
215,234,116749,1,0,0:0:0:0:
216,223,116818,1,0,0:0:0:0:
220,213,116886,1,0,0:0:0:0:
224,203,116955,6,0,P|253:209|268:208,1,43.75,10|0,0:0|0:0,0:0:0:0:
143,134,117091,2,0,P|114:128|99:129,1,43.75
227,186,117227,2,0,P|256:192|271:191,1,43.75,2|0,0:0|0:0,0:0:0:0:
146,117,117363,2,0,P|117:111|102:112,1,43.75
256,40,117500,6,0,L|399:28,1,131.25,6|0,0:0|0:0,0:0:0:0:
482,45,117773,5,2,0:0:0:0:
462,71,117841,1,8,0:0:0:0:
453,102,117909,1,0,0:0:0:0:
456,135,117977,1,8,0:0:0:0:
470,165,118045,2,0,L|469:220,3,43.75,2|8|0|8,0:0|0:0|0:0|0:0,0:0:0:0:
429,314,118318,1,2,0:0:0:0:
429,314,118386,1,8,0:0:0:0:
429,314,118455,1,0,0:0:0:0:
429,314,118523,1,8,0:0:0:0:
429,314,118591,6,0,P|426:335|429:357,3,43.75,2|8|0|8,0:0|0:0|0:0|0:0,0:0:0:0:
344,262,118864,2,0,P|327:275|313:293,3,43.75,2|8|0|8,0:0|0:0|0:0|0:0,0:0:0:0:
204,254,119136,5,2,0:0:0:0:
197,264,119204,1,8,0:0:0:0:
192,273,119272,1,0,0:0:0:0:
189,283,119340,1,8,0:0:0:0:
186,294,119408,1,2,0:0:0:0:
185,305,119476,1,8,0:0:0:0:
186,316,119545,1,0,0:0:0:0:
187,327,119613,1,8,0:0:0:0:
191,336,119682,5,6,0:0:0:0:
168,312,119750,1,8,0:0:0:0:
137,302,119818,1,0,0:0:0:0:
105,307,119886,1,8,0:0:0:0:
79,327,119955,1,2,0:0:0:0:
47,319,120023,1,8,0:0:0:0:
30,292,120091,1,0,0:0:0:0:
37,260,120159,1,8,0:0:0:0:
64,243,120227,6,0,L|71:184,3,43.75,6|8|0|8,0:0|0:0|0:0|0:0,0:0:0:0:
153,100,120500,2,0,L|160:159,3,43.75,2|8|0|8,0:0|0:0|0:0|0:0,0:0:0:0:
263,279,120773,5,6,0:0:0:0:
268,269,120841,1,8,0:0:0:0:
272,258,120909,1,0,0:0:0:0:
274,248,120977,1,8,0:0:0:0:
275,237,121045,1,2,0:0:0:0:
274,226,121113,1,8,0:0:0:0:
273,215,121182,1,0,0:0:0:0:
269,205,121250,1,8,0:0:0:0:
265,195,121319,6,0,L|269:88,1,87.5,6|8,0:0|0:0,0:0:0:0:
10,29,121591,1,8,2:0:0:0:
8,50,121659,1,8,2:0:0:0:
7,72,121727,1,8,2:0:0:0:
6,94,121795,1,8,2:0:0:0:
5,116,121864,6,0,L|0:203,1,87.5,6|0,0:0|0:0,0:0:0:0:
73,384,122136,1,2,0:0:0:0:
73,373,122204,1,8,0:0:0:0:
74,362,122273,2,0,L|77:322,1,30.6249990653992,0|8,0:0|0:0,0:0:0:0:
204,286,122409,5,2,0:0:0:0:
231,253,122477,1,8,0:0:0:0:
273,246,122545,1,0,0:0:0:0:
309,269,122614,1,8,0:0:0:0:
350,281,122682,1,2,0:0:0:0:
385,258,122750,1,8,0:0:0:0:
391,216,122818,1,0,0:0:0:0:
363,184,122886,1,8,0:0:0:0:
321,184,122955,2,0,L|253:165,3,43.75,2|8|0|8,0:0|0:0|0:0|0:0,0:0:0:0:
366,75,123227,2,0,L|331:13,3,43.75,2|8|0|8,0:0|0:0|0:0|0:0,0:0:0:0:
512,101,123500,5,2,0:0:0:0:
511,111,123568,1,8,0:0:0:0:
510,122,123636,1,0,0:0:0:0:
509,133,123704,1,8,0:0:0:0:
508,144,123773,2,0,L|505:196,3,43.75,2|8|0|8,0:0|0:0|0:0|0:0,0:0:0:0:
456,289,124045,5,6,0:0:0:0:
421,268,124113,1,8,0:0:0:0:
382,284,124181,1,0,0:0:0:0:
374,325,124249,1,8,0:0:0:0:
341,352,124318,1,2,0:0:0:0:
298,353,124386,1,8,0:0:0:0:
264,326,124454,1,0,0:0:0:0:
254,285,124522,1,8,0:0:0:0:
273,246,124591,5,2,0:0:0:0:
240,274,124659,1,8,0:0:0:0:
197,275,124727,1,0,0:0:0:0:
163,249,124795,1,8,0:0:0:0:
124,231,124863,1,2,0:0:0:0:
82,239,124931,1,8,0:0:0:0:
53,270,124999,1,0,0:0:0:0:
48,313,125067,1,8,0:0:0:0:
69,350,125136,6,0,P|91:360|130:371,3,43.75,6|0|0|0,0:0|0:0|0:0|0:0,0:0:0:0:
163,249,125409,1,8,2:0:0:0:
164,205,125477,1,8,2:0:0:0:
166,161,125545,1,8,2:0:0:0:
168,117,125613,1,8,2:0:0:0:
169,74,125682,2,0,L|171:15,1,43.75,8|8,2:0|2:0,0:0:0:0:
256,120,125818,2,0,L|257:179,1,43.75,8|8,2:0|2:0,0:0:0:0:
258,244,125955,1,8,0:0:0:0:
258,254,126023,1,8,0:0:0:0:
258,265,126091,1,8,0:0:0:0:
258,276,126159,1,8,0:0:0:0:
258,287,126227,6,0,P|306:281|362:298,1,87.5,6|0,0:0|0:0,0:0:0:0:
448,349,126500,1,2,0:0:0:0:
465,316,126568,1,8,0:0:0:0:
468,279,126636,1,0,0:0:0:0:
454,245,126704,1,8,0:0:0:0:
436,212,126773,2,0,L|443:153,3,43.75,2|8|0|8,0:0|0:0|0:0|0:0,0:0:0:0:
354,56,127045,2,0,L|359:99,3,43.75,2|8|0|8,0:0|0:0|0:0|0:0,0:0:0:0:
284,196,127318,5,2,0:0:0:0:
256,172,127386,1,8,0:0:0:0:
220,161,127454,1,0,0:0:0:0:
184,167,127522,1,8,0:0:0:0:
152,186,127591,1,2,0:0:0:0:
127,213,127659,1,8,0:0:0:0:
92,224,127727,1,0,0:0:0:0:
55,216,127795,1,8,0:0:0:0:
26,194,127864,5,2,0:0:0:0:
24,205,127932,1,8,0:0:0:0:
22,216,128000,1,0,0:0:0:0:
20,226,128068,1,8,0:0:0:0:
18,237,128136,1,2,0:0:0:0:
15,247,128204,1,8,0:0:0:0:
13,258,128273,1,0,0:0:0:0:
11,269,128341,1,8,0:0:0:0:
9,279,128409,1,2,0:0:0:0:
477,117,129500,5,6,0:0:0:0:
467,122,129568,1,10,0:0:0:0:
457,124,129636,1,0,0:0:0:0:
446,125,129704,1,10,0:0:0:0:
435,124,129772,1,0,0:0:0:0:
424,121,129840,1,10,0:0:0:0:
414,117,129909,1,0,0:0:0:0:
405,111,129977,1,10,0:0:0:0:
397,103,130045,5,0,0:0:0:0:
380,91,130113,1,10,0:0:0:0:
360,83,130181,1,0,0:0:0:0:
338,80,130249,1,10,0:0:0:0:
316,83,130317,1,0,0:0:0:0:
296,90,130385,1,10,0:0:0:0:
278,103,130454,1,0,0:0:0:0:
264,120,130522,1,10,0:0:0:0:
255,139,130591,5,0,0:0:0:0:
234,115,130659,1,10,0:0:0:0:
205,100,130727,1,0,0:0:0:0:
172,96,130795,1,10,0:0:0:0:
141,104,130864,1,0,0:0:0:0:
110,112,130932,1,10,0:0:0:0:
77,108,131000,1,0,0:0:0:0:
48,93,131068,1,10,0:0:0:0:
27,69,131136,5,0,0:0:0:0:
25,93,131204,1,10,0:0:0:0:
23,117,131272,1,0,0:0:0:0:
21,141,131340,1,10,0:0:0:0:
20,165,131408,1,0,0:0:0:0:
18,189,131476,1,10,0:0:0:0:
16,213,131545,2,0,L|12:264,1,43.75,0|10,0:0|0:0,0:0:0:0:
138,302,131682,6,0,L|146:174,1,109.375,14|0,0:0|0:0,0:0:0:0:
249,30,131955,2,0,L|255:139,1,109.375,10|0,0:0|0:0,0:0:0:0:
241,267,132227,1,10,0:0:0:0:
273,0,132364,2,0,L|279:109,1,109.375,10|0,0:0|0:0,0:0:0:0:
48,227,132636,6,0,P|90:194|144:191,1,109.375,10|0,0:0|0:0,0:0:0:0:
415,283,132909,2,0,P|372:315|318:318,1,109.375,10|0,0:0|0:0,0:0:0:0:
98,157,134955,5,2,2:0:0:0:
94,178,135091,1,2,2:0:0:0:
90,199,135227,1,2,2:0:0:0:
77,74,135364,6,0,B|126:64|161:96|161:96|181:64|224:66|224:66|275:96|331:64,1,273.4375,2|0,2:0|0:0,0:0:0:0:
429,103,135773,1,8,2:0:0:0:
425,115,135841,1,8,2:0:0:0:
422,129,135909,1,8,2:0:0:0:
419,142,135977,1,8,2:0:0:0:
415,153,136045,6,0,L|410:32,1,109.375,10|0,0:0|0:0,0:0:0:0:
318,231,136318,2,0,L|322:340,1,109.375,10|0,0:0|0:0,0:0:0:0:
221,188,136591,2,0,L|218:133,1,54.6875,10|0,0:0|0:0,0:0:0:0:
348,249,136727,2,0,L|352:358,1,109.375,10|0,0:0|0:0,0:0:0:0:
288,76,137000,6,0,B|339:56|339:56|393:61,1,109.375,10|0,0:0|0:0,0:0:0:0:
224,308,137273,2,0,B|173:328|173:328|118:322,1,109.375,10|0,0:0|0:0,0:0:0:0:
464,262,138636,5,0,0:0:0:0:
461,245,138705,1,0,0:0:0:0:
458,228,138773,1,10,0:0:0:0:
433,344,138909,1,0,0:0:0:0:
454,149,139045,2,0,P|409:129|397:180,1,109.375,8|8,0:0|0:0,0:0:0:0:
313,358,139318,5,14,0:0:0:0:
311,344,139386,1,0,0:0:0:0:
309,330,139454,1,0,0:0:0:0:
308,317,139522,1,0,0:0:0:0:
261,284,139591,5,10,0:0:0:0:
262,270,139659,1,0,0:0:0:0:
264,256,139727,1,0,0:0:0:0:
265,243,139795,1,0,0:0:0:0:
295,206,139864,5,14,0:0:0:0:
256,222,139932,1,0,0:0:0:0:
215,224,140000,1,0,0:0:0:0:
179,206,140068,1,0,0:0:0:0:
152,175,140136,1,10,0:0:0:0:
141,136,140204,1,0,0:0:0:0:
148,96,140273,1,0,0:0:0:0:
170,62,140341,1,0,0:0:0:0:
205,41,140409,6,0,L|108:35,1,96.250002937317,10|0,0:0|0:0,0:0:0:0:
290,105,140682,2,0,L|386:99,1,96.250002937317,10|0,0:0|0:0,0:0:0:0:
215,224,140955,1,10,0:0:0:0:
310,68,141091,2,0,L|406:62,1,96.250002937317,0|10,0:0|0:0,0:0:0:0:
385,269,141364,1,0,0:0:0:0:
360,135,141500,1,10,0:0:0:0:
347,310,141636,6,0,P|414:292|472:332,1,144.375004405975
495,346,141909,2,0,L|500:244,1,96.250002937317,0|10,0:0|0:0,0:0:0:0:
508,146,142182,1,0,0:0:0:0:
508,146,142318,1,10,0:0:0:0:
385,225,142455,1,0,0:0:0:0:
368,47,142591,6,0,P|356:102|363:149,2,96.250002937317,10|0|10,0:0|0:0|0:0,0:0:0:0:
244,134,143000,1,0,0:0:0:0:
458,42,143136,2,0,L|267:27,1,192.500005874634,10|10,0:0|0:0,0:0:0:0:
177,20,143545,1,0,0:0:0:0:
171,253,143682,5,10,0:0:0:0:
216,100,143818,1,0,0:0:0:0:
61,138,143955,1,10,0:0:0:0:
107,311,144091,6,0,B|89:293|89:293|127:294|151:268|151:268|195:292|247:279,1,192.500005874634,6|0,0:0|0:0,0:0:0:0:
335,242,144500,1,10,0:0:0:0:
346,238,144568,1,0,0:0:0:0:
358,236,144636,1,0,0:0:0:0:
370,235,144704,1,0,0:0:0:0:
382,234,144773,6,0,L|388:331,1,96.250002937317,14|0,0:0|0:0,0:0:0:0:
318,149,145046,2,0,L|324:53,1,96.250002937317,10|0,0:0|0:0,0:0:0:0:
199,224,145319,1,10,0:0:0:0:
355,129,145455,2,0,L|361:33,1,96.250002937317,0|10,0:0|0:0,0:0:0:0:
154,54,145728,1,0,0:0:0:0:
288,79,145864,1,10,0:0:0:0:
262,278,146000,6,0,P|280:211|240:153,1,144.375004405975
190,153,146273,2,0,L|82:151,1,96.250002937317,0|10,0:0|0:0,0:0:0:0:
1,150,146545,1,0,0:0:0:0:
83,253,146682,1,10,0:0:0:0:
8,320,146818,1,0,0:0:0:0:
172,246,146955,6,0,P|160:290|170:364,2,96.250002937317,10|0|10,0:0|0:0|0:0,0:0:0:0:
239,152,147364,1,0,0:0:0:0:
240,307,147500,2,0,L|431:292,1,192.500005874634,10|10,0:0|0:0,0:0:0:0:
511,338,147909,1,0,0:0:0:0:
443,151,148045,5,8,2:0:0:0:
442,162,148113,1,8,2:0:0:0:
441,174,148181,1,8,2:0:0:0:
440,186,148249,1,8,2:0:0:0:
400,222,148318,5,2,0:0:0:0:
401,233,148386,1,0,0:0:0:0:
402,245,148454,1,0,0:0:0:0:
403,257,148522,1,0,0:0:0:0:
431,291,148591,5,8,0:0:0:0:
392,262,148659,1,8,0:0:0:0:
345,250,148727,1,8,0:0:0:0:
298,258,148795,1,8,0:0:0:0:
257,283,148863,1,8,0:0:0:0:
216,308,148932,1,8,0:0:0:0:
169,316,149000,1,8,0:0:0:0:
122,304,149068,1,8,0:0:0:0:
83,275,149136,5,6,0:0:0:0:
256,192,149205,12,0,151250,0:0:0:0:
122,100,151318,5,2,0:2:0:0:
117,195,151500,1,0,2:0:0:0:
202,152,151682,1,0,2:0:0:0:
197,268,151864,2,0,L|313:297,1,116.666666666667,2|0,0:2|0:0,0:0:0:0:
433,237,152409,2,0,L|320:208,1,116.666666666667
239,103,152955,2,0,L|366:135,1,116.666666666667
145,57,153500,6,0,P|77:74|15:44,1,116.666666666667
31,301,154045,2,0,P|44:243|19:186,1,116.666666666667
239,303,154591,2,0,L|113:296,1,116.666666666667
283,140,155136,1,8,0:2:0:0:
217,191,155318,1,8,2:0:0:0:
293,222,155500,1,8,2:0:0:0:
371,352,155682,6,0,L|483:333,1,87.5,8|8,0:0|2:0,0:0:0:0:
483,283,156023,1,8,2:0:0:0:
480,272,156091,1,8,2:0:0:0:
477,261,156159,1,8,2:0:0:0:
445,227,156227,6,0,P|387:201|381:160,1,87.5,8|0,0:0|2:0,0:0:0:0:
384,147,156591,1,0,0:0:0:0:
323,43,156773,6,0,P|281:31|226:50,1,87.5,8|2,0:0|0:0,0:0:0:0:
106,9,157318,2,0,P|156:43|263:28,1,145.833333333333
277,123,157864,5,2,0:2:0:0:
253,328,158136,1,2,0:2:0:0:
239,179,158409,2,0,P|290:190|258:124,1,145.833333333333,2|0,0:2|0:0,0:0:0:0:
199,87,158955,6,0,L|99:70,1,87.5,2|2,0:2|0:2,0:0:0:0:
18,167,159500,2,0,P|65:177|85:285,1,145.833333333333,2|0,0:2|0:0,0:0:0:0:
139,348,160045,6,0,L|141:313,2,29.1666666666667,2|0|0,0:2|2:0|2:0,0:0:0:0:
222,267,160318,2,0,L|223:296,2,29.1666666666667,0|0|0,2:2|2:0|2:0,0:0:0:0:
293,356,160591,1,2,0:2:0:0:
320,365,160681,1,0,0:0:0:0:
349,362,160772,1,0,2:0:0:0:
374,348,160863,1,0,2:0:0:0:
391,324,160954,1,0,2:0:0:0:
398,296,161045,1,0,2:0:0:0:
392,268,161136,6,0,L|394:229,5,29.1666666666667,2|0|0|0|0|0,0:2|2:0|2:0|2:0|2:0|2:0,0:0:0:0:
308,156,161682,2,0,L|310:195,5,29.1666666666667,2|0|0|0|0|0,0:2|2:0|2:0|2:0|2:0|2:0,0:0:0:0:
411,76,162227,5,2,0:2:0:0:
396,74,162317,1,0,2:0:0:0:
381,73,162408,1,2,2:0:0:0:
367,72,162499,1,2,2:0:0:0:
352,71,162590,1,2,2:0:0:0:
338,70,162681,1,0,2:0:0:0:
323,69,162772,1,2,0:2:0:0:
309,68,162863,1,0,2:0:0:0:
294,67,162954,1,2,2:2:0:0:
280,66,163045,1,0,2:0:0:0:
265,65,163136,1,2,2:2:0:0:
251,64,163226,1,0,2:0:0:0:
236,63,163317,5,6,0:0:0:0:
81,179,163500,1,0,2:0:0:0:
259,256,163682,1,0,2:0:0:0:
142,88,163864,5,2,0:0:0:0:
154,324,164045,1,0,2:0:0:0:
194,186,164227,1,0,2:0:0:0:
19,321,164409,5,2,0:0:0:0:
199,345,164591,1,0,2:0:0:0:
51,344,164773,1,0,2:0:0:0:
133,105,164955,5,2,0:0:0:0:
172,324,165136,1,0,2:0:0:0:
224,195,165318,1,0,2:0:0:0:
333,373,165500,5,2,0:0:0:0:
488,257,165683,1,0,2:0:0:0:
310,180,165865,1,0,2:0:0:0:
427,348,166045,5,2,0:0:0:0:
415,112,166228,1,0,2:0:0:0:
375,250,166410,1,0,2:0:0:0:
357,26,166591,5,2,0:0:0:0:
222,189,166773,2,0,L|317:179,1,87.5,8|0,0:0|0:0,0:0:0:0:
384,169,167136,1,2,0:0:0:0:
179,107,167318,1,8,0:0:0:0:
309,179,167500,1,8,0:0:0:0:
181,254,167682,6,0,P|173:283|170:312,2,58.3333333333333,6|0|0,0:0|2:0|2:0,0:0:0:0:
263,60,168227,1,2,0:0:0:0:
268,283,168409,1,0,2:0:0:0:
236,94,168591,1,0,2:0:0:0:
361,272,168773,2,0,P|390:275|430:288,2,58.3333333333333,2|0|0,0:0|2:0|2:0,0:0:0:0:
232,53,169318,2,0,P|210:39|183:-2,2,58.3333333333333,2|0|0,0:0|2:0|2:0,0:0:0:0:
365,226,169864,5,8,0:0:0:0:
308,276,170045,1,8,0:0:0:0:
232,271,170227,1,8,0:0:0:0:
325,137,170409,5,8,0:0:0:0:
397,189,170591,1,8,0:0:0:0:
411,276,170773,1,8,0:0:0:0:
225,138,170955,5,8,2:0:0:0:
407,109,171136,1,8,2:0:0:0:
303,178,171318,1,8,2:0:0:0:
192,31,171500,5,8,2:0:0:0:
192,275,171682,1,8,2:0:0:0:
386,126,171864,1,8,2:0:0:0:
154,153,172045,6,0,P|92:160|26:62,1,175,6|0,0:0|0:0,0:0:0:0:
32,47,172409,1,2,0:2:0:0:
54,249,172591,2,0,L|42:374,1,116.666666666667,10|2,0:0|0:2,0:0:0:0:
23,218,172955,1,2,0:2:0:0:
178,242,173136,2,0,B|238:231|238:231|282:248|282:248|368:238,1,175,2|0,0:2|0:0,0:0:0:0:
383,232,173500,1,2,0:2:0:0:
138,166,173682,1,10,0:0:0:0:
263,238,173864,1,2,0:2:0:0:
163,322,174045,1,2,0:2:0:0:
232,97,174227,6,0,P|156:138|77:106,1,175,2|0,0:2|0:0,0:0:0:0:
64,73,174591,1,2,0:2:0:0:
315,37,174773,2,0,L|311:160,1,116.666666666667,10|2,0:0|0:2,0:0:0:0:
274,15,175136,1,2,0:2:0:0:
266,228,175318,2,0,B|316:193|316:193|464:199,1,175,2|0,0:2|0:0,0:0:0:0:
463,197,175682,1,2,0:2:0:0:
390,362,175864,1,10,0:0:0:0:
227,336,176045,5,2,0:2:0:0:
171,318,176135,1,0,0:0:0:0:
115,329,176226,1,2,0:2:0:0:
59,346,176318,1,0,0:0:0:0:
12,320,176409,6,0,B|34:238|34:238|21:143,1,175,6|0,0:0|0:0,0:0:0:0:
11,122,176773,1,2,0:2:0:0:
210,77,176955,2,0,L|79:71,1,116.666666666667,8|2,0:0|0:2,0:0:0:0:
226,45,177318,1,2,0:2:0:0:
160,224,177500,2,0,P|225:203|280:297,1,175,2|0,0:2|0:0,0:0:0:0:
290,304,177864,1,2,0:2:0:0:
312,124,178045,1,10,0:0:0:0:
445,166,178227,1,2,0:2:0:0:
411,29,178409,1,2,0:2:0:0:
512,210,178591,6,0,L|500:384,1,175,2|0,0:2|0:0,0:0:0:0:
414,294,178955,2,0,L|425:168,1,116.666666666667,2|10,0:2|0:0,0:0:0:0:
329,330,179318,2,0,B|334:269|334:269|312:217,1,116.666666666667,2|2,0:2|0:2,0:0:0:0:
190,136,179682,1,2,0:2:0:0:
30,294,179864,1,8,2:0:0:0:
79,263,179954,1,8,2:0:0:0:
136,269,180045,1,8,2:0:0:0:
179,307,180136,1,8,2:0:0:0:
195,362,180227,6,0,L|205:283,1,58.3333333333333,8|8,2:0|2:0,0:0:0:0:
338,185,180409,2,0,L|284:207,1,58.3333333333333,8|8,0:0|0:0,0:0:0:0:
114,149,180591,2,0,L|160:184,1,58.3333333333333,8|8,0:0|0:0,0:0:0:0:
265,35,180773,6,0,B|304:29|338:59|338:59|375:35|375:35|395:53|423:50,1,175,6|0,0:0|0:0,0:0:0:0:
454,64,181136,1,2,0:2:0:0:
486,270,181318,2,0,P|488:240|485:211,1,58.3333333333333,10|0,0:0|0:0,0:0:0:0:
434,339,181500,1,2,0:2:0:0:
390,336,181590,1,0,0:0:0:0:
346,333,181681,1,2,0:0:0:0:
303,330,181772,1,0,0:0:0:0:
259,327,181863,5,2,0:2:0:0:
243,313,182227,1,2,0:2:0:0:
169,179,182409,1,10,0:2:0:0:
123,212,182499,1,0,0:0:0:0:
66,205,182590,1,2,0:2:0:0:
31,161,182681,1,0,0:0:0:0:
36,104,182772,1,2,0:2:0:0:
79,67,182863,1,0,0:0:0:0:
135,70,182955,6,0,L|275:44,1,116.666666666667,2|2,0:2|0:2,0:0:0:0:
290,70,183227,1,0,0:0:0:0:
317,19,183318,1,2,0:2:0:0:
327,170,183500,1,10,0:2:0:0:
462,21,183682,1,2,0:2:0:0:
448,77,183772,1,0,0:0:0:0:
457,134,183863,1,2,0:2:0:0:
466,191,183954,1,0,0:0:0:0:
441,243,184045,6,0,L|444:312,1,58.3333333333333,2|0,0:2|0:0,0:0:0:0:
354,157,184227,2,0,L|351:226,1,58.3333333333333,2|0,0:2|0:0,0:0:0:0:
457,78,184409,2,0,L|460:147,1,58.3333333333333,2|0,0:2|0:0,0:0:0:0:
489,351,184591,5,10,0:2:0:0:
433,366,184681,1,0,0:0:0:0:
377,353,184772,1,2,0:2:0:0:
333,315,184863,1,2,0:2:0:0:
311,260,184954,1,2,0:2:0:0:
320,204,185045,1,2,0:2:0:0:
354,157,185136,6,0,L|344:35,1,116.666666666667,2|2,0:2|0:2,0:0:0:0:
275,62,185409,1,0,0:0:0:0:
218,76,185499,1,2,0:2:0:0:
162,64,185590,1,0,0:0:0:0:
119,22,185682,1,10,0:2:0:0:
50,134,185864,5,2,0:2:0:0:
48,168,185954,1,0,0:0:0:0:
44,219,186045,1,2,0:2:0:0:
39,277,186136,1,0,0:0:0:0:
63,347,186227,5,2,0:2:0:0:
120,309,186317,1,0,0:0:0:0:
189,305,186408,1,2,0:2:0:0:
239,334,186499,1,0,0:0:0:0:
275,346,186591,1,2,0:2:0:0:
317,328,186682,1,0,0:0:0:0:
364,286,186773,6,0,P|362:251|354:217,1,58.3333333333333,10|0,0:2|0:0,0:0:0:0:
487,287,186955,2,0,P|485:322|477:356,1,58.3333333333333,2|0,0:2|0:0,0:0:0:0:
448,175,187136,2,0,P|453:147|455:118,1,58.3333333333333,2|0,0:2|0:0,0:0:0:0:
406,42,187318,5,2,0:2:0:0:
212,62,187500,1,2,0:2:0:0:
225,56,187590,1,0,0:0:0:0:
239,51,187681,1,2,0:2:0:0:
253,48,187772,1,0,0:0:0:0:
268,47,187864,5,10,0:2:0:0:
291,98,187954,1,0,0:0:0:0:
275,153,188045,1,2,0:2:0:0:
227,183,188136,1,0,0:0:0:0:
170,174,188227,1,2,0:2:0:0:
134,130,188318,1,0,0:0:0:0:
136,73,188409,6,0,L|143:9,1,58.3333333333333,6|0,0:0|0:0,0:0:0:0:
36,111,188591,2,0,L|42:175,1,58.3333333333333,8|8,2:0|2:0,0:0:0:0:
146,275,188773,2,0,B|147:242|147:242|140:205,1,58.3333333333333,8|8,2:0|2:0,0:0:0:0:
2,361,188955,5,8,2:0:0:0:
57,343,189045,1,8,2:0:0:0:
115,341,189136,1,8,0:0:0:0:
171,356,189227,1,8,0:0:0:0:
227,371,189318,1,8,0:0:0:0:
285,369,189409,1,8,0:0:0:0:
341,352,189500,6,0,B|336:286|336:286|347:236,1,116.666666666667,6|2,0:2|0:2,0:0:0:0:
428,214,189773,1,0,0:0:0:0:
427,228,189863,1,2,0:2:0:0:
427,243,189954,1,0,0:0:0:0:
427,257,190045,2,0,L|428:325,1,43.7500016689301,10|0,0:2|0:0,0:0:0:0:
493,96,190227,1,2,0:2:0:0:
463,127,190317,1,0,0:0:0:0:
421,133,190408,1,2,0:2:0:0:
383,113,190499,1,0,0:0:0:0:
365,74,190591,5,2,0:2:0:0:
357,102,190681,1,0,0:0:0:0:
340,125,190772,1,2,0:2:0:0:
316,140,190863,1,0,0:0:0:0:
287,146,190954,1,2,0:2:0:0:
259,140,191045,1,0,0:0:0:0:
234,125,191136,5,10,0:2:0:0:
240,108,191226,1,0,0:0:0:0:
240,91,191317,1,2,0:2:0:0:
235,74,191408,1,0,0:0:0:0:
225,60,191499,1,2,0:2:0:0:
211,49,191590,1,0,0:0:0:0:
194,44,191682,6,0,L|63:38,1,131.25000500679,2|0,0:2|0:0,0:0:0:0:
28,37,192045,1,2,0:2:0:0:
51,271,192227,2,0,B|59:209|59:209|45:147,1,116.666666666667,10|2,0:2|0:2,0:0:0:0:
124,138,192500,1,0,0:0:0:0:
126,152,192590,1,2,0:2:0:0:
129,166,192681,1,0,0:0:0:0:
132,180,192773,2,0,L|140:217,1,29.1666666666667,2|0,0:2|0:0,0:0:0:0:
212,124,192955,6,0,B|188:50|188:50|285:50,1,175,2|0,0:2|0:0,0:0:0:0:
360,77,193318,1,14,0:0:0:0:
358,95,193409,1,0,0:0:0:0:
356,109,193500,2,0,L|352:167,1,58.3333333333333,2|0,0:2|0:0,0:0:0:0:
474,285,193682,2,0,L|470:226,1,58.3333333333333,2|0,0:2|0:0,0:0:0:0:
397,371,193864,5,6,0:2:0:0:
360,347,193954,1,0,0:0:0:0:
318,335,194045,1,2,0:2:0:0:
275,337,194136,1,0,0:0:0:0:
238,355,194227,2,0,L|163:336,1,58.3333333333333,2|0,0:2|0:0,0:0:0:0:
15,238,194409,5,10,0:2:0:0:
70,252,194499,1,0,0:0:0:0:
124,233,194590,1,2,0:2:0:0:
158,187,194681,1,0,0:0:0:0:
159,129,194772,5,2,0:2:0:0:
185,76,194864,2,0,P|239:49|299:60,1,116.666666666667
350,117,195136,5,2,0:2:0:0:
375,130,195226,1,0,0:0:0:0:
404,130,195317,1,2,0:2:0:0:
429,116,195408,1,0,0:0:0:0:
444,91,195500,6,0,L|441:18,1,58.3333333333333,10|0,0:2|0:0,0:0:0:0:
508,223,195682,2,0,L|511:150,1,58.3333333333333,2|0,0:2|0:0,0:0:0:0:
439,330,195864,2,0,L|436:257,1,58.3333333333333,2|0,0:2|0:0,0:0:0:0:
305,341,196045,5,2,0:2:0:0:
280,325,196135,1,0,0:0:0:0:
252,316,196226,1,2,0:2:0:0:
223,315,196317,1,0,0:0:0:0:
195,322,196408,1,2,0:2:0:0:
170,336,196499,1,0,0:0:0:0:
149,356,196591,1,10,0:2:0:0:
120,350,196681,1,0,0:0:0:0:
96,334,196772,1,2,0:2:0:0:
81,309,196863,1,0,0:0:0:0:
77,280,196954,1,2,0:2:0:0:
84,253,197045,1,0,0:0:0:0:
43,216,197136,5,2,0:2:0:0:
86,221,197226,1,0,0:0:0:0:
126,206,197317,1,2,0:2:0:0:
156,174,197408,1,0,0:0:0:0:
167,132,197499,1,2,0:2:0:0:
158,90,197591,1,0,0:0:0:0:
164,47,197681,1,10,0:2:0:0:
193,15,197772,1,0,0:0:0:0:
235,7,197863,1,2,0:2:0:0:
275,24,197954,1,0,0:0:0:0:
297,60,198045,1,2,0:2:0:0:
294,103,198136,1,0,0:0:0:0:
262,169,198227,5,6,0:2:0:0:
314,149,198317,1,0,0:0:0:0:
362,178,198408,1,2,0:2:0:0:
368,234,198499,1,0,0:0:0:0:
328,273,198591,1,2,0:2:0:0:
292,310,198681,1,0,0:0:0:0:
304,354,198772,1,10,0:2:0:0:
343,363,198863,1,0,0:0:0:0:
376,350,198955,1,2,0:2:0:0:
393,327,199045,1,0,0:0:0:0:
400,304,199136,1,2,0:2:0:0:
401,286,199227,1,0,0:0:0:0:
400,274,199318,6,0,L|390:170,1,87.5,6|8,0:0|0:0,0:0:0:0:
239,30,199591,2,0,L|229:134,1,87.5,6|8,0:0|0:0,0:0:0:0:
211,299,199864,1,6,0:0:0:0:
211,299,199932,1,0,0:0:0:0:
211,299,200000,1,8,0:0:0:0:
155,121,200136,1,6,0:0:0:0:
123,338,200273,1,2,0:0:0:0:
391,186,200409,5,6,0:0:0:0:
437,320,202591,5,10,0:0:0:0:
437,320,202659,1,0,0:0:0:0:
437,320,202728,2,0,L|499:330,1,43.75
352,258,202864,1,10,0:0:0:0:
352,258,202932,1,0,0:0:0:0:
352,258,203001,2,0,L|290:268,1,43.75
428,158,203137,5,10,0:0:0:0:
428,158,203205,1,0,0:0:0:0:
428,158,203273,2,0,P|438:190|434:218,1,43.75
337,76,203410,1,10,0:0:0:0:
337,76,203478,1,0,0:0:0:0:
337,76,203546,2,0,P|367:60|384:37,1,43.75
212,160,203682,5,10,0:0:0:0:
213,149,203750,1,0,0:0:0:0:
214,138,203819,2,0,L|218:81,1,43.75
106,218,203955,1,10,0:0:0:0:
105,207,204023,1,0,0:0:0:0:
104,196,204092,2,0,L|100:139,1,43.75
19,347,204228,5,8,0:0:0:0:
55,321,204296,1,8,0:0:0:0:
97,311,204364,1,8,0:0:0:0:
140,317,204432,1,8,0:0:0:0:
186,357,204500,5,8,0:0:0:0:
186,347,204568,1,8,0:0:0:0:
185,336,204636,1,8,0:0:0:0:
185,325,204704,1,8,0:0:0:0:
210,279,204772,5,6,0:0:0:0:
85,294,206955,6,0,L|37:305,2,43.75,10|0|0,0:0|0:0|0:0,0:0:0:0:
237,253,207228,2,0,L|285:264,2,43.75,10|0|0,0:0|0:0|0:0,0:0:0:0:
69,327,207500,6,0,L|21:338,2,43.75,10|0|0,0:0|0:0|0:0,0:0:0:0:
265,219,207773,2,0,L|313:230,2,43.75,10|0|0,0:0|0:0|0:0,0:0:0:0:
53,360,208046,6,0,L|5:371,2,43.75,10|0|0,0:0|0:0|0:0,0:0:0:0:
293,185,208319,2,0,L|341:196,2,43.75,10|0|0,0:0|0:0|0:0,0:0:0:0:
80,41,208591,5,8,0:0:0:0:
81,51,208659,1,8,0:0:0:0:
82,62,208727,1,8,0:0:0:0:
82,73,208795,1,8,0:0:0:0:
116,110,208864,5,8,0:0:0:0:
116,120,208932,1,8,0:0:0:0:
117,131,209000,1,8,0:0:0:0:
117,142,209068,1,8,0:0:0:0:
148,180,209137,5,6,0:0:0:0:
168,67,211319,6,0,L|262:57,1,87.5,6|10,0:0|0:0,0:0:0:0:
94,21,211592,1,0,0:0:0:0:
282,49,211727,1,10,0:0:0:0:
109,181,211865,2,0,B|114:134|114:134|95:86,1,87.5,0|10,0:0|0:0,0:0:0:0:
150,275,212136,1,0,0:0:0:0:
222,152,212274,1,10,0:0:0:0:
37,303,212410,5,10,0:0:0:0:
37,303,212478,1,0,0:0:0:0:
37,303,212546,2,0,L|81:305,1,43.75
241,331,212682,1,10,0:0:0:0:
241,331,212750,1,0,0:0:0:0:
241,331,212819,2,0,L|197:333,1,43.75
346,224,212955,5,8,0:0:0:0:
348,256,213023,1,8,0:0:0:0:
349,289,213091,1,8,0:0:0:0:
350,322,213159,1,8,0:0:0:0:
351,355,213228,5,8,0:0:0:0:
354,344,213296,1,8,0:0:0:0:
356,333,213364,1,8,0:0:0:0:
359,322,213432,1,8,0:0:0:0:
409,295,213500,5,6,0:0:0:0:
65,227,215136,5,10,0:0:0:0:
86,131,215273,1,0,0:0:0:0:
175,291,215409,5,10,0:0:0:0:
154,195,215546,1,0,0:0:0:0:
40,338,215682,6,0,B|152:325|152:325|221:364,1,175,6|10,0:0|0:0,0:0:0:0:
338,304,216091,1,0,0:0:0:0:
252,201,216227,1,2,0:0:0:0:
252,201,216295,1,0,0:0:0:0:
252,201,216364,1,0,0:0:0:0:
390,152,216500,2,0,P|400:191|392:239,1,87.5,10|0,0:0|0:0,0:0:0:0:
115,73,216773,6,0,L|224:65,1,87.5,2|0,0:0|0:0,0:0:0:0:
301,59,217046,1,10,0:0:0:0:
21,19,217182,6,0,L|31:159,1,131.25,2|0,0:0|0:0,0:0:0:0:
35,190,217455,1,0,0:0:0:0:
116,74,217591,1,8,0:0:0:0:
117,255,217727,1,8,0:0:0:0:
337,140,217864,6,0,P|271:128|191:206,1,175,6|10,0:0|0:0,0:0:0:0:
208,352,218273,1,0,0:0:0:0:
286,220,218409,1,2,0:0:0:0:
399,326,218545,2,0,L|283:318,1,87.5,0|10,0:0|0:0,0:0:0:0:
470,186,218818,5,0,0:0:0:0:
430,307,218955,1,2,0:0:0:0:
465,151,219091,1,0,0:0:0:0:
336,195,219227,1,10,0:0:0:0:
488,107,219364,1,0,0:0:0:0:
308,20,219500,5,2,0:1:0:0:
307,30,219568,1,0,0:0:0:0:
306,41,219636,1,8,0:0:0:0:
305,52,219704,1,8,0:0:0:0:
304,63,219773,1,8,2:0:0:0:
273,50,219841,1,8,2:0:0:0:
241,46,219909,1,8,2:0:0:0:
209,52,219977,1,8,2:0:0:0:
179,66,220045,6,0,B|137:42|68:44|68:44|92:74|83:111,1,175,6|10,0:0|0:0,0:0:0:0:
93,260,220455,1,0,0:0:0:0:
88,129,220591,1,2,0:0:0:0:
206,307,220727,2,0,B|123:300|123:300|83:346,1,131.25,10|0,0:0|0:0,0:0:0:0:
75,362,221000,1,0,0:0:0:0:
297,370,221136,6,0,B|294:306|294:306|312:267|312:267|306:194,1,175,2|10,0:0|0:0,0:0:0:0:
463,95,221545,1,0,0:0:0:0:
415,253,221682,1,2,0:0:0:0:
304,122,221818,1,10,0:0:0:0:
301,351,221955,5,6,0:0:0:0:
379,181,222091,1,0,0:0:0:0:
140,158,222227,6,0,L|129:244,1,87.5,14|0,0:0|0:0,0:0:0:0:
286,95,222499,2,0,L|232:25,1,87.5,10|0,0:0|0:0,0:0:0:0:
328,242,222772,2,0,L|414:252,1,87.5,10|0,0:0|0:0,0:0:0:0:
198,191,223045,2,0,L|128:244,1,87.5,10|0,0:0|0:0,0:0:0:0:
18,32,223318,5,8,2:0:0:0:
48,62,223386,1,8,2:0:0:0:
62,103,223454,1,8,2:0:0:0:
55,146,223522,1,8,2:0:0:0:
30,181,223591,2,0,L|32:225,3,43.75,8|8|8|8,0:0|0:0|0:0|0:0,0:0:0:0:
43,353,223864,5,6,0:0:0:0:
53,353,223932,1,0,0:0:0:0:
64,354,224000,1,0,0:0:0:0:
75,355,224068,1,0,0:0:0:0:
115,331,224137,5,8,0:0:0:0:
125,331,224205,1,8,0:0:0:0:
136,332,224273,1,8,0:0:0:0:
147,333,224341,1,8,0:0:0:0:
189,312,224410,6,0,B|196:182|196:182|246:236,1,175,6|10,0:0|0:0,0:0:0:0:
369,203,224818,1,0,0:0:0:0:
381,58,224955,1,0,0:0:0:0:
381,58,225023,1,0,0:0:0:0:
381,58,225091,1,0,0:0:0:0:
452,243,225227,2,0,P|460:193|428:141,1,87.5,10|0,0:0|0:0,0:0:0:0:
297,334,225500,6,0,L|406:342,1,87.5,2|0,0:0|0:0,0:0:0:0:
483,348,225773,1,8,0:0:0:0:
335,257,225909,2,0,B|266:252|266:252|236:268|236:268|164:262,1,175,6|8,0:0|0:0,0:0:0:0:
15,257,226318,1,8,0:0:0:0:
84,374,226455,1,8,0:0:0:0:
113,143,226591,5,6,0:0:0:0:
116,105,226864,2,0,L|120:16,1,87.5,10|0,0:0|0:0,0:0:0:0:
222,225,227136,2,0,L|226:314,1,87.5,10|0,0:0|0:0,0:0:0:0:
249,192,227409,1,10,0:0:0:0:
178,384,227545,1,0,0:0:0:0:
124,229,227682,5,10,0:0:0:0:
318,277,227818,1,0,0:0:0:0:
225,312,227955,1,10,0:0:0:0:
261,118,228091,1,0,0:0:0:0:
394,314,228227,5,10,0:0:0:0:
189,306,228364,1,0,0:0:0:0:
332,176,228500,1,14,0:0:0:0:
367,384,228636,1,0,0:0:0:0:
176,112,228773,6,0,B|229:104|229:104|260:117,1,87.5,14|0,0:0|0:0,0:0:0:0:
386,217,229046,2,0,L|255:229,1,131.25,10|0,0:0|0:0,0:0:0:0:
224,232,229319,1,0,0:0:0:0:
459,159,229455,2,0,L|468:247,1,87.5,10|0,0:0|0:0,0:0:0:0:
432,124,229728,1,0,0:0:0:0:
472,361,229864,6,0,P|397:320|319:353,1,175,14|10,0:0|0:0,0:0:0:0:
196,342,230273,2,0,L|199:235,1,87.5
203,95,230545,1,10,0:0:0:0:
118,239,230682,1,2,0:0:0:0:
65,120,230818,1,0,0:0:0:0:
330,112,230955,6,0,L|241:100,1,87.5,14|0,0:0|0:0,0:0:0:0:
443,271,231228,2,0,L|515:216,1,87.5,10|0,0:0|0:0,0:0:0:0:
244,249,231500,2,0,L|232:338,1,87.5,10|0,0:0|0:0,0:0:0:0:
432,102,231773,2,0,L|378:30,1,87.5,10|0,0:0|0:0,0:0:0:0:
373,330,232046,5,10,0:0:0:0:
363,196,232182,1,0,0:0:0:0:
327,356,232319,1,10,0:0:0:0:
477,270,232455,1,0,0:0:0:0:
260,194,232591,5,10,0:0:0:0:
449,258,232728,1,0,0:0:0:0:
345,82,232864,1,10,0:0:0:0:
327,338,233000,1,0,0:0:0:0:
244,105,233137,6,0,P|223:100|190:101,3,43.75,6|0|0|0,0:0|0:0|0:0|0:0,0:0:0:0:
50,31,233410,1,8,2:0:0:0:
91,47,233478,1,8,2:0:0:0:
119,79,233546,1,8,2:0:0:0:
130,121,233614,1,8,2:0:0:0:
120,163,233682,6,0,L|123:216,3,43.75,6|0|0|0,0:0|0:0|0:0|0:0,0:0:0:0:
65,333,233955,2,0,L|68:280,3,43.75,8|8|8|8,0:0|0:0|0:0|0:0,0:0:0:0:
171,312,234228,5,6,0:0:0:0:
182,307,234296,1,0,0:0:0:0:
192,304,234364,1,0,0:0:0:0:
203,303,234432,1,0,0:0:0:0:
214,303,234500,1,8,0:0:0:0:
225,305,234568,1,8,0:0:0:0:
235,308,234637,1,8,0:0:0:0:
245,312,234705,1,8,0:0:0:0:
254,318,234773,5,6,0:0:0:0:
287,289,234841,1,0,0:0:0:0:
330,280,234909,1,0,0:0:0:0:
371,292,234978,1,0,0:0:0:0:
413,303,235046,1,8,0:0:0:0:
454,291,235114,1,8,0:0:0:0:
483,259,235182,1,8,0:0:0:0:
491,216,235250,1,8,0:0:0:0:
476,176,235319,6,0,L|464:365,1,175,6|2,0:0|0:0,0:0:0:0:
99,260,237500,5,6,0:0:0:0:
384,89,239682,5,6,0:0:0:0:
425,155,241318,5,14,0:0:0:0:
424,165,241386,1,0,0:0:0:0:
423,176,241454,1,0,0:0:0:0:
422,187,241522,1,0,0:0:0:0:
455,221,241591,5,14,0:0:0:0:
454,231,241659,1,0,0:0:0:0:
453,242,241727,1,0,0:0:0:0:
452,253,241795,1,0,0:0:0:0:
468,295,241864,6,0,B|422:304|376:282|376:282|360:300|376:355,1,157.499995193482,6|0,0:0|0:0,0:0:0:0:
278,348,242136,1,2,0:0:0:0:
265,345,242204,1,0,0:0:0:0:
252,342,242272,1,0,0:0:0:0:
239,339,242340,1,0,0:0:0:0:
226,337,242409,6,0,B|180:303|128:314|128:314|135:273|107:239,1,170.624992189408,10|0,0:0|0:0,0:0:0:0:
36,187,242682,1,2,0:0:0:0:
36,200,242750,1,0,0:0:0:0:
36,213,242818,1,0,0:0:0:0:
34,226,242886,1,0,0:0:0:0:
31,238,242955,6,0,B|3:191|19:120|19:120|50:126|94:92,1,183.749994392395,2|0,0:0|0:0,0:0:0:0:
180,36,243227,1,2,0:0:0:0:
179,49,243295,1,0,0:0:0:0:
178,62,243363,1,0,0:0:0:0:
177,75,243431,1,0,0:0:0:0:
176,88,243500,6,0,B|221:143|287:92|287:92|300:135|277:188,1,196.875007510186,10|0,0:0|0:0,0:0:0:0:
379,226,243773,1,2,0:0:0:0:
379,226,243841,1,0,0:0:0:0:
379,226,243909,2,0,L|388:165,1,52.4999983978272
457,31,244045,6,0,B|454:64|435:95|435:95|477:113|485:191,1,157.499995193482,6|0,0:0|0:0,0:0:0:0:
512,263,244318,1,2,0:0:0:0:
511,276,244386,1,0,0:0:0:0:
510,289,244454,1,0,0:0:0:0:
509,302,244522,1,0,0:0:0:0:
508,315,244591,6,0,B|458:322|432:299|432:299|412:335|412:335|398:335|355:353,1,170.624992189408,10|0,0:0|0:0,0:0:0:0:
265,357,244864,1,2,0:0:0:0:
267,344,244932,1,0,0:0:0:0:
268,331,245000,1,0,0:0:0:0:
269,317,245068,1,0,0:0:0:0:
262,306,245136,6,0,B|231:292|205:303|205:303|227:247|204:177,1,183.749994392395,6|0,0:0|0:0,0:0:0:0:
246,100,245409,2,0,L|238:37,3,43.75,2|0|0|0,0:0|0:0|0:0|0:0,0:0:0:0:
99,16,245682,5,8,2:0:0:0:
123,53,245750,1,8,2:0:0:0:
131,96,245818,1,8,2:0:0:0:
123,138,245886,1,8,2:0:0:0:
99,175,245955,1,2,0:0:0:0:
93,196,246023,1,0,0:0:0:0:
92,218,246091,1,2,0:0:0:0:
98,239,246159,1,0,0:0:0:0:
112,257,246228,6,0,B|138:302|128:349|128:349|159:330|206:354,1,157.499995193482,6|0,0:0|0:0,0:0:0:0:
285,332,246500,1,2,0:0:0:0:
297,328,246568,1,0,0:0:0:0:
310,325,246636,1,0,0:0:0:0:
323,322,246704,1,0,0:0:0:0:
336,321,246773,6,0,B|379:302|416:317|416:317|432:269|381:214,1,170.624992189408,10|0,0:0|0:0,0:0:0:0:
478,171,247045,1,2,0:0:0:0:
479,157,247113,1,0,0:0:0:0:
480,144,247181,1,0,0:0:0:0:
481,131,247249,1,0,0:0:0:0:
482,118,247318,6,0,B|423:137|387:109|387:109|357:144|303:148,1,183.749994392395,2|0,0:0|0:0,0:0:0:0:
284,51,247591,1,2,0:0:0:0:
272,44,247659,1,0,0:0:0:0:
259,40,247727,1,0,0:0:0:0:
246,39,247795,1,0,0:0:0:0:
233,40,247864,6,0,B|200:91|223:168|223:168|190:143|139:170,1,196.875007510186,10|0,0:0|0:0,0:0:0:0:
132,248,248136,1,2,0:0:0:0:
132,248,248205,1,0,0:0:0:0:
132,248,248273,2,0,L|138:318,1,52.4999983978272
30,199,248409,6,0,B|43:127|38:82|38:82|43:106|79:128,1,157.499995193482,6|0,0:0|0:0,0:0:0:0:
119,58,248682,1,2,0:0:0:0:
131,54,248750,1,0,0:0:0:0:
144,52,248818,1,0,0:0:0:0:
157,54,248886,1,0,0:0:0:0:
170,58,248955,6,0,B|222:87|274:55|274:55|303:75|308:108,1,170.624992189408,10|0,0:0|0:0,0:0:0:0:
383,162,249227,2,0,L|392:93,3,52.4999983978272,2|0|0|0,0:0|0:0|0:0|0:0,0:0:0:0:
485,242,249500,5,8,2:0:0:0:
445,243,249568,1,8,2:0:0:0:
406,245,249636,1,8,2:0:0:0:
366,246,249704,1,8,2:0:0:0:
327,248,249773,2,0,L|275:251,3,52.4999983978272,8|8|8|8,0:0|0:0|0:0|0:0,0:0:0:0:
196,163,250045,5,8,2:0:0:0:
175,196,250113,1,8,2:0:0:0:
164,234,250181,1,8,2:0:0:0:
164,273,250249,1,8,2:0:0:0:
174,311,250318,2,0,P|175:342|168:372,3,56.8749973964692,8|8|8|8,0:0|0:0|0:0|0:0,0:0:0:0:
46,317,250591,5,6,0:0:0:0:
61,288,250659,1,0,0:0:0:0:
64,255,250727,1,0,0:0:0:0:
56,224,250795,1,0,0:0:0:0:
37,197,250864,1,2,0:0:0:0:
39,165,250932,1,0,0:0:0:0:
41,132,251000,1,0,0:0:0:0:
44,99,251068,1,0,0:0:0:0:
46,66,251136,6,0,L|51:8,3,43.75,10|0|0|0,0:0|0:0|0:0|0:0,0:0:0:0:
146,106,251409,2,0,L|150:164,3,43.75,2|0|0|0,0:0|0:0|0:0|0:0,0:0:0:0:
221,41,251682,5,2,0:0:0:0:
249,56,251750,1,0,0:0:0:0:
281,62,251818,1,0,0:0:0:0:
314,58,251886,1,0,0:0:0:0:
343,43,251955,1,2,0:0:0:0:
375,39,252023,1,0,0:0:0:0:
401,57,252091,1,0,0:0:0:0:
410,88,252159,1,0,0:0:0:0:
396,117,252227,6,0,L|398:169,3,43.75,10|0|0|0,0:0|0:0|0:0|0:0,0:0:0:0:
479,263,252500,2,0,L|483:210,3,43.75,2|0|0|0,0:0|0:0|0:0|0:0,0:0:0:0:
421,340,252773,5,6,0:0:0:0:
399,325,252841,1,0,0:0:0:0:
374,318,252909,1,0,0:0:0:0:
347,317,252977,1,0,0:0:0:0:
322,324,253045,1,2,0:0:0:0:
300,338,253114,1,0,0:0:0:0:
275,346,253182,1,0,0:0:0:0:
249,346,253250,1,0,0:0:0:0:
224,339,253318,6,0,L|220:295,3,43.75,10|0|0|0,0:0|0:0|0:0|0:0,0:0:0:0:
129,219,253591,2,0,L|125:262,3,43.75,2|0|0|0,0:0|0:0|0:0|0:0,0:0:0:0:
43,175,253864,5,6,0:0:0:0:
48,165,253932,1,0,0:0:0:0:
52,154,254000,1,0,0:0:0:0:
54,144,254068,1,0,0:0:0:0:
55,133,254136,1,2,0:0:0:0:
54,122,254204,1,0,0:0:0:0:
53,111,254273,1,0,0:0:0:0:
49,101,254341,1,0,0:0:0:0:
45,91,254410,6,0,P|16:97|1:96,1,43.75,10|0,0:0|0:0,0:0:0:0:
126,22,254546,2,0,P|155:16|170:17,1,43.75
42,74,254682,2,0,P|13:80|-2:79,1,43.75,2|0,0:0|0:0,0:0:0:0:
123,5,254818,2,0,P|152:-1|167:0,1,43.75
251,78,254955,6,0,L|244:227,1,131.25,6|0,0:0|0:0,0:0:0:0:
241,305,255227,5,2,0:0:0:0:
275,330,255295,1,8,0:0:0:0:
318,336,255363,1,0,0:0:0:0:
358,318,255431,1,8,0:0:0:0:
383,283,255500,2,0,L|386:231,3,43.75,2|8|0|8,0:0|0:0|0:0|0:0,0:0:0:0:
448,116,255773,2,0,L|450:159,3,43.75,2|8|0|8,0:0|0:0|0:0|0:0,0:0:0:0:
512,240,256045,5,2,0:0:0:0:
511,250,256113,1,8,0:0:0:0:
511,261,256181,1,0,0:0:0:0:
510,272,256249,1,8,0:0:0:0:
510,283,256318,2,0,L|508:326,3,43.75,2|8|0|8,0:0|0:0|0:0|0:0,0:0:0:0:
412,348,256591,5,2,0:0:0:0:
370,359,256659,1,8,0:0:0:0:
329,345,256727,1,0,0:0:0:0:
303,311,256795,1,8,0:0:0:0:
300,268,256864,2,0,L|303:195,3,43.75,2|8|0|8,0:0|0:0|0:0|0:0,0:0:0:0:
195,225,257136,5,6,0:0:0:0:
164,216,257204,1,8,0:0:0:0:
134,228,257272,1,0,0:0:0:0:
119,257,257340,1,8,0:0:0:0:
125,288,257409,1,2,0:0:0:0:
120,320,257477,1,8,0:0:0:0:
100,346,257545,1,0,0:0:0:0:
70,359,257613,1,8,0:0:0:0:
38,355,257682,6,0,L|30:300,3,43.75,2|8|0|8,0:0|0:0|0:0|0:0,0:0:0:0:
31,215,257955,2,0,L|39:159,3,43.75,2|8|0|8,0:0|0:0|0:0|0:0,0:0:0:0:
47,53,258227,5,6,0:0:0:0:
57,48,258295,1,8,0:0:0:0:
68,44,258363,1,0,0:0:0:0:
78,42,258431,1,8,0:0:0:0:
89,41,258499,1,2,0:0:0:0:
100,42,258567,1,8,0:0:0:0:
111,43,258636,1,0,0:0:0:0:
121,47,258704,1,8,0:0:0:0:
131,51,258773,6,0,L|238:47,1,87.5,2|0,0:0|0:0,0:0:0:0:
453,0,259045,5,8,2:0:0:0:
420,28,259113,1,8,2:0:0:0:
402,67,259181,1,8,2:0:0:0:
403,111,259249,1,8,2:0:0:0:
423,149,259318,6,0,B|430:192|430:192|417:256,1,87.5,6|0,0:0|0:0,0:0:0:0:
320,347,259591,1,2,0:0:0:0:
320,347,259659,1,8,0:0:0:0:
320,347,259727,2,0,L|323:389,1,30.6249990653992,0|8,0:0|0:0,0:0:0:0:
237,288,259864,5,2,0:0:0:0:
198,268,259932,1,8,0:0:0:0:
155,271,260000,1,0,0:0:0:0:
120,297,260068,1,8,0:0:0:0:
77,300,260136,1,2,0:0:0:0:
42,276,260204,1,8,0:0:0:0:
30,235,260272,1,0,0:0:0:0:
48,196,260340,1,8,0:0:0:0:
86,177,260409,2,0,L|153:182,3,43.75,2|8|0|8,0:0|0:0|0:0|0:0,0:0:0:0:
65,63,260682,2,0,L|-2:68,3,43.75,2|8|0|8,0:0|0:0|0:0|0:0,0:0:0:0:
195,11,260955,5,2,0:0:0:0:
195,21,261023,1,8,0:0:0:0:
196,32,261091,1,0,0:0:0:0:
197,43,261159,1,8,0:0:0:0:
198,54,261227,2,0,L|200:113,3,43.75,2|8|0|8,0:0|0:0|0:0|0:0,0:0:0:0:
315,117,261500,5,2,0:0:0:0:
343,149,261568,1,8,0:0:0:0:
352,191,261636,1,0,0:0:0:0:
340,233,261705,1,8,0:0:0:0:
354,273,261773,1,2,0:0:0:0:
393,291,261841,1,8,0:0:0:0:
433,276,261909,1,0,0:0:0:0:
446,234,261977,1,8,0:0:0:0:
449,191,262045,5,2,0:0:0:0:
477,224,262113,1,8,0:0:0:0:
487,266,262181,1,0,0:0:0:0:
477,308,262249,1,8,0:0:0:0:
449,340,262317,1,2,0:0:0:0:
409,357,262385,1,8,0:0:0:0:
366,352,262454,1,0,0:0:0:0:
329,329,262522,1,8,0:0:0:0:
307,292,262591,6,0,L|302:248,3,43.75,6|0|0|0,0:0|0:0|0:0|0:0,0:0:0:0:
203,95,262864,1,8,0:0:0:0:
199,138,262932,1,8,0:0:0:0:
196,182,263000,1,8,0:0:0:0:
193,225,263068,1,8,0:0:0:0:
190,269,263136,2,0,L|186:323,1,43.75,8|8,2:0|2:0,0:0:0:0:
96,225,263273,2,0,L|99:181,1,43.75,8|8,2:0|2:0,0:0:0:0:
107,101,263409,1,8,0:0:0:0:
107,90,263477,1,8,0:0:0:0:
108,79,263545,1,8,0:0:0:0:
109,68,263613,1,8,0:0:0:0:
110,57,263682,6,0,P|150:71|218:60,1,87.5,6|0,0:0|0:0,0:0:0:0:
291,40,263955,1,2,0:0:0:0:
321,27,264023,1,8,0:0:0:0:
353,26,264091,1,0,0:0:0:0:
385,35,264159,1,8,0:0:0:0:
409,54,264227,2,0,L|412:6,3,43.75,2|8|0|8,0:0|0:0|0:0|0:0,0:0:0:0:
481,122,264500,2,0,L|484:170,3,43.75,2|8|0|8,0:0|0:0|0:0|0:0,0:0:0:0:
338,114,264773,5,2,0:0:0:0:
312,138,264841,1,8,0:0:0:0:
301,172,264909,1,0,0:0:0:0:
308,207,264977,1,8,0:0:0:0:
315,242,265045,1,2,0:0:0:0:
304,276,265113,1,8,0:0:0:0:
279,301,265181,1,0,0:0:0:0:
243,307,265250,1,8,0:0:0:0:
206,297,265318,5,2,0:0:0:0:
206,307,265386,1,8,0:0:0:0:
207,318,265454,1,0,0:0:0:0:
208,329,265522,1,8,0:0:0:0:
209,340,265590,1,2,0:0:0:0:
210,351,265658,1,8,0:0:0:0:
211,362,265727,1,0,0:0:0:0:
212,373,265795,1,8,0:0:0:0:
213,384,265863,1,2,0:0:0:0:
26,143,266955,5,6,0:0:0:0:
36,148,267023,1,8,0:0:0:0:
46,150,267091,1,0,0:0:0:0:
57,151,267159,1,8,0:0:0:0:
68,150,267227,1,2,0:0:0:0:
79,147,267295,1,8,0:0:0:0:
89,143,267364,1,0,0:0:0:0:
98,137,267432,1,8,0:0:0:0:
106,129,267500,5,6,0:0:0:0:
123,117,267568,1,8,0:0:0:0:
143,109,267636,1,0,0:0:0:0:
165,106,267704,1,8,0:0:0:0:
187,109,267772,1,2,0:0:0:0:
207,116,267840,1,8,0:0:0:0:
225,129,267909,1,0,0:0:0:0:
239,146,267977,1,8,0:0:0:0:
248,165,268045,5,6,0:0:0:0:
251,200,268113,1,8,0:0:0:0:
233,230,268181,1,0,0:0:0:0:
200,242,268249,1,8,0:0:0:0:
166,231,268317,1,2,0:0:0:0:
146,201,268386,1,8,0:0:0:0:
146,165,268454,1,0,0:0:0:0:
161,132,268522,1,8,0:0:0:0:
189,110,268591,5,6,0:0:0:0:
233,94,268659,1,8,0:0:0:0:
280,103,268727,1,0,0:0:0:0:
315,135,268795,1,8,0:0:0:0:
329,181,268864,1,8,2:3:0:0:
358,218,268932,1,8,2:3:0:0:
403,231,269000,1,8,2:3:0:0:
447,214,269068,1,8,2:3:0:0:
473,174,269136,6,0,L|464:64,1,109.375,14|0,0:0|0:0,0:0:0:0:
256,226,269409,2,0,L|247:335,1,109.375,8|0,0:0|0:0,0:0:0:0:
345,128,269682,1,8,0:0:0:0:
221,249,269818,2,0,L|212:358,1,109.375,8|0,0:0|0:0,0:0:0:0:
130,115,270091,6,0,P|84:137|12:123,1,109.375,8|0,0:0|0:0,0:0:0:0:
282,62,270364,2,0,P|328:40|400:54,1,109.375,8|0,0:0|0:0,0:0:0:0:
103,217,271318,6,0,L|91:341,1,109.375,14|0,0:0|0:0,0:0:0:0:
29,132,271591,1,0,0:0:0:0:
209,121,271727,6,0,L|199:20,1,100.62500191927,10|0,0:0|0:0,0:0:0:0:
143,223,272000,1,0,0:0:0:0:
312,243,272136,6,0,L|305:345,1,91.8749971961976,10|0,0:0|0:0,0:0:0:0:
235,124,272409,1,0,0:0:0:0:
436,141,272545,6,0,L|428:42,1,83.1249977803231,8|0,0:0|0:0,0:0:0:0:
328,213,272818,1,0,0:0:0:0:
469,348,272955,5,8,2:0:0:0:
450,337,273023,1,8,2:0:0:0:
431,332,273091,1,8,2:0:0:0:
410,331,273159,1,8,2:0:0:0:
390,336,273227,5,8,2:0:0:0:
352,352,273295,1,8,2:0:0:0:
310,354,273363,1,8,2:0:0:0:
271,342,273431,1,8,2:0:0:0:
245,290,273499,5,8,0:0:0:0:
