osu file format v14

[General]
AudioFilename: audio.mp3
AudioLeadIn: 0
PreviewTime: 126227
Countdown: 0
SampleSet: Soft
StackLeniency: 0.4
Mode: 0
LetterboxInBreaks: 0
WidescreenStoryboard: 1

[Editor]
DistanceSpacing: 1
BeatDivisor: 3
GridSize: 4
TimelineZoom: 2.9

[Metadata]
Title:Jikininki
TitleUnicode:Jikininki
Artist:Whispered
ArtistUnicode:Whispered
Creator:MrKosiej
Version:MKL's Another
Source:
Tags:english death power itswinter silence player melodic metal Shogunate Macabre LMT mithew Maakkeli Makeli MKL
BeatmapID:1626385
BeatmapSetID:750201

[Difficulty]
HPDrainRate:5.5
CircleSize:4
OverallDifficulty:8
ApproachRate:9
SliderMultiplier:1.6
SliderTickRate:1

[Events]
//Background and Video events
0,0,"3l9kVQi.jpg",0,0
//Break Periods
2,48018,50355
//Storyboard Layer 0 (Background)
//Storyboard Layer 1 (Fail)
//Storyboard Layer 2 (Pass)
//Storyboard Layer 3 (Foreground)
//Storyboard Layer 4 (Overlay)
//Storyboard Sound Samples

[TimingPoints]
14955,272.727272727273,4,3,1,60,1,0
14955,-100,4,3,1,60,0,0
18227,-133.333333333333,4,3,1,60,0,0
18908,-133.333333333333,4,2,1,5,0,0
19045,-100,4,3,1,60,0,0
23136,-133.333333333333,4,3,10,60,0,0
23682,-100,4,3,1,60,0,0
42636,-100,4,3,8,60,0,0
42909,-100,4,3,1,60,0,0
43455,-100,4,3,8,60,0,0
43727,-100,4,3,9,60,0,0
43864,-100,4,3,1,60,0,0
45500,-100,4,3,1,80,0,0
47068,-100,4,3,1,5,0,0
47136,-100,4,3,1,80,0,0
47340,-100,4,3,1,5,0,0
47409,-100,4,3,1,80,0,0
47613,-100,4,3,1,5,0,0
47682,-100,4,3,1,60,0,0
51500,-100,4,3,8,60,0,0
51773,-100,4,3,9,60,0,0
51909,-100,4,3,10,60,0,0
52045,-100,4,3,1,60,0,0
59682,-100,4,3,8,60,0,0
59818,-100,4,3,1,60,0,0
59955,-100,4,3,9,60,0,0
60091,-100,4,3,1,60,0,0
60227,-100,4,3,10,60,0,0
60363,-100,4,3,1,60,0,0
60500,-100,4,3,10,60,0,0
60636,-100,4,3,1,60,0,0
62955,-100,4,3,1,45,0,0
65136,-100,4,3,1,60,0,0
66773,-100,4,3,8,60,0,0
66909,-100,4,3,1,60,0,0
67045,-100,4,3,9,60,0,0
67181,-100,4,3,10,60,0,0
67318,-100,4,3,1,60,0,0
71136,-100,4,3,8,60,0,0
71409,-100,4,3,9,60,0,0
71682,-100,4,3,1,60,0,0
75500,-100,4,3,8,60,0,0
75636,-100,4,3,1,60,0,0
75773,-100,4,3,9,60,0,0
75909,-100,4,3,10,60,0,0
76045,-100,4,3,1,60,0,0
80136,-100,4,3,8,60,0,0
80273,-100,4,3,9,60,0,0
80409,-100,4,3,1,60,0,0
86272,-100,4,3,8,60,0,0
86545,-100,4,3,1,60,0,0
86682,-100,4,3,9,60,0,0
86955,-100,4,3,1,60,0,0
88249,-100,4,3,1,5,0,0
88318,-100,4,3,1,60,0,0
88864,-100,4,3,8,60,0,0
89136,-100,4,3,1,60,0,0
96500,-100,4,3,8,60,0,0
96773,-100,4,3,1,60,0,0
97045,-100,4,3,9,60,0,0
97318,-100,4,3,1,60,0,0
97591,-100,4,3,10,60,0,0
97864,-100,4,3,1,60,0,0
104409,-133.333333333333,4,3,1,60,0,1
112318,-133.333333333333,4,3,8,60,0,1
112591,-133.333333333333,4,3,1,60,0,1
112864,-133.333333333333,4,3,9,60,0,1
113136,-133.333333333333,4,3,1,60,0,1
117500,-100,4,3,1,60,0,1
121386,-100,4,3,8,60,0,1
121591,-100,4,3,1,60,0,1
121864,-90.9090909090909,4,3,1,60,0,1
125955,-90.9090909090909,4,3,8,60,0,1
126227,-83.3333333333333,4,3,1,60,0,1
129500,-76.9230769230769,4,3,1,60,0,1
130045,-76.9230769230769,4,3,1,70,0,1
130591,-71.4285714285714,4,3,1,80,0,1
131136,-71.4285714285714,4,3,1,90,0,1
131682,-100,4,3,1,60,0,0
134955,-133.333333333333,4,3,1,60,0,0
135636,-133.333333333333,4,2,1,5,0,0
135773,-100,4,3,1,60,0,0
138636,-133.333333333333,4,3,1,60,0,0
139045,-133.333333333333,4,3,8,60,0,0
139181,-133.333333333333,4,3,10,60,0,0
139318,-100,4,3,1,60,0,0
141773,-153.846153846154,4,3,1,60,0,0
143682,-100,4,3,1,60,0,0
146136,-153.846153846154,4,3,1,60,0,0
148045,-100,4,3,1,60,0,0
148591,-100,4,3,8,60,0,0
148864,-100,4,3,9,60,0,0
149136,-100,4,3,1,40,0,0
151318,-200,4,3,1,40,0,0
155682,-200,4,3,10,40,0,0
156023,-200,4,3,1,20,0,0
156091,-200,4,3,1,25,0,0
156159,-200,4,3,1,30,0,0
156227,-200,4,3,10,40,0,0
156409,-200,4,2,1,5,0,0
156773,-200,4,3,10,40,0,0
157318,-200,4,3,1,40,0,0
163318,-142.857142857143,4,3,1,40,0,0
167318,-142.857142857143,4,3,8,40,0,0
167500,-142.857142857143,4,3,10,40,0,0
167682,-142.857142857143,4,3,1,40,0,0
172045,-117.647058823529,4,3,1,40,0,0
172227,-117.647058823529,4,2,1,5,0,0
172409,-117.647058823529,4,3,1,40,0,0
173500,-117.647058823529,4,3,1,40,0,0
174409,-117.647058823529,4,1,1,5,0,0
174591,-117.647058823529,4,3,1,40,0,0
175500,-117.647058823529,4,2,1,5,0,0
175682,-117.647058823529,4,3,1,40,0,0
176591,-117.647058823529,4,2,1,5,0,0
176773,-117.647058823529,4,3,1,40,0,0
177864,-117.647058823529,4,3,1,40,0,0
180409,-117.647058823529,4,3,8,40,0,0
180591,-117.647058823529,4,3,9,40,0,0
180773,-117.647058823529,4,3,1,60,0,1
189136,-117.647058823529,4,3,8,60,0,1
189318,-117.647058823529,4,3,9,60,0,1
189500,-117.647058823529,4,3,1,60,0,1
198409,-117.647058823529,4,3,1,60,0,1
199318,-117.647058823529,4,3,1,60,0,0
200000,-117.647058823529,4,3,8,60,0,0
200136,-117.647058823529,4,3,1,60,0,0
202591,-100,4,3,1,60,0,0
204227,-100,4,3,8,60,0,0
204500,-100,4,3,9,60,0,0
204773,-100,4,3,1,60,0,0
208590,-100,4,3,8,60,0,0
208864,-100,4,3,9,60,0,0
209136,-100,4,3,1,60,0,0
212955,-100,4,3,9,60,0,0
213363,-100,4,3,10,60,0,0
213500,-100,4,3,1,60,0,0
216977,-100,4,3,1,5,0,0
217045,-100,4,3,1,60,0,0
217591,-100,4,3,8,60,0,0
217864,-100,4,3,1,60,0,0
219636,-100,4,3,8,60,0,0
219773,-100,4,3,1,60,0,0
223591,-100,4,3,8,60,0,0
223864,-100,4,3,1,60,0,0
224136,-100,4,3,9,60,0,0
224409,-100,4,3,1,60,0,0
225705,-100,4,1,1,5,0,0
225773,-100,4,3,1,60,0,0
226045,-100,4,1,1,47,0,0
226182,-100,4,3,8,60,0,0
226591,-100,4,3,1,60,0,0
227341,-100,4,1,1,5,0,0
227409,-100,4,3,1,60,0,0
233955,-100,4,3,8,60,0,0
234227,-100,4,3,1,60,0,0
234500,-100,4,3,9,60,0,0
234773,-100,4,3,1,60,0,0
235045,-100,4,3,10,60,0,0
235317,-100,4,3,1,60,0,0
239682,-200,4,3,1,60,0,0
241318,-100,4,3,1,60,0,0
241864,-133.333333333333,4,3,1,60,0,1
249773,-133.333333333333,4,3,8,60,0,1
250045,-133.333333333333,4,3,1,60,0,1
250318,-133.333333333333,4,3,9,60,0,1
250591,-133.333333333333,4,3,1,60,0,1
254955,-100,4,3,1,60,0,1
259318,-90.9090909090909,4,3,1,60,0,1
262864,-90.9090909090909,4,3,8,60,0,1
263136,-90.9090909090909,4,3,1,60,0,1
263409,-90.9090909090909,4,3,9,60,0,1
263682,-83.3333333333333,4,3,1,60,0,1
266955,-76.9230769230769,4,3,1,60,0,1
267500,-76.9230769230769,4,3,1,70,0,1
268045,-71.4285714285714,4,3,1,80,0,1
268591,-71.4285714285714,4,3,1,90,0,1
269136,-83.3333333333333,4,3,1,60,0,1
271318,-100,4,3,1,60,0,0
272136,-111.111111111111,4,3,1,60,0,0
272545,-111.111111111111,4,3,10,60,0,0
272681,-111.111111111111,4,3,1,60,0,0
272955,-125,4,3,1,60,0,0
273500,-125,4,3,10,60,0,0

[Colours]
Combo1 : 201,158,133
Combo2 : 162,162,162
Combo3 : 164,111,87
Combo4 : 201,201,201

[HitObjects]
210,244,14955,6,0,P|141:215|37:226,2,160,8|8|8,0:0|0:0|0:0,0:0:0:0:
293,329,15636,2,0,L|460:319,2,160,8|8|8,0:0|0:0|0:0,0:0:0:0:
45,80,18227,6,0,L|52:17,2,60.0000022888184,2|2|2,0:2|0:2|0:2,0:0:0:0:
113,139,18636,2,0,B|141:140|141:140|161:136|161:136|175:140|175:140|198:126|253:135,1,120.000004577637,2|0,0:2|0:0,0:0:0:0:
379,199,19045,6,0,L|390:258,3,40,8|0|0|0,2:3|0:3|0:3|0:3,0:0:0:0:
328,317,19318,6,0,P|372:282|503:297,2,160,8|8|8,0:0|0:0|0:0,0:0:0:0:
220,371,20000,2,0,L|51:360,2,160,8|8|8,0:0|0:0|0:0,0:0:0:0:
281,38,23136,6,0,P|268:104|330:64,1,180.000006866455,8|0,2:3|0:0,0:0:0:0:
186,16,23682,6,0,P|172:72|179:111,1,80,14|0,0:0|0:0,0:0:0:0:
300,203,23955,2,0,P|251:178|219:176,1,80,10|0,0:0|0:0,0:0:0:0:
67,227,24227,1,10,0:0:0:0:
67,227,24364,2,0,P|111:203|128:169,1,80,0|10,0:0|0:0,0:0:0:0:
239,305,24636,6,0,L|142:314,1,80,0|10,0:0|0:0,0:0:0:0:
314,225,24909,2,0,L|424:236,1,80,0|10,0:0|0:0,0:0:0:0:
512,185,25182,1,0,0:0:0:0:
323,113,25318,5,10,0:0:0:0:
427,105,25455,1,0,0:0:0:0:
300,203,25591,1,10,0:0:0:0:
300,203,25727,1,0,0:0:0:0:
222,45,25864,6,0,L|126:34,1,80,10|0,0:0|0:0,0:0:0:0:
9,132,26136,2,0,L|105:121,1,80,10|0,0:0|0:0,0:0:0:0:
170,211,26409,1,10,0:0:0:0:
170,211,26545,1,0,0:0:0:0:
234,68,26682,2,0,L|316:57,1,80,10|0,0:0|0:0,0:0:0:0:
484,175,26955,6,0,P|462:131|462:83,1,80,10|0,0:0|0:0,0:0:0:0:
331,245,27227,2,0,P|353:201|353:153,1,80,10|0,0:0|0:0,0:0:0:0:
237,289,27500,5,10,0:0:0:0:
374,331,27636,1,0,0:0:0:0:
271,185,27773,5,10,0:0:0:0:
297,341,27909,1,0,0:0:0:0:
175,200,28045,6,0,L|69:187,1,80,14|0,0:0|0:0,0:0:0:0:
183,348,28318,2,0,L|254:268,1,80,10|0,0:0|0:0,0:0:0:0:
57,272,28591,1,10,0:0:0:0:
57,272,28727,2,0,L|81:376,1,80,0|10,0:0|0:0,0:0:0:0:
192,187,29000,6,0,L|277:175,1,80,0|10,0:0|0:0,0:0:0:0:
461,145,29273,2,0,L|376:133,1,80,0|10,0:0|0:0,0:0:0:0:
246,106,29545,1,0,0:0:0:0:
377,223,29682,5,10,0:0:0:0:
274,194,29818,1,0,0:0:0:0:
390,326,29955,1,10,0:0:0:0:
390,326,30091,1,0,0:0:0:0:
187,266,30227,6,0,L|193:170,1,80,10|0,0:0|0:0,0:0:0:0:
58,85,30500,2,0,P|89:109|143:116,1,80,10|0,0:0|0:0,0:0:0:0:
241,26,30773,1,10,0:0:0:0:
241,26,30909,1,0,0:0:0:0:
298,184,31045,2,0,L|383:189,1,80,10|0,0:0|0:0,0:0:0:0:
217,117,31318,5,10,0:0:0:0:
187,266,31455,1,10,0:0:0:0:
128,117,31591,5,10,0:0:0:0:
283,192,31728,1,10,0:0:0:0:
82,227,31864,6,0,L|140:216,3,40,10|0|10|0,0:0|0:0|0:0|0:0,0:0:0:0:
241,286,32136,2,0,L|183:275,3,40,10|0|10|0,0:0|0:0|0:0|0:0,0:0:0:0:
343,342,32409,6,0,P|388:342|430:317,1,80,14|0,0:0|0:0,0:0:0:0:
386,193,32682,2,0,P|366:227|370:287,1,80,10|0,0:0|0:0,0:0:0:0:
497,304,32955,1,10,0:0:0:0:
497,304,33091,2,0,P|467:264|418:249,1,80,0|10,0:0|0:0,0:0:0:0:
242,136,33364,6,0,L|334:124,1,80,0|10,0:0|0:0,0:0:0:0:
180,217,33636,2,0,L|88:205,1,80,0|10,0:0|0:0,0:0:0:0:
50,96,33909,1,0,0:0:0:0:
242,154,34045,5,10,0:0:0:0:
160,84,34182,1,0,0:0:0:0:
341,139,34318,1,10,0:0:0:0:
341,139,34455,1,0,0:0:0:0:
174,237,34591,6,0,L|66:228,1,80,10|0,0:0|0:0,0:0:0:0:
242,154,34864,2,0,P|259:120|260:61,1,80,10|0,0:0|0:0,0:0:0:0:
149,103,35136,1,10,0:0:0:0:
149,103,35273,1,0,0:0:0:0:
257,235,35409,2,0,L|341:229,1,80,10|0,0:0|0:0,0:0:0:0:
506,141,35682,6,0,P|485:191|487:232,1,80,10|0,0:0|0:0,0:0:0:0:
356,80,35955,2,0,P|377:130|375:171,1,80,10|0,0:0|0:0,0:0:0:0:
192,106,36227,5,10,0:0:0:0:
300,10,36364,1,0,0:0:0:0:
126,47,36500,5,10,0:0:0:0:
267,77,36636,1,0,0:0:0:0:
96,161,36773,6,0,P|76:211|79:242,1,80,14|0,0:0|0:0,0:0:0:0:
217,341,37045,2,0,P|187:295|160:280,1,80,10|0,0:0|0:0,0:0:0:0:
0,345,37318,1,10,0:0:0:0:
0,345,37455,2,0,P|53:346|81:333,1,80,0|10,0:0|0:0,0:0:0:0:
245,215,37727,6,0,L|154:208,1,80,0|10,0:0|0:0,0:0:0:0:
338,227,38000,2,0,P|361:290|354:323,1,80,0|10,0:0|0:0,0:0:0:0:
242,327,38273,1,0,0:0:0:0:
301,155,38409,5,10,0:0:0:0:
412,202,38545,1,0,0:0:0:0:
234,230,38682,1,10,0:0:0:0:
234,230,38818,1,0,0:0:0:0:
382,112,38955,6,0,L|389:20,1,80,10|0,0:0|0:0,0:0:0:0:
209,131,39227,2,0,P|244:153|303:154,1,80,10|0,0:0|0:0,0:0:0:0:
204,45,39500,1,10,0:0:0:0:
204,45,39636,1,0,0:0:0:0:
129,208,39773,2,0,L|30:197,1,80,10|10,0:0|0:0,0:0:0:0:
188,313,40045,5,14,0:1:0:0:
196,312,40114,1,0,0:0:0:0:
203,311,40182,1,0,0:0:0:0:
210,310,40250,1,0,0:0:0:0:
217,309,40318,1,10,0:0:0:0:
290,212,40455,6,0,L|344:217,4,40,6|0|0|0|10,0:2|0:0|0:0|0:0|0:0,0:0:0:0:
209,131,40864,5,6,0:0:0:0:
208,124,40932,1,0,0:0:0:0:
207,117,41000,1,0,0:0:0:0:
206,109,41068,1,0,0:0:0:0:
205,102,41137,1,0,0:0:0:0:
327,68,41273,6,0,L|331:22,2,40,14|0|0,0:0|0:0|0:0,0:0:0:0:
384,155,41545,1,0,0:0:0:0:
290,212,41682,5,4,0:2:0:0:
282,211,41750,1,0,0:0:0:0:
274,210,41818,1,0,0:0:0:0:
266,209,41886,1,0,0:0:0:0:
242,241,41955,5,4,0:2:0:0:
230,242,42023,1,0,0:0:0:0:
218,243,42091,1,0,0:0:0:0:
206,244,42159,1,0,0:0:0:0:
176,216,42227,6,0,L|85:205,2,80,8|8|0,2:0|2:0|0:0,0:0:0:0:
266,113,42636,1,8,0:0:0:0:
274,112,42705,1,8,0:0:0:0:
281,111,42773,1,8,0:0:0:0:
335,199,42909,1,0,0:0:0:0:
396,42,43045,2,0,L|484:32,2,80,6|8|0,0:0|0:0|0:0,0:0:0:0:
281,111,43455,5,8,0:0:0:0:
406,150,43591,2,0,P|423:207|411:260,1,80,8|8,0:0|0:0,0:0:0:0:
230,281,43864,6,0,L|315:271,1,80,6|0,0:0|0:0,0:0:0:0:
121,353,44136,2,0,L|206:363,1,80,6|0,0:0|0:0,0:0:0:0:
74,236,44409,6,0,P|62:279|62:291,3,40,6|8|2|8,0:2|0:0|0:2|0:0,0:0:0:0:
152,182,44682,1,2,0:2:0:0:
151,174,44750,1,8,0:0:0:0:
150,166,44818,2,0,L|142:111,3,40,2|8|2|8,0:2|0:0|0:2|0:0,0:0:0:0:
207,244,45091,5,2,0:2:0:0:
214,243,45159,1,8,0:0:0:0:
222,244,45227,1,2,0:2:0:0:
230,246,45295,1,8,0:0:0:0:
238,248,45363,1,2,0:2:0:0:
245,252,45431,1,8,0:0:0:0:
269,284,45500,5,14,0:0:0:0:
265,92,45773,2,0,L|272:29,3,40,6|0|0|0,0:0|0:0|0:0|0:0,0:0:0:0:
356,147,46045,2,0,L|351:107,3,40,2|0|0|0,0:0|0:0|0:0|0:0,0:0:0:0:
262,203,46318,5,14,0:0:0:0:
262,203,46591,2,0,L|325:213,3,40,2|0|0|0,0:0|0:0|0:0|0:0,0:0:0:0:
164,249,46864,6,0,B|153:232|153:232|152:205,3,40,14|0|0|0,0:0|0:0|0:0|0:0,0:0:0:0:
74,303,47136,2,0,B|94:303|94:303|116:318,3,40,14|0|0|0,0:0|0:0|0:0|0:0,0:0:0:0:
73,199,47409,2,0,B|60:215|60:215|35:225,3,40,14|0|0|0,0:0|0:0|0:0|0:0,0:0:0:0:
130,134,47682,5,8,2:3:0:0:
190,325,47818,1,8,2:3:0:0:
395,306,50955,5,8,2:0:0:0:
414,309,51023,1,8,2:0:0:0:
433,312,51091,1,8,2:0:0:0:
335,229,51227,5,8,2:0:0:0:
354,226,51295,1,8,2:0:0:0:
373,223,51363,1,8,2:0:0:0:
283,315,51500,6,0,L|233:308,3,40,8|8|8|8,0:0|0:0|0:0|0:0,0:0:0:0:
128,293,51773,2,0,L|178:286,3,40,8|8|8|8,0:0|0:0|0:0|0:0,0:0:0:0:
222,213,52045,5,6,0:0:0:0:
104,169,52182,1,8,0:0:0:0:
282,146,52318,2,0,L|378:141,1,80,2|8,0:0|0:0,0:0:0:0:
119,177,52591,2,0,L|29:170,2,80,2|8|2,0:0|0:0|0:0,0:0:0:0:
233,225,53000,1,8,0:0:0:0:
187,69,53136,6,0,L|181:111,2,40,2|0|8,0:0|0:0|0:0,0:0:0:0:
296,161,53409,2,0,L|290:121,2,40,2|0|8,0:0|0:0|0:0,0:0:0:0:
397,88,53682,5,2,0:0:0:0:
325,248,53818,2,0,L|232:239,2,80,8|2|8,0:0|0:0|0:0,0:0:0:0:
193,157,54227,5,2,0:0:0:0:
139,280,54364,1,8,0:0:0:0:
114,110,54500,2,0,L|109:21,1,80,2|8,0:0|0:0,0:0:0:0:
279,145,54773,2,0,P|245:167|198:167,1,80,2|8,0:0|0:0,0:0:0:0:
282,47,55045,1,2,0:0:0:0:
289,49,55114,1,0,0:0:0:0:
296,51,55182,1,8,0:0:0:0:
447,99,55318,6,0,L|398:107,2,40,2|0|8,0:0|0:0|0:0,0:0:0:0:
290,160,55591,2,0,L|339:168,2,40,2|0|8,0:0|0:0|0:0,0:0:0:0:
380,251,55864,5,2,0:0:0:0:
210,208,56000,2,0,B|193:176|193:176|204:120,2,80,8|2|8,0:0|0:0|0:0,0:0:0:0:
327,82,56409,5,2,0:0:0:0:
206,39,56545,1,8,0:0:0:0:
309,173,56682,2,0,L|406:163,1,80,2|8,0:0|0:0,0:0:0:0:
228,223,56955,2,0,P|211:263|209:316,2,80,2|8|2,0:0|0:0|0:0,0:0:0:0:
388,164,57364,1,8,0:0:0:0:
233,82,57500,6,0,L|242:147,2,40,2|0|8,0:0|0:0|0:0,0:0:0:0:
148,209,57773,2,0,L|153:169,2,40,2|0|8,0:0|0:0|0:0,0:0:0:0:
53,123,58045,5,2,0:0:0:0:
113,288,58182,2,0,L|203:282,2,80,8|2|8,0:0|0:0|0:0,0:0:0:0:
276,221,58591,5,2,0:0:0:0:
243,364,58727,1,8,0:0:0:0:
377,251,58864,2,0,L|363:150,1,80,2|8,0:0|0:0,0:0:0:0:
250,138,59136,1,0,0:0:0:0:
408,99,59273,1,12,2:0:0:0:
411,79,59341,1,8,2:0:0:0:
415,59,59409,2,0,L|459:54,3,40,8|8|0|0,2:0|2:0|0:0|0:0,0:0:0:0:
292,70,59682,5,8,0:0:0:0:
292,70,59750,1,8,0:0:0:0:
292,70,59818,2,0,L|335:78,1,40
210,145,59955,5,8,0:0:0:0:
210,145,60023,1,8,0:0:0:0:
210,145,60091,2,0,L|253:137,1,40
139,58,60227,6,0,L|129:106,3,40,8|8|0|0,0:0|0:0|0:0|0:0,0:0:0:0:
99,215,60500,2,0,L|90:175,3,40,8|8|0|0,0:0|0:0|0:0|0:0,0:0:0:0:
188,262,60773,5,14,0:0:0:0:
203,266,61864,1,6,0:0:0:0:
218,270,62955,1,6,0:0:0:0:
442,241,65136,6,0,L|448:194,3,40,10|0|0|0,0:0|0:0|0:0|0:0,0:0:0:0:
381,301,65409,1,10,0:0:0:0:
373,303,65477,1,0,0:0:0:0:
365,305,65545,1,0,0:0:0:0:
357,307,65614,1,0,0:0:0:0:
349,309,65682,6,0,L|338:363,3,40,10|0|0|0,0:0|0:0|0:0|0:0,0:0:0:0:
276,261,65955,1,10,0:0:0:0:
268,259,66023,1,0,0:0:0:0:
260,257,66091,1,0,0:0:0:0:
252,255,66160,1,0,0:0:0:0:
244,253,66228,6,0,L|233:199,3,40,10|0|0|0,0:0|0:0|0:0|0:0,0:0:0:0:
188,310,66500,1,10,0:0:0:0:
180,312,66568,1,0,0:0:0:0:
172,314,66636,1,0,0:0:0:0:
164,316,66705,1,0,0:0:0:0:
156,318,66773,6,0,L|145:372,3,40,8|8|8|8,0:0|0:0|2:0|2:0,0:0:0:0:
62,280,67045,2,0,L|73:334,3,40,8|8|8|8,0:0|0:0|0:0|0:0,0:0:0:0:
123,227,67318,5,6,0:0:0:0:
89,116,69500,6,0,P|71:110|49:108,3,40,10|0|0|0,0:0|0:0|0:0|0:0,0:0:0:0:
154,162,69773,1,10,0:0:0:0:
161,160,69841,1,0,0:0:0:0:
168,158,69909,1,0,0:0:0:0:
175,156,69977,1,0,0:0:0:0:
182,154,70045,6,0,L|195:88,3,40,10|0|0|0,0:0|0:0|0:0|0:0,0:0:0:0:
237,219,70318,1,10,0:0:0:0:
244,221,70386,1,0,0:0:0:0:
251,223,70454,1,0,0:0:0:0:
258,225,70522,1,0,0:0:0:0:
265,227,70590,6,0,L|278:293,3,40,10|0|0|0,0:0|0:0|0:0|0:0,0:0:0:0:
352,318,70864,1,10,0:0:0:0:
359,316,70932,1,0,0:0:0:0:
366,314,71000,1,0,0:0:0:0:
373,312,71068,1,0,0:0:0:0:
380,310,71136,6,0,L|446:325,3,40,8|8|8|8,0:0|0:0|0:0|0:0,0:0:0:0:
511,250,71409,2,0,L|445:265,3,40,8|8|8|8,0:0|0:0|0:0|0:0,0:0:0:0:
386,215,71682,5,6,0:0:0:0:
175,104,73864,5,2,0:0:0:0:
44,42,74000,1,8,0:0:0:0:
153,195,74136,2,0,L|243:188,1,80,2|8,0:0|0:0,0:0:0:0:
333,47,74409,2,0,P|312:104|317:140,2,80,2|8|2,0:0|0:0|0:0,0:0:0:0:
473,25,74818,1,8,0:0:0:0:
372,189,74955,6,0,L|427:196,3,40,2|0|8|0,0:0|0:0|0:0|0:0,0:0:0:0:
301,233,75227,1,2,0:0:0:0:
299,240,75295,1,0,0:0:0:0:
297,247,75364,1,8,0:0:0:0:
295,254,75432,1,0,0:0:0:0:
293,261,75500,6,0,L|244:266,3,40,8|8|8|8,0:0|0:0|2:0|2:0,0:0:0:0:
135,305,75773,2,0,L|184:310,3,40,8|8|8|8,0:0|0:0|0:0|0:0,0:0:0:0:
272,341,76045,5,6,0:0:0:0:
445,241,77682,5,10,0:0:0:0:
476,358,77818,1,0,0:0:0:0:
362,213,77955,5,10,0:0:0:0:
331,330,78091,1,0,0:0:0:0:
423,162,78227,6,0,B|359:164|359:164|335:142|335:142|249:147,1,160,6|10,0:0|0:0,0:0:0:0:
151,289,78636,2,0,P|178:252|185:205,1,80,0|2,0:0|0:0,0:0:0:0:
179,208,78841,1,0,0:0:0:0:
173,197,78909,1,0,0:0:0:0:
103,62,79045,2,0,P|149:107|194:109,1,80,10|0,0:0|0:0,0:0:0:0:
442,57,79318,6,0,P|384:27|315:38,1,120,2|0,0:1|0:0,0:0:0:0:
302,60,79591,1,10,0:0:0:0:
433,177,79727,2,0,L|521:164,1,80,6|0,0:0|0:0,0:0:0:0:
366,120,80000,5,0,0:0:0:0:
314,245,80136,1,8,0:0:0:0:
420,195,80273,1,8,0:0:0:0:
228,159,80409,6,0,B|188:51|188:51|211:-2,1,160,6|10,0:0|0:0,0:0:0:0:
278,55,80818,1,0,0:0:0:0:
158,101,80955,1,2,0:0:0:0:
330,126,81091,2,0,L|422:129,1,80,0|10,0:0|0:0,0:0:0:0:
225,250,81364,6,0,P|246:210|242:166,1,80,0|2,0:0|0:0,0:0:0:0:
105,294,81636,2,0,L|120:377,1,80,0|10,0:0|0:0,0:0:0:0:
239,378,81909,1,0,0:0:0:0:
136,221,82045,2,0,L|84:215,3,40,2|0|0|0,0:1|0:0|0:0|0:0,0:0:0:0:
245,176,82318,5,8,2:0:0:0:
268,173,82386,1,8,2:0:0:0:
292,170,82455,1,8,2:0:0:0:
315,168,82523,1,8,2:0:0:0:
338,166,82591,6,0,B|308:142|308:142|168:165,1,160,6|10,0:0|0:0,0:0:0:0:
392,310,83000,2,0,P|409:253|403:227,1,80,0|2,0:0|0:0,0:0:0:0:
157,88,83273,2,0,P|109:154|159:236,1,160,10|0,0:0|0:0,0:0:0:0:
358,165,83682,6,0,L|338:4,1,160,2|10,0:0|0:0,0:0:0:0:
437,84,84091,1,0,0:0:0:0:
437,84,84227,1,2,0:0:0:0:
268,173,84364,1,10,0:0:0:0:
268,173,84500,2,0,L|172:161,1,80,6|0,0:0|0:0,0:0:0:0:
69,301,84773,5,14,0:0:0:0:
89,199,84909,1,0,0:0:0:0:
148,299,85045,5,10,0:0:0:0:
12,247,85182,1,0,0:0:0:0:
172,218,85318,5,10,0:0:0:0:
15,163,85455,1,0,0:0:0:0:
159,314,85591,5,10,0:0:0:0:
112,123,85727,1,0,0:0:0:0:
226,223,85864,6,0,L|164:232,3,40,8|8|8|8,2:0|2:0|2:0|2:0,0:0:0:0:
313,208,86136,2,0,L|375:217,3,40,0|0|8|8,0:0|0:0|0:0|0:0,0:0:0:0:
252,140,86409,5,8,0:0:0:0:
250,132,86477,1,8,0:0:0:0:
248,124,86545,1,0,0:0:0:0:
246,115,86614,1,0,0:0:0:0:
282,98,86682,5,8,0:0:0:0:
284,90,86750,1,8,0:0:0:0:
286,82,86818,1,8,0:0:0:0:
288,73,86887,1,8,0:0:0:0:
255,50,86955,6,0,P|333:84|425:52,1,160,6|10,0:0|0:0,0:0:0:0:
177,181,87364,2,0,L|166:81,1,80,0|2,0:0|0:0,0:0:0:0:
166,89,87568,1,0,0:0:0:0:
164,77,87636,1,0,0:0:0:0:
319,214,87773,2,0,P|291:236|224:239,1,80,10|0,0:0|0:0,0:0:0:0:
8,159,88045,6,0,P|61:165|106:214,1,120,2|0,0:0|0:0,0:0:0:0:
102,252,88318,1,10,0:0:0:0:
168,101,88455,2,0,L|256:87,1,80,6|0,0:0|0:0,0:0:0:0:
335,228,88727,5,0,0:0:0:0:
187,200,88864,1,8,0:0:0:0:
291,146,89000,1,8,0:0:0:0:
213,313,89136,6,0,L|115:319,1,80,6|0,0:0|0:0,0:0:0:0:
349,241,89409,2,0,L|445:252,1,80,10|0,0:0|0:0,0:0:0:0:
245,213,89682,2,0,P|212:167|226:95,1,120,10|0,0:0|0:0,0:0:0:0:
253,85,89955,2,0,L|353:78,1,80,10|0,0:0|0:0,0:0:0:0:
121,165,90227,5,10,0:0:0:0:
163,17,90364,1,0,0:0:0:0:
46,117,90500,5,10,0:0:0:0:
178,96,90636,1,0,0:0:0:0:
44,205,90773,5,10,0:0:0:0:
107,70,90909,1,0,0:0:0:0:
157,247,91045,2,0,L|240:256,1,80,14|0,0:0|0:0,0:0:0:0:
321,97,91318,6,0,P|296:141|296:186,1,80,6|0,0:0|0:0,0:0:0:0:
418,82,91591,2,0,L|408:-5,1,80,10|0,0:0|0:0,0:0:0:0:
283,29,91864,1,2,0:0:0:0:
389,170,92000,1,10,0:0:0:0:
389,170,92136,2,0,L|484:162,1,80,2|0,0:0|0:0,0:0:0:0:
253,330,92409,6,0,P|236:296|238:246,1,80,6|0,0:0|0:0,0:0:0:0:
415,354,92682,1,10,0:0:0:0:
415,354,92818,2,0,L|321:367,1,80,0|2,0:0|0:0,0:0:0:0:
431,263,93091,1,10,0:0:0:0:
431,263,93227,2,0,L|525:276,1,80,2|0,0:0|0:0,0:0:0:0:
355,161,93500,5,14,0:0:0:0:
322,285,93636,1,0,0:0:0:0:
362,143,93773,2,0,L|351:51,1,80,10|0,0:0|0:0,0:0:0:0:
278,210,94045,5,10,0:0:0:0:
411,242,94182,1,0,0:0:0:0:
258,204,94318,2,0,L|174:213,1,80,10|0,0:0|0:0,0:0:0:0:
77,316,94591,5,10,0:0:0:0:
24,182,94727,1,0,0:0:0:0:
87,334,94864,2,0,L|185:338,1,80,10|0,0:0|0:0,0:0:0:0:
155,220,95136,5,10,0:0:0:0:
16,271,95273,1,0,0:0:0:0:
178,212,95409,2,0,L|190:121,1,80,10|0,0:0|0:0,0:0:0:0:
303,272,95682,6,0,L|235:281,3,40,6|0|0|0,0:0|0:0|0:0|0:0,0:0:0:0:
373,226,95955,1,8,2:0:0:0:
375,202,96023,1,8,2:0:0:0:
377,178,96091,1,8,2:0:0:0:
379,154,96159,1,8,2:0:0:0:
382,130,96227,6,0,L|443:122,3,40,6|0|0|0,0:0|0:0|0:0|0:0,0:0:0:0:
290,139,96500,2,0,L|229:131,3,40,8|8|8|8,0:0|0:0|0:0|0:0,0:0:0:0:
160,43,96773,6,0,P|171:65|176:89,3,40,6|0|0|0,0:0|0:0|0:0|0:0,0:0:0:0:
83,169,97045,2,0,P|88:149|97:132,3,40,8|8|8|8,0:0|0:0|0:0|0:0,0:0:0:0:
152,234,97318,5,6,0:0:0:0:
159,234,97386,1,0,0:0:0:0:
167,235,97455,1,0,0:0:0:0:
174,236,97523,1,0,0:0:0:0:
192,271,97591,5,8,0:0:0:0:
199,271,97659,1,8,0:0:0:0:
207,270,97728,1,8,0:0:0:0:
214,269,97796,1,8,0:0:0:0:
243,241,97864,5,6,0:0:0:0:
379,163,100045,5,6,0:0:0:0:
130,126,102227,5,6,0:0:0:0:
284,302,103864,5,14,0:0:0:0:
284,302,104136,1,14,0:0:0:0:
97,269,104409,5,6,0:0:0:0:
170,237,104682,1,2,0:0:0:0:
171,233,104750,1,0,0:0:0:0:
172,229,104818,1,0,0:0:0:0:
173,225,104886,1,0,0:0:0:0:
181,185,104955,5,10,0:0:0:0:
181,185,105227,2,0,L|235:178,3,30.0000011444092,2|0|0|0,0:0|0:0|0:0|0:0,0:0:0:0:
290,125,105500,5,2,0:0:0:0:
333,192,105773,1,2,0:0:0:0:
336,192,105841,1,0,0:0:0:0:
339,193,105909,1,0,0:0:0:0:
342,193,105977,1,0,0:0:0:0:
380,203,106045,5,10,0:0:0:0:
380,203,106318,2,0,L|386:256,3,30.0000011444092,2|0|0|0,0:0|0:0|0:0|0:0,0:0:0:0:
393,331,106591,5,6,0:0:0:0:
321,294,106864,1,2,0:0:0:0:
317,295,106932,1,0,0:0:0:0:
313,296,107000,1,0,0:0:0:0:
309,297,107068,1,0,0:0:0:0:
271,310,107136,5,10,0:0:0:0:
271,310,107409,2,0,L|216:302,3,30.0000011444092,2|0|0|0,0:0|0:0|0:0|0:0,0:0:0:0:
154,350,107682,5,6,0:0:0:0:
114,280,107955,2,0,L|59:275,3,30.0000011444092,2|0|0|0,0:0|0:0|0:0|0:0,0:0:0:0:
187,243,108227,5,8,2:0:0:0:
190,219,108295,1,8,2:0:0:0:
193,194,108364,1,8,2:0:0:0:
196,170,108432,1,8,2:0:0:0:
199,146,108500,2,0,L|241:140,3,30.0000011444092,2|0|2|0,0:0|0:0|0:0|0:0,0:0:0:0:
313,189,108773,5,6,0:0:0:0:
388,153,109045,1,2,0:0:0:0:
388,148,109114,1,0,0:0:0:0:
388,143,109182,1,0,0:0:0:0:
388,138,109250,1,0,0:0:0:0:
389,98,109318,5,10,0:0:0:0:
389,98,109591,2,0,L|430:92,3,30.0000011444092,2|0|0|0,0:0|0:0|0:0|0:0,0:0:0:0:
333,43,109864,5,6,0:0:0:0:
277,105,110136,1,2,0:0:0:0:
273,104,110205,1,0,0:0:0:0:
269,103,110273,1,0,0:0:0:0:
265,102,110341,1,0,0:0:0:0:
225,96,110409,5,10,0:0:0:0:
225,96,110682,2,0,L|173:101,3,30.0000011444092,2|0|0|0,0:0|0:0|0:0|0:0,0:0:0:0:
134,167,110955,5,6,0:0:0:0:
199,218,111227,1,2,0:0:0:0:
200,223,111295,1,0,0:0:0:0:
201,228,111364,1,0,0:0:0:0:
202,233,111432,1,0,0:0:0:0:
209,271,111500,5,10,0:0:0:0:
209,271,111773,2,0,L|161:266,3,30.0000011444092,2|0|0|0,0:0|0:0|0:0|0:0,0:0:0:0:
268,333,112045,5,8,2:0:0:0:
292,330,112114,1,8,2:0:0:0:
315,327,112182,1,8,2:0:0:0:
338,324,112250,1,8,2:0:0:0:
361,321,112318,2,0,L|371:282,3,30.0000011444092,8|8|8|8,0:0|0:0|0:0|0:0,0:0:0:0:
460,265,112591,5,8,2:0:0:0:
457,241,112659,1,8,2:0:0:0:
454,217,112727,1,8,2:0:0:0:
451,193,112795,1,8,2:0:0:0:
448,168,112864,2,0,L|442:125,3,30.0000011444092,8|8|8|8,0:0|0:0|0:0|0:0,0:0:0:0:
346,90,113136,6,0,P|362:97|386:102,7,30.0000011444092,6|0|0|0|2|0|0|0,0:0|0:0|0:0|0:0|0:0|0:0|0:0|0:0,0:0:0:0:
304,21,113682,1,10,0:0:0:0:
301,22,113750,1,0,0:0:0:0:
298,23,113818,1,0,0:0:0:0:
295,24,113886,1,0,0:0:0:0:
292,25,113955,1,2,0:0:0:0:
289,26,114023,1,0,0:0:0:0:
286,27,114091,1,0,0:0:0:0:
283,28,114159,1,0,0:0:0:0:
211,48,114227,6,0,L|170:42,7,30.0000011444092,6|0|0|0|2|0|0|0,0:0|0:0|0:0|0:0|0:0|0:0|0:0|0:0,0:0:0:0:
113,85,114773,1,10,0:0:0:0:
114,88,114841,1,0,0:0:0:0:
115,91,114909,1,0,0:0:0:0:
116,94,114977,1,0,0:0:0:0:
117,97,115045,1,2,0:0:0:0:
119,100,115114,1,0,0:0:0:0:
120,103,115182,1,0,0:0:0:0:
122,106,115250,1,0,0:0:0:0:
149,176,115318,6,0,L|139:217,7,30.0000011444092,6|0|0|0|2|0|0|0,0:0|0:0|0:0|0:0|0:0|0:0|0:0|0:0,0:0:0:0:
78,247,115864,1,10,0:0:0:0:
79,250,115932,1,0,0:0:0:0:
80,253,116000,1,0,0:0:0:0:
81,256,116068,1,0,0:0:0:0:
82,259,116136,1,2,0:0:0:0:
84,262,116205,1,0,0:0:0:0:
85,265,116273,1,0,0:0:0:0:
87,268,116341,1,0,0:0:0:0:
145,316,116409,6,0,L|135:357,7,30.0000011444092,6|0|0|0|2|0|0|0,0:0|0:0|0:0|0:0|0:0|0:0|0:0|0:0,0:0:0:0:
213,366,116955,1,10,0:0:0:0:
227,362,117023,1,0,0:0:0:0:
241,358,117091,1,0,0:0:0:0:
255,355,117159,1,0,0:0:0:0:
269,352,117227,1,2,0:0:0:0:
283,349,117295,1,0,0:0:0:0:
297,346,117364,1,0,0:0:0:0:
311,343,117432,1,0,0:0:0:0:
350,335,117500,5,6,0:0:0:0:
350,335,117773,2,0,L|360:283,3,40,2|8|0|8,0:0|0:0|0:0|0:0,0:0:0:0:
414,227,118045,5,2,0:0:0:0:
413,218,118114,1,8,0:0:0:0:
412,210,118182,1,0,0:0:0:0:
411,202,118250,1,8,0:0:0:0:
410,194,118318,2,0,L|470:182,3,40,2|8|0|8,0:0|0:0|0:0|0:0,0:0:0:0:
342,133,118591,6,0,P|335:113|333:86,3,40,2|8|0|8,0:0|0:0|0:0|0:0,0:0:0:0:
243,156,118864,2,0,P|250:136|252:109,3,40,2|8|0|8,0:0|0:0|0:0|0:0,0:0:0:0:
156,62,119136,6,0,L|204:56,3,40,2|8|0|8,0:0|0:0|0:0|0:0,0:0:0:0:
90,109,119409,2,0,L|42:103,3,40,2|8|0|8,0:0|0:0|0:0|0:0,0:0:0:0:
144,222,119682,6,0,P|152:195|155:166,3,40,6|8|0|8,0:0|0:0|0:0|0:0,0:0:0:0:
68,266,119955,2,0,P|71:285|77:304,3,40,2|8|0|8,0:0|0:0|0:0|0:0,0:0:0:0:
159,338,120227,5,6,0:0:0:0:
166,337,120295,1,8,0:0:0:0:
174,336,120364,1,0,0:0:0:0:
181,335,120432,1,8,0:0:0:0:
188,334,120500,2,0,L|238:328,3,40,2|8|0|8,0:0|0:0|0:0|0:0,0:0:0:0:
280,229,120773,6,0,P|275:251|275:272,3,40,6|8|0|8,0:0|0:0|0:0|0:0,0:0:0:0:
351,188,121045,2,0,P|335:171|318:159,3,40,2|8|0|8,0:0|0:0|0:0|0:0,0:0:0:0:
352,269,121318,2,0,P|374:266|394:258,3,40,6|8|8|8,0:0|0:0|0:0|0:0,0:0:0:0:
437,187,121591,5,8,2:0:0:0:
435,163,121659,1,8,2:0:0:0:
433,139,121727,1,8,2:0:0:0:
431,115,121795,1,8,2:0:0:0:
429,90,121864,5,6,0:0:0:0:
429,90,122136,2,0,L|485:81,3,44.0000013427735,2|8|0|8,0:0|0:0|0:0|0:0,0:0:0:0:
349,103,122409,5,2,0:0:0:0:
340,102,122477,1,8,0:0:0:0:
331,101,122545,1,0,0:0:0:0:
322,100,122614,1,8,0:0:0:0:
313,99,122682,2,0,L|305:56,3,44.0000013427735,2|8|0|8,0:0|0:0|0:0|0:0,0:0:0:0:
208,135,122955,6,0,P|234:144|258:146,3,44.0000013427735,2|8|0|8,0:0|0:0|0:0|0:0,0:0:0:0:
172,63,123227,2,0,L|119:69,3,44.0000013427735,2|8|0|8,0:0|0:0|0:0|0:0,0:0:0:0:
54,176,123500,6,0,L|64:120,3,44.0000013427735,2|8|0|8,0:0|0:0|0:0|0:0,0:0:0:0:
142,218,123773,2,0,L|132:162,3,44.0000013427735,2|8|0|8,0:0|0:0|0:0|0:0,0:0:0:0:
41,285,124045,6,0,L|98:277,3,44.0000013427735,6|8|0|8,0:0|0:0|0:0|0:0,0:0:0:0:
195,319,124318,2,0,L|138:311,3,44.0000013427735,2|8|0|8,0:0|0:0|0:0|0:0,0:0:0:0:
272,291,124591,5,2,0:0:0:0:
273,282,124659,1,8,0:0:0:0:
274,273,124727,1,0,0:0:0:0:
275,264,124795,1,8,0:0:0:0:
276,255,124864,2,0,L|329:250,3,44.0000013427735,2|8|0|8,0:0|0:0|0:0|0:0,0:0:0:0:
213,195,125136,6,0,P|203:168|200:146,3,44.0000013427735,6|0|0|0,0:0|0:0|0:0|0:0,0:0:0:0:
264,92,125409,1,8,2:0:0:0:
290,89,125477,1,8,2:0:0:0:
316,87,125545,1,8,2:0:0:0:
342,85,125614,1,8,2:0:0:0:
368,83,125682,6,0,L|372:32,3,44.0000013427735,8|8|8|8,2:0|2:0|2:0|2:0,0:0:0:0:
453,128,125955,2,0,L|449:84,3,44.0000013427735,8|8|8|8,0:0|0:0|0:0|0:0,0:0:0:0:
354,182,126227,5,6,0:0:0:0:
354,182,126500,2,0,L|407:192,3,47.9999985351563,2|8|0|8,0:0|0:0|0:0|0:0,0:0:0:0:
291,243,126773,5,2,0:0:0:0:
281,244,126841,1,8,0:0:0:0:
271,245,126909,1,0,0:0:0:0:
261,246,126977,1,8,0:0:0:0:
251,247,127045,2,0,L|241:305,3,47.9999985351563,2|8|0|8,0:0|0:0|0:0|0:0,0:0:0:0:
187,192,127318,6,0,P|165:182|140:178,3,47.9999985351563,2|8|0|8,0:0|0:0|0:0|0:0,0:0:0:0:
32,233,127591,2,0,L|92:229,3,47.9999985351563,2|8|0|8,0:0|0:0|0:0|0:0,0:0:0:0:
158,335,127864,6,0,P|148:311|144:284,3,47.9999985351563,2|8|0|8,0:0|0:0|0:0|0:0,0:0:0:0:
245,337,128136,2,0,L|240:387,3,47.9999985351563,2|8|0|8,0:0|0:0|0:0|0:0,0:0:0:0:
320,285,128409,5,2,0:0:0:0:
73,241,129500,5,6,0:0:0:0:
82,243,129568,1,10,0:0:0:0:
92,245,129636,1,0,0:0:0:0:
102,247,129705,1,10,0:0:0:0:
112,249,129773,2,0,L|122:312,3,51.999997619629,0|10|0|10,0:0|0:0|0:0|0:0,0:0:0:0:
166,186,130045,5,0,0:0:0:0:
176,185,130113,1,10,0:0:0:0:
186,183,130181,1,0,0:0:0:0:
196,181,130250,1,10,0:0:0:0:
206,179,130318,2,0,L|216:115,3,51.999997619629,0|10|0|10,0:0|0:0|0:0|0:0,0:0:0:0:
267,253,130591,5,0,0:0:0:0:
277,257,130659,1,10,0:0:0:0:
288,258,130727,1,0,0:0:0:0:
299,257,130795,1,10,0:0:0:0:
310,254,130864,2,0,L|320:188,3,55.9999982910157,0|10|0|10,0:0|0:0|0:0|0:0,0:0:0:0:
388,307,131136,5,0,0:0:0:0:
398,303,131204,1,10,0:0:0:0:
409,302,131272,1,0,0:0:0:0:
420,303,131340,1,10,0:0:0:0:
431,306,131409,2,0,L|441:372,3,55.9999982910157,0|10|0|10,0:0|0:0|0:0|0:0,0:0:0:0:
427,224,131682,6,0,B|454:117|454:117|426:74,2,160,14|10|10,0:0|0:0|0:0,0:0:0:0:
324,287,132364,2,0,L|149:266,2,160,10|10|10,0:0|0:0|0:0,0:0:0:0:
216,47,134955,6,0,P|244:39|293:38,2,60.0000022888184,2|2|2,2:0|2:0|2:0,0:0:0:0:
132,122,135364,2,0,B|105:115|105:115|79:120|79:120|52:103|6:107,1,120.000004577637,2|0,2:0|0:0,0:0:0:0:
196,176,135773,6,0,L|205:220,3,40,8|8|8|8,2:0|2:0|2:0|2:0,0:0:0:0:
269,286,136045,6,0,P|216:257|96:266,2,160,10|10|10,0:0|0:0|0:0,0:0:0:0:
347,377,136727,2,0,L|515:356,2,160,10|10|10,0:0|0:0|0:0,0:0:0:0:
119,152,138636,5,0,0:0:0:0:
114,140,138705,1,0,0:0:0:0:
108,128,138773,2,0,P|81:118|36:116,1,60.0000022888184,10|0,0:0|0:0,0:0:0:0:
170,214,139045,2,0,L|235:205,1,60.0000022888184,8|8,0:0|0:0,0:0:0:0:
332,93,139318,5,14,0:0:0:0:
330,104,139386,1,0,0:0:0:0:
328,116,139455,1,0,0:0:0:0:
326,127,139523,1,0,0:0:0:0:
324,138,139591,2,0,L|259:144,3,40,10|0|0|0,0:0|0:0|0:0|0:0,0:0:0:0:
407,186,139864,5,14,0:0:0:0:
409,197,139932,1,0,0:0:0:0:
411,209,140001,1,0,0:0:0:0:
413,220,140069,1,0,0:0:0:0:
415,231,140137,2,0,L|480:237,3,40,10|0|0|0,0:0|0:0|0:0|0:0,0:0:0:0:
350,294,140409,6,0,L|254:301,1,80,10|0,0:0|0:0,0:0:0:0:
132,199,140682,2,0,P|195:218|210:236,1,80,10|0,0:0|0:0,0:0:0:0:
82,345,140955,1,10,0:0:0:0:
82,345,141091,2,0,L|68:249,1,80,0|10,0:0|0:0,0:0:0:0:
286,78,141364,2,0,P|236:121|140:114,1,160
196,27,141773,5,10,0:0:0:0:
276,63,141909,2,0,L|335:54,1,51.999997619629,0|10,0:0|0:0,0:0:0:0:
452,36,142182,1,0,0:0:0:0:
452,36,142318,2,0,L|393:27,1,51.999997619629,10|0,0:0|0:0,0:0:0:0:
470,160,142591,6,0,P|480:138|483:101,1,51.999997619629,10|0,0:0|0:0,0:0:0:0:
377,156,142864,2,0,L|390:216,1,51.999997619629,10|0,0:0|0:0,0:0:0:0:
497,243,143136,1,10,0:0:0:0:
497,243,143273,1,0,0:0:0:0:
419,296,143409,2,0,L|344:286,1,51.999997619629,10|0,0:0|0:0,0:0:0:0:
241,183,143682,6,0,P|282:189|325:229,2,80,10|0|10,0:0|0:0|0:0,0:0:0:0:
151,318,144091,2,0,B|121:308|121:308|91:312|91:312|46:266|-28:288,1,160,6|0,0:0|0:0,0:0:0:0:
19,364,144500,1,10,0:0:0:0:
80,256,144636,1,0,0:0:0:0:
78,243,144705,1,0,0:0:0:0:
76,231,144773,6,0,L|67:120,1,80,14|0,0:0|0:0,0:0:0:0:
236,278,145045,2,0,P|203:302|136:311,1,80,10|0,0:0|0:0,0:0:0:0:
214,147,145318,1,10,0:0:0:0:
214,147,145455,2,0,L|312:157,1,80,0|10,0:0|0:0,0:0:0:0:
395,343,145727,2,0,P|354:302|372:196,1,160
456,185,146136,5,10,0:0:0:0:
393,128,146273,2,0,L|401:67,1,51.999997619629,0|10,0:0|0:0,0:0:0:0:
297,15,146545,1,0,0:0:0:0:
297,15,146682,2,0,L|303:66,1,51.999997619629,10|0,0:0|0:0,0:0:0:0:
191,163,146955,6,0,P|222:145|255:140,1,51.999997619629,10|0,0:0|0:0,0:0:0:0:
307,229,147227,2,0,L|235:224,1,51.999997619629,10|0,0:0|0:0,0:0:0:0:
186,314,147500,1,10,0:0:0:0:
186,314,147636,1,0,0:0:0:0:
120,247,147773,2,0,L|53:241,1,51.999997619629,10|0,0:0|0:0,0:0:0:0:
197,200,148045,5,8,2:0:0:0:
212,181,148114,1,8,2:0:0:0:
218,157,148182,1,8,2:0:0:0:
215,133,148250,1,8,2:0:0:0:
204,111,148318,2,0,L|137:102,3,40,2|0|0|0,0:0|0:0|0:0|0:0,0:0:0:0:
294,28,148591,6,0,L|303:69,3,40,8|8|8|8,0:0|0:0|0:0|0:0,0:0:0:0:
330,187,148864,2,0,L|339:146,3,40,8|8|8|8,0:0|0:0|0:0|0:0,0:0:0:0:
392,46,149136,5,6,0:0:0:0:
121,301,151318,6,0,L|188:307,2,53.3333333333333,2|0|0,0:2|2:0|2:0,0:0:0:0:
120,285,151864,1,2,0:2:0:0:
119,269,152409,1,0,0:0:0:0:
118,253,152955,1,0,0:0:0:0:
299,309,153500,5,0,0:0:0:0:
299,293,154045,1,0,0:0:0:0:
300,277,154591,1,0,0:0:0:0:
301,261,155136,2,0,L|364:254,2,53.3333333333333,8|8|8,0:2|2:0|2:0,0:0:0:0:
441,251,155682,5,8,0:0:0:0:
400,159,156023,2,0,L|396:191,2,20,8|8|8,2:0|2:0|2:0,0:0:0:0:
403,141,156227,2,0,P|359:121|277:122,1,106.666666666667,8|0,0:0|0:0,0:0:0:0:
227,226,156773,6,0,L|127:217,1,80,8|2,0:0|0:0,0:0:0:0:
92,277,157318,1,0,0:0:0:0:
286,355,157864,6,0,P|304:318|302:261,1,80,2|2,0:2|0:2,0:0:0:0:
249,222,158409,1,2,0:2:0:0:
63,110,158955,6,0,L|160:101,1,80,2|2,0:2|0:2,0:0:0:0:
197,44,159500,1,2,0:2:0:0:
376,113,160045,6,0,L|336:107,5,26.6666666666667,2|0|0|0|0|0,0:2|2:0|2:0|2:2|2:0|2:0,0:0:0:0:
240,135,160591,2,0,L|280:129,5,26.6666666666667,2|0|0|0|0|0,0:2|0:0|2:0|2:0|2:0|2:0,0:0:0:0:
153,110,161136,5,2,0:2:0:0:
156,119,161226,1,0,2:0:0:0:
159,130,161317,1,0,2:0:0:0:
159,140,161408,1,0,2:0:0:0:
159,151,161499,1,0,2:0:0:0:
156,162,161590,1,0,2:0:0:0:
153,172,161681,1,2,0:2:0:0:
148,181,161772,1,0,2:0:0:0:
141,189,161863,1,0,2:0:0:0:
134,197,161954,1,0,2:0:0:0:
125,203,162045,1,0,2:0:0:0:
116,209,162135,1,0,2:0:0:0:
106,212,162226,5,2,0:2:0:0:
186,261,162409,2,0,L|215:253,2,26.6666666666667,0|2|0,0:0|2:0|0:0,0:0:0:0:
291,229,162773,2,0,L|297:157,2,53.3333333333333,2|2|2,0:2|2:2|2:2,0:0:0:0:
245,103,163318,6,0,P|205:87|154:86,2,74.6666643880209,6|0|0,0:0|2:0|2:0,0:0:0:0:
312,164,163864,2,0,L|401:157,2,74.6666643880209,2|0|0,0:0|2:0|2:0,0:0:0:0:
222,220,164409,5,2,0:0:0:0:
200,214,164591,1,0,2:0:0:0:
178,208,164773,1,0,2:0:0:0:
177,301,164955,5,2,0:0:0:0:
155,307,165137,1,0,2:0:0:0:
133,313,165319,1,0,2:0:0:0:
298,276,165500,6,0,L|391:291,2,74.6666643880209,2|0|0,0:0|2:0|2:0,0:0:0:0:
222,220,166045,2,0,P|211:189|215:139,2,74.6666643880209,2|0|0,0:0|2:0|2:0,0:0:0:0:
303,99,166591,5,2,0:0:0:0:
151,83,166773,2,0,L|138:-2,1,74.6666643880209,8|0,0:0|2:0,0:0:0:0:
114,160,167136,5,2,0:0:0:0:
229,61,167318,1,8,0:0:0:0:
132,72,167500,1,8,0:0:0:0:
277,186,167682,6,0,L|364:177,2,74.6666643880209,6|0|0,0:0|2:0|2:0,0:0:0:0:
207,245,168227,2,0,P|193:282|192:321,2,74.6666643880209,2|0|0,0:0|2:0|2:0,0:0:0:0:
425,209,168773,5,2,0:0:0:0:
428,186,168955,1,0,2:0:0:0:
431,163,169136,1,0,2:0:0:0:
332,303,169318,5,2,0:0:0:0:
329,280,169500,1,0,2:0:0:0:
326,257,169681,1,0,2:0:0:0:
173,128,169864,5,8,0:0:0:0:
205,120,170045,1,8,0:0:0:0:
237,113,170227,1,8,0:0:0:0:
91,239,170409,5,8,0:0:0:0:
142,245,170591,1,8,0:0:0:0:
193,251,170773,1,8,0:0:0:0:
62,146,170955,5,8,2:0:0:0:
114,83,171136,1,8,2:0:0:0:
33,70,171318,1,8,2:0:0:0:
171,180,171500,5,8,2:0:0:0:
52,159,171682,1,8,2:0:0:0:
130,69,171864,1,8,2:0:0:0:
235,264,172045,6,0,B|344:296|307:213|449:252,1,181.333336791992,6|2,0:0|0:2,0:0:0:0:
277,182,172591,1,10,0:0:0:0:
218,282,172773,2,0,L|92:290,1,90.6666683959961,2|2,0:2|0:2,0:0:0:0:
322,86,173136,6,0,P|371:140|357:256,1,181.333336791992,2|2,0:2|0:2,0:0:0:0:
279,180,173682,1,10,0:0:0:0:
402,145,173864,2,0,L|414:43,1,90.6666683959961,2|2,0:2|0:2,0:0:0:0:
107,169,174227,6,0,B|185:162|185:162|215:187|215:187|295:178,1,181.333336791992,2|2,0:2|0:2,0:0:0:0:
157,245,174773,1,10,0:0:0:0:
90,147,174955,2,0,L|-4:139,1,90.6666683959961,2|2,0:2|0:2,0:0:0:0:
248,341,175318,6,0,P|290:285|259:157,1,181.333336791992,2|2,0:2|0:2,0:0:0:0:
181,247,175864,1,10,0:0:0:0:
380,240,176045,1,2,0:2:0:0:
382,208,176135,1,0,0:0:0:0:
385,176,176226,1,2,0:2:0:0:
388,145,176317,1,0,0:0:0:0:
391,113,176409,6,0,B|418:142|418:142|402:313,1,181.333336791992,6|2,0:0|0:2,0:0:0:0:
193,331,176955,1,8,0:0:0:0:
293,381,177136,2,0,L|301:281,1,90.6666683959961,2|2,0:2|0:2,0:0:0:0:
44,183,177500,6,0,B|169:170|87:232|240:211,1,181.333336791992,2|2,0:2|0:2,0:0:0:0:
76,259,178045,1,10,0:0:0:0:
182,140,178227,1,2,0:2:0:0:
64,273,178409,1,2,0:2:0:0:
290,196,178591,6,0,L|303:100,1,90.6666683959961,2|2,0:2|0:2,0:0:0:0:
397,254,178955,2,0,L|384:158,1,90.6666683959961,2|10,0:2|0:0,0:0:0:0:
267,301,179318,2,0,L|280:205,1,90.6666683959961,2|2,0:2|0:2,0:0:0:0:
423,358,179682,5,2,0:2:0:0:
264,320,179864,1,8,2:0:0:0:
270,284,179955,1,8,2:0:0:0:
275,248,180045,1,8,2:0:0:0:
281,212,180136,1,8,2:0:0:0:
287,176,180227,5,8,2:0:0:0:
278,186,180318,1,8,2:0:0:0:
269,196,180409,1,8,0:0:0:0:
260,206,180500,1,8,0:0:0:0:
251,216,180591,1,8,0:0:0:0:
242,226,180682,1,8,0:0:0:0:
233,236,180773,6,0,L|441:222,1,181.333336791992,6|2,0:0|0:2,0:0:0:0:
340,114,181318,1,10,0:0:0:0:
223,248,181500,1,2,0:2:0:0:
191,245,181591,1,0,0:0:0:0:
159,242,181682,1,2,0:0:0:0:
127,239,181773,1,0,0:0:0:0:
95,236,181864,6,0,B|110:257|110:257|216:268,1,90.6666683959961,2|0,0:2|0:0,0:0:0:0:
253,152,182227,1,2,0:2:0:0:
306,315,182409,5,10,0:2:0:0:
337,333,182500,1,0,0:0:0:0:
373,336,182591,1,2,0:2:0:0:
405,320,182682,1,0,0:0:0:0:
437,302,182773,1,2,0:2:0:0:
473,304,182864,1,0,0:0:0:0:
501,326,182955,5,2,0:2:0:0:
359,255,183136,1,2,0:2:0:0:
359,255,183227,1,0,0:0:0:0:
359,255,183318,1,2,0:2:0:0:
504,202,183500,1,10,0:2:0:0:
416,167,183682,1,2,0:2:0:0:
410,131,183773,1,0,0:0:0:0:
405,95,183864,1,2,0:2:0:0:
400,59,183955,1,0,0:0:0:0:
421,19,184045,5,2,0:2:0:0:
384,17,184135,1,0,0:0:0:0:
348,16,184226,1,2,0:2:0:0:
312,14,184317,1,0,0:0:0:0:
276,13,184408,1,2,0:2:0:0:
239,11,184499,1,0,0:0:0:0:
207,44,184591,6,0,L|146:38,1,45.3333341979981,10|0,0:2|0:0,0:0:0:0:
219,156,184773,2,0,L|258:109,1,45.3333341979981,2|2,0:2|0:2,0:0:0:0:
114,111,184955,2,0,L|135:169,1,45.3333341979981,2|2,0:2|0:2,0:0:0:0:
182,264,185136,5,2,0:2:0:0:
182,264,185227,1,0,0:0:0:0:
182,264,185318,1,2,0:2:0:0:
218,262,185409,1,0,0:0:0:0:
254,260,185500,1,2,0:2:0:0:
290,258,185591,1,0,0:0:0:0:
330,237,185682,2,0,L|336:182,1,45.3333341979981,10|0,0:2|0:0,0:0:0:0:
346,30,185864,5,2,0:2:0:0:
327,61,185955,1,0,0:0:0:0:
334,96,186045,1,2,0:2:0:0:
356,124,186136,1,0,0:0:0:0:
399,136,186227,5,2,0:2:0:0:
361,109,186318,1,0,0:0:0:0:
315,105,186409,1,2,0:2:0:0:
273,123,186500,1,0,0:0:0:0:
241,155,186591,1,2,0:2:0:0:
197,168,186682,1,0,0:0:0:0:
153,155,186773,5,10,0:2:0:0:
176,182,186864,1,0,0:0:0:0:
188,216,186955,1,2,0:2:0:0:
185,251,187045,1,0,0:0:0:0:
169,283,187136,1,2,0:2:0:0:
140,305,187227,1,0,0:0:0:0:
104,314,187318,6,0,L|41:305,1,45.3333341979981,2|0,0:2|0:0,0:0:0:0:
103,228,187500,1,2,0:2:0:0:
139,226,187591,1,0,0:0:0:0:
175,224,187682,1,2,0:2:0:0:
211,222,187773,1,0,0:0:0:0:
247,249,187864,5,10,0:2:0:0:
251,212,187955,1,0,0:0:0:0:
255,176,188045,1,2,0:2:0:0:
259,139,188136,1,0,0:0:0:0:
263,102,188227,1,2,0:2:0:0:
267,65,188318,1,0,0:0:0:0:
271,29,188409,6,0,L|328:23,1,45.3333341979981,6|0,0:0|0:0,0:0:0:0:
440,66,188591,1,8,2:0:0:0:
396,80,188682,1,8,2:0:0:0:
364,112,188773,1,8,2:0:0:0:
355,156,188864,1,8,2:0:0:0:
368,199,188955,1,8,2:0:0:0:
402,228,189045,1,8,2:0:0:0:
443,246,189136,5,8,0:0:0:0:
441,259,189227,1,8,0:0:0:0:
439,272,189318,1,8,0:0:0:0:
437,285,189409,1,8,0:0:0:0:
428,329,189500,6,0,L|355:338,1,45.3333341979981,6|0,0:2|0:0,0:0:0:0:
284,263,189682,1,2,0:2:0:0:
256,263,189773,1,0,0:0:0:0:
229,272,189864,1,2,0:2:0:0:
206,288,189955,1,0,0:0:0:0:
189,320,190045,5,10,0:2:0:0:
222,307,190136,1,0,0:0:0:0:
243,277,190227,1,2,0:2:0:0:
250,241,190318,1,0,0:0:0:0:
237,206,190409,1,2,0:2:0:0:
208,183,190500,1,0,0:0:0:0:
174,170,190591,5,2,0:2:0:0:
207,200,190682,1,0,0:0:0:0:
251,209,190773,1,2,0:2:0:0:
294,196,190864,1,0,0:0:0:0:
332,172,190955,1,2,0:2:0:0:
376,166,191045,1,0,0:0:0:0:
416,186,191136,5,10,0:2:0:0:
388,184,191227,1,0,0:0:0:0:
360,182,191318,1,2,0:2:0:0:
332,180,191409,1,0,0:0:0:0:
304,178,191500,1,2,0:2:0:0:
276,176,191591,1,0,0:0:0:0:
248,174,191682,6,0,L|235:62,1,90.6666683959961,2|2,0:2|0:2,0:0:0:0:
261,55,191955,1,0,0:0:0:0:
229,72,192045,1,2,0:2:0:0:
193,78,192136,1,0,0:0:0:0:
156,74,192227,6,0,L|48:59,1,90.6666683959961,10|2,0:2|0:2,0:0:0:0:
41,34,192500,1,0,0:0:0:0:
55,67,192591,1,2,0:2:0:0:
52,103,192682,1,0,0:0:0:0:
36,135,192773,5,2,0:2:0:0:
335,218,193136,1,0,0:0:0:0:
192,316,193318,6,0,P|182:297|178:268,1,45.3333341979981,14|0,0:0|0:0,0:0:0:0:
265,186,193500,2,0,P|250:201|224:215,1,45.3333341979981,2|0,0:2|0:0,0:0:0:0:
108,187,193682,2,0,P|129:189|155:203,1,45.3333341979981,2|0,0:2|0:0,0:0:0:0:
43,286,193864,5,6,0:2:0:0:
43,286,193955,1,0,0:0:0:0:
43,286,194045,1,2,0:2:0:0:
38,250,194136,1,0,0:0:0:0:
33,214,194227,1,2,0:2:0:0:
28,178,194318,1,0,0:0:0:0:
1,141,194409,5,10,0:2:0:0:
41,160,194500,1,0,0:0:0:0:
86,162,194591,1,2,0:2:0:0:
129,148,194682,1,0,0:0:0:0:
166,122,194773,1,2,0:2:0:0:
210,114,194864,1,0,0:0:0:0:
253,127,194955,6,0,L|307:120,1,45.3333341979981,2|0,0:2|0:0,0:0:0:0:
392,70,195136,1,2,0:2:0:0:
381,95,195227,1,0,0:0:0:0:
378,122,195318,1,2,0:2:0:0:
383,148,195409,1,0,0:0:0:0:
416,178,195500,5,10,0:2:0:0:
376,200,195591,1,0,0:0:0:0:
357,241,195682,1,2,0:2:0:0:
363,285,195773,1,0,0:0:0:0:
393,318,195864,1,2,0:2:0:0:
436,330,195955,1,0,0:0:0:0:
478,316,196045,6,0,L|488:260,5,45.3333341979981,2|0|2|0|2|0,0:2|0:0|0:2|0:0|0:2|0:0,0:0:0:0:
433,163,196591,2,0,L|440:207,5,45.3333341979981,10|0|2|0|2|0,0:2|0:0|0:2|0:0|0:2|0:0,0:0:0:0:
319,277,197136,6,0,P|351:287|375:286,5,45.3333341979981,2|0|2|0|2|0,0:2|0:0|0:2|0:0|0:2|0:0,0:0:0:0:
258,211,197682,2,0,P|235:213|214:221,5,45.3333341979981,10|0|2|0|2|0,0:2|0:0|0:2|0:0|0:2|0:0,0:0:0:0:
105,288,198227,5,6,0:2:0:0:
132,246,198318,1,0,0:0:0:0:
134,196,198409,1,2,0:2:0:0:
111,151,198500,1,0,0:0:0:0:
89,105,198591,1,2,0:2:0:0:
94,55,198682,1,0,0:0:0:0:
126,17,198773,5,10,0:2:0:0:
144,48,198864,1,0,0:0:0:0:
172,70,198955,1,2,0:2:0:0:
206,80,199045,1,0,0:0:0:0:
242,82,199136,1,2,0:2:0:0:
278,77,199227,1,0,0:0:0:0:
311,62,199318,6,0,L|381:68,2,68.0000012969971,6|8|6,0:0|0:0|0:0,0:0:0:0:
224,0,199727,1,8,0:0:0:0:
167,148,199864,5,6,0:0:0:0:
144,48,200000,1,8,0:0:0:0:
59,214,200136,5,6,0:0:0:0:
82,114,200272,1,2,0:0:0:0:
162,280,200409,5,6,0:0:0:0:
393,161,202591,6,0,L|398:110,3,40,10|0|0|0,0:0|0:0|0:0|0:0,0:0:0:0:
336,223,202864,1,10,0:0:0:0:
324,226,202932,1,0,0:0:0:0:
312,229,203000,1,0,0:0:0:0:
300,232,203068,1,0,0:0:0:0:
288,235,203136,6,0,L|272:298,3,40,10|0|0|0,0:0|0:0|0:0|0:0,0:0:0:0:
227,169,203409,1,10,0:0:0:0:
215,166,203477,1,0,0:0:0:0:
203,163,203545,1,0,0:0:0:0:
191,160,203614,1,0,0:0:0:0:
179,157,203682,6,0,L|173:106,3,40,10|0|0|0,0:0|0:0|0:0|0:0,0:0:0:0:
129,224,203955,1,10,0:0:0:0:
117,225,204023,1,0,0:0:0:0:
105,226,204091,1,0,0:0:0:0:
93,227,204159,1,0,0:0:0:0:
81,228,204227,6,0,L|72:284,3,40,8|8|8|8,0:0|0:0|0:0|0:0,0:0:0:0:
142,369,204500,2,0,L|135:329,3,40,8|8|8|8,0:0|0:0|0:0|0:0,0:0:0:0:
201,258,204773,5,6,0:0:0:0:
367,343,206955,6,0,L|432:334,3,40,10|0|0|0,0:0|0:0|0:0|0:0,0:0:0:0:
294,298,207227,1,10,0:0:0:0:
290,286,207295,1,0,0:0:0:0:
286,274,207364,1,0,0:0:0:0:
282,262,207432,1,0,0:0:0:0:
278,250,207500,6,0,L|217:239,3,40,10|0|0|0,0:0|0:0|0:0|0:0,0:0:0:0:
149,227,207773,1,10,0:0:0:0:
152,215,207841,1,0,0:0:0:0:
155,203,207909,1,0,0:0:0:0:
158,191,207977,1,0,0:0:0:0:
161,179,208045,6,0,L|228:168,3,40,10|0|0|0,0:0|0:0|0:0|0:0,0:0:0:0:
310,152,208318,1,10,0:0:0:0:
307,140,208386,1,0,0:0:0:0:
304,128,208454,1,0,0:0:0:0:
301,116,208522,1,0,0:0:0:0:
298,104,208590,6,0,L|231:93,3,40,8|8|8|8,0:0|0:0|0:0|0:0,0:0:0:0:
389,111,208864,2,0,L|456:100,3,40,8|8|8|8,0:0|0:0|0:0|0:0,0:0:0:0:
348,31,209136,5,6,0:0:0:0:
139,278,211318,5,6,0:0:0:0:
259,229,211455,1,10,0:0:0:0:
96,198,211591,2,0,L|0:192,1,80,0|10,0:0|0:0,0:0:0:0:
274,243,211864,2,0,L|382:233,2,80,0|10|0,0:0|0:0|0:0,0:0:0:0:
153,290,212273,1,10,0:0:0:0:
191,134,212409,6,0,L|199:183,3,40,10|0|0|0,0:0|0:0|0:0|0:0,0:0:0:0:
274,243,212682,1,10,0:0:0:0:
285,246,212750,1,0,0:0:0:0:
296,249,212818,1,0,0:0:0:0:
307,252,212886,1,0,0:0:0:0:
318,255,212955,6,0,L|376:247,3,40,8|8|8|8,0:0|0:0|0:0|0:0,0:0:0:0:
475,234,213227,2,0,L|417:226,3,40,8|8|8|8,0:0|0:0|0:0|0:0,0:0:0:0:
357,166,213500,5,6,0:0:0:0:
331,85,215136,5,10,0:0:0:0:
209,65,215273,1,0,0:0:0:0:
357,164,215409,5,10,0:0:0:0:
235,184,215546,1,0,0:0:0:0:
427,101,215682,6,0,B|470:206|470:206|448:274,1,160,6|10,0:0|0:0,0:0:0:0:
280,273,216091,2,0,L|373:284,1,80,0|2,0:0|0:0,0:0:0:0:
371,285,216295,1,0,0:0:0:0:
382,287,216364,1,0,0:0:0:0:
211,315,216500,2,0,P|187:346|177:403,1,80,10|0,0:0|0:0,0:0:0:0:
175,152,216773,6,0,P|113:151|58:190,1,120,2|0,0:0|0:0,0:0:0:0:
61,220,217045,1,10,0:0:0:0:
258,174,217182,2,0,L|268:86,1,80,2|0,0:0|0:0,0:0:0:0:
140,234,217455,5,0,0:0:0:0:
294,296,217591,1,8,0:0:0:0:
191,325,217727,1,8,0:0:0:0:
350,218,217864,6,0,B|414:221|414:221|441:249|441:249|519:253,1,160,6|10,0:0|0:0,0:0:0:0:
478,175,218273,1,0,0:0:0:0:
377,295,218409,1,2,0:0:0:0:
318,131,218545,2,0,L|219:119,1,80,0|10,0:0|0:0,0:0:0:0:
126,234,218818,6,0,P|159:180|160:156,1,80,0|2,0:0|0:0,0:0:0:0:
44,250,219091,2,0,L|56:347,1,80,0|10,0:0|0:0,0:0:0:0:
165,339,219364,1,0,0:0:0:0:
76,167,219500,2,0,L|17:161,3,40,2|0|8|8,0:1|0:0|0:0|0:0,0:0:0:0:
132,246,219773,5,8,2:0:0:0:
161,258,219841,1,8,2:0:0:0:
192,257,219909,1,8,2:0:0:0:
221,245,219977,1,8,2:0:0:0:
241,220,220045,6,0,B|350:207|287:257|412:241,1,160,6|10,0:0|0:0,0:0:0:0:
276,298,220455,2,0,P|251:340|249:380,1,80,0|2,0:0|0:0,0:0:0:0:
365,167,220727,2,0,L|341:3,1,160,10|0,0:0|0:0,0:0:0:0:
94,190,221136,6,0,P|172:230|256:211,1,160,2|10,0:0|0:0,0:0:0:0:
185,105,221545,1,0,0:0:0:0:
185,105,221682,1,2,0:0:0:0:
140,269,221818,1,10,0:0:0:0:
140,269,221955,2,0,L|47:278,1,80,6|0,0:0|0:0,0:0:0:0:
240,219,222227,5,14,0:0:0:0:
222,323,222364,1,0,0:0:0:0:
317,232,222500,5,10,0:0:0:0:
195,154,222636,1,0,0:0:0:0:
377,140,222773,5,10,0:0:0:0:
225,236,222909,1,0,0:0:0:0:
209,61,223045,5,10,0:0:0:0:
143,229,223182,1,0,0:0:0:0:
303,121,223318,6,0,L|242:112,3,40,8|8|8|8,2:0|2:0|2:0|2:0,0:0:0:0:
134,143,223591,2,0,L|195:134,3,40,8|8|8|8,0:0|0:0|0:0|0:0,0:0:0:0:
238,210,223864,5,6,0:0:0:0:
241,221,223932,1,0,0:0:0:0:
244,232,224000,1,0,0:0:0:0:
246,243,224068,1,0,0:0:0:0:
211,262,224136,5,8,0:0:0:0:
208,273,224204,1,8,0:0:0:0:
205,284,224272,1,8,0:0:0:0:
203,295,224340,1,8,0:0:0:0:
230,325,224409,6,0,P|147:291|55:315,1,160,6|10,0:0|0:0,0:0:0:0:
286,384,224818,2,0,L|376:371,1,80
377,370,225023,1,0,0:0:0:0:
388,368,225091,1,0,0:0:0:0:
501,295,225227,2,0,L|393:283,1,80,10|0,0:0|0:0,0:0:0:0:
238,210,225500,6,0,P|204:163|216:72,1,120,2|0,0:0|0:0,0:0:0:0:
226,70,225773,1,8,0:0:0:0:
100,171,225909,2,0,L|3:159,1,80,6|0,0:0|0:0,0:0:0:0:
123,83,226182,5,8,0:0:0:0:
283,132,226318,1,8,0:0:0:0:
175,157,226455,1,8,0:0:0:0:
359,213,226591,6,0,L|462:203,1,80,6|0,0:0|0:0,0:0:0:0:
313,306,226864,2,0,L|210:296,1,80,10|0,0:0|0:0,0:0:0:0:
488,269,227136,2,0,P|504:250|497:146,1,120,10|0,0:0|0:0,0:0:0:0:
470,140,227409,2,0,L|476:23,1,80,10|0,0:0|0:0,0:0:0:0:
285,106,227682,5,10,0:0:0:0:
371,227,227818,1,0,0:0:0:0:
202,153,227955,5,10,0:0:0:0:
343,158,228091,1,0,0:0:0:0:
202,61,228227,5,10,0:0:0:0:
270,205,228364,1,0,0:0:0:0:
323,28,228500,2,0,L|435:21,1,80,14|0,0:0|0:0,0:0:0:0:
209,145,228773,6,0,P|193:109|193:42,1,80,14|0,0:0|0:0,0:0:0:0:
285,218,229045,2,0,L|274:307,1,80,10|0,0:0|0:0,0:0:0:0:
174,326,229318,1,0,0:0:0:0:
351,358,229455,1,10,0:0:0:0:
351,358,229591,2,0,L|451:349,1,80
311,143,229864,6,0,P|290:183|285:233,1,80,14|0,0:0|0:0,0:0:0:0:
439,91,230136,1,10,0:0:0:0:
439,91,230273,2,0,L|356:78,1,80
205,229,230545,1,10,0:0:0:0:
205,229,230682,2,0,L|288:216,1,80,2|0,0:0|0:0,0:0:0:0:
126,128,230955,5,14,0:0:0:0:
60,256,231091,1,0,0:0:0:0:
132,111,231227,2,0,L|122:13,1,80,10|0,0:0|0:0,0:0:0:0:
205,229,231500,5,10,0:0:0:0:
68,181,231636,1,0,0:0:0:0:
223,236,231773,2,0,L|311:227,1,80,10|0,0:0|0:0,0:0:0:0:
231,112,232045,5,10,0:0:0:0:
131,228,232182,1,0,0:0:0:0:
244,97,232318,2,0,L|231:9,1,80,10|0,0:0|0:0,0:0:0:0:
126,128,232591,5,10,0:0:0:0:
249,205,232727,1,0,0:0:0:0:
110,117,232864,2,0,L|13:126,1,80,10|0,0:0|0:0,0:0:0:0:
146,241,233136,6,0,L|153:191,3,40,6|0|0|0,0:0|0:0|0:0|0:0,0:0:0:0:
197,310,233409,1,8,2:0:0:0:
228,317,233477,1,8,2:0:0:0:
259,324,233545,1,8,2:0:0:0:
290,331,233614,1,8,2:0:0:0:
321,338,233682,6,0,L|376:328,3,40,6|0|0|0,0:0|0:0|0:0|0:0,0:0:0:0:
477,307,233955,2,0,L|422:297,3,40,8|8|8|8,0:0|0:0|0:0|0:0,0:0:0:0:
364,197,234227,6,0,P|357:219|355:243,3,40,6|0|0|0,0:0|0:0|0:0|0:0,0:0:0:0:
435,156,234500,2,0,P|432:130|420:98,3,40,8|8|8|8,0:0|0:0|0:0|0:0,0:0:0:0:
344,61,234773,5,6,0:0:0:0:
332,58,234841,1,0,0:0:0:0:
320,55,234909,1,0,0:0:0:0:
308,52,234977,1,0,0:0:0:0:
277,78,235045,5,8,0:0:0:0:
265,81,235113,1,8,0:0:0:0:
253,84,235181,1,8,0:0:0:0:
241,87,235249,1,8,0:0:0:0:
211,60,235317,5,6,0:0:0:0:
116,180,237500,5,6,0:0:0:0:
320,215,239682,6,0,L|401:207,1,80,6|8,0:0|2:0,0:0:0:0:
308,227,240227,2,0,L|388:240,1,80,2|8,0:0|2:0,0:0:0:0:
296,239,240773,2,0,L|370:272,1,80,2|8,0:0|2:0,0:0:0:0:
160,136,241318,6,0,L|152:195,2,40,14|0|0,0:0|0:0|0:0,0:0:0:0:
142,320,241591,2,0,L|134:261,2,40,14|0|0,0:0|0:0|0:0,0:0:0:0:
296,239,241864,5,6,0:0:0:0:
377,217,242136,1,2,0:0:0:0:
378,212,242205,1,0,0:0:0:0:
378,207,242273,1,0,0:0:0:0:
379,202,242341,1,0,0:0:0:0:
383,162,242409,5,10,0:0:0:0:
383,162,242682,2,0,L|434:157,3,30.0000011444092,2|0|0|0,0:0|0:0|0:0|0:0,0:0:0:0:
312,118,242955,5,2,0:0:0:0:
255,57,243227,1,2,0:0:0:0:
250,56,243295,1,0,0:0:0:0:
245,55,243364,1,0,0:0:0:0:
240,54,243432,1,0,0:0:0:0:
200,46,243500,5,10,0:0:0:0:
200,46,243773,2,0,L|195:5,3,30.0000011444092,2|0|0|0,0:0|0:0|0:0|0:0,0:0:0:0:
152,115,244045,5,6,0:0:0:0:
73,137,244318,1,2,0:0:0:0:
74,141,244386,1,0,0:0:0:0:
75,145,244455,1,0,0:0:0:0:
76,149,244523,1,0,0:0:0:0:
88,188,244591,5,10,0:0:0:0:
88,188,244864,2,0,L|32:182,3,30.0000011444092,2|0|0|0,0:0|0:0|0:0|0:0,0:0:0:0:
136,257,245136,5,6,0:0:0:0:
176,185,245409,2,0,L|210:181,3,30.0000011444092,2|0|0|0,0:0|0:0|0:0|0:0,0:0:0:0:
298,132,245682,5,8,2:0:0:0:
289,154,245750,1,8,2:0:0:0:
286,177,245818,1,8,2:0:0:0:
288,200,245886,1,8,2:0:0:0:
293,223,245955,2,0,L|346:233,3,30.0000011444092,2|0|2|0,0:0|0:0|0:0|0:0,0:0:0:0:
388,310,246227,5,6,0:0:0:0:
443,248,246500,1,2,0:0:0:0:
447,247,246568,1,0,0:0:0:0:
451,246,246636,1,0,0:0:0:0:
455,245,246705,1,0,0:0:0:0:
494,236,246773,5,10,0:0:0:0:
494,236,247045,2,0,L|497:182,3,30.0000011444092,2|0|0|0,0:0|0:0|0:0|0:0,0:0:0:0:
420,148,247318,5,2,0:0:0:0:
348,191,247591,1,2,0:0:0:0:
343,190,247659,1,0,0:0:0:0:
338,189,247727,1,0,0:0:0:0:
333,188,247795,1,0,0:0:0:0:
292,180,247864,5,10,0:0:0:0:
292,180,248136,2,0,L|284:131,3,30.0000011444092,2|0|0|0,0:0|0:0|0:0|0:0,0:0:0:0:
240,250,248409,5,6,0:0:0:0:
181,189,248682,1,2,0:0:0:0:
176,187,248750,1,0,0:0:0:0:
172,186,248818,1,0,0:0:0:0:
168,184,248886,1,0,0:0:0:0:
127,174,248955,5,10,0:0:0:0:
127,174,249227,2,0,L|123:130,3,30.0000011444092,2|0|0|0,0:0|0:0|0:0|0:0,0:0:0:0:
73,59,249500,5,8,2:0:0:0:
95,66,249568,1,8,2:0:0:0:
118,69,249636,1,8,2:0:0:0:
142,67,249705,1,8,2:0:0:0:
164,60,249773,2,0,L|178:9,3,30.0000011444092,8|8|8|8,0:0|0:0|0:0|0:0,0:0:0:0:
219,125,250045,5,8,2:0:0:0:
242,128,250114,1,8,2:0:0:0:
265,131,250182,1,8,2:0:0:0:
288,134,250250,1,8,2:0:0:0:
311,138,250318,2,0,L|320:191,3,30.0000011444092,8|8|8|8,0:0|0:0|0:0|0:0,0:0:0:0:
405,246,250591,6,0,P|390:240|365:237,7,30.0000011444092,6|0|0|0|2|0|0|0,0:0|0:0|0:0|0:0|0:0|0:0|0:0|0:0,0:0:0:0:
319,288,251136,1,10,0:0:0:0:
316,288,251205,1,0,0:0:0:0:
313,288,251273,1,0,0:0:0:0:
310,288,251341,1,0,0:0:0:0:
307,288,251409,1,2,0:0:0:0:
304,288,251477,1,0,0:0:0:0:
301,288,251545,1,0,0:0:0:0:
298,288,251614,1,0,0:0:0:0:
223,299,251682,6,0,P|218:316|214:347,7,30.0000011444092,2|0|0|0|2|0|0|0,0:0|0:0|0:0|0:0|0:0|0:0|0:0|0:0,0:0:0:0:
168,236,252227,1,10,0:0:0:0:
167,233,252295,1,0,0:0:0:0:
166,229,252364,1,0,0:0:0:0:
165,226,252432,1,0,0:0:0:0:
164,223,252500,1,2,0:0:0:0:
163,220,252568,1,0,0:0:0:0:
162,217,252636,1,0,0:0:0:0:
161,213,252705,1,0,0:0:0:0:
167,136,252773,6,0,L|214:143,7,30.0000011444092,6|0|0|0|2|0|0|0,0:0|0:0|0:0|0:0|0:0|0:0|0:0|0:0,0:0:0:0:
114,74,253318,1,10,0:0:0:0:
111,75,253386,1,0,0:0:0:0:
108,76,253455,1,0,0:0:0:0:
105,77,253523,1,0,0:0:0:0:
102,78,253591,1,2,0:0:0:0:
99,79,253659,1,0,0:0:0:0:
96,80,253727,1,0,0:0:0:0:
93,81,253795,1,0,0:0:0:0:
20,101,253864,6,0,L|29:151,7,30.0000011444092,6|0|0|0|2|0|0|0,0:0|0:0|0:0|0:0|0:0|0:0|0:0|0:0,0:0:0:0:
92,174,254409,1,10,0:0:0:0:
90,188,254477,1,0,0:0:0:0:
88,202,254545,1,0,0:0:0:0:
86,217,254614,1,0,0:0:0:0:
84,231,254682,1,2,0:0:0:0:
82,245,254750,1,0,0:0:0:0:
80,259,254818,1,0,0:0:0:0:
78,273,254886,1,0,0:0:0:0:
71,312,254955,5,6,0:0:0:0:
71,312,255227,2,0,L|11:305,3,40,2|8|0|8,0:0|0:0|0:0|0:0,0:0:0:0:
173,338,255500,5,2,0:0:0:0:
184,336,255568,1,8,0:0:0:0:
195,334,255636,1,0,0:0:0:0:
207,332,255705,1,8,0:0:0:0:
218,330,255773,2,0,L|225:284,3,40,2|8|0|8,0:0|0:0|0:0|0:0,0:0:0:0:
325,217,256045,6,0,P|307:224|274:228,3,40,2|8|0|8,0:0|0:0|0:0|0:0,0:0:0:0:
379,309,256318,2,0,P|361:302|328:298,3,40,2|8|0|8,0:0|0:0|0:0|0:0,0:0:0:0:
457,249,256591,6,0,L|466:209,3,40,2|8|0|8,0:0|0:0|0:0|0:0,0:0:0:0:
490,91,256864,2,0,L|499:131,3,40,2|8|0|8,0:0|0:0|0:0|0:0,0:0:0:0:
368,142,257136,6,0,P|395:153|421:155,3,40,6|8|0|8,0:0|0:0|0:0|0:0,0:0:0:0:
315,78,257409,2,0,L|262:83,3,40,2|8|0|8,0:0|0:0|0:0|0:0,0:0:0:0:
221,176,257682,5,2,0:0:0:0:
209,173,257750,1,8,0:0:0:0:
197,170,257818,1,0,0:0:0:0:
185,167,257886,1,8,0:0:0:0:
173,164,257955,2,0,L|166:111,3,40,2|8|0|8,0:0|0:0|0:0|0:0,0:0:0:0:
67,222,258227,6,0,L|18:211,3,40,6|8|0|8,0:0|0:0|0:0|0:0,0:0:0:0:
127,282,258500,2,0,L|146:328,3,40,2|8|0|8,0:0|0:0|0:0|0:0,0:0:0:0:
151,197,258773,2,0,L|178:154,3,40,2|0|0|0,0:0|0:0|0:0|0:0,0:0:0:0:
149,69,259045,5,8,2:0:0:0:
177,83,259114,1,8,2:0:0:0:
208,87,259182,1,8,2:0:0:0:
239,83,259250,1,8,2:0:0:0:
268,71,259318,5,6,0:0:0:0:
268,71,259591,2,0,L|277:17,3,44.0000013427735,2|8|0|8,0:0|0:0|0:0|0:0,0:0:0:0:
320,146,259864,5,2,0:0:0:0:
332,149,259932,1,8,0:0:0:0:
344,152,260000,1,0,0:0:0:0:
356,155,260068,1,8,0:0:0:0:
368,158,260136,2,0,L|381:222,3,44.0000013427735,2|8|0|8,0:0|0:0|0:0|0:0,0:0:0:0:
267,278,260409,6,0,P|292:268|318:264,3,44.0000013427735,2|8|0|8,0:0|0:0|0:0|0:0,0:0:0:0:
214,348,260682,2,0,L|157:339,3,44.0000013427735,2|8|0|8,0:0|0:0|0:0|0:0,0:0:0:0:
109,228,260955,6,0,L|121:280,3,44.0000013427735,2|8|0|8,0:0|0:0|0:0|0:0,0:0:0:0:
29,183,261227,2,0,L|17:235,3,44.0000013427735,2|8|0|8,0:0|0:0|0:0|0:0,0:0:0:0:
127,127,261500,6,0,P|107:120|77:115,3,44.0000013427735,2|8|0|8,0:0|0:0|0:0|0:0,0:0:0:0:
187,35,261773,2,0,P|167:42|137:47,3,44.0000013427735,2|8|0|8,0:0|0:0|0:0|0:0,0:0:0:0:
241,107,262045,5,2,0:0:0:0:
254,110,262114,1,8,0:0:0:0:
266,112,262182,1,0,0:0:0:0:
278,115,262250,1,8,0:0:0:0:
290,117,262318,2,0,L|299:180,3,44.0000013427735,2|8|0|8,0:0|0:0|0:0|0:0,0:0:0:0:
386,232,262591,6,0,L|444:239,3,44.0000013427735,6|0|0|0,0:0|0:0|0:0|0:0,0:0:0:0:
326,296,262864,1,8,0:0:0:0:
291,287,262932,1,8,0:0:0:0:
255,288,263000,1,8,0:0:0:0:
224,305,263068,1,8,0:0:0:0:
204,334,263136,6,0,L|139:341,3,44.0000013427735,8|8|8|8,2:0|2:0|2:0|2:0,0:0:0:0:
37,300,263409,2,0,L|102:307,3,44.0000013427735,8|8|8|8,0:0|0:0|0:0|0:0,0:0:0:0:
159,237,263682,5,6,0:0:0:0:
159,237,263955,2,0,L|150:176,3,47.9999985351563,2|8|0|8,0:0|0:0|0:0|0:0,0:0:0:0:
238,147,264227,5,2,0:0:0:0:
241,133,264295,1,8,0:0:0:0:
244,118,264364,1,0,0:0:0:0:
247,104,264432,1,8,0:0:0:0:
250,90,264500,2,0,L|304:83,3,47.9999985351563,2|8|0|8,0:0|0:0|0:0|0:0,0:0:0:0:
373,179,264773,6,0,P|364:154|361:126,3,47.9999985351563,2|8|0|8,0:0|0:0|0:0|0:0,0:0:0:0:
455,206,265045,2,0,L|447:271,3,47.9999985351563,2|8|0|8,0:0|0:0|0:0|0:0,0:0:0:0:
328,294,265318,6,0,L|385:305,3,47.9999985351563,2|8|0|8,0:0|0:0|0:0|0:0,0:0:0:0:
261,245,265591,2,0,L|204:256,3,47.9999985351563,2|8|0|8,0:0|0:0|0:0|0:0,0:0:0:0:
137,193,265864,5,2,0:0:0:0:
489,186,266955,5,6,0:0:0:0:
474,180,267023,1,8,0:0:0:0:
458,178,267091,1,0,0:0:0:0:
442,179,267159,1,8,0:0:0:0:
426,182,267227,2,0,L|418:247,3,51.999997619629,2|8|0|8,0:0|0:0|0:0|0:0,0:0:0:0:
360,120,267500,5,6,0:0:0:0:
344,116,267568,1,8,0:0:0:0:
328,112,267636,1,0,0:0:0:0:
312,108,267705,1,8,0:0:0:0:
296,104,267773,2,0,L|291:45,3,51.999997619629,2|8|0|8,0:0|0:0|0:0|0:0,0:0:0:0:
244,176,268045,5,6,0:0:0:0:
227,180,268114,1,8,0:0:0:0:
210,180,268182,1,0,0:0:0:0:
193,178,268250,1,8,0:0:0:0:
176,173,268318,2,0,L|168:108,3,55.9999982910157,2|8|0|8,0:0|0:0|0:0|0:0,0:0:0:0:
132,244,268591,5,6,0:0:0:0:
115,248,268659,1,8,0:0:0:0:
98,252,268727,1,0,0:0:0:0:
81,256,268795,1,8,0:0:0:0:
64,261,268864,2,0,L|53:328,3,55.9999982910157,8|8|8|8,2:3|2:3|2:3|2:3,0:0:0:0:
23,187,269136,6,0,B|0:144|0:144|17:82,1,95.9999970703126,14|0,0:0|0:0,0:0:0:0:
166,82,269409,2,0,B|186:129|186:129|174:181,1,95.9999970703126,8|0,0:0|0:0,0:0:0:0:
89,135,269682,5,8,0:0:0:0:
251,74,269818,2,0,L|349:87,1,95.9999970703126,8|0,0:0|0:0,0:0:0:0:
192,259,270091,6,0,B|165:220|165:220|177:163,1,95.9999970703126,8|0,0:0|0:0,0:0:0:0:
316,157,270364,2,0,B|336:204|336:204|324:256,1,95.9999970703126,8|0,0:0|0:0,0:0:0:0:
110,358,271318,6,0,L|5:344,2,80,14|0|0,0:0|0:0|0:0,0:0:0:0:
192,259,271727,2,0,L|112:269,2,80,10|0|0,0:0|0:0|0:0,0:0:0:0:
303,363,272136,6,0,P|286:334|276:289,2,71.9999978027344,10|0|0,0:0|0:0|0:0,0:0:0:0:
372,163,272545,2,0,P|363:197|345:228,2,71.9999978027344,8|0|0,0:0|0:0|0:0,0:0:0:0:
253,96,272955,5,8,2:0:0:0:
234,90,273023,1,8,2:0:0:0:
214,89,273091,1,8,2:0:0:0:
195,94,273159,1,8,2:0:0:0:
169,113,273227,5,8,2:0:0:0:
150,119,273295,1,8,2:0:0:0:
130,120,273363,1,8,2:0:0:0:
111,115,273431,1,8,2:0:0:0:
85,95,273500,5,8,0:0:0:0:
