osu file format v14

[General]
AudioFilename: audio.mp3
AudioLeadIn: 0
PreviewTime: 126227
Countdown: 0
SampleSet: Drum
StackLeniency: 0.7
Mode: 0
LetterboxInBreaks: 0
WidescreenStoryboard: 1

[Editor]
Bookmarks: 32409,40045,42227,43045,50955,62682,80409,84773,86955,93500,95682,121864,139318,140409,141773,142591,146955,148045,163318,169864,172045,175864,176409,179682,189500,195500,196045,198227,217864,222227,224409,255227,259318,271318,272955,273500
DistanceSpacing: 2
BeatDivisor: 4
GridSize: 4
TimelineZoom: 2.4

[Metadata]
Title:Jikininki
TitleUnicode:Jikininki
Artist:Whispered
ArtistUnicode:Whispered
Creator:MrKosiej
Version:LMT's Insane
Source:
Tags:english death power itswinter silence player melodic metal Shogunate Macabre LMT mithew Maakkeli Makeli MKL
BeatmapID:1653233
BeatmapSetID:750201

[Difficulty]
HPDrainRate:5
CircleSize:4
OverallDifficulty:7
ApproachRate:9
SliderMultiplier:1.3
SliderTickRate:1

[Events]
//Background and Video events
0,0,"3l9kVQi.jpg",0,0
//Break Periods
2,48018,50355
2,151518,162718
//Storyboard Layer 0 (Background)
//Storyboard Layer 1 (Fail)
//Storyboard Layer 2 (Pass)
//Storyboard Layer 3 (Foreground)
//Storyboard Layer 4 (Overlay)
//Storyboard Sound Samples

[TimingPoints]
14955,272.727272727273,4,3,1,60,1,0
18636,-66.6666666666667,4,3,1,60,0,0
19045,-100,4,3,1,60,0,0
23136,-200,4,3,10,60,0,0
23682,-100,4,3,1,60,0,0
42636,-100,4,3,8,60,0,0
42909,-100,4,3,1,60,0,0
43455,-100,4,3,8,60,0,0
43727,-100,4,3,9,60,0,0
43863,-100,4,3,1,60,0,0
45500,-100,4,3,1,80,0,0
45705,-100,4,3,1,5,0,0
45773,-100,4,3,1,80,0,0
46523,-100,4,3,1,5,0,0
46591,-100,4,3,1,80,0,0
47068,-100,4,3,1,5,0,0
47136,-100,4,3,1,80,0,0
47340,-100,4,3,1,5,0,0
47409,-100,4,3,1,80,0,0
47613,-100,4,3,1,5,0,0
47682,-100,4,3,1,60,0,0
51500,-100,4,3,8,60,0,0
51773,-100,4,3,9,60,0,0
51909,-100,4,3,10,60,0,0
52045,-100,4,3,1,60,0,0
59682,-100,4,3,8,60,0,0
59818,-100,4,3,1,60,0,0
59955,-100,4,3,9,60,0,0
60091,-100,4,3,1,60,0,0
60227,-100,4,3,10,60,0,0
60364,-100,4,3,1,60,0,0
60500,-100,4,3,10,60,0,0
60636,-100,4,3,1,60,0,0
62955,-100,4,3,1,45,0,0
65136,-100,4,3,1,60,0,0
66773,-100,4,3,8,60,0,0
66909,-100,4,3,1,60,0,0
67045,-100,4,3,9,60,0,0
67182,-100,4,3,10,60,0,0
67318,-100,4,3,1,60,0,0
71136,-100,4,3,8,60,0,0
71409,-100,4,3,9,60,0,0
71682,-100,4,3,1,60,0,0
75500,-100,4,3,8,60,0,0
75636,-100,4,3,1,60,0,0
75773,-100,4,3,9,60,0,0
75909,-100,4,3,10,60,0,0
76045,-100,4,3,1,60,0,0
80136,-100,4,3,8,60,0,0
80273,-100,4,3,9,60,0,0
80409,-100,4,3,1,60,0,0
86272,-100,4,3,8,60,0,0
86545,-100,4,3,1,60,0,0
86682,-100,4,3,9,60,0,0
86955,-100,4,3,1,60,0,0
88249,-100,4,3,1,5,0,0
88318,-100,4,3,1,60,0,0
88864,-100,4,3,8,60,0,0
89136,-100,4,3,1,60,0,0
96500,-100,4,3,8,60,0,0
96773,-100,4,3,1,60,0,0
97045,-100,4,3,9,60,0,0
97318,-100,4,3,1,60,0,0
97591,-100,4,3,10,60,0,0
97864,-100,4,3,1,60,0,0
104409,-100,4,3,1,60,0,1
112318,-100,4,3,8,60,0,1
112591,-100,4,3,1,60,0,1
112864,-100,4,3,9,60,0,1
113136,-100,4,3,1,60,0,1
121454,-100,4,3,8,60,0,1
121591,-100,4,3,1,60,0,1
125955,-100,4,3,8,60,0,1
126227,-100,4,3,1,60,0,1
128409,-100,4,3,1,60,0,0
129500,-100,4,3,1,60,0,1
130045,-100,4,3,1,70,0,1
130591,-100,4,3,1,80,0,1
131136,-100,4,3,1,90,0,1
131682,-100,4,3,1,60,0,0
135364,-66.6666666666667,4,3,1,60,0,0
135773,-100,4,3,1,60,0,0
139045,-100,4,3,8,60,0,0
139181,-100,4,3,10,60,0,0
139318,-100,4,3,1,60,0,0
144091,-66.6666666666667,4,3,1,60,0,0
144500,-66.6666666666667,4,3,1,60,0,0
144636,-100,4,3,1,60,0,0
148591,-100,4,3,8,60,0,0
148864,-100,4,3,9,60,0,0
149136,-100,4,3,1,40,0,0
167318,-100,4,3,8,40,0,0
167500,-100,4,3,10,40,0,0
167682,-100,4,3,1,40,0,0
178864,-100,4,1,1,5,0,0
178955,-100,4,3,1,40,0,0
179227,-100,4,1,1,5,0,0
179318,-100,4,3,1,40,0,0
180409,-100,4,3,8,40,0,0
180591,-100,4,3,9,40,0,0
180773,-100,4,3,1,60,0,0
189136,-100,4,3,8,60,0,0
189317,-100,4,3,9,60,0,0
189500,-100,4,3,1,60,0,0
192773,-66.6666666666667,4,3,1,60,0,0
193318,-100,4,3,1,60,0,0
196045,-66.6666666666667,4,3,1,60,0,0
198227,-100,4,3,1,60,0,0
200000,-100,4,3,8,60,0,0
200136,-100,4,3,1,60,0,0
200409,-66.6666666666667,4,3,1,60,0,0
202591,-100,4,3,1,60,0,0
204227,-100,4,3,8,60,0,0
204500,-100,4,3,9,60,0,0
204773,-100,4,3,1,60,0,0
208591,-100,4,3,8,60,0,0
208864,-100,4,3,9,60,0,0
209136,-100,4,3,1,60,0,0
212954,-100,4,3,9,60,0,0
213363,-100,4,3,10,60,0,0
213499,-100,4,3,1,60,0,0
216976,-100,4,3,1,5,0,0
217045,-100,4,3,1,60,0,0
217590,-100,4,3,8,60,0,0
217863,-100,4,3,1,60,0,0
219636,-100,4,3,8,60,0,0
219772,-100,4,3,1,60,0,0
223590,-100,4,3,8,60,0,0
223863,-100,4,3,1,60,0,0
224136,-100,4,3,9,60,0,0
224409,-100,4,3,1,60,0,0
225772,-100,4,3,1,60,0,0
226181,-100,4,3,8,60,0,0
226590,-100,4,3,1,60,0,0
233954,-100,4,3,8,60,0,0
234227,-100,4,3,1,60,0,0
234500,-100,4,3,9,60,0,0
234772,-100,4,3,1,60,0,0
235045,-100,4,3,10,60,0,0
235318,-100,4,3,1,60,0,0
241864,-100,4,3,1,60,0,1
249772,-100,4,3,8,60,0,1
250045,-100,4,3,1,60,0,1
250318,-100,4,3,9,60,0,1
250590,-100,4,3,1,60,0,1
262863,-100,4,3,8,60,0,1
263136,-100,4,3,1,60,0,1
263409,-100,4,3,9,60,0,1
263682,-100,4,3,1,60,0,1
265864,-100,4,3,1,60,0,0
266955,-100,4,3,1,60,0,1
267500,-100,4,3,1,70,0,1
268046,-100,4,3,1,80,0,1
268591,-100,4,3,1,90,0,1
269136,-100,4,3,1,60,0,0
272545,-100,4,3,10,60,0,0
272681,-100,4,3,1,60,0,0
273500,-100,4,3,10,60,0,0

[Colours]
Combo1 : 201,158,133
Combo2 : 162,162,162
Combo3 : 164,111,87
Combo4 : 201,201,201

[HitObjects]
423,289,14955,5,8,0:0:0:0:
423,289,15227,1,8,0:0:0:0:
353,199,15500,5,8,0:0:0:0:
353,199,15636,1,8,0:0:0:0:
423,289,15909,5,8,0:0:0:0:
423,289,16182,1,8,0:0:0:0:
261,225,18227,6,0,L|284:145,2,65,2|2|2,0:2|0:2|0:2,0:0:0:0:
125,266,18636,2,0,B|97:241|97:241|138:224|181:242|181:242|220:256|252:238,1,195.00000743866,2|0,0:2|0:0,0:0:0:0:
326,274,19045,1,8,2:3:0:0:
323,290,19113,1,0,0:3:0:0:
321,306,19181,1,0,0:3:0:0:
386,352,19318,5,8,0:0:0:0:
386,352,19591,1,8,0:0:0:0:
456,216,19864,5,8,0:0:0:0:
456,216,20000,1,8,0:0:0:0:
386,352,20273,5,8,0:0:0:0:
386,352,20546,1,8,0:0:0:0:
203,232,23136,6,0,P|198:205|209:234,1,97.5,8|0,2:3|0:0,0:0:0:0:
125,274,23682,6,0,P|107:236|108:198,1,65,14|0,0:0|0:0,0:0:0:0:
320,203,23955,2,0,P|319:240|300:276,1,65,10|0,0:0|0:0,0:0:0:0:
206,120,24227,2,0,L|200:50,2,65,10|0|10,0:0|0:0|0:0,0:0:0:0:
339,95,24636,6,0,P|377:60|393:27,1,65,0|10,0:0|0:0,0:0:0:0:
425,182,24909,2,0,P|471:166|494:145,1,65,0|10,0:0|0:0,0:0:0:0:
404,292,25182,2,0,P|450:312|491:314,1,65,0|10,0:0|0:0,0:0:0:0:
287,352,25455,1,0,0:0:0:0:
215,328,25591,1,10,0:0:0:0:
272,279,25727,1,0,0:0:0:0:
196,251,25864,6,0,P|182:210|181:164,1,65,10|0,0:0|0:0,0:0:0:0:
97,296,26136,2,0,P|65:258|40:239,1,65,10|0,0:0|0:0,0:0:0:0:
94,104,26409,2,0,L|100:184,2,65,10|0|10,0:0|0:0|0:0,0:0:0:0:
232,81,26818,6,0,P|253:51|267:3,1,65,0|10,0:0|0:0,0:0:0:0:
362,151,27091,1,0,0:0:0:0:
356,162,27227,2,0,P|306:163|271:173,1,65,10|0,0:0|0:0,0:0:0:0:
357,66,27500,1,10,0:0:0:0:
357,51,27636,1,0,0:0:0:0:
432,113,27773,1,10,0:0:0:0:
427,96,27909,1,0,0:0:0:0:
435,188,28045,6,0,P|420:231|412:270,1,65,14|0,0:0|0:0,0:0:0:0:
233,258,28318,2,0,P|253:297|264:334,1,65,10|0,0:0|0:0,0:0:0:0:
349,361,28591,2,0,L|341:282,2,65,10|0|10,0:0|0:0|0:0,0:0:0:0:
322,192,29000,6,0,P|335:156|358:123,1,65,0|10,0:0|0:0,0:0:0:0:
231,121,29273,2,0,P|221:79|195:36,1,65,0|10,0:0|0:0,0:0:0:0:
378,29,29545,1,0,0:0:0:0:
366,42,29682,2,0,P|322:48|276:39,1,65,10|0,0:0|0:0,0:0:0:0:
462,15,29955,1,10,0:0:0:0:
463,29,30091,1,0,0:0:0:0:
428,104,30227,6,0,P|450:132|469:187,1,65,10|0,0:0|0:0,0:0:0:0:
373,278,30500,2,0,P|394:229|417:204,1,65,10|0,0:0|0:0,0:0:0:0:
469,255,30773,1,10,0:0:0:0:
473,243,30909,1,0,0:0:0:0:
362,147,31045,2,0,L|282:153,1,65,10|0,0:0|0:0,0:0:0:0:
183,123,31318,6,0,L|164:203,1,65,10|10,0:0|0:0,0:0:0:0:
104,235,31591,1,10,0:0:0:0:
96,163,31727,1,10,0:0:0:0:
188,260,31864,2,0,L|141:314,1,65,10|10,0:0|0:0,0:0:0:0:
69,310,32136,1,10,0:0:0:0:
99,244,32273,1,10,0:0:0:0:
217,350,32409,6,0,P|267:329|305:325,1,65,14|0,0:0|0:0,0:0:0:0:
416,228,32682,2,0,P|366:213|343:199,1,65,10|0,0:0|0:0,0:0:0:0:
376,368,32955,2,0,L|357:288,2,65,10|0|10,0:0|0:0|0:0,0:0:0:0:
264,239,33364,6,0,P|251:205|246:163,1,65,0|10,0:0|0:0,0:0:0:0:
145,210,33636,2,0,P|102:171|79:161,1,65,0|10,0:0|0:0,0:0:0:0:
0,266,33909,2,0,P|48:258|85:269,1,65,0|10,0:0|0:0,0:0:0:0:
199,373,34182,1,0,0:0:0:0:
185,301,34318,1,10,0:0:0:0:
258,324,34455,1,0,0:0:0:0:
326,287,34591,6,0,P|348:238|363:216,1,65,10|0,0:0|0:0,0:0:0:0:
296,98,34864,2,0,P|314:131|328:171,1,65,10|0,0:0|0:0,0:0:0:0:
399,153,35136,1,10,0:0:0:0:
398,164,35273,1,0,0:0:0:0:
271,210,35409,2,0,L|190:199,1,65,10|0,0:0|0:0,0:0:0:0:
28,178,35682,6,0,P|51:211|64:244,1,65,10|0,0:0|0:0,0:0:0:0:
157,118,35955,2,0,P|127:151|116:192,1,65,10|0,0:0|0:0,0:0:0:0:
63,86,36227,1,10,0:0:0:0:
62,100,36364,1,0,0:0:0:0:
135,37,36500,1,10,0:0:0:0:
135,23,36636,1,0,0:0:0:0:
223,62,36773,6,0,P|264:44|314:33,1,65,14|0,0:0|0:0,0:0:0:0:
381,137,37045,2,0,P|348:124|316:95,1,65,10|0,0:0|0:0,0:0:0:0:
234,206,37318,2,0,L|250:137,2,65,10|0|10,0:0|0:0|0:0,0:0:0:0:
15,288,37727,6,0,P|37:322|46:365,1,65,0|10,0:0|0:0,0:0:0:0:
122,201,38000,2,0,P|71:189|43:169,1,65,0|10,0:0|0:0,0:0:0:0:
197,286,38273,1,0,0:0:0:0:
185,293,38409,2,0,P|164:319|152:372,1,65,10|0,0:0|0:0,0:0:0:0:
93,276,38682,1,10,0:0:0:0:
92,285,38818,1,0,0:0:0:0:
237,355,38955,6,0,P|281:338|322:340,1,65,10|0,0:0|0:0,0:0:0:0:
482,271,39227,2,0,P|440:249|406:228,1,65,10|0,0:0|0:0,0:0:0:0:
329,238,39500,1,10,0:0:0:0:
329,250,39636,1,0,0:0:0:0:
264,161,39773,2,0,L|331:140,1,65,10|10,0:0|0:0,0:0:0:0:
235,245,40045,6,0,L|246:296,2,32.5,14|0|0,0:1|0:0|0:0,0:0:0:0:
134,114,40318,1,10,0:0:0:0:
151,233,40455,2,0,L|143:283,2,32.5,6|0|0,0:2|0:0|0:0,0:0:0:0:
135,125,40727,1,10,0:0:0:0:
73,205,40864,2,0,L|49:235,2,32.5,6|0|0,0:0|0:0|0:0,0:0:0:0:
135,139,41136,1,0,0:0:0:0:
58,125,41273,2,0,L|16:107,2,32.5,14|0|0,0:0|0:0|0:0,0:0:0:0:
135,151,41545,1,0,0:0:0:0:
219,118,41682,6,0,L|211:68,2,32.5,4|0|0,0:2|0:0|0:0,0:0:0:0:
300,95,41955,2,0,L|308:45,2,32.5,4|0|0,0:2|0:0|0:0,0:0:0:0:
361,154,42227,5,8,2:0:0:0:
362,170,42295,1,8,2:0:0:0:
363,184,42364,2,0,L|367:251,1,65,8|0,2:0|0:0,0:0:0:0:
384,325,42636,2,0,L|379:378,2,32.5,8|8|8,0:0|0:0|0:0,0:0:0:0:
457,292,42909,1,0,0:0:0:0:
441,211,43045,6,0,L|452:132,1,65,6|8,0:0|0:0,0:0:0:0:
416,81,43318,1,0,0:0:0:0:
290,93,43455,6,0,L|227:106,1,65,8|8,0:0|0:0,0:0:0:0:
157,176,43727,2,0,L|131:85,1,65,8|6,0:0|0:0,0:0:0:0:
246,189,44000,1,0,0:0:0:0:
231,261,44136,1,6,0:0:0:0:
214,334,44273,1,0,0:0:0:0:
304,366,44409,6,0,L|345:357,2,32.5,6|8|2,0:2|0:0|0:2,0:0:0:0:
384,298,44682,1,2,0:2:0:0:
349,231,44818,2,0,L|333:186,2,32.5,2|8|2,0:2|0:0|0:2,0:0:0:0:
388,306,45091,1,2,0:2:0:0:
446,356,45227,2,0,L|513:370,1,65,2|2,0:2|0:2,0:0:0:0:
463,254,45500,6,0,B|481:230|481:230|484:148,1,97.5,14|0,0:0|0:0,0:0:0:0:
461,147,45773,2,0,L|461:103,6,32.5,6|0|0|0|2|0|0,0:0|0:0|0:0|0:0|0:0|0:0|0:0,0:0:0:0:
369,139,46318,6,0,B|351:163|351:163|348:245,1,97.5,14|0,0:0|0:0,0:0:0:0:
367,246,46591,2,0,L|367:290,2,32.5,2|0|0,0:0|0:0|0:0,0:0:0:0:
255,291,46864,6,0,L|265:245,3,32.5,14|0|0|0,0:0|0:0|0:0|0:0,0:0:0:0:
168,206,47136,2,0,L|180:248,3,32.5,14|0|0|0,0:0|0:0|0:0|0:0,0:0:0:0:
274,182,47409,2,0,L|230:182,3,32.5,14|0|0|0,0:0|0:0|0:0|0:0,0:0:0:0:
178,123,47682,5,8,2:3:0:0:
178,123,47818,1,8,2:3:0:0:
179,215,50955,5,8,2:0:0:0:
176,198,51023,1,8,2:0:0:0:
174,182,51091,1,8,2:0:0:0:
267,230,51227,2,0,L|254:283,2,32.5,8|8|8,2:0|2:0|2:0,0:0:0:0:
255,142,51500,6,0,L|248:88,1,32.5,8|8,0:0|0:0,0:0:0:0:
331,107,51636,2,0,L|346:59,1,32.5,8|8,0:0|0:0,0:0:0:0:
413,117,51773,2,0,L|446:92,1,32.5,8|8,0:0|0:0,0:0:0:0:
481,165,51909,2,0,L|519:175,1,32.5,8|8,0:0|0:0,0:0:0:0:
480,251,52045,6,0,P|430:272|401:268,1,65,6|8,0:0|0:0,0:0:0:0:
369,370,52318,2,0,P|331:335|312:310,1,65,2|8,0:0|0:0,0:0:0:0:
148,326,52591,2,0,P|190:307|220:304,2,65,2|8|2,0:0|0:0|0:0,0:0:0:0:
309,185,53000,6,0,L|290:260,1,65,8|2,0:0|0:0,0:0:0:0:
284,252,53205,1,0,0:0:0:0:
276,255,53273,1,8,0:0:0:0:
212,186,53409,2,0,L|204:138,2,32.5,2|0|8,0:0|0:0|0:0,0:0:0:0:
274,99,53682,1,2,0:0:0:0:
230,22,53818,1,8,0:0:0:0:
327,27,53955,1,2,0:0:0:0:
281,95,54091,1,8,0:0:0:0:
390,102,54227,6,0,P|403:135|409:179,1,65,2|8,0:0|0:0,0:0:0:0:
440,334,54500,2,0,P|475:292|488:257,1,65,2|8,0:0|0:0,0:0:0:0:
307,213,54773,2,0,P|320:251|334:273,2,65,2|8|2,0:0|0:0|0:0,0:0:0:0:
307,205,55114,1,0,0:0:0:0:
308,196,55182,1,8,0:0:0:0:
213,185,55318,6,0,P|222:207|223:226,2,32.5,2|0|8,0:0|0:0|0:0,0:0:0:0:
270,128,55591,2,0,P|277:110|297:89,2,32.5,2|0|8,0:0|0:0|0:0,0:0:0:0:
174,107,55864,1,2,0:0:0:0:
125,182,56000,1,8,0:0:0:0:
52,140,56136,1,2,0:0:0:0:
96,69,56273,1,8,0:0:0:0:
122,197,56409,6,0,P|96:239|72:255,1,65,2|8,0:0|0:0,0:0:0:0:
184,340,56682,2,0,P|144:324|100:328,1,65,2|8,0:0|0:0,0:0:0:0:
265,233,56955,2,0,P|211:246|184:243,2,65,2|8|2,0:0|0:0|0:0,0:0:0:0:
376,356,57364,6,0,L|354:281,1,65,8|2,0:0|0:0,0:0:0:0:
359,287,57568,1,0,0:0:0:0:
360,279,57636,1,8,0:0:0:0:
446,253,57773,2,0,L|439:301,2,32.5,2|0|8,0:0|0:0|0:0,0:0:0:0:
379,199,58045,1,2,0:0:0:0:
375,118,58182,1,8,0:0:0:0:
300,78,58318,1,2,0:0:0:0:
288,3,58455,1,8,0:0:0:0:
195,58,58591,6,0,P|176:85|164:117,1,65,2|8,0:0|0:0,0:0:0:0:
77,192,58864,2,0,P|60:142|40:118,1,65,2|8,0:0|0:0,0:0:0:0:
235,185,59136,2,0,P|200:205|171:234,1,65,0|12,0:0|2:0,0:0:0:0:
182,232,59341,1,8,2:0:0:0:
183,242,59409,1,8,2:0:0:0:
105,269,59545,1,0,0:0:0:0:
168,324,59682,6,0,L|158:371,2,32.5,8|8|0,0:0|0:0|0:0,0:0:0:0:
259,342,59955,2,0,L|265:383,2,32.5,8|8|0,0:0|0:0|0:0,0:0:0:0:
338,298,60227,1,8,0:0:0:0:
349,217,60364,1,0,0:0:0:0:
413,259,60500,1,8,0:0:0:0:
344,303,60636,1,0,0:0:0:0:
429,360,60773,5,14,0:0:0:0:
466,41,61864,5,6,0:0:0:0:
182,149,62955,5,6,0:0:0:0:
164,258,65136,6,0,L|158:299,2,32.5,10|0|0,0:0|0:0|0:0,0:0:0:0:
242,222,65409,1,10,0:0:0:0:
243,208,65477,1,0,0:0:0:0:
245,196,65545,1,0,0:0:0:0:
169,182,65682,2,0,L|163:119,2,32.5,10|0|0,0:0|0:0|0:0,0:0:0:0:
239,301,65955,1,10,0:0:0:0:
238,315,66023,1,0,0:0:0:0:
236,327,66091,1,0,0:0:0:0:
313,267,66227,6,0,L|363:260,2,32.5,10|0|0,0:0|0:0|0:0,0:0:0:0:
415,221,66500,2,0,L|451:237,2,32.5,10|0|0,0:0|0:0|0:0,0:0:0:0:
342,177,66773,1,8,0:0:0:0:
347,99,66909,1,8,2:0:0:0:
331,185,67045,1,8,0:0:0:0:
330,97,67182,1,8,0:0:0:0:
257,139,67318,5,6,0:0:0:0:
115,172,69500,6,0,L|74:166,2,32.5,10|0|0,0:0|0:0|0:0,0:0:0:0:
151,250,69773,1,10,0:0:0:0:
165,251,69841,1,0,0:0:0:0:
177,253,69909,1,0,0:0:0:0:
72,247,70046,2,0,L|9:241,2,32.5,10|0|0,0:0|0:0|0:0,0:0:0:0:
194,179,70319,1,10,0:0:0:0:
208,178,70387,1,0,0:0:0:0:
220,176,70455,1,0,0:0:0:0:
258,249,70591,6,0,L|265:299,2,32.5,10|0|0,0:0|0:0|0:0,0:0:0:0:
347,282,70864,2,0,L|326:327,2,32.5,10|0|0,0:0|0:0|0:0,0:0:0:0:
427,258,71136,1,8,0:0:0:0:
459,185,71273,1,8,0:0:0:0:
434,108,71409,1,8,0:0:0:0:
374,61,71545,1,8,0:0:0:0:
300,62,71682,5,6,0:0:0:0:
123,184,73864,5,2,0:0:0:0:
115,171,74000,1,8,0:0:0:0:
210,188,74136,2,0,P|201:229|183:269,1,65,2|8,0:0|0:0,0:0:0:0:
174,109,74409,2,0,P|220:88|257:81,2,65,2|8|2,0:0|0:0|0:0,0:0:0:0:
291,150,74818,6,0,P|334:172|365:178,1,65,8|2,0:0|0:0,0:0:0:0:
358,175,75023,1,0,0:0:0:0:
366,171,75091,1,8,0:0:0:0:
422,224,75227,2,0,L|434:263,2,32.5,2|0|8,0:0|0:0|0:0,0:0:0:0:
350,262,75500,5,8,0:0:0:0:
333,337,75636,1,8,2:0:0:0:
258,317,75773,1,8,0:0:0:0:
276,242,75909,1,8,0:0:0:0:
357,260,76045,5,6,0:0:0:0:
199,215,77682,5,10,0:0:0:0:
215,142,77818,1,0,0:0:0:0:
292,263,77955,5,10,0:0:0:0:
278,186,78091,1,0,0:0:0:0:
215,299,78227,6,0,P|168:284|58:288,1,130,6|10,0:0|0:0,0:0:0:0:
21,227,78636,1,0,0:0:0:0:
111,196,78773,2,0,L|128:152,2,32.5,2|0|0,0:0|0:0|0:0,0:0:0:0:
4,100,79045,2,0,P|31:130|49:182,1,65,10|0,0:0|0:0,0:0:0:0:
228,61,79318,6,0,P|164:63|112:85,1,97.5,2|0,0:1|0:0,0:0:0:0:
128,84,79591,1,10,0:0:0:0:
259,136,79727,2,0,L|297:-20,1,130,6|0,0:0|0:0,0:0:0:0:
334,197,80136,1,8,0:0:0:0:
330,208,80273,1,8,0:0:0:0:
253,235,80409,6,0,P|317:240|400:281,1,130,6|10,0:0|0:0,0:0:0:0:
397,340,80818,1,0,0:0:0:0:
493,313,80955,2,0,P|466:278|453:240,1,65,2|0,0:0|0:0,0:0:0:0:
485,156,81227,2,0,P|447:169|411:204,1,65,10|0,0:0|0:0,0:0:0:0:
321,118,81500,5,2,0:0:0:0:
327,106,81636,1,0,0:0:0:0:
243,91,81773,2,0,P|217:56|207:22,1,65,10|0,0:0|0:0,0:0:0:0:
192,206,82045,2,0,P|234:179|274:163,1,65,2|0,0:1|0:0,0:0:0:0:
256,176,82250,1,0,0:0:0:0:
266,179,82318,2,0,P|264:203|249:226,1,32.5,8|8,2:0|2:0,0:0:0:0:
342,232,82455,2,0,P|332:252|313:277,1,32.5,8|8,2:0|2:0,0:0:0:0:
390,305,82591,6,0,B|358:321|326:307|326:307|296:294|250:315,1,130,6|10,0:0|0:0,0:0:0:0:
172,367,83000,1,0,0:0:0:0:
177,357,83136,1,2,0:0:0:0:
110,289,83273,2,0,L|115:224,1,65,10|0,0:0|0:0,0:0:0:0:
190,261,83545,1,0,0:0:0:0:
50,185,83682,6,0,B|82:169|112:182|112:182|144:196|176:180,1,130,2|10,0:0|0:0,0:0:0:0:
211,107,84091,1,0,0:0:0:0:
204,96,84227,1,2,0:0:0:0:
272,166,84364,2,0,L|286:250,1,65,10|6,0:0|0:0,0:0:0:0:
343,291,84636,1,0,0:0:0:0:
391,182,84773,6,0,L|349:337,1,130,14|10,0:0|0:0,0:0:0:0:
456,259,85182,1,0,0:0:0:0:
380,168,85318,2,0,P|365:130|360:95,1,65,10|0,0:0|0:0,0:0:0:0:
497,43,85591,2,0,P|497:74|483:118,1,65,10|0,0:0|0:0,0:0:0:0:
409,30,85864,5,8,2:0:0:0:
396,28,85932,1,8,2:0:0:0:
384,26,86000,1,8,2:0:0:0:
308,49,86136,2,0,L|265:56,2,32.5,0|0|8,0:0|0:0|0:0,0:0:0:0:
184,26,86409,5,8,0:0:0:0:
185,42,86477,1,8,0:0:0:0:
187,58,86545,1,0,0:0:0:0:
242,128,86682,2,0,L|229:210,1,65,8|8,0:0|0:0,0:0:0:0:
102,256,86955,6,0,P|150:261|231:315,1,130,6|10,0:0|0:0,0:0:0:0:
270,366,87364,1,0,0:0:0:0:
298,291,87500,2,0,L|306:248,2,32.5,2|0|0,0:0|0:0|0:0,0:0:0:0:
412,305,87773,2,0,P|382:323|356:359,1,65,10|0,0:0|0:0,0:0:0:0:
470,207,88045,6,0,P|428:222|354:208,1,97.5,2|0,0:0|0:0,0:0:0:0:
368,210,88318,1,10,0:0:0:0:
512,268,88455,2,0,L|492:128,1,130,6|0,0:0|0:0,0:0:0:0:
417,116,88864,1,8,0:0:0:0:
419,103,89000,1,8,0:0:0:0:
337,136,89136,6,0,P|299:106|264:93,1,65,6|0,0:0|0:0,0:0:0:0:
141,161,89409,2,0,P|183:137|224:127,1,65,10|0,0:0|0:0,0:0:0:0:
259,214,89682,1,10,0:0:0:0:
261,206,89750,1,0,0:0:0:0:
263,198,89818,1,0,0:0:0:0:
273,293,89955,2,0,L|284:366,1,65,10|0,0:0|0:0,0:0:0:0:
461,269,90227,6,0,P|422:308|407:340,1,65,10|0,0:0|0:0,0:0:0:0:
350,158,90500,2,0,P|376:187|390:229,1,65,10|0,0:0|0:0,0:0:0:0:
470,176,90773,1,10,0:0:0:0:
420,115,90909,1,0,0:0:0:0:
496,99,91045,1,14,0:0:0:0:
473,188,91182,1,0,0:0:0:0:
346,76,91318,6,0,P|313:68|226:75,1,97.5,6|0,0:0|0:0,0:0:0:0:
266,36,91591,2,0,L|258:120,1,65,10|0,0:0|0:0,0:0:0:0:
191,139,91864,1,2,0:0:0:0:
115,166,92000,2,0,P|176:174|252:209,1,130,10|0,0:0|0:0,0:0:0:0:
306,331,92409,6,0,P|298:280|286:255,1,65,6|0,0:0|0:0,0:0:0:0:
479,345,92682,2,0,P|491:305|519:269,1,65,10|0,0:0|0:0,0:0:0:0:
389,371,92955,1,2,0:0:0:0:
396,289,93091,2,0,L|387:209,1,65,10|2,0:0|0:0,0:0:0:0:
317,183,93364,1,0,0:0:0:0:
217,217,93500,6,0,P|187:234|133:245,1,65,14|0,0:0|0:0,0:0:0:0:
10,302,93773,2,0,P|55:331|78:357,1,65,10|0,0:0|0:0,0:0:0:0:
62,214,94045,2,0,P|33:169|27:133,1,65,10|0,0:0|0:0,0:0:0:0:
180,346,94318,2,0,P|225:345|260:335,1,65,10|0,0:0|0:0,0:0:0:0:
138,153,94591,2,0,P|157:116|184:89,1,65,10|0,0:0|0:0,0:0:0:0:
301,265,94864,2,0,P|350:244|379:217,1,65,10|0,0:0|0:0,0:0:0:0:
300,101,95136,5,10,0:0:0:0:
296,112,95273,1,0,0:0:0:0:
387,131,95409,1,10,0:0:0:0:
366,49,95545,1,0,0:0:0:0:
470,73,95682,6,0,P|478:57|482:37,3,32.5,6|0|0|0,0:0|0:0|0:0|0:0,0:0:0:0:
480,157,95955,2,0,P|508:144|524:130,1,32.5,8|8,2:0|2:0,0:0:0:0:
454,236,96091,2,0,P|475:243|502:241,1,32.5,8|8,2:0|2:0,0:0:0:0:
391,296,96227,2,0,P|404:316|422:329,3,32.5,6|0|0|0,0:0|0:0|0:0|0:0,0:0:0:0:
301,275,96500,6,0,P|291:258|260:236,1,32.5,8|8,0:0|0:0,0:0:0:0:
199,261,96636,2,0,P|174:249|155:246,1,32.5,8|8,0:0|0:0,0:0:0:0:
93,282,96773,2,0,P|71:288|51:302,3,32.5,6|0|0|0,0:0|0:0|0:0|0:0,0:0:0:0:
38,218,97045,2,0,P|14:206|2:191,3,32.5,8|8|8|8,0:0|0:0|0:0|0:0,0:0:0:0:
98,128,97318,6,0,P|93:147|82:165,1,32.5,6|0,0:0|0:0,0:0:0:0:
186,125,97455,2,0,P|188:153|181:175,1,32.5
264,95,97591,2,0,P|278:118|283:139,1,32.5,8|8,0:0|0:0,0:0:0:0:
332,46,97727,2,0,P|354:56|372:70,1,32.5,8|8,0:0|0:0,0:0:0:0:
367,143,97864,6,0,L|348:288,1,130,6|0,0:0|0:0,0:0:0:0:
117,74,100045,6,0,L|129:214,1,130,6|8,0:0|2:0,0:0:0:0:
471,60,102227,6,0,L|453:197,1,130,6|8,0:0|2:0,0:0:0:0:
196,263,103864,5,14,0:0:0:0:
165,190,104000,1,0,0:0:0:0:
277,216,104136,5,14,0:0:0:0:
200,270,104273,1,0,0:0:0:0:
238,135,104409,6,0,P|291:131|329:133,1,65,6|0,0:0|0:0,0:0:0:0:
389,138,104682,2,0,P|412:142|438:157,2,32.5,2|0|0,0:0|0:0|0:0,0:0:0:0:
504,264,104955,2,0,P|497:232|486:202,1,65,10|0,0:0|0:0,0:0:0:0:
472,372,105227,2,0,P|490:357|502:337,2,32.5,2|0|0,0:0|0:0|0:0,0:0:0:0:
320,357,105500,2,0,P|365:374|399:377,1,65,2|0,0:0|0:0,0:0:0:0:
244,271,105773,2,0,P|249:297|256:314,2,32.5,2|0|0,0:0|0:0|0:0,0:0:0:0:
224,188,106045,1,10,0:0:0:0:
187,111,106182,1,0,0:0:0:0:
111,74,106318,1,2,0:0:0:0:
32,96,106455,1,0,0:0:0:0:
18,177,106591,6,0,P|32:210|64:248,1,65,6|0,0:0|0:0,0:0:0:0:
156,279,106864,2,0,P|135:275|104:262,2,32.5,2|0|0,0:0|0:0|0:0,0:0:0:0:
302,243,107136,2,0,P|277:258|217:275,1,65,10|0,0:0|0:0,0:0:0:0:
390,162,107409,2,0,P|377:185|361:200,2,32.5,2|0|0,0:0|0:0|0:0,0:0:0:0:
308,32,107682,6,0,P|271:52|244:91,1,65,6|0,0:0|0:0,0:0:0:0:
131,62,107955,2,0,P|154:81|168:102,2,32.5,2|0|0,0:0|0:0|0:0,0:0:0:0:
217,146,108227,1,8,2:0:0:0:
213,157,108295,1,8,2:0:0:0:
211,169,108363,1,8,2:0:0:0:
135,209,108500,2,0,L|149:287,1,65,2|2,0:0|0:0,0:0:0:0:
240,281,108773,6,0,P|293:285|331:283,1,65,6|0,0:0|0:0,0:0:0:0:
391,278,109046,2,0,P|414:274|440:259,2,32.5,2|0|0,0:0|0:0|0:0,0:0:0:0:
506,152,109319,2,0,P|499:184|488:214,1,65,10|0,0:0|0:0,0:0:0:0:
474,44,109591,2,0,P|492:59|504:79,2,32.5,2|0|0,0:0|0:0|0:0,0:0:0:0:
322,59,109864,2,0,P|367:42|401:39,1,65,6|0,0:0|0:0,0:0:0:0:
246,145,110137,2,0,P|251:119|258:102,2,32.5,2|0|0,0:0|0:0|0:0,0:0:0:0:
226,228,110409,1,10,0:0:0:0:
189,305,110546,1,0,0:0:0:0:
113,342,110682,1,2,0:0:0:0:
34,320,110819,1,0,0:0:0:0:
20,239,110955,6,0,P|34:206|66:168,1,65,6|0,0:0|0:0,0:0:0:0:
158,137,111228,2,0,P|137:141|106:154,2,32.5,2|0|0,0:0|0:0|0:0,0:0:0:0:
304,173,111500,2,0,P|279:158|219:141,1,65,10|0,0:0|0:0,0:0:0:0:
392,254,111773,2,0,P|379:231|363:216,2,32.5,2|0|0,0:0|0:0|0:0,0:0:0:0:
446,315,112045,5,8,2:0:0:0:
443,326,112113,1,8,2:0:0:0:
441,338,112181,1,8,2:0:0:0:
478,243,112318,2,0,L|510:230,2,32.5,8|8|8,0:0|0:0|0:0,0:0:0:0:
435,171,112591,1,8,2:0:0:0:
432,160,112659,1,8,2:0:0:0:
430,148,112727,1,8,2:0:0:0:
362,98,112864,2,0,L|330:85,2,32.5,8|8|8,0:0|0:0|0:0,0:0:0:0:
183,117,113136,6,0,P|209:95|262:77,1,65,6|0,0:0|0:0,0:0:0:0:
114,219,113409,2,0,P|120:199|132:181,2,32.5,2|0|0,0:0|0:0|0:0,0:0:0:0:
185,344,113682,2,0,P|147:316|127:279,1,65,10|0,0:0|0:0,0:0:0:0:
300,336,113955,2,0,P|280:348|254:350,2,32.5,2|0|0,0:0|0:0|0:0,0:0:0:0:
395,226,114227,2,0,P|386:257|362:296,1,65,6|0,0:0|0:0,0:0:0:0:
371,118,114500,2,0,P|380:131|390:152,2,32.5,2|0|0,0:0|0:0|0:0,0:0:0:0:
306,63,114773,1,10,0:0:0:0:
220,62,114909,1,0,0:0:0:0:
150,114,115045,1,2,0:0:0:0:
125,196,115182,1,0,0:0:0:0:
157,277,115318,6,0,P|180:300|208:319,1,65,6|0,0:0|0:0,0:0:0:0:
318,308,115591,2,0,P|299:317|268:321,2,32.5,2|0|0,0:0|0:0|0:0,0:0:0:0:
401,190,115864,2,0,P|370:224|360:251,1,65,10|0,0:0|0:0,0:0:0:0:
509,186,116136,2,0,P|489:178|465:177,2,32.5,2|0|0,0:0|0:0|0:0,0:0:0:0:
347,146,116409,6,0,P|391:166|411:188,1,65,6|0,0:0|0:0,0:0:0:0:
236,167,116682,2,0,P|249:158|273:153,2,32.5,2|0|0,0:0|0:0|0:0,0:0:0:0:
219,255,116955,2,0,P|239:276|250:295,1,32.5,10|0,0:0|0:0,0:0:0:0:
139,288,117091,2,0,P|142:318|138:345,1,32.5
54,268,117227,2,0,P|52:294|42:312,1,32.5,2|0,0:0|0:0,0:0:0:0:
29,186,117364,2,0,P|17:194|-5:218,1,32.5
25,100,117500,6,0,P|53:87|78:80,2,32.5,6|0|0,0:0|0:0|0:0,0:0:0:0:
164,103,117773,2,0,P|145:84|123:73,2,32.5,2|8|0,0:0|0:0|0:0,0:0:0:0:
262,223,118045,2,0,P|237:204|218:178,1,65,2|0,0:0|0:0,0:0:0:0:
380,243,118318,2,0,P|349:247|327:243,2,32.5,2|8|0,0:0|0:0|0:0,0:0:0:0:
482,143,118591,2,0,P|469:172|447:196,1,65,2|0,0:0|0:0,0:0:0:0:
468,45,118864,2,0,P|491:63|504:78,2,32.5,2|8|0,0:0|0:0|0:0,0:0:0:0:
393,8,119136,1,2,0:0:0:0:
393,8,119205,1,8,0:0:0:0:
393,8,119273,1,0,0:0:0:0:
289,13,119409,1,2,0:0:0:0:
225,88,119545,1,0,0:0:0:0:
227,179,119682,6,0,P|224:218|221:233,2,32.5,6|8|0,0:0|0:0|0:0,0:0:0:0:
162,306,119955,2,0,P|190:290|202:278,2,32.5,2|8|0,0:0|0:0|0:0,0:0:0:0:
40,286,120227,2,0,P|59:312|84:334,1,65,6|0,0:0|0:0,0:0:0:0:
27,175,120500,2,0,P|22:195|22:229,2,32.5,2|8|0,0:0|0:0|0:0,0:0:0:0:
152,119,120773,2,0,P|120:116|89:125,1,65,6|0,0:0|0:0,0:0:0:0:
232,147,121046,1,2,0:0:0:0:
239,153,121114,1,8,0:0:0:0:
242,161,121182,1,0,0:0:0:0:
322,117,121318,6,0,L|334:30,1,65,6|8,0:0|0:0,0:0:0:0:
321,195,121591,1,8,2:0:0:0:
389,160,121727,1,8,2:0:0:0:
439,241,121864,6,0,P|387:214|291:214,1,130,6|2,0:0|0:0,0:0:0:0:
312,217,122205,1,8,0:0:0:0:
309,227,122273,1,0,0:0:0:0:
222,236,122409,2,0,L|230:286,15,32.5,2|8|0|8|2|8|0|8|2|8|0|8|2|8|0|8,0:0|0:0|0:0|0:0|0:0|0:0|0:0|0:0|0:0|0:0|0:0|0:0|0:0|0:0|0:0|0:0,0:0:0:0:
134,239,123500,1,2,0:0:0:0:
132,246,123568,1,8,0:0:0:0:
130,254,123636,1,0,0:0:0:0:
129,262,123704,1,8,0:0:0:0:
128,271,123773,2,0,L|119:315,3,32.5,2|8|0|8,0:0|0:0|0:0|0:0,0:0:0:0:
194,337,124045,6,0,P|238:312|332:307,1,130,6|2,0:0|0:0,0:0:0:0:
321,309,124386,1,8,0:0:0:0:
325,315,124455,1,0,0:0:0:0:
388,259,124591,2,0,L|439:264,7,32.5,2|8|0|8|2|8|0|8,0:0|0:0|0:0|0:0|0:0|0:0|0:0|0:0,0:0:0:0:
304,151,125136,6,0,L|320:241,1,65,6|0,0:0|0:0,0:0:0:0:
394,173,125409,1,8,2:0:0:0:
229,203,125545,1,8,2:0:0:0:
303,138,125682,2,0,L|296:94,3,32.5,8|8|8|8,2:0|2:0|2:0|2:0,0:0:0:0:
217,118,125955,1,8,0:0:0:0:
211,112,126023,1,8,0:0:0:0:
204,107,126091,1,8,0:0:0:0:
197,103,126159,1,8,0:0:0:0:
189,99,126227,6,0,P|144:88|43:94,1,130,6|2,0:0|0:0,0:0:0:0:
59,98,126568,1,8,0:0:0:0:
58,107,126636,1,0,0:0:0:0:
104,170,126773,2,0,L|110:232,7,32.5,2|8|0|8|2|8|0|8,0:0|0:0|0:0|0:0|0:0|0:0|0:0|0:0,0:0:0:0:
175,266,127318,2,0,L|169:308,7,32.5,2|8|0|8|2|8|0|8,0:0|0:0|0:0|0:0|0:0|0:0|0:0|0:0,0:0:0:0:
260,286,127864,5,2,0:0:0:0:
262,293,127932,1,8,0:0:0:0:
264,301,128000,1,0,0:0:0:0:
265,309,128068,1,8,0:0:0:0:
268,318,128137,2,0,L|274:360,3,32.5,2|8|0|8,0:0|0:0|0:0|0:0,0:0:0:0:
356,331,128409,5,2,0:0:0:0:
226,116,129500,5,6,0:0:0:0:
224,124,129568,1,10,0:0:0:0:
223,132,129636,1,0,0:0:0:0:
222,140,129704,1,10,0:0:0:0:
221,149,129773,2,0,L|213:193,3,32.5,0|10|0|10,0:0|0:0|0:0|0:0,0:0:0:0:
296,195,130045,2,0,L|303:241,7,32.5,0|10|0|10|0|10|0|10,0:0|0:0|0:0|0:0|0:0|0:0|0:0|0:0,0:0:0:0:
218,264,130591,5,0,0:0:0:0:
209,262,130659,1,10,0:0:0:0:
201,261,130727,1,0,0:0:0:0:
193,260,130795,1,10,0:0:0:0:
185,259,130864,2,0,L|141:251,3,32.5,0|10|0|10,0:0|0:0|0:0|0:0,0:0:0:0:
275,329,131136,2,0,L|332:324,7,32.5,0|10|0|10|0|10|0|10,0:0|0:0|0:0|0:0|0:0|0:0|0:0|0:0,0:0:0:0:
194,347,131682,5,14,0:0:0:0:
194,347,131955,1,10,0:0:0:0:
474,282,132227,5,10,0:0:0:0:
474,282,132364,1,10,0:0:0:0:
194,347,132636,5,10,0:0:0:0:
194,347,132909,1,10,0:0:0:0:
175,164,134955,6,0,L|152:84,2,65,2|2|2,2:0|2:0|2:0,0:0:0:0:
311,205,135364,2,0,B|339:180|339:180|298:163|255:181|255:181|216:195|184:177,1,195.00000743866,2|0,2:0|0:0,0:0:0:0:
47,142,135773,1,8,2:0:0:0:
105,209,135909,2,0,L|114:263,1,32.5,8|8,2:0|2:0,0:0:0:0:
128,314,136045,5,10,0:0:0:0:
128,314,136318,1,10,0:0:0:0:
394,366,136591,5,10,0:0:0:0:
394,366,136727,1,10,0:0:0:0:
128,314,137000,5,10,0:0:0:0:
128,314,137273,1,10,0:0:0:0:
233,118,138636,5,0,0:0:0:0:
236,126,138705,1,0,0:0:0:0:
239,135,138773,2,0,L|246:211,1,65,10|0,0:0|0:0,0:0:0:0:
126,246,139045,2,0,L|140:175,1,65,8|8,0:0|0:0,0:0:0:0:
214,279,139318,5,14,0:0:0:0:
146,332,139455,1,0,0:0:0:0:
140,335,139523,1,0,0:0:0:0:
134,338,139591,2,0,L|54:343,1,65,10|0,0:0|0:0,0:0:0:0:
221,293,139864,1,14,0:0:0:0:
306,335,140000,2,0,L|357:348,2,32.5,0|0|10,0:0|0:0|0:0,0:0:0:0:
225,305,140273,1,0,0:0:0:0:
301,240,140409,6,0,L|318:169,1,65,10|0,0:0|0:0,0:0:0:0:
169,120,140682,2,0,L|185:193,1,65,10|0,0:0|0:0,0:0:0:0:
342,17,140955,2,0,P|299:24|262:43,1,65,10|0,0:0|0:0,0:0:0:0:
262,108,141227,1,10,0:0:0:0:
388,129,141364,6,0,P|418:113|451:88,1,65,0|10,0:0|0:0,0:0:0:0:
480,247,141636,2,0,P|440:227|395:218,1,65,0|10,0:0|0:0,0:0:0:0:
342,285,141909,1,0,0:0:0:0:
254,299,142045,5,10,0:0:0:0:
251,293,142317,1,10,0:0:0:0:
248,287,142590,1,10,0:0:0:0:
246,281,142863,1,10,0:0:0:0:
243,275,143135,1,10,0:0:0:0:
241,269,143408,1,10,0:0:0:0:
267,185,143682,5,10,0:0:0:0:
262,177,143818,1,0,0:0:0:0:
201,125,143955,1,10,0:0:0:0:
188,210,144091,6,0,B|206:212|223:222|223:222|251:201|251:201|290:229|339:230|386:202,1,195.00000743866,6|0,0:0|0:0,0:0:0:0:
459,205,144500,1,10,0:0:0:0:
414,121,144637,1,0,0:0:0:0:
410,129,144705,1,0,0:0:0:0:
407,137,144773,6,0,P|369:128|336:127,1,65,14|0,0:0|0:0,0:0:0:0:
198,22,145045,2,0,P|241:49|269:78,1,65,10|0,0:0|0:0,0:0:0:0:
283,222,145318,1,10,0:0:0:0:
209,152,145455,2,0,P|159:147|128:157,1,65,0|10,0:0|0:0,0:0:0:0:
51,251,145727,6,0,P|64:286|94:322,1,65,0|10,0:0|0:0,0:0:0:0:
247,362,146000,2,0,P|272:322|275:303,1,65,0|10,0:0|0:0,0:0:0:0:
175,242,146273,1,0,0:0:0:0:
168,329,146409,5,10,0:0:0:0:
165,335,146681,1,10,0:0:0:0:
162,341,146954,1,10,0:0:0:0:
160,347,147227,1,10,0:0:0:0:
157,353,147499,1,10,0:0:0:0:
155,359,147772,1,10,0:0:0:0:
167,254,148045,5,8,2:0:0:0:
168,266,148113,1,8,2:0:0:0:
170,278,148181,1,8,2:0:0:0:
252,229,148318,2,0,L|263:169,2,32.5,2|0|0,0:0|0:0|0:0,0:0:0:0:
288,311,148591,6,0,P|283:332|263:364,1,32.5,8|8,0:0|0:0,0:0:0:0:
359,281,148727,2,0,P|372:309|377:332,1,32.5,8|8,0:0|0:0,0:0:0:0:
397,214,148864,2,0,P|420:229|439:243,1,32.5,8|8,0:0|0:0,0:0:0:0:
398,137,149000,2,0,P|425:134|454:141,1,32.5,8|8,0:0|0:0,0:0:0:0:
366,65,149136,1,6,0:0:0:0:
256,192,149205,12,2,151318,0:2:0:0:
104,244,163318,6,0,P|130:187|167:156,2,86.6666666666667,6|0|0,0:0|2:0|2:0,0:0:0:0:
244,325,163864,2,0,P|205:336|144:325,2,86.6666666666667,2|0|0,0:0|2:0|2:0,0:0:0:0:
247,164,164409,2,0,P|286:196|308:264,2,86.6666666666667,2|0|0,0:0|2:0|2:0,0:0:0:0:
207,235,164955,1,2,0:0:0:0:
201,249,165136,1,0,2:0:0:0:
190,238,165318,1,0,2:0:0:0:
155,135,165500,6,0,P|124:94|89:74,2,86.6666666666667,2|0|0,0:0|2:0|2:0,0:0:0:0:
259,11,166045,2,0,P|220:24|159:15,2,86.6666666666667,2|0|0,0:0|2:0|2:0,0:0:0:0:
254,157,166591,1,2,0:0:0:0:
326,85,166773,2,0,P|273:115|248:150,1,86.6666666666667,8|0,0:0|2:0,0:0:0:0:
139,264,167136,1,2,0:0:0:0:
188,203,167318,1,8,0:0:0:0:
222,275,167500,1,8,0:0:0:0:
351,229,167682,6,0,P|394:219|466:224,2,86.6666666666667,6|0|0,0:0|2:0|2:0,0:0:0:0:
497,150,168227,2,0,P|447:121|415:74,2,86.6666666666667,2|0|0,0:0|2:0|2:0,0:0:0:0:
280,174,168773,2,0,P|330:145|362:98,2,86.6666666666667,2|0|0,0:0|2:0|2:0,0:0:0:0:
360,33,169318,1,2,0:0:0:0:
358,49,169500,1,0,2:0:0:0:
375,45,169682,1,0,2:0:0:0:
205,24,169864,5,8,0:0:0:0:
264,92,170045,1,8,0:0:0:0:
171,111,170227,1,8,0:0:0:0:
241,189,170409,5,8,0:0:0:0:
273,107,170591,1,8,0:0:0:0:
176,125,170773,1,8,0:0:0:0:
123,210,170955,5,8,2:0:0:0:
107,293,171136,1,8,2:0:0:0:
91,377,171318,1,8,2:0:0:0:
25,280,171500,5,8,2:0:0:0:
114,300,171682,1,8,2:0:0:0:
202,320,171864,1,8,2:0:0:0:
326,264,172045,6,0,L|353:162,1,86.6666666666667,6|2,0:0|0:2,0:0:0:0:
256,174,172409,1,2,0:2:0:0:
286,20,172591,2,0,L|309:111,1,86.6666666666667,10|2,0:0|0:2,0:0:0:0:
385,107,172955,1,2,0:2:0:0:
436,240,173136,5,2,0:2:0:0:
467,172,173318,1,2,0:2:0:0:
438,251,173500,1,2,0:2:0:0:
348,230,173682,5,10,0:0:0:0:
365,307,173864,1,2,0:2:0:0:
349,222,174045,1,2,0:2:0:0:
221,235,174227,6,0,P|166:238|109:224,1,86.6666666666667,2|2,0:2|0:2,0:0:0:0:
124,148,174591,1,2,0:2:0:0:
208,139,174773,2,0,P|226:180|234:230,1,86.6666666666667,10|2,0:0|0:2,0:0:0:0:
115,136,175136,1,2,0:2:0:0:
162,32,175318,5,2,0:2:0:0:
63,32,175500,1,2,0:2:0:0:
18,115,175682,1,2,0:2:0:0:
269,44,175864,5,10,0:0:0:0:
225,144,176045,2,0,L|199:95,1,43.3333333333333,2|0,0:2|0:0,0:0:0:0:
313,129,176227,2,0,L|354:88,1,43.3333333333333,2|0,0:2|0:0,0:0:0:0:
315,217,176409,6,0,P|365:221|428:246,1,86.6666666666667,6|2,0:0|0:2,0:0:0:0:
472,289,176773,1,2,0:2:0:0:
300,382,176955,2,0,P|266:342|249:303,1,86.6666666666667,8|2,0:0|0:2,0:0:0:0:
223,222,177318,1,2,0:2:0:0:
348,102,177500,5,2,0:2:0:0:
339,188,177682,1,2,0:2:0:0:
294,40,177864,1,2,0:2:0:0:
126,104,178045,5,10,0:0:0:0:
196,169,178227,1,2,0:2:0:0:
156,15,178409,1,2,0:2:0:0:
193,188,178591,6,0,B|142:160|142:160|115:74,1,130,2|0,0:2|0:0,0:0:0:0:
95,253,178955,2,0,B|133:195|133:195|205:187,1,130,2|0,0:2|0:0,0:0:0:0:
278,199,179318,2,0,L|162:183,1,86.6666666666667,2|2,0:2|0:2,0:0:0:0:
418,315,179682,5,2,0:2:0:0:
473,247,179864,1,8,2:0:0:0:
475,225,179954,1,8,2:0:0:0:
478,204,180045,1,8,2:0:0:0:
481,182,180136,1,8,2:0:0:0:
483,159,180227,2,0,L|475:95,1,43.3333333333333,8|8,2:0|2:0,0:0:0:0:
398,151,180409,2,0,L|359:112,1,43.3333333333333,8|8,0:0|0:0,0:0:0:0:
318,196,180591,2,0,L|236:218,1,43.3333333333333,8|8,0:0|0:0,0:0:0:0:
264,289,180773,6,0,B|208:274|208:274|161:311,1,86.6666666666667,6|0,0:0|0:0,0:0:0:0:
127,348,181136,1,2,0:2:0:0:
66,299,181318,2,0,B|160:315|160:315|192:285,1,130,10|0,0:0|0:0,0:0:0:0:
123,227,181682,2,0,L|39:215,1,43.3333333333333,2|0,0:0|0:0,0:0:0:0:
267,159,181864,2,0,B|219:172|219:172|184:292,1,173.333333333333,2|2,0:2|0:2,0:0:0:0:
362,291,182409,5,10,0:2:0:0:
376,263,182500,1,0,0:0:0:0:
403,246,182591,1,2,0:2:0:0:
431,246,182682,1,0,0:0:0:0:
457,259,182773,2,0,P|472:239|504:229,1,43.3333333333333,2|0,0:2|0:0,0:0:0:0:
427,330,182955,6,0,L|386:170,1,130,2|0,0:2|0:0,0:0:0:0:
495,144,183318,2,0,B|408:166|408:166|393:206,1,130,2|0,0:2|0:0,0:0:0:0:
306,218,183682,1,2,0:2:0:0:
288,203,183773,1,0,0:0:0:0:
268,197,183864,1,2,0:2:0:0:
248,198,183955,1,0,0:0:0:0:
232,207,184045,6,0,L|209:139,1,43.3333333333333,2|0,0:2|0:0,0:0:0:0:
140,207,184227,2,0,L|92:184,1,43.3333333333333,2|0,0:2|0:0,0:0:0:0:
83,272,184409,2,0,L|15:290,1,43.3333333333333,2|0,0:2|0:0,0:0:0:0:
112,360,184591,2,0,B|174:334|174:334|211:364,1,86.6666666666667,10|2,0:2|0:2,0:0:0:0:
200,354,184864,1,2,0:2:0:0:
211,364,184955,1,2,0:2:0:0:
220,373,185045,1,2,0:2:0:0:
232,384,185136,6,0,L|266:276,1,86.6666666666667,2|2,0:2|0:2,0:0:0:0:
267,292,185409,1,0,0:0:0:0:
280,282,185500,2,0,L|302:218,1,43.3333333333333,2|0,0:2|0:0,0:0:0:0:
193,107,185682,2,0,L|208:220,1,86.6666666666667,10|2,0:2|0:2,0:0:0:0:
206,204,185955,1,0,0:0:0:0:
207,214,186045,2,0,L|127:212,1,43.3333333333333,2|0,0:2|0:0,0:0:0:0:
302,113,186227,6,0,B|365:117|365:117|391:154,1,86.6666666666667,2|2,0:2|0:2,0:0:0:0:
384,149,186500,1,0,0:0:0:0:
389,164,186591,1,2,0:2:0:0:
395,179,186682,1,0,0:0:0:0:
399,194,186773,2,0,L|464:217,1,43.3333333333333,10|0,0:2|0:0,0:0:0:0:
342,286,186955,2,0,L|387:275,1,43.3333333333333,2|0,0:2|0:0,0:0:0:0:
309,202,187136,1,2,0:2:0:0:
208,289,187318,5,2,0:2:0:0:
104,215,187500,1,2,0:2:0:0:
116,197,187590,1,0,0:0:0:0:
133,184,187681,1,2,0:2:0:0:
153,175,187772,1,0,0:0:0:0:
176,174,187864,2,0,L|195:99,1,43.3333333333333,10|0,0:2|0:0,0:0:0:0:
102,62,188045,2,0,L|109:119,1,43.3333333333333,2|0,0:2|0:0,0:0:0:0:
189,51,188227,2,0,L|196:0,1,43.3333333333333,2|0,0:2|0:0,0:0:0:0:
281,101,188409,6,0,L|291:158,3,43.3333333333333,6|0|8|8,0:0|0:0|2:0|2:0,0:0:0:0:
358,223,188773,2,0,L|376:154,1,43.3333333333333,8|8,2:0|2:0,0:0:0:0:
249,263,188955,2,0,L|283:218,1,43.3333333333333,8|8,2:0|2:0,0:0:0:0:
170,225,189136,1,8,0:0:0:0:
137,221,189226,1,8,0:0:0:0:
116,211,189317,1,8,0:0:0:0:
104,197,189408,1,8,0:0:0:0:
96,185,189500,6,0,B|120:202|120:202|123:279,1,86.6666666666667,6|2,0:2|0:2,0:0:0:0:
122,271,189773,1,0,0:0:0:0:
123,282,189864,2,0,L|121:342,1,43.3333333333333,2|0,0:2|0:0,0:0:0:0:
220,356,190045,1,10,0:2:0:0:
228,342,190135,1,0,0:0:0:0:
234,325,190227,2,0,L|239:256,1,43.3333333333333,2|0,0:2|0:0,0:0:0:0:
327,296,190409,2,0,L|355:248,1,43.3333333333333,2|0,0:2|0:0,0:0:0:0:
434,263,190591,6,0,L|505:232,3,43.3333333333333,2|0|2|0,0:2|0:0|0:2|0:0,0:0:0:0:
361,168,190955,2,0,L|420:197,1,43.3333333333333,2|0,0:2|0:0,0:0:0:0:
263,133,191136,2,0,L|328:96,1,43.3333333333333,10|0,0:2|0:0,0:0:0:0:
178,120,191318,1,2,0:2:0:0:
171,140,191408,1,0,0:0:0:0:
158,158,191499,1,2,0:2:0:0:
141,171,191590,1,0,0:0:0:0:
121,180,191682,6,0,B|137:169|137:169|231:201,1,86.6666666666667,2|2,0:2|0:2,0:0:0:0:
208,201,191955,1,0,0:0:0:0:
215,211,192045,2,0,L|217:268,1,43.3333333333333,2|0,0:2|0:0,0:0:0:0:
332,346,192227,2,0,B|310:342|310:342|289:268,1,86.6666666666667,10|2,0:2|0:2,0:0:0:0:
292,272,192500,1,0,0:0:0:0:
293,262,192591,1,2,0:2:0:0:
297,175,192773,6,0,B|332:153|332:153|409:192|409:192|480:129,1,195.00000743866,2|0,0:2|0:0,0:0:0:0:
462,133,193136,1,0,0:0:0:0:
394,88,193318,2,0,L|398:33,1,43.3333333333333,14|0,0:0|0:0,0:0:0:0:
309,64,193500,1,2,0:2:0:0:
286,54,193591,1,0,0:0:0:0:
260,54,193682,1,2,0:2:0:0:
238,68,193773,1,0,0:0:0:0:
225,88,193864,6,0,B|164:73,3,43.3333333333333,6|0|2|0,0:2|0:0|0:2|0:0,0:0:0:0:
93,137,194227,1,2,0:2:0:0:
112,149,194318,1,0,0:0:0:0:
124,167,194409,2,0,L|184:161,1,43.3333333333333,10|0,0:2|0:0,0:0:0:0:
226,238,194591,2,0,L|299:252,1,43.3333333333333,2|0,0:2|0:0,0:0:0:0:
340,323,194773,2,0,L|382:366,1,43.3333333333333,2|0,0:2|0:0,0:0:0:0:
499,355,194955,6,0,L|432:329,3,43.3333333333333,2|0|2|0,0:2|0:0|0:2|0:0,0:0:0:0:
415,262,195318,1,2,0:2:0:0:
408,237,195409,1,0,0:0:0:0:
407,209,195500,2,0,L|433:148,1,43.3333333333333,10|0,0:2|0:0,0:0:0:0:
259,221,195682,2,0,L|315:184,1,43.3333333333333,2|0,0:2|0:0,0:0:0:0:
119,174,195864,2,0,L|193:188,1,43.3333333333333,2|0,0:2|0:0,0:0:0:0:
0,106,196045,6,0,B|23:120|23:120|45:319,1,195.00000743866,2|0,0:2|0:0,0:0:0:0:
34,303,196409,1,2,0:2:0:0:
200,357,196591,2,0,B|188:319|188:319|34:303,1,195.00000743866,10|0,0:2|0:0,0:0:0:0:
26,321,196955,1,2,0:2:0:0:
154,210,197136,6,0,B|314:202|314:202|284:239,1,195.00000743866,2|0,0:2|0:0,0:0:0:0:
280,239,197500,1,2,0:2:0:0:
347,101,197682,2,0,B|187:93|187:93|217:130,1,195.00000743866,10|0,0:2|0:0,0:0:0:0:
221,130,198046,1,2,0:2:0:0:
46,169,198227,6,0,L|37:126,3,32.5,6|0|0|0,0:2|0:0|0:0|0:0,0:0:0:0:
129,159,198500,1,0,0:0:0:0:
136,190,198591,1,2,0:2:0:0:
128,217,198682,1,0,0:0:0:0:
108,238,198773,2,0,L|99:317,2,43.3333333333333,10|0|2,0:2|0:0|0:2,0:0:0:0:
179,329,199045,1,0,0:0:0:0:
210,311,199136,1,2,0:2:0:0:
249,314,199227,1,0,0:0:0:0:
282,337,199318,6,0,L|300:245,1,65,6|8,0:0|0:0,0:0:0:0:
404,279,199591,2,0,L|386:195,1,65,6|8,0:0|0:0,0:0:0:0:
307,154,199864,2,0,L|311:193,2,32.5,6|0|8,0:0|0:0|0:0,0:0:0:0:
387,122,200136,1,6,0:0:0:0:
310,68,200273,1,2,0:0:0:0:
208,100,200409,6,0,B|196:83|166:83|143:103|143:103|122:75|76:53|33:67|-16:122|-8:184|57:229|114:218|139:175,1,390.00001487732,6|2,0:0|0:0,0:0:0:0:
287,309,202591,6,0,L|293:350,2,32.5,10|0|0,0:0|0:0|0:0,0:0:0:0:
209,273,202864,1,10,0:0:0:0:
208,259,202932,1,0,0:0:0:0:
206,247,203000,1,0,0:0:0:0:
211,352,203137,2,0,L|217:415,2,32.5,10|0|0,0:0|0:0|0:0,0:0:0:0:
280,230,203410,1,10,0:0:0:0:
281,216,203478,1,0,0:0:0:0:
283,204,203546,1,0,0:0:0:0:
210,166,203682,6,0,L|160:159,2,32.5,10|0|0,0:0|0:0|0:0,0:0:0:0:
287,124,203955,2,0,L|332:123,2,32.5,10|0|0,0:0|0:0|0:0,0:0:0:0:
213,92,204227,5,8,0:0:0:0:
290,44,204364,1,8,0:0:0:0:
211,78,204500,1,8,0:0:0:0:
284,32,204636,1,8,0:0:0:0:
215,2,204773,5,6,0:0:0:0:
357,233,206955,6,0,L|398:239,2,32.5,10|0|0,0:0|0:0|0:0,0:0:0:0:
321,155,207228,1,10,0:0:0:0:
307,154,207296,1,0,0:0:0:0:
295,152,207364,1,0,0:0:0:0:
400,157,207501,2,0,L|463:163,2,32.5,10|0|0,0:0|0:0|0:0,0:0:0:0:
278,226,207774,1,10,0:0:0:0:
264,227,207842,1,0,0:0:0:0:
252,229,207910,1,0,0:0:0:0:
214,156,208046,6,0,L|207:106,2,32.5,10|0|0,0:0|0:0|0:0,0:0:0:0:
172,233,208319,2,0,L|171:278,2,32.5,10|0|0,0:0|0:0|0:0,0:0:0:0:
129,140,208591,5,8,0:0:0:0:
38,186,208727,1,8,0:0:0:0:
130,149,208864,1,8,0:0:0:0:
56,108,209000,1,8,0:0:0:0:
128,156,209136,5,6,0:0:0:0:
389,200,211318,5,6,0:0:0:0:
397,213,211454,1,10,0:0:0:0:
302,188,211590,2,0,P|293:147|275:107,1,65,0|10,0:0|0:0,0:0:0:0:
430,98,211863,2,0,P|384:119|347:126,2,65,0|10|0,0:0|0:0|0:0,0:0:0:0:
321,53,212272,6,0,P|278:31|247:25,1,65,10|10,0:0|0:0,0:0:0:0:
254,28,212477,1,0,0:0:0:0:
246,32,212545,1,0,0:0:0:0:
186,103,212681,2,0,L|174:64,2,32.5,10|0|0,0:0|0:0|0:0,0:0:0:0:
210,181,212954,5,8,0:0:0:0:
124,211,213090,1,8,0:0:0:0:
195,261,213227,1,8,0:0:0:0:
113,291,213363,1,8,0:0:0:0:
180,342,213499,5,6,0:0:0:0:
313,169,215136,5,10,0:0:0:0:
220,207,215272,1,0,0:0:0:0:
227,130,215409,5,10,0:0:0:0:
297,248,215545,1,0,0:0:0:0:
297,85,215682,6,0,P|344:100|454:96,1,130,6|10,0:0|0:0,0:0:0:0:
507,118,216090,1,0,0:0:0:0:
489,199,216227,2,0,L|472:243,2,32.5,2|0|0,0:0|0:0|0:0,0:0:0:0:
364,240,216499,2,0,P|391:210|409:158,1,65,10|0,0:0|0:0,0:0:0:0:
265,252,216772,6,0,P|201:250|149:228,1,97.5,2|0,0:0|0:0,0:0:0:0:
165,229,217045,1,10,0:0:0:0:
278,246,217182,2,0,L|240:402,1,130,2|0,0:0|0:0,0:0:0:0:
232,162,217590,1,8,0:0:0:0:
236,151,217727,1,8,0:0:0:0:
158,119,217863,6,0,P|222:114|305:73,1,130,6|10,0:0|0:0,0:0:0:0:
259,8,218272,1,0,0:0:0:0:
340,25,218409,2,0,P|366:62|368:98,1,65,2|0,0:0|0:0,0:0:0:0:
394,182,218681,2,0,P|356:169|320:134,1,65,10|0,0:0|0:0,0:0:0:0:
243,262,218954,5,2,0:0:0:0:
249,250,219090,1,0,0:0:0:0:
165,235,219227,2,0,P|139:200|129:166,1,65,10|0,0:0|0:0,0:0:0:0:
182,309,219500,1,2,0:1:0:0:
193,384,219636,1,8,0:0:0:0:
258,341,219772,2,0,P|281:347|301:365,1,32.5,8|8,2:0|2:0,0:0:0:0:
323,275,219909,2,0,P|340:288|362:311,1,32.5,8|8,2:0|2:0,0:0:0:0:
403,240,220045,6,0,B|413:274|393:303|393:303|375:330|388:379,1,130,6|10,0:0|0:0,0:0:0:0:
469,332,220454,1,0,0:0:0:0:
465,341,220590,1,2,0:0:0:0:
486,256,220727,2,0,L|491:191,1,65,10|0,0:0|0:0,0:0:0:0:
445,122,220999,1,0,0:0:0:0:
315,132,221136,6,0,B|347:148|377:135|377:135|409:121|441:137,1,130,2|10,0:0|0:0,0:0:0:0:
343,51,221545,1,0,0:0:0:0:
350,62,221681,1,2,0:0:0:0:
271,3,221818,2,0,L|260:67,1,65,10|6,0:0|0:0,0:0:0:0:
301,142,222090,1,0,0:0:0:0:
221,139,222227,6,0,L|66:181,1,130,14|10,0:0|0:0,0:0:0:0:
258,209,222636,1,0,0:0:0:0:
160,297,222772,2,0,P|166:265|179:235,1,65,10|0,0:0|0:0,0:0:0:0:
313,341,223045,2,0,P|313:310|299:266,1,65,10|0,0:0|0:0,0:0:0:0:
381,219,223318,5,8,2:0:0:0:
394,221,223386,1,8,2:0:0:0:
406,223,223454,1,8,2:0:0:0:
465,153,223590,2,0,L|508:146,2,32.5,8|8|8,0:0|0:0|0:0,0:0:0:0:
388,120,223863,5,6,0:0:0:0:
387,104,223931,1,0,0:0:0:0:
385,88,223999,1,0,0:0:0:0:
308,156,224136,2,0,L|295:238,1,65,8|8,0:0|0:0,0:0:0:0:
310,62,224409,6,0,P|262:67|181:121,1,130,6|10,0:0|0:0,0:0:0:0:
142,172,224818,1,0,0:0:0:0:
114,97,224954,2,0,L|106:54,2,32.5
0,111,225227,2,0,P|30:129|56:165,1,65,10|0,0:0|0:0,0:0:0:0:
241,179,225500,6,0,P|199:194|125:180,1,97.5,2|0,0:0|0:0,0:0:0:0:
139,182,225772,1,8,0:0:0:0:
247,165,225909,2,0,L|267:305,1,130,6|8,0:0|0:0,0:0:0:0:
345,227,226318,1,8,0:0:0:0:
343,240,226454,1,8,0:0:0:0:
415,169,226590,6,0,P|377:139|342:126,1,65,6|0,0:0|0:0,0:0:0:0:
281,70,226863,2,0,P|323:46|364:36,1,65,10|0,0:0|0:0,0:0:0:0:
198,108,227136,1,10,0:0:0:0:
196,116,227204,1,0,0:0:0:0:
194,124,227272,1,0,0:0:0:0:
112,78,227409,2,0,L|101:5,1,65,10|0,0:0|0:0,0:0:0:0:
77,204,227681,6,0,P|116:165|131:133,1,65,10|0,0:0|0:0,0:0:0:0:
188,315,227954,2,0,P|162:286|148:244,1,65,10|0,0:0|0:0,0:0:0:0:
335,252,228227,1,10,0:0:0:0:
285,313,228363,1,0,0:0:0:0:
361,329,228499,1,14,0:0:0:0:
338,240,228636,1,0,0:0:0:0:
301,158,228772,6,0,P|268:150|181:157,1,97.5,14|0,0:0|0:0,0:0:0:0:
200,137,229045,2,0,L|208:53,1,65,10|0,0:0|0:0,0:0:0:0:
343,15,229318,1,0,0:0:0:0:
292,73,229454,2,0,P|351:47|416:39,1,130,10|0,0:0|0:0,0:0:0:0:
478,182,229863,6,0,P|486:233|498:258,1,65,14|0,0:0|0:0,0:0:0:0:
305,168,230136,2,0,P|293:208|265:244,1,65,10|0,0:0|0:0,0:0:0:0:
378,370,230409,1,0,0:0:0:0:
393,289,230545,2,0,L|384:209,1,65,10|2,0:0|0:0,0:0:0:0:
389,361,230818,1,0,0:0:0:0:
259,318,230954,6,0,P|229:301|175:290,1,65,14|0,0:0|0:0,0:0:0:0:
68,190,231227,2,0,P|23:161|0:135,1,65,10|0,0:0|0:0,0:0:0:0:
89,294,231499,2,0,P|60:339|54:375,1,65,10|0,0:0|0:0,0:0:0:0:
177,183,231772,2,0,P|198:143|207:108,1,65,10|0,0:0|0:0,0:0:0:0:
254,335,232045,2,0,P|217:316|190:289,1,65,10|0,0:0|0:0,0:0:0:0:
6,163,232318,2,0,P|30:184|59:199,1,65,10|0,0:0|0:0,0:0:0:0:
155,56,232590,5,10,0:0:0:0:
159,45,232727,1,0,0:0:0:0:
68,26,232863,1,10,0:0:0:0:
89,108,232999,1,0,0:0:0:0:
177,142,233136,6,0,P|169:158|165:178,3,32.5,6|0|0|0,0:0|0:0|0:0|0:0,0:0:0:0:
279,177,233409,2,0,P|251:190|235:204,1,32.5,8|8,2:0|2:0,0:0:0:0:
363,255,233545,2,0,P|342:248|315:250,1,32.5,8|8,2:0|2:0,0:0:0:0:
387,359,233681,2,0,P|374:339|356:326,3,32.5,6|0|0|0,0:0|0:0|0:0|0:0,0:0:0:0:
266,327,233954,6,0,P|276:344|307:366,1,32.5,8|8,0:0|0:0,0:0:0:0:
181,304,234091,2,0,P|177:322|177:351,1,32.5,8|8,0:0|0:0,0:0:0:0:
124,247,234227,2,0,P|102:253|82:267,3,32.5,6|0|0|0,0:0|0:0|0:0|0:0,0:0:0:0:
86,173,234500,2,0,P|62:161|50:146,3,32.5,8|8|8|8,0:0|0:0|0:0|0:0,0:0:0:0:
153,113,234772,6,0,P|148:94|137:76,1,32.5,6|0,0:0|0:0,0:0:0:0:
241,116,234909,2,0,P|243:88|236:66,1,32.5
319,146,235045,2,0,P|333:123|338:102,1,32.5,8|8,0:0|0:0,0:0:0:0:
387,195,235181,2,0,P|409:185|427:171,1,32.5,8|8,0:0|0:0,0:0:0:0:
303,239,235318,6,0,L|158:258,1,130,6|0,0:0|0:0,0:0:0:0:
489,64,237500,6,0,L|344:45,1,130,6|8,0:0|2:0,0:0:0:0:
303,239,239682,6,0,L|158:258,1,130,6|8,0:0|2:0,0:0:0:0:
316,121,241318,5,14,0:0:0:0:
347,194,241454,1,0,0:0:0:0:
235,168,241590,5,14,0:0:0:0:
312,114,241727,1,0,0:0:0:0:
274,249,241863,6,0,P|221:253|183:251,1,65,6|0,0:0|0:0,0:0:0:0:
123,246,242136,2,0,P|100:242|74:227,2,32.5,2|0|0,0:0|0:0|0:0,0:0:0:0:
8,120,242409,2,0,P|15:152|26:182,1,65,10|0,0:0|0:0,0:0:0:0:
40,12,242681,2,0,P|22:27|10:47,2,32.5,2|0|0,0:0|0:0|0:0,0:0:0:0:
192,27,242954,2,0,P|147:10|113:7,1,65,2|0,0:0|0:0,0:0:0:0:
268,113,243227,2,0,P|263:87|256:70,2,32.5,2|0|0,0:0|0:0|0:0,0:0:0:0:
288,196,243499,1,10,0:0:0:0:
325,273,243636,1,0,0:0:0:0:
401,310,243772,1,2,0:0:0:0:
480,288,243909,1,0,0:0:0:0:
494,207,244045,6,0,P|480:174|448:136,1,65,6|0,0:0|0:0,0:0:0:0:
356,105,244318,2,0,P|377:109|408:122,2,32.5,2|0|0,0:0|0:0|0:0,0:0:0:0:
210,141,244590,2,0,P|235:126|295:109,1,65,10|0,0:0|0:0,0:0:0:0:
122,222,244863,2,0,P|135:199|151:184,2,32.5,2|0|0,0:0|0:0|0:0,0:0:0:0:
204,352,245136,6,0,P|241:332|268:293,1,65,6|0,0:0|0:0,0:0:0:0:
381,322,245409,2,0,P|358:303|344:282,2,32.5,2|0|0,0:0|0:0|0:0,0:0:0:0:
295,238,245681,1,8,2:0:0:0:
299,227,245749,1,8,2:0:0:0:
301,215,245817,1,8,2:0:0:0:
377,175,245954,2,0,L|363:97,1,65,2|2,0:0|0:0,0:0:0:0:
272,103,246227,6,0,P|219:99|181:101,1,65,6|0,0:0|0:0,0:0:0:0:
121,106,246500,2,0,P|98:110|72:125,2,32.5,2|0|0,0:0|0:0|0:0,0:0:0:0:
6,232,246773,2,0,P|13:200|24:170,1,65,10|0,0:0|0:0,0:0:0:0:
38,340,247045,2,0,P|20:325|8:305,2,32.5,2|0|0,0:0|0:0|0:0,0:0:0:0:
190,325,247318,2,0,P|145:342|111:345,1,65,2|0,0:0|0:0,0:0:0:0:
266,239,247591,2,0,P|261:265|254:282,2,32.5,2|0|0,0:0|0:0|0:0,0:0:0:0:
286,156,247863,1,10,0:0:0:0:
323,79,248000,1,0,0:0:0:0:
399,42,248136,1,2,0:0:0:0:
478,64,248273,1,0,0:0:0:0:
492,145,248409,6,0,P|478:178|446:216,1,65,6|0,0:0|0:0,0:0:0:0:
354,247,248682,2,0,P|375:243|406:230,2,32.5,2|0|0,0:0|0:0|0:0,0:0:0:0:
208,211,248954,2,0,P|233:226|293:243,1,65,10|0,0:0|0:0,0:0:0:0:
120,130,249227,2,0,P|133:153|149:168,2,32.5,2|0|0,0:0|0:0|0:0,0:0:0:0:
66,69,249499,5,8,2:0:0:0:
69,58,249567,1,8,2:0:0:0:
71,46,249635,1,8,2:0:0:0:
34,141,249772,2,0,L|2:154,2,32.5,8|8|8,0:0|0:0|0:0,0:0:0:0:
77,213,250045,1,8,2:0:0:0:
80,224,250113,1,8,2:0:0:0:
82,236,250181,1,8,2:0:0:0:
150,286,250318,2,0,L|182:299,2,32.5,8|8|8,0:0|0:0|0:0,0:0:0:0:
329,267,250590,6,0,P|303:289|250:307,1,65,6|0,0:0|0:0,0:0:0:0:
398,165,250863,2,0,P|392:185|380:203,2,32.5,2|0|0,0:0|0:0|0:0,0:0:0:0:
327,40,251136,2,0,P|365:68|385:105,1,65,10|0,0:0|0:0,0:0:0:0:
212,48,251409,2,0,P|232:36|258:34,2,32.5,2|0|0,0:0|0:0|0:0,0:0:0:0:
117,158,251681,2,0,P|126:127|150:88,1,65,2|0,0:0|0:0,0:0:0:0:
141,266,251954,2,0,P|132:253|122:232,2,32.5,2|0|0,0:0|0:0|0:0,0:0:0:0:
207,311,252227,1,10,0:0:0:0:
293,324,252363,1,0,0:0:0:0:
364,271,252499,1,2,0:0:0:0:
381,189,252636,1,0,0:0:0:0:
355,107,252772,6,0,P|332:84|304:65,1,65,6|0,0:0|0:0,0:0:0:0:
194,76,253045,2,0,P|213:67|244:63,2,32.5,2|0|0,0:0|0:0|0:0,0:0:0:0:
111,194,253318,2,0,P|142:160|152:133,1,65,10|0,0:0|0:0,0:0:0:0:
3,198,253590,2,0,P|23:206|47:207,2,32.5,2|0|0,0:0|0:0|0:0,0:0:0:0:
165,238,253863,6,0,P|121:218|101:196,1,65,6|0,0:0|0:0,0:0:0:0:
276,217,254136,2,0,P|263:226|239:231,2,32.5,2|0|0,0:0|0:0|0:0,0:0:0:0:
311,141,254409,2,0,P|295:129|268:126,1,32.5,10|0,0:0|0:0,0:0:0:0:
393,110,254545,2,0,P|388:83|381:70,1,32.5
473,139,254682,2,0,P|482:111|484:96,1,32.5,2|0,0:0|0:0,0:0:0:0:
485,224,254818,2,0,P|505:220|530:207,1,32.5
468,307,254954,6,0,P|439:317|411:320,2,32.5,6|0|0,0:0|0:0|0:0,0:0:0:0:
330,278,255227,2,0,P|349:297|371:308,2,32.5,2|8|0,0:0|0:0|0:0,0:0:0:0:
250,161,255499,2,0,P|275:180|294:206,1,65,2|0,0:0|0:0,0:0:0:0:
132,141,255772,2,0,P|163:137|185:141,2,32.5,2|8|0,0:0|0:0|0:0,0:0:0:0:
35,242,256045,2,0,P|48:213|70:189,1,65,2|0,0:0|0:0,0:0:0:0:
79,345,256318,2,0,P|56:327|43:312,2,32.5,2|8|0,0:0|0:0|0:0,0:0:0:0:
180,372,256590,1,2,0:0:0:0:
180,372,256659,1,8,0:0:0:0:
180,372,256727,1,0,0:0:0:0:
277,345,256863,1,2,0:0:0:0:
324,274,256999,1,0,0:0:0:0:
316,181,257136,6,0,P|314:164|321:139,2,32.5,6|8|0,0:0|0:0|0:0,0:0:0:0:
373,53,257409,2,0,P|345:69|333:81,2,32.5,2|8|0,0:0|0:0|0:0,0:0:0:0:
503,101,257681,2,0,P|484:75|459:53,1,65,2|0,0:0|0:0,0:0:0:0:
485,209,257954,2,0,P|490:189|490:155,2,32.5,2|8|0,0:0|0:0|0:0,0:0:0:0:
360,265,258227,2,0,P|392:268|423:259,1,65,6|0,0:0|0:0,0:0:0:0:
280,237,258500,1,2,0:0:0:0:
273,231,258568,1,8,0:0:0:0:
270,223,258636,1,0,0:0:0:0:
190,267,258772,6,0,L|178:354,1,65,2|0,0:0|0:0,0:0:0:0:
104,296,259045,1,8,2:0:0:0:
123,224,259181,1,8,2:0:0:0:
195,175,259318,6,0,P|130:171|73:143,1,130,6|2,0:0|0:0,0:0:0:0:
68,132,259659,1,8,0:0:0:0:
71,122,259727,1,0,0:0:0:0:
152,83,259864,2,0,L|142:23,15,32.5,2|8|0|8|2|8|0|8|2|8|0|8|2|8|0|8,0:0|0:0|0:0|0:0|0:0|0:0|0:0|0:0|0:0|0:0|0:0|0:0|0:0|0:0|0:0|0:0,0:0:0:0:
232,95,260954,1,2,0:0:0:0:
237,89,261022,1,8,0:0:0:0:
242,84,261090,1,0,0:0:0:0:
247,77,261158,1,8,0:0:0:0:
253,70,261227,2,0,L|282:36,3,32.5,2|8|0|8,0:0|0:0|0:0|0:0,0:0:0:0:
326,156,261500,6,0,P|282:181|188:186,1,130,2|2,0:0|0:0,0:0:0:0:
199,184,261840,1,8,0:0:0:0:
195,178,261909,1,0,0:0:0:0:
258,269,262045,2,0,L|309:264,7,32.5,2|8|0|8|2|8|0|8,0:0|0:0|0:0|0:0|0:0|0:0|0:0|0:0,0:0:0:0:
179,339,262590,6,0,L|163:249,1,65,6|0,0:0|0:0,0:0:0:0:
86,285,262863,1,8,0:0:0:0:
41,222,262999,1,8,0:0:0:0:
120,213,263136,2,0,L|115:181,3,32.5,8|8|8|8,2:0|2:0|2:0|2:0,0:0:0:0:
193,190,263409,1,8,0:0:0:0:
199,184,263477,1,8,0:0:0:0:
206,179,263545,1,8,0:0:0:0:
213,175,263613,1,8,0:0:0:0:
221,171,263682,6,0,P|266:160|367:166,1,130,6|2,0:0|0:0,0:0:0:0:
357,170,264022,1,8,0:0:0:0:
363,179,264090,1,0,0:0:0:0:
415,114,264227,2,0,L|409:52,7,32.5,2|8|0|8|2|8|0|8,0:0|0:0|0:0|0:0|0:0|0:0|0:0|0:0,0:0:0:0:
325,73,264773,2,0,L|331:31,7,32.5,2|8|0|8|2|8|0|8,0:0|0:0|0:0|0:0|0:0|0:0|0:0|0:0,0:0:0:0:
238,92,265318,5,2,0:0:0:0:
236,85,265386,1,8,0:0:0:0:
234,77,265454,1,0,0:0:0:0:
233,69,265522,1,8,0:0:0:0:
230,60,265591,2,0,L|224:18,3,32.5,2|8|0|8,0:0|0:0|0:0|0:0,0:0:0:0:
142,47,265863,5,2,0:0:0:0:
286,269,266955,5,6,0:0:0:0:
288,261,267023,1,8,0:0:0:0:
289,253,267091,1,0,0:0:0:0:
290,245,267159,1,8,0:0:0:0:
291,236,267228,2,0,L|299:192,3,32.5,2|8|0|8,0:0|0:0|0:0|0:0,0:0:0:0:
216,190,267500,2,0,L|209:144,7,32.5,6|8|0|8|2|8|0|8,0:0|0:0|0:0|0:0|0:0|0:0|0:0|0:0,0:0:0:0:
294,121,268046,5,6,0:0:0:0:
303,123,268114,1,8,0:0:0:0:
311,124,268182,1,0,0:0:0:0:
319,125,268250,1,8,0:0:0:0:
327,126,268319,2,0,L|371:134,3,32.5,2|8|0|8,0:0|0:0|0:0|0:0,0:0:0:0:
237,56,268591,2,0,L|180:61,7,32.5,6|8|0|8|8|8|8|8,0:0|0:0|0:0|0:0|2:3|2:3|2:3|2:3,0:0:0:0:
318,38,269137,5,14,0:0:0:0:
318,38,269410,1,8,0:0:0:0:
201,277,269682,5,8,0:0:0:0:
201,277,269819,1,8,0:0:0:0:
318,38,270091,5,8,0:0:0:0:
318,38,270364,1,8,0:0:0:0:
259,259,271318,5,14,0:0:0:0:
195,214,271455,1,0,0:0:0:0:
267,185,271591,1,0,0:0:0:0:
260,271,271727,2,0,L|239:342,1,65,10|0,0:0|0:0,0:0:0:0:
77,263,272000,1,0,0:0:0:0:
120,197,272136,2,0,L|197:206,1,65,10|0,0:0|0:0,0:0:0:0:
169,364,272409,1,0,0:0:0:0:
92,341,272545,2,0,L|74:263,1,65,8|0,0:0|0:0,0:0:0:0:
39,193,272818,1,0,0:0:0:0:
87,122,272955,5,8,2:0:0:0:
88,109,273023,1,8,2:0:0:0:
90,97,273091,1,8,2:0:0:0:
179,69,273227,2,0,L|189:17,2,32.5,8|8|8,2:0|2:0|2:0,0:0:0:0:
249,135,273500,5,8,0:0:0:0:
