osu file format v14

[General]
AudioFilename: audio.mp3
AudioLeadIn: 0
PreviewTime: 126227
Countdown: 0
SampleSet: Drum
StackLeniency: 0.5
Mode: 0
LetterboxInBreaks: 0
WidescreenStoryboard: 0

[Editor]
Bookmarks: 32409,40045,42227,43045,50955,62682,80409,84773,86955,93500,95682,121864,139318,140409,141773,142591,146955,148045,163318,169864,172045,175864,176409,179682,189500,195500,196045,198227,217864,222227,224409,255227,259318,271318,272955,273500
DistanceSpacing: 0.4
BeatDivisor: 4
GridSize: 4
TimelineZoom: 2.4

[Metadata]
Title:Jikininki
TitleUnicode:Jikininki
Artist:Whispered
ArtistUnicode:Whispered
Creator:MrKosiej
Version:Japanese Ghost
Source:
Tags:english death power itswinter silence player melodic metal Shogunate Macabre LMT mithew Maakkeli Makeli MKL
BeatmapID:1579914
BeatmapSetID:750201

[Difficulty]
HPDrainRate:6.2
CircleSize:4.2
OverallDifficulty:9.2
ApproachRate:9.8
SliderMultiplier:2
SliderTickRate:1

[Events]
//Background and Video events
0,0,"3l9kVQi.jpg",0,0
//Break Periods
2,48018,50476
//Storyboard Layer 0 (Background)
//Storyboard Layer 1 (Fail)
//Storyboard Layer 2 (Pass)
//Storyboard Layer 3 (Foreground)
//Storyboard Layer 4 (Overlay)
//Storyboard Sound Samples

[TimingPoints]
14955,272.727272727273,4,3,1,60,1,0
18636,-66.6666666666667,4,3,1,60,0,0
18977,-66.6666666666667,4,3,1,5,0,0
19045,-66.6666666666667,4,3,1,60,0,0
19318,-100,4,3,1,60,0,0
21500,-100,4,3,1,5,0,0
23136,-200,4,3,10,60,0,0
23614,-200,4,3,1,5,0,0
23682,-100,4,3,1,60,0,0
42636,-100,4,3,8,60,0,0
42909,-100,4,3,1,60,0,0
43455,-100,4,3,8,60,0,0
43727,-100,4,3,9,60,0,0
43864,-100,4,3,1,60,0,0
45500,-50,4,3,1,80,0,0
45705,-50,4,3,1,5,0,0
45773,-100,4,3,1,80,0,0
46318,-50,4,3,1,80,0,0
46523,-50,4,3,1,5,0,0
46591,-100,4,3,1,80,0,0
46864,-50,4,3,1,80,0,0
47068,-50,4,3,1,5,0,0
47136,-50,4,3,1,80,0,0
47341,-50,4,3,1,5,0,0
47409,-50,4,3,1,80,0,0
47614,-50,4,3,1,5,0,0
47682,-100,4,3,1,60,0,0
51500,-100,4,3,8,60,0,0
51773,-100,4,3,9,60,0,0
51909,-100,4,3,10,60,0,0
52045,-100,4,3,1,60,0,0
55113,-100,4,1,1,60,0,0
55181,-100,4,3,1,60,0,0
55386,-100,4,1,1,60,0,0
55454,-100,4,3,1,60,0,0
55659,-100,4,1,1,60,0,0
55727,-100,4,3,1,60,0,0
57568,-100,4,1,1,60,0,0
57636,-100,4,3,1,60,0,0
57841,-100,4,1,1,60,0,0
57909,-100,4,3,1,60,0,0
59682,-100,4,3,8,60,0,0
59818,-100,4,3,1,60,0,0
59955,-100,4,3,9,60,0,0
60091,-100,4,3,1,60,0,0
60227,-100,4,3,10,60,0,0
60364,-100,4,3,1,60,0,0
60500,-100,4,3,10,60,0,0
60636,-100,4,3,1,60,0,0
60773,-200,4,3,1,60,0,0
61795,-200,4,3,1,5,0,0
61864,-200,4,3,1,60,0,0
62886,-200,4,3,1,5,0,0
62955,-133.333333333333,4,3,1,45,0,0
63636,-133.333333333333,4,3,8,45,0,0
64045,-133.333333333333,4,3,1,45,0,0
64182,-133.333333333333,4,3,8,45,0,0
64318,-133.333333333333,4,3,9,45,0,0
64455,-133.333333333333,4,3,8,45,0,0
64592,-133.333333333333,4,3,1,45,0,0
64864,-111.111111111111,4,3,8,60,0,0
65068,-111.111111111111,4,3,1,5,0,0
65136,-100,4,3,1,60,0,0
66773,-100,4,3,8,60,0,0
66909,-100,4,3,1,60,0,0
67045,-100,4,3,9,60,0,0
67182,-100,4,3,10,60,0,0
67318,-133.333333333333,4,3,1,60,0,0
68000,-133.333333333333,4,3,8,45,0,0
68409,-133.333333333333,4,3,1,45,0,0
68545,-133.333333333333,4,3,8,45,0,0
68682,-133.333333333333,4,3,9,45,0,0
68818,-133.333333333333,4,3,8,45,0,0
68955,-133.333333333333,4,3,1,45,0,0
69159,-133.333333333333,4,3,1,5,0,0
69227,-133.333333333333,4,3,1,60,0,0
69432,-133.333333333333,4,3,1,5,0,0
69500,-100,4,3,1,60,0,0
71136,-100,4,3,8,60,0,0
71409,-100,4,3,9,60,0,0
71682,-133.333333333333,4,3,1,60,0,0
72364,-133.333333333333,4,3,8,45,0,0
72773,-133.333333333333,4,3,1,45,0,0
72909,-133.333333333333,4,3,8,45,0,0
73045,-133.333333333333,4,3,9,45,0,0
73181,-133.333333333333,4,3,8,45,0,0
73318,-111.111111111111,4,3,1,45,0,0
73864,-100,4,3,1,60,0,0
75023,-100,4,1,1,60,0,0
75091,-100,4,3,1,60,0,0
75295,-100,4,1,1,60,0,0
75363,-100,4,3,1,60,0,0
75500,-100,4,3,8,60,0,0
75636,-100,4,3,1,60,0,0
75773,-100,4,3,9,60,0,0
75909,-100,4,3,10,60,0,0
76045,-133.333333333333,4,3,1,60,0,0
76182,-133.333333333333,4,3,8,60,0,0
76523,-133.333333333333,4,3,1,20,0,0
76591,-133.333333333333,4,3,1,60,0,0
76795,-133.333333333333,4,3,1,5,0,0
76864,-133.333333333333,4,3,8,60,0,0
77136,-133.333333333333,4,3,1,60,0,0
77341,-133.333333333333,4,3,1,5,0,0
77409,-133.333333333333,4,3,1,60,0,0
77614,-133.333333333333,4,3,1,5,0,0
77682,-133.333333333333,4,3,1,60,0,0
78227,-100,4,3,1,60,0,0
80136,-100,4,3,8,60,0,0
80273,-100,4,3,9,60,0,0
80409,-100,4,3,1,60,0,0
82795,-100,4,3,1,5,0,0
82864,-100,4,3,1,60,0,0
83614,-100,4,3,1,5,0,0
83682,-100,4,3,1,60,0,0
86273,-100,4,3,8,60,0,0
86545,-100,4,3,1,60,0,0
86681,-100,4,3,9,60,0,0
86955,-100,4,3,1,60,0,0
88250,-100,4,3,1,5,0,0
88318,-100,4,3,1,60,0,0
88864,-100,4,3,8,60,0,0
89136,-100,4,3,1,60,0,0
91795,-100,4,3,1,5,0,0
91864,-100,4,3,1,60,0,0
96500,-100,4,3,8,60,0,0
96773,-100,4,3,1,60,0,0
97045,-100,4,3,9,60,0,0
97318,-66.6666666666667,4,3,1,60,0,0
97591,-66.6666666666667,4,3,10,60,0,0
97864,-200,4,3,1,60,0,0
98341,-200,4,3,1,5,0,0
98409,-200,4,3,1,60,0,0
98614,-200,4,3,1,5,0,0
98682,-200,4,3,1,60,0,0
100250,-200,4,3,1,5,0,0
100318,-200,4,3,1,60,0,0
100795,-200,4,3,1,5,0,0
100864,-200,4,3,1,60,0,0
102432,-200,4,3,1,5,0,0
102500,-200,4,3,1,60,0,0
102977,-200,4,3,1,5,0,0
103045,-200,4,3,1,60,0,0
103523,-200,4,3,1,5,0,0
103591,-200,4,3,1,60,0,0
103864,-66.6666666666667,4,3,1,60,0,0
104068,-50,4,3,1,5,0,0
104136,-50,4,3,1,60,0,0
104341,-50,4,3,1,5,0,0
104409,-100,4,3,1,60,0,1
107682,-66.6666666666667,4,3,1,60,0,1
107886,-66.6666666666667,4,3,1,5,0,1
107955,-100,4,3,1,60,0,1
108227,-66.6666666666667,4,3,1,60,0,1
108773,-100,4,3,1,60,0,1
112045,-66.6666666666667,4,3,1,60,0,1
112318,-100,4,3,8,60,0,1
112591,-66.6666666666667,4,3,1,60,0,1
112864,-100,4,3,9,60,0,1
113136,-100,4,3,1,60,0,1
116409,-66.6666666666667,4,3,1,60,0,1
117500,-100,4,3,1,60,0,1
117705,-100,4,3,1,5,0,1
117773,-100,4,3,1,60,0,1
120773,-66.6666666666667,4,3,1,60,0,1
121045,-100,4,3,1,60,0,1
121318,-66.6666666666667,4,3,1,60,0,1
121386,-66.6666666666667,4,3,8,60,0,1
121590,-66.6666666666667,4,3,1,60,0,1
122068,-66.6666666666667,4,3,1,5,0,1
122136,-66.6666666666667,4,3,1,60,0,1
123500,-100,4,3,1,60,0,1
124045,-66.6666666666667,4,3,1,60,0,1
125409,-100,4,3,1,60,0,1
125955,-100,4,3,8,60,0,1
126227,-66.6666666666667,4,3,1,60,0,1
126432,-66.6666666666667,4,3,1,5,0,1
126500,-100,4,3,1,60,0,1
126773,-66.6666666666667,4,3,1,60,0,1
127864,-100,4,3,1,60,0,1
128409,-100,4,3,1,60,0,0
129500,-100,4,3,1,60,0,1
130045,-80,4,3,1,70,0,1
130591,-66.6666666666667,4,3,1,80,0,1
131136,-57.1428571428571,4,3,1,90,0,1
131682,-100,4,3,1,60,0,0
135364,-66.6666666666667,4,3,1,60,0,0
135705,-66.6666666666667,4,3,1,5,0,0
135773,-66.6666666666667,4,3,1,60,0,0
136045,-100,4,3,1,60,0,0
139045,-100,4,3,8,60,0,0
139181,-100,4,3,10,60,0,0
139318,-100,4,3,1,60,0,0
144091,-50,4,3,1,60,0,0
144432,-50,4,3,1,5,0,0
144500,-200,4,3,1,60,0,0
144773,-100,4,3,1,60,0,0
145455,-100,4,1,1,60,0,0
145591,-100,4,3,1,60,0,0
148591,-100,4,3,8,60,0,0
148864,-100,4,3,9,60,0,0
149136,-200,4,3,1,40,0,0
151250,-200,4,3,1,5,0,0
151318,-200,4,3,1,40,0,0
155045,-200,4,3,1,5,0,0
155136,-200,4,3,1,40,0,0
155682,-133.333333333333,4,3,10,40,0,0
155864,-133.333333333333,4,3,1,5,0,0
155955,-133.333333333333,4,3,1,15,0,0
156023,-133.333333333333,4,3,1,20,0,0
156091,-133.333333333333,4,3,1,25,0,0
156159,-133.333333333333,4,3,1,30,0,0
156227,-133.333333333333,4,3,10,40,0,0
156500,-133.333333333333,4,3,1,5,0,0
156591,-133.333333333333,4,3,1,40,0,0
156773,-133.333333333333,4,3,10,40,0,0
157318,-133.333333333333,4,3,1,40,0,0
157773,-133.333333333333,4,3,1,5,0,0
157864,-133.333333333333,4,3,1,40,0,0
158864,-133.333333333333,4,3,1,5,0,0
158955,-133.333333333333,4,3,1,40,0,0
159955,-133.333333333333,4,3,1,5,0,0
160045,-133.333333333333,4,3,1,40,0,0
167317,-133.333333333333,4,3,8,40,0,0
167499,-133.333333333333,4,3,10,40,0,0
167682,-133.333333333333,4,3,1,40,0,0
180408,-133.333333333333,4,3,8,40,0,0
180590,-133.333333333333,4,3,9,40,0,0
180773,-100,4,3,1,60,0,1
181864,-100,4,3,1,60,0,1
189136,-100,4,3,8,60,0,1
189318,-100,4,3,9,60,0,1
189500,-100,4,3,1,60,0,1
192864,-100,4,3,1,5,0,1
192955,-100,4,3,1,60,0,1
193227,-100,4,3,1,5,0,1
193318,-100,4,3,1,60,0,1
200000,-100,4,3,8,60,0,1
200136,-100,4,3,1,60,0,1
200409,-66.6666666666667,4,3,1,60,0,0
200886,-66.6666666666667,4,3,1,5,0,0
200955,-133.333333333333,4,3,1,60,0,0
201159,-133.333333333333,4,1,1,5,0,0
201227,-133.333333333333,4,3,1,60,0,0
201500,-133.333333333333,4,3,1,45,0,0
201636,-133.333333333333,4,3,8,45,0,0
201773,-133.333333333333,4,3,9,45,0,0
201909,-133.333333333333,4,3,8,45,0,0
202045,-133.333333333333,4,3,1,45,0,0
202250,-133.333333333333,4,3,1,5,0,0
202318,-133.333333333333,4,3,8,60,0,0
202523,-133.333333333333,4,3,1,5,0,0
202591,-100,4,3,1,60,0,0
204227,-100,4,3,8,60,0,0
204500,-100,4,3,9,60,0,0
204773,-133.333333333333,4,3,1,60,0,0
205250,-133.333333333333,4,1,1,5,0,0
205318,-133.333333333333,4,3,1,60,0,0
205454,-133.333333333333,4,3,8,45,0,0
205864,-133.333333333333,4,3,1,45,0,0
206000,-133.333333333333,4,3,8,45,0,0
206136,-133.333333333333,4,3,9,45,0,0
206341,-133.333333333333,4,1,9,5,0,0
206409,-133.333333333333,4,3,1,45,0,0
206614,-133.333333333333,4,1,1,5,0,0
206682,-133.333333333333,4,3,8,60,0,0
206886,-133.333333333333,4,3,1,5,0,0
206955,-100,4,3,1,60,0,0
208591,-100,4,3,8,60,0,0
208864,-100,4,3,9,60,0,0
209136,-133.333333333333,4,3,1,60,0,0
209818,-133.333333333333,4,3,8,45,0,0
210227,-133.333333333333,4,3,1,45,0,0
210363,-133.333333333333,4,3,8,45,0,0
210500,-133.333333333333,4,3,9,45,0,0
210636,-133.333333333333,4,3,8,45,0,0
210773,-111.111111111111,4,3,1,60,0,0
211046,-111.111111111111,4,3,8,60,0,0
211318,-100,4,3,1,60,0,0
212955,-100,4,3,9,60,0,0
213363,-100,4,3,10,60,0,0
213500,-133.333333333333,4,3,1,60,0,0
213705,-133.333333333333,4,1,1,5,0,0
213773,-133.333333333333,4,3,1,60,0,0
213977,-133.333333333333,4,1,1,5,0,0
214045,-133.333333333333,4,3,1,60,0,0
214250,-133.333333333333,4,1,1,5,0,0
214318,-133.333333333333,4,3,1,60,0,0
214591,-133.333333333333,4,3,1,45,0,0
214795,-133.333333333333,4,1,1,5,0,0
214864,-133.333333333333,4,3,9,45,0,0
215068,-133.333333333333,4,1,9,5,0,0
215136,-133.333333333333,4,3,1,60,0,0
215682,-100,4,3,1,60,0,0
216977,-100,4,3,1,5,0,0
217045,-100,4,3,1,60,0,0
217591,-100,4,3,8,60,0,0
217864,-100,4,3,1,60,0,0
219636,-100,4,3,8,60,0,0
219773,-100,4,3,1,60,0,0
221341,-100,4,3,1,5,0,0
221409,-100,4,3,1,60,0,0
223591,-100,4,3,8,60,0,0
223864,-100,4,3,1,60,0,0
224137,-100,4,3,9,60,0,0
224409,-100,4,3,1,60,0,0
226181,-100,4,3,8,60,0,0
226591,-100,4,3,1,60,0,0
230068,-100,4,3,1,5,0,0
230136,-100,4,3,1,60,0,0
230477,-100,4,3,1,5,0,0
230545,-100,4,3,1,60,0,0
230886,-100,4,3,1,5,0,0
230955,-100,4,3,1,60,0,0
233955,-100,4,3,8,60,0,0
234227,-100,4,3,1,60,0,0
234500,-100,4,3,9,60,0,0
234773,-66.6666666666667,4,3,1,60,0,0
235045,-66.6666666666667,4,3,10,60,0,0
235318,-200,4,3,1,60,0,0
235795,-200,4,3,1,5,0,0
235864,-200,4,3,1,60,0,0
236068,-200,4,3,1,5,0,0
236136,-200,4,3,1,60,0,0
237705,-200,4,3,1,5,0,0
237773,-200,4,3,1,60,0,0
238250,-200,4,3,1,5,0,0
238318,-200,4,3,1,60,0,0
238591,-200,4,3,1,60,0,0
239682,-200,4,3,1,60,0,0
239886,-200,4,3,1,5,0,0
239955,-200,4,3,1,60,0,0
240432,-200,4,3,1,5,0,0
240500,-200,4,3,1,60,0,0
240977,-200,4,3,1,5,0,0
241045,-200,4,3,1,60,0,0
241250,-200,4,1,1,5,0,0
241318,-74.0740740740741,4,3,1,60,0,0
241523,-74.0740740740741,4,3,1,5,0,0
241591,-74.0740740740741,4,3,1,60,0,0
241795,-74.0740740740741,4,3,1,5,0,0
241864,-100,4,3,1,60,0,1
245136,-66.6666666666667,4,3,1,60,0,1
245409,-80,4,3,1,60,0,1
245682,-66.6666666666667,4,3,1,60,0,1
246227,-100,4,3,1,60,0,1
249500,-66.6666666666667,4,3,1,60,0,1
249773,-80,4,3,8,60,0,1
250045,-80,4,3,1,60,0,1
250318,-80,4,3,9,60,0,1
250591,-100,4,3,1,60,0,1
253864,-66.6666666666667,4,3,1,60,0,1
254955,-100,4,3,1,60,0,1
258227,-66.6666666666667,4,3,1,60,0,1
259523,-66.6666666666667,4,3,1,5,0,1
259591,-66.6666666666667,4,3,1,60,0,1
262864,-66.6666666666667,4,3,8,60,0,1
263136,-66.6666666666667,4,3,1,60,0,1
263408,-66.6666666666667,4,3,9,60,0,1
263682,-66.6666666666667,4,3,1,60,0,1
263886,-66.6666666666667,4,3,1,5,0,1
263955,-66.6666666666667,4,3,1,60,0,1
265864,-100,4,3,1,60,0,0
266955,-100,4,3,1,60,0,1
267500,-80,4,3,1,70,0,1
268045,-66.6666666666667,4,3,1,80,0,1
268591,-57.1428571428571,4,3,1,90,0,1
269136,-100,4,3,1,60,0,0
272545,-100,4,3,10,60,0,0
272682,-100,4,3,1,60,0,0
273499,-100,4,3,10,60,0,0

[Colours]
Combo1 : 201,158,133
Combo2 : 162,162,162
Combo3 : 164,111,87
Combo4 : 201,201,201

[HitObjects]
122,81,14955,6,0,L|105:190,1,100,8|0,0:0|0:0,0:0:0:0:
411,346,15227,2,0,L|395:247,1,100,8|0,0:0|0:0,0:0:0:0:
158,94,15500,21,8,0:0:0:0:
427,244,15636,2,0,L|411:145,1,100,8|0,0:0|0:0,0:0:0:0:
78,165,15909,22,0,L|61:274,1,100,8|0,0:0|0:0,0:0:0:0:
445,134,16182,1,8,0:0:0:0:
243,126,18227,5,2,0:2:0:0:
199,168,18364,1,2,0:2:0:0:
256,185,18500,1,2,0:2:0:0:
233,67,18636,2,0,B|242:114|242:114|251:125|251:125|246:136|246:136|257:187|257:187|242:225|242:225|259:259|252:293|252:293|274:278|300:282|300:282|337:181|337:181,1,375.000014305115,2|0,0:2|0:0,0:0:0:0:
422,178,19045,1,8,2:3:0:0:
409,213,19113,1,0,0:3:0:0:
396,248,19181,1,0,0:3:0:0:
383,283,19249,1,0,0:3:0:0:
393,333,19318,6,0,L|429:231,1,100,8|0,0:0|0:0,0:0:0:0:
64,58,19591,2,0,L|97:152,1,100,8|0,0:0|0:0,0:0:0:0:
383,283,19864,21,8,0:0:0:0:
52,117,20000,2,0,L|85:211,1,100,8|0,0:0|0:0,0:0:0:0:
371,230,20273,22,0,L|407:128,1,100,8|0,0:0|0:0,0:0:0:0:
39,175,20545,1,8,0:0:0:0:
256,192,21500,12,0,23000,0:0:0:0:
39,175,23136,6,0,P|51:245|110:183,1,175,8|0,2:3|0:0,0:0:0:0:
113,153,23682,6,0,P|140:204|180:220,1,100,14|0,0:0|0:0,0:0:0:0:
133,71,23955,2,0,P|72:79|41:111,1,100,10|0,0:0|0:0,0:0:0:0:
193,134,24227,1,10,0:0:0:0:
71,0,24364,1,0,0:0:0:0:
39,175,24500,1,10,0:0:0:0:
273,193,24636,6,0,L|160:223,1,100,0|10,0:0|0:0,0:0:0:0:
259,74,24909,1,0,0:0:0:0:
333,262,25045,2,0,L|220:292,1,100,10|0,0:0|0:0,0:0:0:0:
331,125,25318,5,10,0:0:0:0:
417,330,25455,1,0,0:0:0:0:
419,57,25591,21,10,0:0:0:0:
333,262,25728,1,0,0:0:0:0:
184,9,25864,6,0,L|229:120,1,100,10|0,0:0|0:0,0:0:0:0:
326,357,26136,1,10,0:0:0:0:
326,357,26273,1,0,0:0:0:0:
91,0,26409,6,0,L|136:111,1,100,10|0,0:0|0:0,0:0:0:0:
222,323,26681,1,10,0:0:0:0:
222,323,26818,1,0,0:0:0:0:
0,0,26955,6,0,L|45:111,1,100,10|0,0:0|0:0,0:0:0:0:
120,290,27227,2,0,L|82:197,1,100,10|0,0:0|0:0,0:0:0:0:
37,92,27500,1,10,0:0:0:0:
176,209,27636,1,0,0:0:0:0:
128,92,27773,1,10,0:0:0:0:
82,197,27909,1,0,0:0:0:0:
279,221,28045,6,0,P|264:158|283:111,1,100,14|0,0:0|0:0,0:0:0:0:
429,118,28318,2,0,P|381:162|331:169,1,100,10|0,0:0|0:0,0:0:0:0:
344,77,28591,1,10,0:0:0:0:
451,244,28727,1,0,0:0:0:0:
273,125,28864,1,10,0:0:0:0:
423,22,29000,6,0,P|438:84|419:132,1,100,0|10,0:0|0:0,0:0:0:0:
279,221,29273,1,0,0:0:0:0:
448,20,29409,6,0,P|463:82|444:130,1,100,10|0,0:0|0:0,0:0:0:0:
269,240,29682,1,10,0:0:0:0:
266,108,29818,1,0,0:0:0:0:
340,303,29955,21,10,0:0:0:0:
206,177,30091,1,0,0:0:0:0:
335,36,30227,6,0,L|351:148,1,100,10|0,0:0|0:0,0:0:0:0:
512,286,30500,1,10,0:0:0:0:
512,286,30636,1,0,0:0:0:0:
253,8,30773,6,0,L|267:118,1,100,10|0,0:0|0:0,0:0:0:0:
431,266,31046,1,10,0:0:0:0:
431,266,31182,1,0,0:0:0:0:
174,36,31318,6,0,L|181:97,1,50,10|0,0:0|0:0,0:0:0:0:
116,94,31455,2,0,L|153:142,1,50,10|0,0:0|0:0,0:0:0:0:
97,171,31591,2,0,L|153:195,1,50,10|0,0:0|0:0,0:0:0:0:
120,250,31727,2,0,L|181:242,1,50,10|0,0:0|0:0,0:0:0:0:
167,369,31864,6,0,L|134:300,1,50,10|0,0:0|0:0,0:0:0:0:
20,72,32000,2,0,L|41:117,1,50,10|0,0:0|0:0,0:0:0:0:
153,374,32136,22,0,L|120:305,1,50,10|0,0:0|0:0,0:0:0:0:
6,77,32272,2,0,L|27:122,1,50,10|0,0:0|0:0,0:0:0:0:
230,186,32409,6,0,P|278:195|325:179,1,100,14|0,0:0|0:0,0:0:0:0:
264,0,32682,2,0,P|254:48|271:94,1,100,10|0,0:0|0:0,0:0:0:0:
366,250,32955,5,10,0:0:0:0:
197,265,33091,1,0,0:0:0:0:
271,94,33227,1,10,0:0:0:0:
325,179,33364,6,0,P|278:196|230:186,1,100,0|10,0:0|0:0,0:0:0:0:
190,31,33636,1,0,0:0:0:0:
324,204,33773,6,0,P|277:221|229:211,1,100,10|0,0:0|0:0,0:0:0:0:
189,56,34045,1,10,0:0:0:0:
269,113,34182,1,0,0:0:0:0:
170,146,34318,21,10,0:0:0:0:
366,78,34455,1,0,0:0:0:0:
298,289,34591,6,0,L|262:403,1,100,10|0,0:0|0:0,0:0:0:0:
0,317,34864,1,10,0:0:0:0:
0,317,35000,1,0,0:0:0:0:
411,276,35136,6,0,L|375:390,1,100,10|0,0:0|0:0,0:0:0:0:
101,307,35409,1,10,0:0:0:0:
101,307,35545,1,0,0:0:0:0:
512,256,35682,6,0,L|476:370,1,100,10|0,0:0|0:0,0:0:0:0:
298,289,35955,2,0,L|328:193,1,100,10|0,0:0|0:0,0:0:0:0:
461,106,36227,1,10,0:0:0:0:
411,276,36364,1,0,0:0:0:0:
378,23,36500,1,10,0:0:0:0:
512,256,36637,1,0,0:0:0:0:
278,112,36773,6,0,P|226:142|170:132,1,100,14|0,0:0|0:0,0:0:0:0:
146,0,37045,2,0,P|197:30|217:83,1,100,10|0,0:0|0:0,0:0:0:0:
137,82,37318,1,10,0:0:0:0:
289,33,37455,1,0,0:0:0:0:
265,206,37591,1,10,0:0:0:0:
41,110,37727,6,0,L|153:77,1,100,0|10,0:0|0:0,0:0:0:0:
278,112,38000,1,0,0:0:0:0:
0,195,38136,2,0,L|112:162,1,100,10|0,0:0|0:0,0:0:0:0:
289,32,38409,5,10,0:0:0:0:
265,206,38545,1,0,0:0:0:0:
278,112,38682,21,10,0:0:0:0:
300,290,38818,1,0,0:0:0:0:
366,78,38955,6,0,L|351:193,1,100,10|0,0:0|0:0,0:0:0:0:
266,379,39227,1,10,0:0:0:0:
266,379,39364,1,0,0:0:0:0:
458,70,39500,6,0,L|443:185,1,100,10|0,0:0|0:0,0:0:0:0:
358,371,39772,1,10,0:0:0:0:
358,371,39909,1,10,0:0:0:0:
184,54,40045,6,0,L|159:10,3,50,14|0|0|0,0:1|0:0|0:0|0:0,0:0:0:0:
267,72,40318,1,10,0:0:0:0:
128,126,40455,6,0,L|102:81,3,50,6|0|0|0,0:2|0:0|0:0|0:0,0:0:0:0:
198,141,40728,1,10,0:0:0:0:
374,133,40864,6,0,L|399:88,3,50,6|0|0|0,0:0|0:0|0:0|0:0,0:0:0:0:
352,173,41137,1,0,0:0:0:0:
430,191,41273,6,0,L|455:146,3,50,14|0|0|0,0:0|0:0|0:0|0:0,0:0:0:0:
421,208,41545,1,0,0:0:0:0:
502,225,41682,5,4,0:2:0:0:
489,246,41750,1,0,0:0:0:0:
477,268,41818,1,0,0:0:0:0:
465,290,41886,1,0,0:0:0:0:
454,313,41955,5,4,0:2:0:0:
425,288,42023,1,0,0:0:0:0:
389,278,42091,1,0,0:0:0:0:
353,284,42159,1,0,0:0:0:0:
320,304,42227,6,0,L|281:253,2,50,8|8|8,2:0|2:0|2:0,0:0:0:0:
382,384,42500,1,0,0:0:0:0:
187,270,42636,6,0,L|148:219,2,50,8|8|8,0:0|0:0|0:0,0:0:0:0:
277,384,42909,1,0,0:0:0:0:
59,244,43045,6,0,L|-10:151,2,100,6|8|0,0:0|0:0|0:0,0:0:0:0:
164,381,43455,1,8,0:0:0:0:
110,170,43591,1,8,0:0:0:0:
112,315,43727,1,8,0:0:0:0:
179,120,43864,6,0,P|196:175|178:224,1,100,6|0,0:0|0:0,0:0:0:0:
101,88,44136,2,0,P|140:45|191:36,1,100,6|0,0:0|0:0,0:0:0:0:
302,49,44409,5,6,0:2:0:0:
283,65,44477,1,8,0:0:0:0:
274,88,44545,1,2,0:2:0:0:
276,113,44613,1,8,0:0:0:0:
290,134,44682,2,0,L|330:100,1,50,2|8,0:2|0:0,0:0:0:0:
403,115,44818,5,2,0:2:0:0:
421,131,44886,1,8,0:0:0:0:
430,154,44954,1,2,0:2:0:0:
428,179,45022,1,8,0:0:0:0:
415,200,45091,2,0,L|375:166,1,50,2|8,0:2|0:0,0:0:0:0:
214,236,45227,6,0,L|252:268,1,50,2|8,0:2|0:0,0:0:0:0:
436,325,45364,2,0,L|397:292,1,50,2|8,0:2|0:0,0:0:0:0:
139,68,45500,6,0,B|122:85|85:86|85:86|99:119|89:145|89:145|122:155|139:182|139:182|162:152|212:142|212:142|183:117,1,300,14|0,0:0|0:0,0:0:0:0:
18,121,45773,1,6,0:0:0:0:
14,139,45841,1,0,0:0:0:0:
15,158,45909,1,0,0:0:0:0:
20,176,45977,1,0,0:0:0:0:
26,194,46045,1,2,0:0:0:0:
32,211,46113,1,0,0:0:0:0:
36,230,46182,1,0,0:0:0:0:
38,248,46250,1,0,0:0:0:0:
51,269,46318,6,0,B|68:286|105:287|105:287|93:319|101:346|101:346|68:356|51:383|51:383|28:353|-20:351|-20:351|13:320,1,300,14|0,0:0|0:0,0:0:0:0:
171,322,46591,1,2,0:0:0:0:
195,321,46659,1,0,0:0:0:0:
220,320,46727,1,0,0:0:0:0:
245,319,46795,1,0,0:0:0:0:
278,280,46864,6,0,B|238:319|290:352|290:352|346:323|405:353|405:353|440:318|440:318|397:319,1,300,14|0,0:0|0:0,0:0:0:0:
276,269,47136,6,0,B|236:308|288:341|288:341|344:312|403:342|403:342|438:307|438:307|395:308,1,300,14|0,0:0|0:0,0:0:0:0:
274,258,47409,6,0,B|234:297|286:330|286:330|342:301|401:331|401:331|436:296|436:296|393:297,1,300,14|0,0:0|0:0,0:0:0:0:
273,250,47682,5,8,2:3:0:0:
509,342,47818,1,8,2:3:0:0:
406,165,50955,5,8,2:0:0:0:
412,148,51023,1,8,2:0:0:0:
418,132,51091,1,8,2:0:0:0:
322,161,51227,5,8,2:0:0:0:
315,144,51295,1,8,2:0:0:0:
309,128,51363,1,8,2:0:0:0:
439,255,51500,6,0,L|499:233,1,50,8|8,0:0|0:0,0:0:0:0:
273,241,51636,2,0,L|226:223,1,50,8|8,0:0|0:0,0:0:0:0:
429,292,51773,2,0,L|475:274,1,50,8|8,0:0|0:0,0:0:0:0:
279,276,51909,2,0,L|232:258,1,50,8|8,0:0|0:0,0:0:0:0:
512,290,52045,6,0,L|420:329,1,100,6|8,0:0|0:0,0:0:0:0:
193,277,52318,2,0,L|286:316,1,100,2|8,0:0|0:0,0:0:0:0:
162,196,52591,1,2,0:0:0:0:
224,384,52727,1,8,0:0:0:0:
247,144,52864,1,2,0:0:0:0:
279,276,53000,5,8,0:0:0:0:
45,173,53136,2,0,L|-16:144,2,50,2|0|8,0:0|0:0|0:0,0:0:0:0:
379,321,53409,2,0,L|442:349,2,50,2|0|8,0:0|0:0|0:0,0:0:0:0:
162,196,53682,5,2,0:0:0:0:
164,96,53818,1,8,0:0:0:0:
336,99,53955,21,2,0:0:0:0:
247,144,54091,1,8,0:0:0:0:
248,51,54227,6,0,L|333:0,1,100,2|8,0:0|0:0,0:0:0:0:
247,144,54500,2,0,L|161:195,1,100,2|8,0:0|0:0,0:0:0:0:
336,99,54773,1,2,0:0:0:0:
164,96,54909,1,8,0:0:0:0:
356,205,55045,6,0,L|404:231,2,50,2|0|8,0:0|0:0|0:0,0:0:0:0:
179,308,55318,1,2,0:0:0:0:
157,319,55386,1,0,0:0:0:0:
135,331,55454,1,8,0:0:0:0:
444,154,55591,2,0,L|487:130,2,50,2|0|8,0:0|0:0|0:0,0:0:0:0:
269,255,55864,5,2,0:0:0:0:
399,328,56000,1,8,0:0:0:0:
356,205,56136,21,2,0:0:0:0:
309,362,56272,1,8,0:0:0:0:
34,297,56409,6,0,L|146:234,1,100,2|8,0:0|0:0,0:0:0:0:
354,119,56682,2,0,L|266:168,1,100,2|8,0:0|0:0,0:0:0:0:
91,368,56955,1,2,0:0:0:0:
67,178,57091,1,8,0:0:0:0:
121,247,57227,1,2,0:0:0:0:
10,107,57364,5,8,0:0:0:0:
185,326,57500,2,0,L|226:378,2,50,2|0|8,0:0|0:0|0:0,0:0:0:0:
266,168,57773,2,0,L|289:118,2,50,2|0|8,0:0|0:0|0:0,0:0:0:0:
227,245,58045,5,2,0:0:0:0:
206,95,58182,1,8,0:0:0:0:
185,326,58318,21,2,0:0:0:0:
266,168,58455,1,8,0:0:0:0:
301,325,58591,6,0,L|353:223,1,100,2|8,0:0|0:0,0:0:0:0:
469,0,58864,2,0,L|423:89,1,100,2|8,0:0|0:0,0:0:0:0:
424,308,59136,1,0,0:0:0:0:
266,168,59273,5,12,2:0:0:0:
246,194,59341,1,8,2:0:0:0:
220,215,59409,1,8,2:0:0:0:
189,227,59477,1,8,2:0:0:0:
156,230,59545,1,0,0:0:0:0:
123,224,59613,1,0,0:0:0:0:
95,202,59682,5,8,0:0:0:0:
101,226,59750,1,8,0:0:0:0:
108,250,59818,1,0,0:0:0:0:
115,274,59886,1,0,0:0:0:0:
145,293,59955,5,8,0:0:0:0:
138,317,60023,1,8,0:0:0:0:
131,341,60091,1,0,0:0:0:0:
124,365,60159,1,0,0:0:0:0:
154,382,60227,6,0,L|212:371,1,50,8|8,0:0|0:0,0:0:0:0:
424,308,60364,2,0,L|366:297,1,50
220,215,60500,22,0,L|231:273,1,50,8|8,0:0|0:0,0:0:0:0:
288,384,60636,2,0,L|299:326,1,50
395,119,60773,6,0,P|289:27|330:161,1,375,14|0,0:0|0:0,0:0:0:0:
187,147,61864,2,0,B|167:81|191:24|191:24|149:102|43:94|43:94|122:123,1,375,6|0,0:0|0:0,0:0:0:0:
53,180,62955,6,0,L|125:205,1,75.0000028610231,6|8,0:0|0:0,0:0:0:0:
52,304,63227,1,2,0:0:0:0:
87,316,63364,1,2,0:0:0:0:
157,308,63500,2,0,L|85:283,1,75.0000028610231,2|8,0:0|0:0,0:0:0:0:
233,269,63773,2,0,P|242:325|223:363,1,75.0000028610231,8|8,0:0|0:0,0:0:0:0:
335,191,64045,5,2,0:0:0:0:
332,265,64182,2,0,L|335:191,1,75.0000028610231,8|8,0:0|0:0,0:0:0:0:
416,143,64455,1,8,0:0:0:0:
419,218,64592,2,0,L|416:143,1,75.0000028610231,2|0,0:0|0:0,0:0:0:0:
436,85,64864,2,0,L|417:235,1,134.999995880127,8|0,0:0|0:0,0:0:0:0:
436,309,65136,6,0,L|453:365,2,50,10|0|0,0:0|0:0|0:0,0:0:0:0:
356,48,65409,1,10,0:0:0:0:
348,24,65477,1,0,0:0:0:0:
340,0,65545,1,0,0:0:0:0:
408,309,65682,6,0,L|425:365,2,50,10|0|0,0:0|0:0|0:0,0:0:0:0:
327,47,65955,1,10,0:0:0:0:
319,23,66023,1,0,0:0:0:0:
311,0,66091,1,0,0:0:0:0:
379,309,66227,6,0,L|396:365,2,50,10|0|0,0:0|0:0|0:0,0:0:0:0:
298,47,66500,1,10,0:0:0:0:
290,23,66568,1,0,0:0:0:0:
282,0,66636,1,0,0:0:0:0:
249,349,66773,6,0,L|245:299,1,50,8|8,0:0|0:0,0:0:0:0:
391,114,66909,2,0,L|387:163,1,50,8|8,2:0|2:0,0:0:0:0:
279,327,67045,6,0,L|275:277,1,50,8|8,0:0|0:0,0:0:0:0:
419,136,67182,2,0,L|415:185,1,50,8|8,0:0|0:0,0:0:0:0:
131,198,67318,6,0,P|179:214|218:201,1,75.0000028610231,6|8,0:0|0:0,0:0:0:0:
29,95,67591,1,2,0:0:0:0:
22,131,67727,1,2,0:0:0:0:
32,197,67864,2,0,L|49:124,1,75.0000028610231,2|8,0:0|0:0,0:0:0:0:
155,52,68136,2,0,L|171:125,1,75.0000028610231,8|8,0:0|0:0,0:0:0:0:
272,221,68409,5,2,0:0:0:0:
248,146,68545,1,8,0:0:0:0:
201,209,68682,2,0,P|234:224|271:220,1,75.0000028610231,8|8,0:0|0:0,0:0:0:0:
345,126,68955,2,0,P|333:167|370:227,1,112.500004291535,2|0,0:0|0:0,0:0:0:0:
385,218,69227,2,0,P|353:173|364:119,1,112.500004291535,2|0,0:0|0:0,0:0:0:0:
429,158,69500,6,0,L|475:124,2,50,10|0|0,0:0|0:0|0:0,0:0:0:0:
171,354,69773,1,10,0:0:0:0:
151,369,69841,1,0,0:0:0:0:
131,384,69909,1,0,0:0:0:0:
403,138,70045,6,0,L|445:105,2,50,10|0|0,0:0|0:0|0:0,0:0:0:0:
143,336,70318,1,10,0:0:0:0:
123,351,70386,1,0,0:0:0:0:
103,366,70454,1,0,0:0:0:0:
380,118,70591,6,0,L|422:85,2,50,10|0|0,0:0|0:0|0:0,0:0:0:0:
121,319,70864,1,10,0:0:0:0:
101,334,70932,1,0,0:0:0:0:
81,349,71000,1,0,0:0:0:0:
205,39,71136,5,8,0:0:0:0:
206,63,71204,1,8,0:0:0:0:
208,88,71272,1,8,0:0:0:0:
209,113,71340,1,8,0:0:0:0:
233,139,71409,5,8,0:0:0:0:
231,163,71477,1,8,0:0:0:0:
229,188,71545,1,8,0:0:0:0:
228,213,71613,1,8,0:0:0:0:
252,242,71682,6,0,L|257:160,1,75.0000028610231,6|8,0:0|0:0,0:0:0:0:
351,125,71955,1,2,0:0:0:0:
347,199,72091,1,2,0:0:0:0:
137,292,72227,1,2,0:0:0:0:
132,217,72364,2,0,L|137:292,1,75.0000028610231,8|8,0:0|0:0,0:0:0:0:
186,347,72636,1,8,0:0:0:0:
0,274,72773,6,0,B|-3:232|-3:232|24:205,1,75.0000028610231,2|8,0:0|0:0,0:0:0:0:
66,258,73045,2,0,B|31:281|31:281|-5:271,1,75.0000028610231,8|8,0:0|0:0,0:0:0:0:
37,130,73318,6,0,B|36:82|36:82|72:52,1,89.9999972534181,2|0,0:0|0:0,0:0:0:0:
118,121,73591,2,0,B|77:145|77:145|33:129,1,89.9999972534181,2|0,0:0|0:0,0:0:0:0:
209,39,73864,6,0,L|193:164,1,100,2|8,0:0|0:0,0:0:0:0:
386,87,74136,2,0,B|335:58|335:58|277:75,1,100,2|8,0:0|0:0,0:0:0:0:
435,155,74409,5,2,0:0:0:0:
419,12,74545,1,8,0:0:0:0:
400,244,74682,21,2,0:0:0:0:
466,77,74818,1,8,0:0:0:0:
456,321,74955,6,0,L|491:368,2,50,2|0|8,0:0|0:0|0:0,0:0:0:0:
296,103,75227,2,0,L|266:62,2,50,2|0|8,0:0|0:0|0:0,0:0:0:0:
400,244,75500,6,0,L|364:195,1,50,8|8,0:0|0:0,0:0:0:0:
236,22,75636,2,0,L|265:62,1,50,8|8,2:0|2:0,0:0:0:0:
453,153,75773,6,0,L|417:104,1,50,8|8,0:0|0:0,0:0:0:0:
212,174,75909,2,0,L|241:214,1,50,8|8,0:0|0:0,0:0:0:0:
404,382,76045,5,6,0:0:0:0:
400,244,76182,2,0,P|451:338|401:384,1,187.500007152558,8|0,0:0|0:0,0:0:0:0:
298,374,76591,2,0,P|349:362|413:391,1,112.500004291535,2|0,0:0|0:0,0:0:0:0:
338,289,76864,2,0,P|322:245|339:192,1,75.0000028610231,8|8,0:0|0:0,0:0:0:0:
475,123,77136,6,0,P|435:152|357:144,1,112.500004291535,2|0,2:3|0:0,0:0:0:0:
188,175,77409,2,0,P|228:146|306:154,1,112.500004291535,2|0,0:0|0:0,0:0:0:0:
405,63,77682,5,10,0:0:0:0:
400,244,77818,1,0,0:0:0:0:
373,152,77955,21,10,0:0:0:0:
426,343,78091,1,0,0:0:0:0:
188,175,78227,6,0,L|130:132,2,50,6|0|0,0:0|0:0|0:0,0:0:0:0:
261,233,78500,1,10,0:0:0:0:
261,233,78636,1,0,0:0:0:0:
276,77,78773,6,0,L|284:5,2,50,2|0|0,0:0|0:0|0:0,0:0:0:0:
253,327,79046,1,10,0:0:0:0:
253,327,79182,1,0,0:0:0:0:
367,122,79318,6,0,P|356:179|369:222,1,100,2|0,0:1|0:0,0:0:0:0:
463,173,79591,1,10,0:0:0:0:
164,26,79727,2,0,B|116:96|202:155|144:230,1,200,6|0,0:0|0:0,0:0:0:0:
144,336,80136,2,0,L|118:277,1,50,8|8,0:0|0:0,0:0:0:0:
71,168,80273,2,0,L|50:213,1,50,8|8,0:0|0:0,0:0:0:0:
253,327,80409,6,0,P|316:317|358:330,1,100,6|0,0:0|0:0,0:0:0:0:
382,234,80682,1,10,0:0:0:0:
427,384,80818,1,0,0:0:0:0:
279,224,80955,5,2,0:0:0:0:
350,326,81091,1,0,0:0:0:0:
415,137,81227,1,10,0:0:0:0:
181,231,81364,6,0,L|251:326,1,100,0|2,0:0|0:0,0:0:0:0:
112,190,81636,2,0,L|182:285,1,100,0|10,0:0|0:0,0:0:0:0:
255,384,81909,1,0,0:0:0:0:
164,94,82045,6,0,L|193:134,1,50,2|0,0:1|0:0,0:0:0:0:
175,79,82182,2,0,L|204:119,1,50
279,224,82318,1,8,2:0:0:0:
283,199,82386,1,8,2:0:0:0:
287,174,82454,1,8,2:0:0:0:
291,150,82522,1,8,2:0:0:0:
295,125,82591,6,0,B|369:164|369:164|442:148,1,150,6|0,0:0|0:0,0:0:0:0:
458,142,82864,1,10,0:0:0:0:
420,239,83000,1,0,0:0:0:0:
413,71,83136,1,2,0:0:0:0:
500,213,83273,2,0,B|500:269|500:269|471:305|471:305|471:367|471:367|437:333|371:342,1,250,10|0,0:0|0:0,0:0:0:0:
321,384,83682,6,0,P|353:334|353:288,1,100,2|0,0:0|0:0,0:0:0:0:
208,239,83955,2,0,P|235:291|275:314,1,100,10|0,0:0|0:0,0:0:0:0:
300,225,84227,5,2,0:0:0:0:
169,341,84364,1,10,0:0:0:0:
238,155,84500,21,6,0:0:0:0:
268,312,84636,1,0,0:0:0:0:
108,264,84773,6,0,L|138:153,1,100,14|0,0:0|0:0,0:0:0:0:
466,113,85045,2,0,L|492:209,1,100,10|0,0:0|0:0,0:0:0:0:
70,288,85318,6,0,L|100:177,1,100,10|0,0:0|0:0,0:0:0:0:
486,73,85591,2,0,L|512:169,1,100,10|0,0:0|0:0,0:0:0:0:
238,155,85864,5,8,2:0:0:0:
244,130,85932,1,8,2:0:0:0:
251,106,86000,1,8,2:0:0:0:
257,82,86068,1,8,2:0:0:0:
264,58,86136,2,0,L|288:111,1,50
375,115,86273,2,0,L|354:69,1,50,8|8,0:0|0:0,0:0:0:0:
158,188,86409,5,8,0:0:0:0:
166,211,86477,1,8,0:0:0:0:
175,234,86545,1,0,0:0:0:0:
184,257,86613,1,0,0:0:0:0:
193,280,86681,2,0,L|212:225,1,50,8|8,0:0|0:0,0:0:0:0:
297,215,86818,2,0,L|280:262,1,50,8|8,0:0|0:0,0:0:0:0:
109,311,86955,6,0,L|70:203,1,100,6|0,0:0|0:0,0:0:0:0:
181,59,87227,1,10,0:0:0:0:
158,188,87364,1,0,0:0:0:0:
46,137,87500,6,0,L|26:79,2,50,2|0|0,0:0|0:0|0:0,0:0:0:0:
166,211,87773,1,10,0:0:0:0:
189,82,87910,1,0,0:0:0:0:
215,324,88045,6,0,B|278:366|278:366|363:357,1,150,2|0,0:0|0:0,0:0:0:0:
376,352,88318,1,10,0:0:0:0:
284,197,88455,6,0,B|267:256|267:256|297:278|297:278|368:273|368:273|326:243,1,200,6|0,0:0|0:0,0:0:0:0:
212,141,88864,2,0,L|180:254,1,100,8|8,0:0|0:0,0:0:0:0:
448,233,89136,6,0,L|360:171,1,100,6|0,0:0|0:0,0:0:0:0:
425,313,89409,2,0,L|343:255,1,100,10|0,0:0|0:0,0:0:0:0:
390,62,89682,2,0,L|385:10,1,50,10|0,0:0|0:0,0:0:0:0:
403,14,89818,2,0,L|391:62,1,50
343,255,89955,1,10,0:0:0:0:
467,103,90091,1,0,0:0:0:0:
309,20,90227,6,0,L|283:135,1,100,10|0,0:0|0:0,0:0:0:0:
383,346,90500,2,0,L|343:254,1,100,10|0,0:0|0:0,0:0:0:0:
206,61,90773,5,10,0:0:0:0:
467,103,90909,1,0,0:0:0:0:
129,104,91045,21,14,0:0:0:0:
390,62,91181,1,0,0:0:0:0:
42,78,91318,6,0,L|48:197,1,100,6|0,0:0|0:0,0:0:0:0:
91,293,91591,2,0,P|127:227|217:224,1,150,10|0,0:0|0:0,0:0:0:0:
267,322,91864,2,0,P|211:318|167:285,1,100,2|10,0:0|0:0,0:0:0:0:
0,266,92136,2,0,P|56:270|100:303,1,100,2|0,0:0|0:0,0:0:0:0:
302,222,92409,6,0,L|278:118,2,100,6|0|10,0:0|0:0|0:0,0:0:0:0:
490,102,92818,2,0,L|512:4,2,100,0|2|10,0:0|0:0|0:0,0:0:0:0:
221,274,93227,2,0,L|198:176,1,100,2|0,0:0|0:0,0:0:0:0:
302,27,93500,6,0,L|279:124,1,100,14|0,0:0|0:0,0:0:0:0:
115,234,93773,1,10,0:0:0:0:
115,234,93909,1,0,0:0:0:0:
372,40,94045,6,0,B|364:98|364:98|349:137,1,100,10|0,0:0|0:0,0:0:0:0:
91,161,94318,1,10,0:0:0:0:
91,161,94454,1,0,0:0:0:0:
437,56,94591,6,0,B|436:109|436:109|414:153,1,100,10|0,0:0|0:0,0:0:0:0:
97,88,94864,1,10,0:0:0:0:
97,88,95000,1,0,0:0:0:0:
505,73,95136,6,0,B|512:130|512:130|484:170,1,100,10|0,0:0|0:0,0:0:0:0:
136,22,95409,1,10,0:0:0:0:
136,22,95545,1,0,0:0:0:0:
349,136,95682,5,6,0:0:0:0:
354,160,95750,1,0,0:0:0:0:
360,184,95818,1,0,0:0:0:0:
365,209,95886,1,0,0:0:0:0:
372,233,95955,2,0,L|393:180,1,50,8|8,2:0|2:0,0:0:0:0:
422,139,96091,2,0,L|434:189,1,50,8|8,2:0|2:0,0:0:0:0:
304,330,96227,5,6,0:0:0:0:
298,305,96295,1,0,0:0:0:0:
292,281,96363,1,0,0:0:0:0:
287,256,96431,1,0,0:0:0:0:
281,233,96500,2,0,L|260:286,1,50,8|8,0:0|0:0,0:0:0:0:
200,327,96636,2,0,L|188:277,1,50,8|8,0:0|0:0,0:0:0:0:
101,169,96773,5,6,0:0:0:0:
149,180,96841,1,0,0:0:0:0:
197,170,96909,1,0,0:0:0:0:
237,140,96977,1,0,0:0:0:0:
263,98,97045,6,0,L|279:159,1,50,8|8,0:0|0:0,0:0:0:0:
156,68,97182,2,0,L|168:19,1,50,8|8,0:0|0:0,0:0:0:0:
364,28,97318,6,0,B|358:68|358:68|370:105,1,75.0000028610231,6|0,0:0|0:0,0:0:0:0:
215,352,97455,2,0,B|221:312|221:312|209:275,1,75.0000028610231
322,166,97591,22,0,B|316:206|316:206|328:243,1,75.0000028610231,8|8,0:0|0:0,0:0:0:0:
130,357,97728,2,0,B|136:317|136:317|124:280,1,75.0000028610231,8|8,0:0|0:0,0:0:0:0:
414,167,97864,6,0,P|471:219|478:146,1,175,6|0,0:0|0:0,0:0:0:0:
483,81,98409,2,0,P|476:122|494:166,1,75,2|0,0:0|0:0,0:0:0:0:
511,322,98682,1,8,2:0:0:0:
463,298,98773,1,8,2:0:0:0:
409,303,98864,1,8,2:0:0:0:
367,337,98955,6,0,L|355:274,1,50,10|0,0:0|0:0,0:0:0:0:
288,203,99227,2,0,L|278:252,1,50,2|0,0:0|0:0,0:0:0:0:
253,384,99500,22,0,L|262:334,1,50,4|0,0:1|0:0,0:0:0:0:
374,166,99773,2,0,L|383:215,1,50,8|8,2:0|2:0,0:0:0:0:
193,282,100045,6,0,P|166:289|102:273,1,75,6|0,0:0|0:0,0:0:0:0:
44,142,100318,1,8,2:0:0:0:
100,169,100409,1,8,2:0:0:0:
131,223,100500,1,8,2:0:0:0:
119,282,100591,22,0,P|107:308|58:342,1,75,2|0,0:0|0:0,0:0:0:0:
230,343,100864,1,8,2:0:0:0:
178,377,100955,1,8,2:0:0:0:
116,377,101046,1,8,2:0:0:0:
71,337,101136,6,0,P|61:310|63:288,1,50,2|0,0:0|0:0,0:0:0:0:
216,217,101409,2,0,P|217:241|207:264,1,50,2|0,0:0|0:0,0:0:0:0:
100,169,101682,22,0,P|121:152|147:151,1,50,4|0,0:1|0:0,0:0:0:0:
325,95,101955,2,0,P|303:111|278:113,1,50,8|8,2:0|2:0,0:0:0:0:
375,33,102227,6,0,P|397:63|398:113,1,75,6|0,0:0|0:0,0:0:0:0:
363,193,102500,1,8,2:0:0:0:
416,182,102591,1,8,2:0:0:0:
465,201,102682,1,8,2:0:0:0:
500,240,102773,22,0,P|485:274|489:310,1,75,2|0,0:0|0:0,0:0:0:0:
405,273,103045,1,8,2:0:0:0:
352,284,103136,1,8,2:0:0:0:
302,264,103227,1,8,2:0:0:0:
270,220,103318,6,0,P|284:185|280:149,1,75,2|0,0:0|0:0,0:0:0:0:
362,111,103591,2,0,L|365:73,2,33.3333333333333,8|8|8,2:0|2:0|2:0,0:0:0:0:
197,172,103864,6,0,B|106:199|106:199|126:100|126:100|146:122,1,225.000008583069,14|0,0:0|0:0,0:0:0:0:
197,172,104136,2,0,B|78:208|78:208|104:78|104:78|175:150,1,300,14|0,0:0|0:0,0:0:0:0:
80,279,104409,6,0,L|2:204,1,100,6|0,0:0|0:0,0:0:0:0:
273,36,104682,1,2,0:0:0:0:
267,60,104750,1,0,0:0:0:0:
261,84,104818,1,0,0:0:0:0:
255,108,104886,1,0,0:0:0:0:
249,132,104955,2,0,L|223:237,1,100,10|0,0:0|0:0,0:0:0:0:
512,346,105227,1,2,0:0:0:0:
506,322,105295,1,0,0:0:0:0:
500,298,105363,1,0,0:0:0:0:
494,274,105431,1,0,0:0:0:0:
488,250,105500,2,0,L|462:144,1,100,2|0,0:0|0:0,0:0:0:0:
146,85,105773,1,2,0:0:0:0:
140,109,105841,1,0,0:0:0:0:
134,133,105909,1,0,0:0:0:0:
128,157,105977,1,0,0:0:0:0:
122,181,106046,2,0,L|96:286,1,100,10|0,0:0|0:0,0:0:0:0:
363,341,106318,5,2,0:0:0:0:
345,323,106386,1,0,0:0:0:0:
327,306,106454,1,0,0:0:0:0:
309,289,106522,1,0,0:0:0:0:
291,271,106591,2,0,P|337:244|359:196,1,100,6|0,0:0|0:0,0:0:0:0:
271,50,106864,1,2,0:0:0:0:
289,68,106932,1,0,0:0:0:0:
307,85,107000,1,0,0:0:0:0:
325,102,107068,1,0,0:0:0:0:
343,120,107137,2,0,P|297:147|275:195,1,100,10|0,0:0|0:0,0:0:0:0:
477,237,107409,1,2,0:0:0:0:
483,213,107477,1,0,0:0:0:0:
489,189,107545,1,0,0:0:0:0:
495,165,107613,1,0,0:0:0:0:
502,141,107682,6,0,P|426:114|511:70,1,225.000008583069,6|0,0:0|0:0,0:0:0:0:
343,120,107955,2,0,P|341:91|348:55,3,50,2|0|0|0,0:0|0:0|0:0|0:0,0:0:0:0:
291,271,108227,1,8,2:0:0:0:
264,262,108295,1,8,2:0:0:0:
236,259,108363,1,8,2:0:0:0:
208,261,108431,1,8,2:0:0:0:
180,266,108499,1,2,0:0:0:0:
152,271,108567,1,0,0:0:0:0:
124,274,108636,1,2,0:0:0:0:
96,273,108704,1,0,0:0:0:0:
71,265,108773,6,0,P|87:318|69:371,1,100,6|0,0:0|0:0,0:0:0:0:
133,189,109045,1,2,0:0:0:0:
127,161,109113,1,0,0:0:0:0:
124,133,109182,1,0,0:0:0:0:
125,105,109250,1,0,0:0:0:0:
130,80,109319,2,0,P|77:96|24:78,1,100,10|0,0:0|0:0,0:0:0:0:
232,129,109591,1,2,0:0:0:0:
260,123,109659,1,0,0:0:0:0:
288,120,109728,1,0,0:0:0:0:
316,121,109796,1,0,0:0:0:0:
341,126,109865,2,0,P|325:73|343:20,1,100,6|0,0:0|0:0,0:0:0:0:
512,73,110136,1,2,0:0:0:0:
484,79,110204,1,0,0:0:0:0:
456,82,110273,1,0,0:0:0:0:
428,81,110341,1,0,0:0:0:0:
403,76,110410,2,0,P|419:129|401:182,1,100,10|0,0:0|0:0,0:0:0:0:
463,344,110682,5,2,0:0:0:0:
455,320,110750,1,0,0:0:0:0:
448,296,110818,1,0,0:0:0:0:
441,272,110886,1,0,0:0:0:0:
433,249,110955,2,0,B|407:293|407:293|361:271,1,100,6|0,0:0|0:0,0:0:0:0:
230,279,111227,1,2,0:0:0:0:
237,302,111295,1,0,0:0:0:0:
244,326,111363,1,0,0:0:0:0:
251,350,111431,1,0,0:0:0:0:
259,374,111500,2,0,B|285:330|285:330|331:352,1,100,10|0,0:0|0:0,0:0:0:0:
362,271,111773,2,0,L|342:210,3,50,2|0|0|0,0:0|0:0|0:0|0:0,0:0:0:0:
117,368,112045,5,8,2:0:0:0:
131,333,112113,1,8,2:0:0:0:
134,296,112181,1,8,2:0:0:0:
125,260,112249,1,8,2:0:0:0:
108,226,112318,2,0,L|71:182,3,50,8|8|8|8,0:0|0:0|0:0|0:0,0:0:0:0:
223,253,112591,5,8,2:0:0:0:
208,218,112659,1,8,2:0:0:0:
205,181,112727,1,8,2:0:0:0:
214,145,112795,1,8,2:0:0:0:
232,111,112864,2,0,L|269:67,3,50,8|8|8|8,0:0|0:0|0:0|0:0,0:0:0:0:
303,185,113136,5,6,0:0:0:0:
325,194,113204,1,0,0:0:0:0:
350,199,113272,1,0,0:0:0:0:
375,199,113340,1,0,0:0:0:0:
400,195,113408,1,2,0:0:0:0:
424,192,113476,1,0,0:0:0:0:
449,189,113545,1,0,0:0:0:0:
474,190,113614,1,0,0:0:0:0:
498,196,113682,6,0,L|485:141,3,50,10|0|0|0,0:0|0:0|0:0|0:0,0:0:0:0:
454,283,113955,2,0,L|441:338,3,50,2|0|0|0,0:0|0:0|0:0|0:0,0:0:0:0:
358,114,114227,5,6,0:0:0:0:
359,89,114295,1,0,0:0:0:0:
370,66,114363,1,0,0:0:0:0:
388,50,114431,1,0,0:0:0:0:
412,45,114500,2,0,P|445:47|466:60,3,50,2|0|0|0,0:0|0:0|0:0|0:0,0:0:0:0:
264,72,114773,5,10,0:0:0:0:
252,98,114841,1,0,0:0:0:0:
234,120,114909,1,0,0:0:0:0:
211,135,114977,1,0,0:0:0:0:
183,144,115045,1,2,0:0:0:0:
155,144,115113,1,0,0:0:0:0:
128,135,115182,1,0,0:0:0:0:
104,120,115250,1,0,0:0:0:0:
86,102,115318,5,6,0:0:0:0:
71,122,115386,1,0,0:0:0:0:
62,145,115454,1,0,0:0:0:0:
61,170,115522,1,0,0:0:0:0:
66,195,115591,1,2,0:0:0:0:
74,218,115659,1,0,0:0:0:0:
77,243,115727,1,0,0:0:0:0:
71,267,115795,1,0,0:0:0:0:
59,289,115864,6,0,L|55:345,3,50,10|0|0|0,0:0|0:0|0:0|0:0,0:0:0:0:
167,229,116136,2,0,L|170:285,3,50,2|0|0|0,0:0|0:0|0:0|0:0,0:0:0:0:
282,334,116409,5,6,0:0:0:0:
259,298,116477,1,0,0:0:0:0:
260,256,116545,1,0,0:0:0:0:
285,221,116613,1,0,0:0:0:0:
324,207,116681,1,2,0:0:0:0:
365,217,116749,1,0,0:0:0:0:
394,248,116818,1,0,0:0:0:0:
400,290,116886,1,0,0:0:0:0:
388,334,116955,5,10,0:0:0:0:
371,306,117023,1,0,0:0:0:0:
369,274,117091,1,0,0:0:0:0:
376,243,117159,1,0,0:0:0:0:
387,213,117227,1,2,0:0:0:0:
397,182,117295,1,0,0:0:0:0:
403,151,117364,1,0,0:0:0:0:
401,119,117432,1,0,0:0:0:0:
389,91,117500,6,0,P|445:118|429:48,1,150,6|0,0:0|0:0,0:0:0:0:
317,152,117773,1,2,0:0:0:0:
271,171,117841,1,8,0:0:0:0:
221,170,117909,1,0,0:0:0:0:
176,148,117977,1,8,0:0:0:0:
150,106,118045,5,2,0:0:0:0:
184,111,118113,1,8,0:0:0:0:
214,127,118181,1,0,0:0:0:0:
236,153,118249,1,8,0:0:0:0:
252,183,118319,1,2,0:0:0:0:
268,213,118387,1,8,0:0:0:0:
290,239,118455,1,0,0:0:0:0:
320,255,118523,1,8,0:0:0:0:
354,258,118591,5,2,0:0:0:0:
345,288,118659,1,8,0:0:0:0:
326,312,118727,1,0,0:0:0:0:
300,330,118795,1,8,0:0:0:0:
270,338,118863,1,2,0:0:0:0:
240,335,118931,1,8,0:0:0:0:
211,322,119000,1,0,0:0:0:0:
189,301,119068,1,8,0:0:0:0:
181,272,119136,6,0,L|158:330,3,50,2|8|0|8,0:0|0:0|0:0|0:0,0:0:0:0:
68,316,119409,2,0,L|91:374,3,50,2|8|0|8,0:0|0:0|0:0|0:0,0:0:0:0:
103,232,119682,5,6,0:0:0:0:
107,207,119750,1,8,0:0:0:0:
106,182,119818,1,0,0:0:0:0:
99,158,119886,1,8,0:0:0:0:
91,134,119954,1,2,0:0:0:0:
83,111,120022,1,8,0:0:0:0:
77,87,120091,1,0,0:0:0:0:
75,62,120159,1,8,0:0:0:0:
83,38,120227,5,6,0:0:0:0:
94,59,120295,1,8,0:0:0:0:
111,78,120363,1,0,0:0:0:0:
133,91,120431,1,8,0:0:0:0:
156,99,120499,1,2,0:0:0:0:
181,100,120567,1,8,0:0:0:0:
206,95,120636,1,0,0:0:0:0:
228,85,120704,1,8,0:0:0:0:
246,71,120773,5,6,0:0:0:0:
252,107,120841,1,8,0:0:0:0:
258,144,120909,1,0,0:0:0:0:
265,181,120977,1,8,0:0:0:0:
273,218,121045,2,0,B|279:250|279:250|264:283,3,50,2|8|0|8,0:0|0:0|0:0|0:0,0:0:0:0:
324,66,121318,5,6,0:0:0:0:
330,102,121386,1,8,0:0:0:0:
337,139,121454,1,8,0:0:0:0:
343,176,121522,1,8,0:0:0:0:
350,213,121590,1,8,2:0:0:0:
356,250,121658,1,8,2:0:0:0:
363,287,121727,1,8,2:0:0:0:
370,324,121795,1,8,2:0:0:0:
376,361,121864,6,0,P|391:279|433:367,1,225.000008583069,6|0,0:0|0:0,0:0:0:0:
280,359,122136,1,2,0:0:0:0:
226,374,122204,1,8,0:0:0:0:
170,369,122273,1,0,0:0:0:0:
120,344,122340,1,8,0:0:0:0:
88,298,122409,5,2,0:0:0:0:
106,276,122477,1,8,0:0:0:0:
115,250,122546,1,0,0:0:0:0:
113,222,122614,1,8,0:0:0:0:
105,195,122682,1,2,0:0:0:0:
96,168,122749,1,8,0:0:0:0:
92,141,122818,1,0,0:0:0:0:
97,113,122886,1,8,0:0:0:0:
115,89,122955,5,2,0:0:0:0:
124,124,123023,1,8,0:0:0:0:
153,148,123091,1,0,0:0:0:0:
189,152,123159,1,8,0:0:0:0:
222,134,123227,1,2,0:0:0:0:
239,101,123295,1,8,0:0:0:0:
234,65,123364,1,0,0:0:0:0:
210,37,123432,1,8,0:0:0:0:
176,22,123500,6,0,L|179:94,3,50,2|8|0|8,0:0|0:0|0:0|0:0,0:0:0:0:
336,22,123773,2,0,L|331:96,3,50,2|8|0|8,0:0|0:0|0:0|0:0,0:0:0:0:
461,50,124045,5,6,0:0:0:0:
449,85,124113,1,8,0:0:0:0:
446,123,124182,1,0,0:0:0:0:
450,160,124249,1,8,0:0:0:0:
460,196,124318,1,2,0:0:0:0:
471,232,124385,1,8,0:0:0:0:
480,268,124455,1,0,0:0:0:0:
480,306,124522,1,8,0:0:0:0:
461,343,124591,5,2,0:0:0:0:
450,307,124659,1,8,0:0:0:0:
446,270,124727,1,0,0:0:0:0:
450,233,124795,1,8,0:0:0:0:
460,196,124863,1,2,0:0:0:0:
471,161,124931,1,8,0:0:0:0:
480,124,125000,1,0,0:0:0:0:
480,87,125068,1,8,0:0:0:0:
461,50,125136,5,6,0:0:0:0:
426,94,125204,1,0,0:0:0:0:
379,124,125272,1,0,0:0:0:0:
325,137,125340,1,0,0:0:0:0:
265,128,125409,2,0,L|294:183,3,50,8|8|8|8,2:0|2:0|2:0|2:0,0:0:0:0:
12,277,125682,5,8,2:0:0:0:
46,232,125750,1,8,2:0:0:0:
93,202,125818,1,8,2:0:0:0:
147,189,125886,1,8,2:0:0:0:
208,199,125955,2,0,L|178:139,3,50,8|8|8|8,0:0|0:0|0:0|0:0,0:0:0:0:
225,54,126227,6,0,B|332:256,1,225.000008583069,6|0,0:0|0:0,0:0:0:0:
148,329,126500,2,0,L|88:352,3,50,2|8|0|8,0:0|0:0|0:0|0:0,0:0:0:0:
285,359,126772,1,2,0:0:0:0:
323,355,126840,1,8,0:0:0:0:
360,354,126909,1,0,0:0:0:0:
397,361,126977,1,8,0:0:0:0:
430,378,127045,1,2,0:0:0:0:
468,380,127114,1,8,0:0:0:0:
495,354,127182,1,0,0:0:0:0:
501,317,127250,1,8,0:0:0:0:
483,284,127318,5,2,0:0:0:0:
447,293,127386,1,8,0:0:0:0:
411,283,127454,1,0,0:0:0:0:
387,255,127522,1,8,0:0:0:0:
382,218,127590,1,2,0:0:0:0:
398,184,127658,1,8,0:0:0:0:
429,164,127727,1,0,0:0:0:0:
466,164,127795,1,8,0:0:0:0:
500,180,127864,6,0,L|490:124,3,50,2|8|0|8,0:0|0:0|0:0|0:0,0:0:0:0:
391,92,128136,2,0,L|402:38,3,50,2|8|0|8,0:0|0:0|0:0|0:0,0:0:0:0:
451,227,128409,1,2,0:0:0:0:
451,227,129500,5,6,0:0:0:0:
431,248,129568,1,10,0:0:0:0:
407,263,129637,1,0,0:0:0:0:
380,271,129704,1,10,0:0:0:0:
351,272,129773,1,0,0:0:0:0:
324,265,129840,1,10,0:0:0:0:
299,251,129909,1,0,0:0:0:0:
279,230,129977,1,10,0:0:0:0:
267,208,130045,5,0,0:0:0:0:
255,263,130113,1,10,0:0:0:0:
215,303,130181,1,0,0:0:0:0:
159,310,130249,1,10,0:0:0:0:
106,290,130317,1,0,0:0:0:0:
71,245,130385,1,10,0:0:0:0:
61,188,130454,1,0,0:0:0:0:
82,136,130522,1,10,0:0:0:0:
127,102,130591,5,0,0:0:0:0:
176,115,130659,1,10,0:0:0:0:
222,122,130727,1,0,0:0:0:0:
269,121,130796,1,10,0:0:0:0:
315,114,130863,1,0,0:0:0:0:
361,107,130931,1,10,0:0:0:0:
408,106,131000,1,0,0:0:0:0:
454,113,131068,1,10,0:0:0:0:
503,126,131136,5,0,0:0:0:0:
494,62,131204,1,10,0:0:0:0:
447,18,131272,1,0,0:0:0:0:
383,14,131340,1,10,0:0:0:0:
331,52,131408,1,0,0:0:0:0:
315,114,131476,1,10,0:0:0:0:
343,172,131545,1,0,0:0:0:0:
401,199,131613,1,10,0:0:0:0:
464,188,131682,6,0,L|399:94,1,100,14|0,0:0|0:0,0:0:0:0:
118,11,131955,2,0,L|61:93,1,100,10|0,0:0|0:0,0:0:0:0:
401,199,132227,21,10,0:0:0:0:
97,96,132364,2,0,L|40:178,1,100,10|0,0:0|0:0,0:0:0:0:
439,96,132636,22,0,L|374:2,1,100,10|0,0:0|0:0,0:0:0:0:
81,185,132909,1,10,0:0:0:0:
269,178,134955,5,2,2:0:0:0:
313,220,135092,1,2,2:0:0:0:
256,237,135228,1,2,2:0:0:0:
279,119,135364,2,0,B|270:166|270:166|261:177|261:177|266:188|266:188|255:239|255:239|270:277|270:277|253:311|260:345|260:345|309:309|364:330|364:330|338:283|338:283,1,375.000014305115,2|0,2:0|0:0,0:0:0:0:
202,125,135773,1,8,2:0:0:0:
190,139,135841,1,8,2:0:0:0:
183,157,135909,1,8,2:0:0:0:
181,175,135977,1,8,2:0:0:0:
182,195,136045,6,0,P|129:179|77:194,1,100,10|0,0:0|0:0,0:0:0:0:
0,0,136318,2,0,P|53:16|105:1,1,100,10|0,0:0|0:0,0:0:0:0:
128,274,136591,21,10,0:0:0:0:
208,29,136727,2,0,P|192:82|207:134,1,100,10|0,0:0|0:0,0:0:0:0:
0,181,137000,22,0,P|16:128|1:76,1,100,10|0,0:0|0:0,0:0:0:0:
285,82,137273,1,10,0:0:0:0:
285,82,138636,6,0,L|317:23,1,50
277,19,138773,2,0,L|254:135,1,100,10|0,0:0|0:0,0:0:0:0:
392,210,139045,2,0,L|372:111,1,100,8|8,0:0|0:0,0:0:0:0:
190,58,139318,5,14,0:0:0:0:
185,82,139386,1,0,0:0:0:0:
180,107,139454,1,0,0:0:0:0:
175,131,139522,1,0,0:0:0:0:
166,171,139591,5,10,0:0:0:0:
143,151,139659,1,0,0:0:0:0:
121,131,139727,1,0,0:0:0:0:
99,112,139795,1,0,0:0:0:0:
61,77,139864,5,14,0:0:0:0:
96,65,139932,1,0,0:0:0:0:
130,54,140000,1,0,0:0:0:0:
162,43,140068,1,0,0:0:0:0:
219,27,140136,5,10,0:0:0:0:
210,72,140204,1,0,0:0:0:0:
202,114,140272,1,0,0:0:0:0:
193,153,140340,1,0,0:0:0:0:
178,222,140409,6,0,L|89:146,1,100,10|0,0:0|0:0,0:0:0:0:
312,49,140682,2,0,L|290:164,1,100,10|0,0:0|0:0,0:0:0:0:
258,328,140955,5,10,0:0:0:0:
167,53,141091,1,0,0:0:0:0:
157,384,141227,1,10,0:0:0:0:
405,29,141364,6,0,L|383:144,1,100,0|10,0:0|0:0,0:0:0:0:
359,270,141636,1,0,0:0:0:0:
293,147,141773,1,10,0:0:0:0:
498,9,141909,6,0,L|476:124,1,100,0|10,0:0|0:0,0:0:0:0:
453,250,142181,1,0,0:0:0:0:
386,127,142318,1,10,0:0:0:0:
512,190,142455,1,0,0:0:0:0:
359,270,142591,6,0,P|309:256|252:270,1,100,10|0,0:0|0:0,0:0:0:0:
293,147,142864,1,10,0:0:0:0:
407,355,143000,1,0,0:0:0:0:
100,192,143136,6,0,P|150:206|207:192,1,100,10|0,0:0|0:0,0:0:0:0:
166,315,143409,1,10,0:0:0:0:
52,107,143545,1,0,0:0:0:0:
71,293,143682,5,10,0:0:0:0:
149,116,143818,1,0,0:0:0:0:
280,337,143955,1,10,0:0:0:0:
295,65,144091,6,0,B|319:103|292:147|292:147|342:134|375:171|375:171|361:126|391:98|391:98|406:101|417:120|417:120|380:182|456:255|517:223|516:163|486:133|448:156,1,500,6|0,0:0|0:0,0:0:0:0:
438,284,144500,1,10,0:0:0:0:
435,291,144568,1,0,0:0:0:0:
432,299,144636,1,0,0:0:0:0:
429,307,144704,1,0,0:0:0:0:
426,314,144773,6,0,P|369:282|314:288,1,100,14|0,0:0|0:0,0:0:0:0:
141,67,145045,2,0,P|198:99|253:93,1,100,10|0,0:0|0:0,0:0:0:0:
359,366,145318,5,10,0:0:0:0:
118,309,145455,2,0,P|145:268|150:218,1,100,0|10,0:0|0:0,0:0:0:0:
374,39,145727,6,0,P|346:79|341:129,1,100,0|10,0:0|0:0,0:0:0:0:
180,384,146000,1,0,0:0:0:0:
49,233,146136,1,10,0:0:0:0:
258,182,146273,6,0,L|217:295,1,100,0|10,0:0|0:0,0:0:0:0:
118,309,146545,1,0,0:0:0:0:
357,241,146682,2,0,L|316:354,1,100,10|0,0:0|0:0,0:0:0:0:
150,218,146955,5,10,0:0:0:0:
150,218,147091,1,0,0:0:0:0:
241,4,147227,2,0,L|275:98,1,100,10|0,0:0|0:0,0:0:0:0:
223,276,147500,5,10,0:0:0:0:
223,276,147636,1,0,0:0:0:0:
132,34,147772,2,0,L|97:128,1,100,10|0,0:0|0:0,0:0:0:0:
118,309,148045,5,8,2:0:0:0:
150,290,148113,1,8,2:0:0:0:
186,279,148181,1,8,2:0:0:0:
223,276,148249,1,8,2:0:0:0:
260,282,148317,1,2,0:0:0:0:
297,291,148385,1,0,0:0:0:0:
333,298,148454,1,0,0:0:0:0:
371,298,148522,1,0,0:0:0:0:
404,286,148591,6,0,L|392:356,1,50,8|8,0:0|0:0,0:0:0:0:
118,309,148727,2,0,L|109:259,1,50,8|8,0:0|0:0,0:0:0:0:
353,162,148864,22,0,L|341:232,1,50,8|8,0:0|0:0,0:0:0:0:
196,186,149000,2,0,L|187:136,1,50,8|8,0:0|0:0,0:0:0:0:
279,64,149136,6,0,B|303:21|366:25|407:52|407:52|379:79|316:106|260:111|186:27|186:27|111:34|69:93|41:171|77:237|77:237|115:182|83:130,1,775,6|0,0:0|0:0,0:0:0:0:
196,143,151318,5,2,0:2:0:0:
192,223,151500,1,0,2:0:0:0:
148,290,151682,1,0,2:0:0:0:
77,327,151864,5,2,0:2:0:0:
116,318,152409,1,0,0:0:0:0:
155,324,152955,1,0,0:0:0:0:
187,347,153500,2,0,P|201:294|252:371,1,200
297,164,154318,21,0,2:0:0:0:
297,164,154591,2,0,P|328:220|351:142,1,166.666666666667
414,97,155136,1,8,0:2:0:0:
419,176,155318,1,8,2:0:0:0:
426,255,155500,1,8,2:0:0:0:
297,164,155682,6,0,P|243:143|193:155,1,100.000003814697,8|0,0:0|0:0,0:0:0:0:
82,112,155955,2,0,P|87:88|82:67,1,37.5000014305115,8|8,2:0|2:0,0:0:0:0:
89,39,156091,2,0,P|84:62|89:84,1,37.5000014305115,8|8,2:0|2:0,0:0:0:0:
25,170,156227,2,0,P|79:191|161:137,1,150.000005722046,8|0,0:0|0:0,0:0:0:0:
162,130,156591,1,0,0:0:0:0:
56,278,156773,6,0,P|68:338|112:277,1,150.000005722046,8|2,0:0|0:0,0:0:0:0:
219,291,157318,2,0,P|210:373|131:288,1,250.000009536744
382,278,157864,6,0,P|370:338|326:277,1,150.000005722046,2|2,0:2|0:2,0:0:0:0:
219,291,158409,2,0,P|228:373|307:288,1,250.000009536744,2|0,0:2|0:0,0:0:0:0:
425,130,158955,6,0,P|405:187|473:157,1,150.000005722046,2|2,0:2|0:2,0:0:0:0:
237,29,159500,2,0,P|234:103|324:24,1,250.000009536744,2|0,0:2|0:0,0:0:0:0:
140,68,160045,5,2,0:2:0:0:
140,68,160136,2,0,L|154:144,1,50.0000019073487,0|0,2:0|2:0,2:0:0:0:
58,161,160318,1,0,2:2:0:0:
58,161,160409,2,0,L|67:111,1,50.0000019073487,0|0,2:0|2:0,2:0:0:0:
229,159,160591,6,0,L|243:235,1,50.0000019073487,2|0,0:2|0:0,0:0:0:0:
147,252,160773,2,0,L|156:202,1,50.0000019073487,0|0,2:0|2:0,2:0:0:0:
321,104,160955,2,0,L|311:153,1,50.0000019073487,0|0,2:0|2:0,2:0:0:0:
339,351,161136,5,2,0:2:0:0:
334,330,161226,1,0,2:0:0:0:
334,309,161317,1,0,2:0:0:0:
340,290,161408,1,0,2:0:0:0:
350,271,161499,1,0,2:0:0:0:
363,255,161590,1,0,2:0:0:0:
376,239,161681,1,2,0:2:0:0:
389,222,161772,1,0,2:0:0:0:
400,205,161863,1,0,2:0:0:0:
409,186,161954,1,0,2:0:0:0:
415,166,162045,1,0,2:0:0:0:
418,146,162135,1,0,2:0:0:0:
416,125,162227,5,2,0:2:0:0:
408,148,162317,1,0,2:0:0:0:
393,168,162408,1,2,2:0:0:0:
371,180,162499,1,2,2:0:0:0:
347,184,162590,1,2,2:0:0:0:
322,179,162681,1,0,2:0:0:0:
302,166,162772,1,2,0:2:0:0:
287,146,162863,1,0,2:0:0:0:
280,122,162954,1,2,2:2:0:0:
283,97,163045,1,0,2:0:0:0:
295,75,163136,1,2,2:2:0:0:
313,58,163226,1,0,2:0:0:0:
337,49,163318,6,0,P|280:57|227:32,2,100.000003814697,6|0|0,0:0|2:0|2:0,0:0:0:0:
416,125,163864,2,0,P|473:117|526:142,2,100.000003814697,2|0|0,0:0|2:0|2:0,0:0:0:0:
283,128,164409,6,0,P|247:82|242:24,2,100.000003814697,2|0|0,0:0|2:0|2:0,0:0:0:0:
469,45,164955,2,0,P|504:90|509:148,2,100.000003814697,2|0|0,0:0|2:0|2:0,0:0:0:0:
182,173,165500,6,0,L|267:253,2,100.000003814697,2|0|0,0:0|2:0|2:0,0:0:0:0:
76,218,166045,2,0,L|161:298,2,100.000003814697,2|0|0,0:0|2:0|2:0,0:0:0:0:
283,128,166591,5,2,0:0:0:0:
182,173,166773,2,0,L|267:253,1,100.000003814697,8|0,0:0|2:0,0:0:0:0:
355,196,167136,2,0,L|282:127,2,100.000003814697,2|8|8,0:0|0:0|0:0,0:0:0:0:
435,269,167682,6,0,P|409:320|418:371,2,100.000003814697,6|0|0,0:0|2:0|2:0,0:0:0:0:
407,97,168227,2,0,P|433:46|424:-5,2,100.000003814697,2|0|0,0:0|2:0|2:0,0:0:0:0:
282,127,168773,6,0,P|227:144|197:187,2,100.000003814697,2|0|0,0:0|2:0|2:0,0:0:0:0:
432,181,169318,2,0,P|486:163|516:120,2,100.000003814697,2|0|0,0:0|2:0|2:0,0:0:0:0:
349,35,169864,5,8,0:0:0:0:
280,210,170045,1,8,0:0:0:0:
221,43,170227,1,8,0:0:0:0:
318,302,170409,5,8,0:0:0:0:
249,127,170590,1,8,0:0:0:0:
190,294,170772,1,8,0:0:0:0:
354,131,170955,5,8,2:0:0:0:
60,122,171136,1,8,2:0:0:0:
447,273,171318,1,8,2:0:0:0:
249,127,171500,5,8,2:0:0:0:
512,56,171681,1,8,2:0:0:0:
80,256,171863,1,8,2:0:0:0:
447,273,172045,6,0,P|448:209|430:169,1,100.000003814697,6|2,0:0|0:2,0:0:0:0:
444,148,172409,1,2,0:2:0:0:
355,326,172591,6,0,P|354:262|372:222,1,100.000003814697,10|2,0:0|0:2,0:0:0:0:
357,200,172955,1,2,0:2:0:0:
262,327,173136,6,0,P|320:311|359:329,2,100.000003814697,2|2|2,0:2|0:2|0:2,0:0:0:0:
214,269,173682,1,10,0:0:0:0:
311,384,173864,1,2,0:2:0:0:
447,273,174045,1,2,0:2:0:0:
128,222,174227,6,0,P|129:286|111:326,1,100.000003814697,2|2,0:2|0:2,0:0:0:0:
124,347,174591,1,2,0:2:0:0:
36,169,174773,6,0,P|35:233|53:273,1,100.000003814697,10|2,0:0|0:2,0:0:0:0:
38,294,175136,1,2,0:2:0:0:
128,222,175318,6,0,P|175:236|230:220,1,100.000003814697,2|2,0:2|0:2,0:0:0:0:
176,152,175682,1,2,0:2:0:0:
277,301,175864,1,10,0:0:0:0:
261,53,176045,1,2,0:2:0:0:
262,77,176135,1,0,0:0:0:0:
264,102,176226,1,2,0:2:0:0:
266,127,176317,1,0,0:0:0:0:
268,153,176409,6,0,P|312:115|366:110,1,100.000003814697,6|2,0:0|0:2,0:0:0:0:
371,85,176773,1,2,0:2:0:0:
474,17,176955,6,0,P|430:55|376:60,1,100.000003814697,8|2,0:0|0:2,0:0:0:0:
371,85,177319,1,2,0:2:0:0:
344,198,177500,6,0,L|352:314,2,100.000003814697,2|2|2,0:2|0:2|0:2,0:0:0:0:
371,85,178045,1,10,0:0:0:0:
301,377,178227,1,2,0:2:0:0:
454,165,178409,1,2,0:2:0:0:
227,234,178591,6,0,P|180:205|118:216,2,100.000003814697,2|2|2,0:2|0:2|0:2,0:0:0:0:
160,287,179136,1,10,0:0:0:0:
109,111,179318,2,0,L|140:218,1,100.000003814697,2|2,0:2|0:2,0:0:0:0:
187,372,179682,5,2,0:2:0:0:
64,333,179864,2,0,L|74:271,1,50.0000019073487,8|8,2:0|2:0,0:0:0:0:
234,184,180045,2,0,L|224:246,1,50.0000019073487,8|8,2:0|2:0,0:0:0:0:
136,207,180227,5,8,2:0:0:0:
140,182,180317,1,8,2:0:0:0:
144,157,180408,1,8,0:0:0:0:
148,132,180499,1,8,0:0:0:0:
152,108,180590,1,8,0:0:0:0:
156,83,180681,1,8,0:0:0:0:
159,63,180773,6,0,B|255:131|320:50|421:141,1,266.666666666667,6|2,0:0|0:2,0:0:0:0:
432,245,181318,2,0,P|392:178|427:114,1,133.333333333333,10|2,0:0|0:2,0:0:0:0:
451,57,181591,2,0,L|493:-17,2,66.6666666666667,0|2|0,0:0|0:0|0:0,0:0:0:0:
375,349,181864,6,0,P|313:271|434:248,1,266.666666666667,2|2,0:2|0:2,0:0:0:0:
243,368,182409,1,10,0:2:0:0:
222,305,182499,1,0,0:0:0:0:
225,238,182590,1,2,0:2:0:0:
238,173,182681,1,0,0:0:0:0:
239,107,182772,1,2,0:2:0:0:
212,46,182863,1,0,0:0:0:0:
153,13,182955,6,0,P|224:46|299:19,1,133.333333333333,2|2,0:2|0:2,0:0:0:0:
299,22,183318,1,2,0:2:0:0:
136,120,183500,1,10,0:2:0:0:
113,134,183682,5,2,0:2:0:0:
159,182,183773,1,0,0:0:0:0:
96,205,183864,1,2,0:2:0:0:
48,158,183955,1,0,0:0:0:0:
59,92,184045,21,2,0:2:0:0:
70,123,184135,1,0,0:0:0:0:
72,156,184226,1,2,0:2:0:0:
67,189,184317,1,0,0:0:0:0:
60,221,184408,1,2,0:2:0:0:
57,255,184499,1,0,0:0:0:0:
62,287,184590,1,10,0:2:0:0:
239,107,184773,6,0,L|257:170,1,66.6666666666667,2|2,0:2|0:2,0:0:0:0:
140,245,184955,2,0,L|158:181,1,66.6666666666667,2|2,0:2|0:2,0:0:0:0:
355,0,185136,1,2,0:2:0:0:
361,25,185318,5,2,0:2:0:0:
349,76,185408,1,0,0:0:0:0:
383,116,185499,1,2,0:2:0:0:
365,166,185590,1,0,0:0:0:0:
403,202,185681,1,10,0:2:0:0:
472,145,185864,5,2,0:2:0:0:
492,206,185954,1,0,0:0:0:0:
465,265,186045,1,2,0:2:0:0:
405,290,186136,1,0,0:0:0:0:
344,267,186227,1,2,0:2:0:0:
198,178,186409,5,2,0:2:0:0:
212,208,186499,1,0,0:0:0:0:
226,238,186590,1,2,0:2:0:0:
240,268,186681,1,0,0:0:0:0:
254,298,186772,21,10,0:2:0:0:
203,343,186864,1,0,0:0:0:0:
170,284,186955,1,2,0:2:0:0:
225,237,187045,1,0,0:0:0:0:
284,190,187136,2,0,L|314:256,1,66.6666666666667,2|0,0:2|0:0,0:0:0:0:
111,333,187318,1,2,0:2:0:0:
84,331,187500,5,2,0:2:0:0:
35,285,187591,1,0,0:0:0:0:
101,265,187682,1,2,0:2:0:0:
170,284,187773,1,0,0:0:0:0:
203,343,187864,21,10,0:2:0:0:
279,365,187955,1,0,0:0:0:0:
349,329,188045,1,2,0:2:0:0:
356,249,188136,1,0,0:0:0:0:
305,186,188227,1,2,0:2:0:0:
238,194,188318,1,0,0:0:0:0:
182,156,188409,5,6,0:0:0:0:
226,125,188500,1,0,0:0:0:0:
277,140,188591,1,8,2:0:0:0:
305,186,188682,1,8,2:0:0:0:
289,236,188773,1,8,2:0:0:0:
299,288,188864,1,8,2:0:0:0:
349,329,188955,21,8,2:0:0:0:
427,318,189045,1,8,2:0:0:0:
460,252,189136,1,8,0:0:0:0:
439,188,189227,1,8,0:0:0:0:
389,154,189318,1,8,0:0:0:0:
373,102,189409,1,8,0:0:0:0:
393,60,189500,6,0,B|411:101|411:101|399:140,1,66.6666666666667,6|0,0:2|0:0,0:0:0:0:
305,186,189682,1,2,0:2:0:0:
238,194,189773,1,0,0:0:0:0:
182,156,189864,1,2,0:2:0:0:
175,89,189955,1,0,0:0:0:0:
211,33,190045,5,10,0:2:0:0:
210,66,190135,1,0,0:0:0:0:
197,96,190226,1,2,0:2:0:0:
177,123,190317,1,0,0:0:0:0:
157,149,190408,1,2,0:2:0:0:
140,178,190499,1,0,0:0:0:0:
134,211,190591,5,2,0:2:0:0:
113,172,190681,1,0,0:0:0:0:
71,160,190772,1,2,0:2:0:0:
33,180,190863,1,0,0:0:0:0:
20,221,190954,1,2,0:2:0:0:
39,260,191045,1,0,0:0:0:0:
81,273,191136,5,10,0:2:0:0:
55,312,191227,1,0,0:0:0:0:
64,357,191318,1,2,0:2:0:0:
102,383,191409,1,0,0:0:0:0:
148,383,191500,1,2,0:2:0:0:
182,351,191591,1,0,0:0:0:0:
189,305,191682,6,0,B|256:322|256:322|318:299,1,133.333333333333,2|2,0:2|0:2,0:0:0:0:
221,96,191955,1,0,0:0:0:0:
229,128,192045,1,2,0:2:0:0:
238,160,192136,1,0,0:0:0:0:
247,192,192227,2,0,B|265:258|265:258|316:300,1,133.333333333333,10|2,0:2|0:2,0:0:0:0:
83,38,192500,5,0,0:0:0:0:
91,70,192590,1,2,0:2:0:0:
100,102,192681,1,0,0:0:0:0:
109,134,192773,2,0,L|127:200,1,66.6666666666667,2|0,0:2|0:0,0:0:0:0:
137,229,192955,6,0,B|112:292|112:292|57:220|57:220|111:215,1,200,2|0,0:2|0:0,0:0:0:0:
209,273,193318,2,0,L|179:349,1,66.6666666666667,14|0,0:0|0:0,0:0:0:0:
42,140,193500,2,0,L|122:132,1,66.6666666666667,2|0,0:2|0:0,0:0:0:0:
43,338,193682,2,0,L|-4:276,1,66.6666666666667,2|0,0:2|0:0,0:0:0:0:
209,195,193864,1,6,0:2:0:0:
232,183,194045,5,2,0:2:0:0:
254,206,194135,1,0,0:0:0:0:
285,220,194226,1,2,0:2:0:0:
318,221,194317,1,0,0:0:0:0:
350,211,194409,21,10,0:2:0:0:
309,178,194499,1,0,0:0:0:0:
310,127,194590,1,2,0:2:0:0:
351,96,194681,1,0,0:0:0:0:
401,109,194772,1,2,0:2:0:0:
425,157,194864,6,0,P|402:83|440:28,1,133.333333333333
310,127,195136,1,2,0:2:0:0:
248,152,195227,1,0,0:0:0:0:
187,122,195318,1,2,0:2:0:0:
176,56,195409,1,0,0:0:0:0:
214,1,195500,5,10,0:2:0:0:
227,31,195590,1,0,0:0:0:0:
224,63,195681,1,2,0:2:0:0:
204,90,195772,1,0,0:0:0:0:
174,104,195863,1,2,0:2:0:0:
142,101,195954,1,0,0:0:0:0:
115,81,196045,5,2,0:2:0:0:
120,102,196135,1,0,0:0:0:0:
122,124,196226,1,2,0:2:0:0:
121,146,196317,1,0,0:0:0:0:
117,168,196408,1,2,0:2:0:0:
112,190,196499,1,0,0:0:0:0:
106,211,196590,1,10,0:2:0:0:
102,233,196681,1,0,0:0:0:0:
99,255,196772,1,2,0:2:0:0:
99,277,196863,1,0,0:0:0:0:
102,300,196954,1,2,0:2:0:0:
106,321,197044,1,0,0:0:0:0:
111,341,197136,5,2,0:2:0:0:
71,320,197226,1,0,0:0:0:0:
45,285,197317,1,2,0:2:0:0:
37,241,197408,1,0,0:0:0:0:
48,199,197499,1,2,0:2:0:0:
76,165,197590,1,0,0:0:0:0:
116,147,197681,1,10,0:2:0:0:
160,148,197772,1,0,0:0:0:0:
200,168,197863,1,2,0:2:0:0:
226,203,197954,1,0,0:0:0:0:
235,246,198045,1,2,0:2:0:0:
225,289,198135,1,0,0:0:0:0:
197,328,198227,5,6,0:2:0:0:
166,254,198318,1,0,0:0:0:0:
226,203,198409,1,2,0:2:0:0:
302,227,198500,1,0,0:0:0:0:
300,307,198591,1,2,0:2:0:0:
361,358,198682,1,0,0:0:0:0:
432,322,198773,21,10,0:2:0:0:
444,256,198864,1,0,0:0:0:0:
403,211,198955,1,2,0:2:0:0:
384,161,199045,1,0,0:0:0:0:
399,116,199136,1,2,0:2:0:0:
435,100,199227,1,0,0:0:0:0:
466,110,199318,5,6,0:0:0:0:
370,280,199455,1,8,0:0:0:0:
314,111,199591,21,6,0:0:0:0:
432,322,199728,1,8,0:0:0:0:
164,181,199864,6,0,L|179:245,1,50,6|0,0:0|0:0,0:0:0:0:
98,354,200000,2,0,L|110:306,1,50,8|8,0:0|0:0,0:0:0:0:
189,154,200136,22,0,L|204:218,1,50,6|0,0:0|0:0,0:0:0:0:
65,369,200273,2,0,L|77:321,1,50,2|0,0:0|0:0,0:0:0:0:
211,128,200409,6,0,B|249:109|258:73|258:73|294:88|327:74|327:74|326:109|352:139|352:139|318:163|308:197|308:197|324:233|324:233|300:291|300:291|343:292|374:326|374:326|368:269|368:269,1,525.000020027161,6|6,0:0|0:0,0:0:0:0:
487,262,200955,6,0,B|456:172|456:172|471:133,1,112.500004291535,2|0,0:0|0:0,0:0:0:0:
490,86,201227,2,0,L|453:178,1,75.0000028610231,8|8,0:0|0:0,0:0:0:0:
369,279,201500,6,0,P|321:278|282:302,1,75.0000028610231,2|8,0:0|0:0,0:0:0:0:
270,356,201773,2,0,P|294:314|293:269,1,75.0000028610231,8|8,0:0|0:0,0:0:0:0:
108,262,202045,2,0,P|144:294|212:296,1,112.500004291535,2|0,0:0|0:0,0:0:0:0:
259,208,202318,2,0,P|221:237|207:304,1,112.500004291535,8|0,0:0|0:0,0:0:0:0:
108,262,202591,6,0,L|94:323,2,50,10|0|0,0:0|0:0|0:0,0:0:0:0:
156,48,202864,1,10,0:0:0:0:
161,23,202932,1,0,0:0:0:0:
167,0,203000,1,0,0:0:0:0:
71,280,203136,6,0,L|57:341,2,50,10|0|0,0:0|0:0|0:0,0:0:0:0:
119,66,203409,1,10,0:0:0:0:
124,41,203477,1,0,0:0:0:0:
129,17,203545,1,0,0:0:0:0:
36,293,203682,6,0,L|22:354,2,50,10|0|0,0:0|0:0|0:0,0:0:0:0:
82,78,203955,1,10,0:0:0:0:
87,53,204023,1,0,0:0:0:0:
92,29,204091,1,0,0:0:0:0:
269,193,204227,6,0,L|257:144,1,50,8|8,0:0|0:0,0:0:0:0:
332,27,204364,2,0,L|320:75,1,50,8|8,0:0|0:0,0:0:0:0:
236,72,204500,22,0,L|224:23,1,50,8|8,0:0|0:0,0:0:0:0:
419,32,204637,2,0,L|407:80,1,50,8|8,0:0|0:0,0:0:0:0:
367,175,204773,6,0,P|414:159|451:169,1,75.0000028610231,6|8,0:0|0:0,0:0:0:0:
439,349,205045,2,0,B|408:282|408:282|413:236,1,112.500004291535,2|0,0:0|0:0,0:0:0:0:
344,350,205318,2,0,L|261:347,1,75.0000028610231,2|8,0:0|0:0,0:0:0:0:
225,273,205591,2,0,L|299:270,1,75.0000028610231,8|8,0:0|0:0,0:0:0:0:
177,347,205864,5,2,0:0:0:0:
145,279,206000,1,8,0:0:0:0:
175,210,206136,2,0,B|116:201|116:201|73:256,1,112.500004291535,8|0,0:0|0:0,0:0:0:0:
65,338,206409,2,0,B|102:291|102:291|76:226,1,112.500004291535,2|0,0:0|0:0,0:0:0:0:
32,110,206682,2,0,L|166:130,1,112.500004291535,8|0,0:0|0:0,0:0:0:0:
266,46,206955,6,0,L|242:-11,2,50,10|0|0,0:0|0:0|0:0,0:0:0:0:
384,326,207227,1,10,0:0:0:0:
393,349,207295,1,0,0:0:0:0:
403,372,207363,1,0,0:0:0:0:
300,46,207500,6,0,L|276:-11,2,50,10|0|0,0:0|0:0|0:0,0:0:0:0:
418,326,207773,1,10,0:0:0:0:
427,349,207841,1,0,0:0:0:0:
437,372,207909,1,0,0:0:0:0:
333,46,208045,6,0,L|309:-11,2,50,10|0|0,0:0|0:0|0:0,0:0:0:0:
451,326,208318,1,10,0:0:0:0:
460,349,208386,1,0,0:0:0:0:
470,372,208454,1,0,0:0:0:0:
430,36,208591,5,8,0:0:0:0:
422,58,208659,1,8,0:0:0:0:
414,82,208727,1,8,0:0:0:0:
406,106,208795,1,8,0:0:0:0:
390,143,208864,5,8,0:0:0:0:
367,132,208932,1,8,0:0:0:0:
343,127,209000,1,8,0:0:0:0:
318,130,209068,1,8,0:0:0:0:
291,144,209136,6,0,P|348:171|365:167,1,75.0000028610231,6|8,0:0|0:0,0:0:0:0:
451,326,209409,1,2,0:0:0:0:
487,217,209545,1,2,0:0:0:0:
239,225,209682,2,0,P|182:198|165:202,2,75.0000028610231,2|8|8,0:0|0:0|0:0,0:0:0:0:
291,144,210091,1,8,0:0:0:0:
181,344,210227,6,0,B|168:306|168:306|186:271,1,75.0000028610231,2|8,0:0|0:0,0:0:0:0:
242,312,210500,2,0,B|215:342|215:342|176:344,1,75.0000028610231,8|8,0:0|0:0,0:0:0:0:
38,305,210773,6,0,B|14:265|14:265|26:221,1,89.9999972534181,2|0,0:0|0:0,0:0:0:0:
100,252,211046,2,0,B|79:294|79:294|34:305,1,89.9999972534181,8|0,0:0|0:0,0:0:0:0:
45,117,211318,6,0,B|86:160|86:160|142:167,1,100,6|10,0:0|0:0,0:0:0:0:
230,88,211591,2,0,L|115:73,1,100,0|10,0:0|0:0,0:0:0:0:
216,175,211864,5,0,0:0:0:0:
245,1,212000,1,10,0:0:0:0:
259,262,212136,21,0,0:0:0:0:
230,88,212272,1,10,0:0:0:0:
299,340,212409,6,0,L|324:389,2,50,10|0|0,0:0|0:0|0:0,0:0:0:0:
147,44,212682,2,0,L|124:0,2,50,10|0|0,0:0|0:0|0:0,0:0:0:0:
504,136,212955,6,0,L|512:185,1,50,8|8,0:0|0:0,0:0:0:0:
310,179,213091,2,0,L|319:126,1,50,8|8,0:0|0:0,0:0:0:0:
479,157,213227,6,0,L|487:206,1,50,8|8,0:0|0:0,0:0:0:0:
337,206,213363,2,0,L|346:153,1,50,8|8,0:0|0:0,0:0:0:0:
408,0,213500,6,0,L|411:117,1,112.500004291535,6|0,0:0|0:0,0:0:0:0:
416,319,213773,2,0,L|413:206,1,112.500004291535,2|0,0:0|0:0,0:0:0:0:
310,179,214045,6,0,P|265:204|192:173,1,112.500004291535,2|0,0:0|0:0,0:0:0:0:
239,55,214318,2,0,L|254:136,1,75.0000028610231,8|8,0:0|0:0,0:0:0:0:
220,286,214591,6,0,P|164:261|110:268,1,112.500004291535,2|0,0:0|0:0,0:0:0:0:
8,246,214864,2,0,P|64:271|118:264,1,112.500004291535,8|0,0:0|0:0,0:0:0:0:
74,178,215136,5,10,0:0:0:0:
152,351,215273,1,0,0:0:0:0:
191,92,215409,21,10,0:0:0:0:
113,265,215546,1,0,0:0:0:0:
32,86,215682,5,6,0:0:0:0:
32,86,215818,1,0,0:0:0:0:
359,100,215955,2,0,L|317:205,1,100,10|0,0:0|0:0,0:0:0:0:
191,92,216227,2,0,L|212:42,2,50,2|0|0,0:0|0:0|0:0,0:0:0:0:
467,306,216500,2,0,L|504:213,1,100,10|0,0:0|0:0,0:0:0:0:
237,215,216773,6,0,P|284:274|362:275,1,150,2|0,0:0|0:0,0:0:0:0:
373,263,217045,1,10,0:0:0:0:
77,300,217182,2,0,P|124:359|155:270,1,200,2|0,0:0|0:0,0:0:0:0:
40,210,217591,2,0,P|88:211|137:177,1,100,8|8,0:0|0:0,0:0:0:0:
58,33,217864,6,0,L|65:138,1,100,6|0,0:0|0:0,0:0:0:0:
237,215,218136,2,0,L|243:115,1,100,10|0,0:0|0:0,0:0:0:0:
131,184,218409,1,2,0:0:0:0:
339,59,218545,1,0,0:0:0:0:
162,277,218682,1,10,0:0:0:0:
425,130,218818,6,0,B|421:189|421:189|442:237,1,100,0|2,0:0|0:0,0:0:0:0:
457,121,219091,2,0,B|453:180|453:180|474:228,1,100,0|10,0:0|0:0,0:0:0:0:
512,301,219364,1,0,0:0:0:0:
339,59,219500,6,0,L|334:120,1,50,2|0,0:1|0:0,0:0:0:0:
320,43,219636,2,0,L|315:104,1,50,8|8,0:0|0:0,0:0:0:0:
130,184,219773,1,8,2:0:0:0:
132,159,219841,1,8,2:0:0:0:
134,134,219909,1,8,2:0:0:0:
136,109,219977,1,8,2:0:0:0:
139,84,220045,6,0,B|88:107|88:107|82:169,1,100,6|0,0:0|0:0,0:0:0:0:
237,215,220318,1,10,0:0:0:0:
243,129,220455,1,0,0:0:0:0:
37,228,220591,1,2,0:0:0:0:
56,30,220727,2,0,L|36:233,1,200,10|0,0:0|0:0,0:0:0:0:
185,342,221136,6,0,P|160:284|116:350,1,150,2|0,0:0|0:0,0:0:0:0:
110,349,221409,1,10,0:0:0:0:
261,335,221545,1,0,0:0:0:0:
237,215,221682,5,2,0:0:0:0:
185,342,221818,1,10,0:0:0:0:
338,326,221955,1,6,0:0:0:0:
110,349,222091,1,0,0:0:0:0:
193,149,222227,6,0,L|235:48,1,100,14|0,0:0|0:0,0:0:0:0:
376,233,222500,2,0,L|337:325,1,100,10|0,0:0|0:0,0:0:0:0:
169,126,222773,6,0,L|211:25,1,100,10|0,0:0|0:0,0:0:0:0:
404,256,223045,2,0,L|365:348,1,100,10|0,0:0|0:0,0:0:0:0:
146,229,223318,5,8,2:0:0:0:
129,209,223386,1,8,2:0:0:0:
113,190,223454,1,8,2:0:0:0:
97,171,223522,1,8,2:0:0:0:
79,152,223591,2,0,L|55:210,1,50,8|8,0:0|0:0,0:0:0:0:
169,126,223727,2,0,L|126:78,1,50,8|8,0:0|0:0,0:0:0:0:
146,229,223864,5,6,0:0:0:0:
163,249,223932,1,0,0:0:0:0:
179,268,224000,1,0,0:0:0:0:
195,287,224068,1,0,0:0:0:0:
213,306,224137,2,0,L|237:248,1,50,8|8,0:0|0:0,0:0:0:0:
123,332,224273,2,0,L|166:380,1,50,8|8,0:0|0:0,0:0:0:0:
266,186,224409,6,0,L|307:89,1,100,6|0,0:0|0:0,0:0:0:0:
414,308,224682,1,10,0:0:0:0:
213,306,224818,1,0,0:0:0:0:
304,93,224955,6,0,L|326:42,2,50
223,286,225227,1,10,0:0:0:0:
424,288,225363,1,0,0:0:0:0:
247,5,225500,6,0,L|208:97,1,100,2|0,0:0|0:0,0:0:0:0:
304,93,225773,1,8,0:0:0:0:
143,21,225909,2,0,B|116:85|116:85|132:147|132:147|103:218,1,200,6|8,0:0|0:0,0:0:0:0:
0,236,226318,2,0,L|38:143,1,100,8|8,0:0|0:0,0:0:0:0:
261,173,226591,6,0,P|317:184|364:161,1,100,6|0,0:0|0:0,0:0:0:0:
442,9,226864,2,0,P|404:51|400:104,1,100,10|0,0:0|0:0,0:0:0:0:
475,236,227136,6,0,L|526:281,2,50,10|0|0,0:0|0:0|0:0,0:0:0:0:
303,97,227409,1,10,0:0:0:0:
485,86,227545,1,0,0:0:0:0:
304,257,227682,5,10,0:0:0:0:
261,173,227818,1,0,0:0:0:0:
356,178,227955,1,10,0:0:0:0:
304,257,228091,1,0,0:0:0:0:
303,97,228227,5,10,0:0:0:0:
247,323,228364,1,0,0:0:0:0:
247,27,228500,21,14,0:0:0:0:
304,257,228637,1,0,0:0:0:0:
399,47,228773,6,0,L|374:149,1,100,14|0,0:0|0:0,0:0:0:0:
220,204,229045,2,0,L|196:106,1,100,10|0,0:0|0:0,0:0:0:0:
304,257,229318,1,0,0:0:0:0:
117,139,229455,1,10,0:0:0:0:
281,0,229591,2,0,L|305:102,1,100
148,270,229864,6,0,P|92:232|73:300,1,150,14|0,0:0|0:0,0:0:0:0:
81,313,230136,1,10,0:0:0:0:
220,204,230273,2,0,P|246:283|208:347,1,150
194,349,230545,1,10,0:0:0:0:
342,104,230682,2,0,P|316:183|354:247,1,150,2|0,0:0|0:0,0:0:0:0:
439,259,230955,6,0,B|450:199|405:171,1,100,14|0,0:0|0:0,0:0:0:0:
275,34,231226,1,10,0:0:0:0:
275,34,231363,1,0,0:0:0:0:
439,259,231500,6,0,B|422:200|369:194,1,100,10|0,0:0|0:0,0:0:0:0:
159,30,231772,1,10,0:0:0:0:
159,30,231909,1,0,0:0:0:0:
439,259,232045,6,0,B|404:208|352:220,1,100,10|0,0:0|0:0,0:0:0:0:
58,77,232318,1,10,0:0:0:0:
58,77,232455,1,0,0:0:0:0:
439,259,232591,6,0,B|389:223|344:252,1,100,10|0,0:0|0:0,0:0:0:0:
0,168,232864,1,10,0:0:0:0:
0,168,233001,1,0,0:0:0:0:
299,384,233136,5,6,0:0:0:0:
309,359,233204,1,0,0:0:0:0:
319,336,233272,1,0,0:0:0:0:
330,314,233340,1,0,0:0:0:0:
342,291,233409,2,0,L|380:340,1,50,8|8,2:0|2:0,0:0:0:0:
248,289,233545,2,0,L|277:231,1,50,8|8,2:0|2:0,0:0:0:0:
393,113,233682,5,6,0:0:0:0:
383,138,233750,1,0,0:0:0:0:
373,161,233818,1,0,0:0:0:0:
362,183,233886,1,0,0:0:0:0:
350,206,233955,2,0,L|311:156,1,50,8|8,0:0|0:0,0:0:0:0:
444,208,234091,2,0,L|414:265,1,50,8|8,0:0|0:0,0:0:0:0:
171,241,234227,5,6,0:0:0:0:
193,196,234295,1,0,0:0:0:0:
216,151,234363,1,0,0:0:0:0:
238,107,234431,1,0,0:0:0:0:
261,62,234500,2,0,L|291:101,1,50,8|8,0:0|0:0,0:0:0:0:
148,110,234636,2,0,L|172:66,1,50,8|8,0:0|0:0,0:0:0:0:
341,54,234773,6,0,B|319:95|319:95|284:103,1,75.0000028610231,6|0,0:0|0:0,0:0:0:0:
98,157,234909,2,0,B|120:116|120:116|155:108,1,75.0000028610231
421,46,235045,22,0,B|399:87|399:87|364:95,1,75.0000028610231,8|8,0:0|0:0,0:0:0:0:
26,170,235181,2,0,B|48:129|48:129|83:121,1,75.0000028610231,8|8,0:0|0:0,0:0:0:0:
424,193,235318,6,0,P|397:261|350:206,1,175,6|0,0:0|0:0,0:0:0:0:
502,86,235864,2,0,P|489:121|503:163,1,75,2|0,0:0|0:0,0:0:0:0:
451,324,236136,1,8,2:0:0:0:
385,338,236227,1,8,2:0:0:0:
321,317,236318,1,8,2:0:0:0:
274,269,236409,6,0,L|267:324,1,50,10|0,0:0|0:0,0:0:0:0:
162,355,236682,2,0,L|155:305,1,50,2|0,0:0|0:0,0:0:0:0:
356,156,236955,22,0,L|349:211,1,50,4|0,0:1|0:0,0:0:0:0:
199,233,237227,2,0,L|192:183,1,50,8|8,2:0|2:0,0:0:0:0:
248,33,237500,6,0,L|236:119,1,75,6|0,0:0|0:0,0:0:0:0:
45,163,237773,1,8,2:0:0:0:
94,127,237864,1,8,2:0:0:0:
152,140,237955,1,8,2:0:0:0:
192,183,238045,22,0,P|151:193|111:174,1,75,2|0,0:0|0:0,0:0:0:0:
237,107,238318,1,8,2:0:0:0:
276,143,238409,1,8,2:0:0:0:
286,195,238500,1,8,2:0:0:0:
277,247,238591,6,0,L|326:214,1,50,2|0,0:0|0:0,0:0:0:0:
274,21,238864,2,0,L|323:54,1,50,2|0,0:0|0:0,0:0:0:0:
411,252,239136,6,0,L|460:219,1,50,4|0,0:1|0:0,0:0:0:0:
408,26,239409,2,0,L|457:59,1,50,8|8,2:0|2:0,0:0:0:0:
323,341,239682,6,0,P|289:367|247:366,1,75,6|0,0:0|0:0,0:0:0:0:
54,198,239955,1,8,2:0:0:0:
64,229,240045,1,8,2:0:0:0:
75,261,240136,1,8,2:0:0:0:
86,292,240227,22,0,L|110:365,1,75,2|0,0:0|0:0,0:0:0:0:
256,263,240500,1,8,2:0:0:0:
246,232,240590,1,8,2:0:0:0:
235,200,240681,1,8,2:0:0:0:
223,168,240773,6,0,P|186:173|146:163,1,75,2|0,0:0|0:0,0:0:0:0:
108,88,241045,2,0,P|145:83|185:93,1,75,8|0,2:0|0:0,0:0:0:0:
194,355,241318,6,0,B|170:280|170:280|229:153,1,202.500000772476,14|0,0:0|0:0,0:0:0:0:
313,201,241591,2,0,B|340:268|340:268|256:279|256:279|278:232,1,202.500000772476,14|0,0:0|0:0,0:0:0:0:
366,124,241864,6,0,L|407:225,1,100,6|0,0:0|0:0,0:0:0:0:
194,355,242136,1,2,0:0:0:0:
186,330,242204,1,0,0:0:0:0:
179,306,242272,1,0,0:0:0:0:
171,282,242340,1,0,0:0:0:0:
163,257,242409,2,0,L|131:161,1,100,10|0,0:0|0:0,0:0:0:0:
434,118,242682,1,2,0:0:0:0:
426,143,242750,1,0,0:0:0:0:
419,167,242818,1,0,0:0:0:0:
411,191,242886,1,0,0:0:0:0:
403,216,242955,2,0,L|371:312,1,100,2|0,0:0|0:0,0:0:0:0:
93,376,243227,1,2,0:0:0:0:
85,351,243295,1,0,0:0:0:0:
78,327,243363,1,0,0:0:0:0:
70,303,243431,1,0,0:0:0:0:
62,278,243500,2,0,L|30:182,1,100,10|0,0:0|0:0,0:0:0:0:
251,52,243773,5,2,0:0:0:0:
259,77,243841,1,0,0:0:0:0:
267,100,243909,1,0,0:0:0:0:
275,124,243977,1,0,0:0:0:0:
282,148,244046,2,0,P|228:150|186:182,1,100,6|0,0:0|0:0,0:0:0:0:
196,353,244319,1,2,0:0:0:0:
189,328,244387,1,0,0:0:0:0:
181,305,244455,1,0,0:0:0:0:
173,281,244523,1,0,0:0:0:0:
165,257,244592,2,0,P|218:254|260:222,1,100,10|0,0:0|0:0,0:0:0:0:
358,358,244864,1,2,0:0:0:0:
367,333,244932,1,0,0:0:0:0:
375,310,245000,1,0,0:0:0:0:
383,286,245068,1,0,0:0:0:0:
390,263,245137,6,0,P|468:281|421:198,1,225.000008583069,6|0,0:0|0:0,0:0:0:0:
391,126,245409,2,0,P|423:117|461:121,3,62.5,2|0|0|0,0:0|0:0|0:0|0:0,0:0:0:0:
255,228,245682,1,8,2:0:0:0:
233,220,245750,1,8,2:0:0:0:
217,204,245818,1,8,2:0:0:0:
205,184,245886,1,8,2:0:0:0:
199,162,245954,1,2,0:0:0:0:
193,140,246022,1,0,0:0:0:0:
180,120,246091,1,2,0:0:0:0:
165,103,246159,1,0,0:0:0:0:
149,92,246227,6,0,P|212:91|247:70,1,100,6|0,0:0|0:0,0:0:0:0:
391,126,246500,1,2,0:0:0:0:
397,154,246568,1,0,0:0:0:0:
400,182,246637,1,0,0:0:0:0:
399,210,246705,1,0,0:0:0:0:
394,235,246774,2,0,P|447:219|500:237,1,100,10|0,0:0|0:0,0:0:0:0:
255,228,247046,1,2,0:0:0:0:
227,234,247114,1,0,0:0:0:0:
199,237,247183,1,0,0:0:0:0:
171,236,247251,1,0,0:0:0:0:
146,231,247318,2,0,P|162:284|144:337,1,100,2|0,0:0|0:0,0:0:0:0:
289,332,247591,1,2,0:0:0:0:
317,326,247659,1,0,0:0:0:0:
345,323,247728,1,0,0:0:0:0:
373,324,247796,1,0,0:0:0:0:
398,329,247864,2,0,P|382:276|400:223,1,100,10|0,0:0|0:0,0:0:0:0:
28,165,248137,5,2,0:0:0:0:
36,189,248205,1,0,0:0:0:0:
43,213,248273,1,0,0:0:0:0:
50,237,248341,1,0,0:0:0:0:
58,260,248410,2,0,B|101:225|101:225|148:231,1,100,6|0,0:0|0:0,0:0:0:0:
115,134,248682,1,2,0:0:0:0:
108,111,248750,1,0,0:0:0:0:
101,87,248818,1,0,0:0:0:0:
94,63,248886,1,0,0:0:0:0:
87,43,248955,2,0,B|44:78|44:78|-3:72,1,100,10|0,0:0|0:0,0:0:0:0:
195,63,249227,2,0,L|212:119,3,50,2|0|0|0,0:0|0:0|0:0|0:0,0:0:0:0:
294,25,249500,5,8,2:0:0:0:
297,62,249568,1,8,2:0:0:0:
312,95,249636,1,8,2:0:0:0:
339,122,249704,1,8,2:0:0:0:
373,138,249773,2,0,P|416:139|446:127,3,62.5,8|8|8|8,0:0|0:0|0:0|0:0,0:0:0:0:
267,172,250045,5,8,2:0:0:0:
263,209,250113,1,8,2:0:0:0:
248,242,250181,1,8,2:0:0:0:
221,269,250249,1,8,2:0:0:0:
188,285,250318,2,0,P|145:286|112:273,3,62.5,8|8|8|8,0:0|0:0|0:0|0:0,0:0:0:0:
297,319,250591,5,6,0:0:0:0:
317,311,250659,1,0,0:0:0:0:
338,310,250727,1,0,0:0:0:0:
359,312,250795,1,0,0:0:0:0:
380,316,250863,1,2,0:0:0:0:
402,318,250931,1,0,0:0:0:0:
423,319,251000,1,0,0:0:0:0:
444,315,251068,1,0,0:0:0:0:
464,311,251136,2,0,L|451:249,3,50,10|0|0|0,0:0|0:0|0:0|0:0,0:0:0:0:
363,223,251409,2,0,L|376:161,3,50,2|0|0|0,0:0|0:0|0:0|0:0,0:0:0:0:
297,319,251682,5,2,0:0:0:0:
265,339,251750,1,0,0:0:0:0:
229,348,251818,1,0,0:0:0:0:
192,345,251886,1,0,0:0:0:0:
161,324,251955,2,0,L|179:270,3,50,2|0|0|0,0:0|0:0|0:0|0:0,0:0:0:0:
58,354,252227,5,10,0:0:0:0:
66,326,252295,1,0,0:0:0:0:
75,299,252363,1,0,0:0:0:0:
84,272,252431,1,0,0:0:0:0:
93,245,252499,1,2,0:0:0:0:
102,218,252567,1,0,0:0:0:0:
111,191,252636,1,0,0:0:0:0:
120,163,252704,1,0,0:0:0:0:
130,135,252773,5,6,0:0:0:0:
158,174,252841,1,0,0:0:0:0:
206,187,252909,1,0,0:0:0:0:
251,168,252977,1,0,0:0:0:0:
274,124,253045,1,2,0:0:0:0:
265,76,253113,1,0,0:0:0:0:
228,44,253182,1,0,0:0:0:0:
179,42,253250,1,0,0:0:0:0:
136,67,253318,2,0,P|102:67|83:56,3,50,10|0|0|0,0:0|0:0|0:0|0:0,0:0:0:0:
47,133,253591,2,0,P|13:133|-6:144,3,50,2|0|0|0,0:0|0:0|0:0|0:0,0:0:0:0:
201,113,253864,5,6,0:0:0:0:
225,141,253932,1,0,0:0:0:0:
256,162,254000,1,0,0:0:0:0:
291,173,254068,1,0,0:0:0:0:
329,175,254136,1,2,0:0:0:0:
365,165,254204,1,0,0:0:0:0:
397,147,254273,1,0,0:0:0:0:
423,120,254341,1,0,0:0:0:0:
436,85,254409,5,10,0:0:0:0:
419,107,254477,1,0,0:0:0:0:
413,134,254545,1,0,0:0:0:0:
414,162,254613,1,0,0:0:0:0:
417,190,254682,1,2,0:0:0:0:
420,218,254750,1,0,0:0:0:0:
421,246,254818,1,0,0:0:0:0:
415,273,254886,1,0,0:0:0:0:
403,295,254955,6,0,P|456:277|432:349,1,150,6|0,0:0|0:0,0:0:0:0:
347,358,255227,1,2,0:0:0:0:
321,349,255295,1,8,0:0:0:0:
295,339,255363,1,0,0:0:0:0:
269,331,255431,1,8,0:0:0:0:
242,327,255499,5,2,0:0:0:0:
215,326,255567,1,8,0:0:0:0:
188,329,255636,1,0,0:0:0:0:
161,333,255704,1,8,0:0:0:0:
134,336,255772,1,2,0:0:0:0:
107,338,255840,1,8,0:0:0:0:
79,335,255908,1,0,0:0:0:0:
56,323,255977,1,8,0:0:0:0:
36,299,256045,5,2,0:0:0:0:
23,271,256113,1,8,0:0:0:0:
23,240,256181,1,0,0:0:0:0:
35,211,256249,1,8,0:0:0:0:
57,189,256317,1,2,0:0:0:0:
86,177,256385,1,8,0:0:0:0:
117,178,256454,1,0,0:0:0:0:
145,190,256522,1,8,0:0:0:0:
167,211,256591,5,2,0:0:0:0:
205,231,256659,1,8,0:0:0:0:
248,229,256727,1,0,0:0:0:0:
283,204,256795,1,8,0:0:0:0:
300,164,256863,1,2,0:0:0:0:
294,121,256931,1,8,0:0:0:0:
267,88,257000,1,0,0:0:0:0:
226,74,257068,1,8,0:0:0:0:
184,89,257136,5,6,0:0:0:0:
210,114,257204,1,8,0:0:0:0:
246,126,257272,1,0,0:0:0:0:
283,125,257340,1,8,0:0:0:0:
320,120,257408,1,2,0:0:0:0:
357,116,257476,1,8,0:0:0:0:
395,116,257545,1,0,0:0:0:0:
431,125,257613,1,8,0:0:0:0:
464,148,257682,5,2,0:0:0:0:
439,147,257750,1,8,0:0:0:0:
416,157,257818,1,0,0:0:0:0:
399,176,257886,1,8,0:0:0:0:
391,199,257954,1,2,0:0:0:0:
393,224,258022,1,8,0:0:0:0:
405,245,258091,1,0,0:0:0:0:
425,260,258159,1,8,0:0:0:0:
446,269,258227,5,6,0:0:0:0:
409,311,258295,1,8,0:0:0:0:
359,335,258363,1,0,0:0:0:0:
303,338,258431,1,8,0:0:0:0:
248,311,258500,2,0,P|285:277|320:277,3,75.0000028610231,2|8|0|8,0:0|0:0|0:0|0:0,0:0:0:0:
183,367,258773,5,2,0:0:0:0:
161,336,258841,1,0,0:0:0:0:
146,301,258909,1,0,0:0:0:0:
140,265,258977,1,0,0:0:0:0:
140,227,259045,1,8,2:0:0:0:
142,190,259113,1,8,2:0:0:0:
139,152,259182,1,8,2:0:0:0:
127,117,259250,1,8,2:0:0:0:
98,99,259318,6,0,P|58:180|139:138,1,225.000008583069,6|0,0:0|0:0,0:0:0:0:
272,28,259591,1,2,0:0:0:0:
284,55,259659,1,8,0:0:0:0:
288,84,259727,1,0,0:0:0:0:
283,113,259795,1,8,0:0:0:0:
274,142,259863,5,2,0:0:0:0:
308,156,259931,1,8,0:0:0:0:
345,165,260000,1,0,0:0:0:0:
382,166,260068,1,8,0:0:0:0:
417,151,260136,1,2,0:0:0:0:
448,131,260204,1,8,0:0:0:0:
464,98,260272,1,0,0:0:0:0:
459,61,260340,1,8,0:0:0:0:
434,33,260408,1,2,0:0:0:0:
399,24,260476,1,8,0:0:0:0:
364,35,260545,1,0,0:0:0:0:
340,64,260613,1,8,0:0:0:0:
335,101,260682,1,2,0:0:0:0:
335,138,260750,1,8,0:0:0:0:
348,173,260818,1,0,0:0:0:0:
372,202,260886,1,8,0:0:0:0:
405,221,260955,5,2,0:0:0:0:
341,227,261023,1,8,0:0:0:0:
280,247,261091,1,0,0:0:0:0:
224,279,261159,1,8,0:0:0:0:
165,304,261227,1,2,0:0:0:0:
106,286,261295,1,8,0:0:0:0:
97,227,261364,1,0,0:0:0:0:
141,187,261432,1,8,0:0:0:0:
199,199,261500,5,2,0:0:0:0:
174,226,261568,1,8,0:0:0:0:
139,238,261636,1,0,0:0:0:0:
103,230,261704,1,8,0:0:0:0:
76,204,261772,1,2,0:0:0:0:
66,169,261840,1,8,0:0:0:0:
75,133,261909,1,0,0:0:0:0:
101,107,261977,1,8,0:0:0:0:
138,98,262045,5,2,0:0:0:0:
175,99,262113,1,8,0:0:0:0:
212,105,262181,1,0,0:0:0:0:
249,113,262249,1,8,0:0:0:0:
285,120,262317,1,2,0:0:0:0:
323,122,262385,1,8,0:0:0:0:
360,118,262454,1,0,0:0:0:0:
395,106,262522,1,8,0:0:0:0:
424,81,262591,5,6,0:0:0:0:
398,130,262659,1,0,0:0:0:0:
389,186,262727,1,0,0:0:0:0:
398,241,262795,1,0,0:0:0:0:
427,286,262864,2,0,P|454:251|446:207,3,75.0000028610231,8|8|8|8,0:0|0:0|0:0|0:0,0:0:0:0:
346,305,263136,5,8,2:0:0:0:
324,322,263204,1,8,2:0:0:0:
299,336,263272,1,8,2:0:0:0:
273,346,263340,1,8,2:0:0:0:
245,351,263408,1,8,0:0:0:0:
217,352,263476,1,8,0:0:0:0:
189,348,263545,1,8,0:0:0:0:
162,340,263613,1,8,0:0:0:0:
137,323,263682,6,0,P|186:258|187:348,1,225.000008583069,6|0,0:0|0:0,0:0:0:0:
47,375,263955,1,2,0:0:0:0:
32,340,264023,1,8,0:0:0:0:
26,303,264091,1,0,0:0:0:0:
31,266,264159,1,8,0:0:0:0:
46,232,264227,5,2,0:0:0:0:
82,238,264295,1,8,0:0:0:0:
116,223,264363,1,0,0:0:0:0:
137,192,264431,1,8,0:0:0:0:
137,155,264499,1,2,0:0:0:0:
118,124,264567,1,8,0:0:0:0:
85,108,264636,1,0,0:0:0:0:
48,113,264704,1,8,0:0:0:0:
19,136,264773,5,2,0:0:0:0:
49,157,264841,1,8,0:0:0:0:
84,170,264909,1,0,0:0:0:0:
121,171,264977,1,8,0:0:0:0:
158,165,265045,1,2,0:0:0:0:
195,155,265113,1,8,0:0:0:0:
231,148,265182,1,0,0:0:0:0:
269,145,265250,1,8,0:0:0:0:
306,149,265318,5,2,0:0:0:0:
270,191,265386,1,8,0:0:0:0:
216,204,265454,1,0,0:0:0:0:
166,182,265522,1,8,0:0:0:0:
138,134,265590,1,2,0:0:0:0:
145,79,265658,1,8,0:0:0:0:
184,39,265727,1,0,0:0:0:0:
238,31,265795,1,8,0:0:0:0:
287,56,265864,1,2,0:0:0:0:
406,75,266955,5,6,0:0:0:0:
387,91,267022,1,8,0:0:0:0:
372,111,267090,1,0,0:0:0:0:
362,134,267159,1,8,0:0:0:0:
356,158,267226,1,2,0:0:0:0:
356,183,267295,1,8,0:0:0:0:
361,208,267364,1,0,0:0:0:0:
372,230,267432,1,8,0:0:0:0:
393,253,267500,5,6,0:0:0:0:
360,271,267568,1,8,0:0:0:0:
322,275,267636,1,0,0:0:0:0:
284,275,267705,1,8,0:0:0:0:
247,267,267773,1,2,0:0:0:0:
210,259,267841,1,8,0:0:0:0:
172,259,267909,1,0,0:0:0:0:
134,263,267977,1,8,0:0:0:0:
101,280,268046,5,6,0:0:0:0:
120,322,268113,1,8,0:0:0:0:
157,350,268182,1,0,0:0:0:0:
202,358,268249,1,8,0:0:0:0:
247,344,268318,1,2,0:0:0:0:
280,311,268385,1,8,0:0:0:0:
293,267,268454,1,0,0:0:0:0:
285,221,268522,1,8,0:0:0:0:
264,181,268591,5,6,0:0:0:0:
207,212,268659,1,8,0:0:0:0:
144,201,268727,1,0,0:0:0:0:
100,154,268795,1,8,0:0:0:0:
93,90,268863,1,8,2:3:0:0:
127,35,268931,1,8,2:3:0:0:
188,13,269000,1,8,2:3:0:0:
249,31,269068,1,8,2:3:0:0:
284,79,269136,6,0,L|187:117,1,100,14|0,0:0|0:0,0:0:0:0:
73,339,269409,2,0,L|166:375,1,100,8|0,0:0|0:0,0:0:0:0:
249,31,269682,21,8,0:0:0:0:
142,334,269818,2,0,L|235:370,1,100,8|0,0:0|0:0,0:0:0:0:
193,82,270091,22,0,L|96:120,1,100,8|0,0:0|0:0,0:0:0:0:
215,331,270364,1,8,0:0:0:0:
215,331,271318,5,14,0:0:0:0:
420,186,271455,1,0,0:0:0:0:
193,82,271591,1,0,0:0:0:0:
383,355,271727,5,10,0:0:0:0:
352,29,271864,1,0,0:0:0:0:
88,217,272000,1,0,0:0:0:0:
420,186,272136,5,10,0:0:0:0:
193,82,272273,1,0,0:0:0:0:
383,355,272409,1,0,0:0:0:0:
352,29,272545,5,8,0:0:0:0:
215,331,272682,1,0,0:0:0:0:
420,186,272818,1,0,0:0:0:0:
193,82,272955,5,8,2:0:0:0:
182,104,273023,1,8,2:0:0:0:
171,127,273091,1,8,2:0:0:0:
160,149,273159,1,8,2:0:0:0:
140,195,273227,21,8,2:0:0:0:
170,173,273295,1,8,2:0:0:0:
206,164,273364,1,8,2:0:0:0:
243,169,273431,1,8,2:0:0:0:
262,123,273499,21,8,0:0:0:0:
