osu file format v14

[General]
AudioFilename: 01. Jikininki comprimido.mp3
AudioLeadIn: 0
PreviewTime: 268228
Countdown: 0
SampleSet: Normal
StackLeniency: 0.7
Mode: 1
LetterboxInBreaks: 0
WidescreenStoryboard: 0

[Editor]
DistanceSpacing: 1.1
BeatDivisor: 2
GridSize: 32
TimelineZoom: 3.999998

[Metadata]
Title:Jikininki
TitleUnicode:Jikininki
Artist:Whispered
ArtistUnicode:Whispered
Creator:LZD
Version:Nwolf's Kantan
Source:
Tags:folk metal samurai raiden nwolf
BeatmapID:931662
BeatmapSetID:415048

[Difficulty]
HPDrainRate:5
CircleSize:4
OverallDifficulty:4
ApproachRate:9
SliderMultiplier:1.2
SliderTickRate:1

[Events]
//Background and Video events
0,0,"samurai_shogun_warrior_1920x1080_2125204898.jpg",0,25
//Break Periods
//Storyboard Layer 0 (Background)
//Storyboard Layer 1 (Fail)
//Storyboard Layer 2 (Pass)
//Storyboard Layer 3 (Foreground)
//Storyboard Sound Samples

[TimingPoints]
12956,272.727272727273,4,1,0,80,1,0
71319,-100,4,1,0,60,0,0
73774,-100,4,1,0,80,0,0
76092,-100,4,1,0,60,0,0
78137,-100,4,1,0,80,0,0
80319,-100,4,1,0,60,0,0
82501,-100,4,1,0,80,0,0
84410,-100,4,1,0,60,0,0
86592,-100,4,1,0,80,0,0
113319,-100,4,1,0,80,0,1
137319,-100,4,1,0,80,0,0
138410,-100,4,1,0,80,0,1
140592,-100,4,1,0,80,0,0
158183,-100,4,1,0,60,0,0
189410,-100,4,1,0,70,0,0
206865,-100,4,1,0,80,0,0
207137,-100,4,1,0,80,0,1
226637,-100,4,1,0,60,0,1
226774,-100,4,1,0,60,0,0
228819,-100,4,1,0,80,0,0
231001,-100,4,1,0,60,0,0
233183,-100,4,1,0,80,0,0
235365,-100,4,1,0,60,0,0
237410,-100,4,1,0,80,0,0
239592,-100,4,1,0,60,0,0
241774,-100,4,1,0,80,0,0
268228,-100,4,1,0,80,0,1
292228,-100,4,1,0,80,0,0
293319,-100,4,1,0,80,0,1
295501,-100,4,1,0,80,0,0

[HitObjects]
224,160,15137,5,0,0:0:0:0:
224,160,15410,1,0,0:0:0:0:
224,160,15683,1,0,0:0:0:0:
224,160,16092,1,0,0:0:0:0:
224,160,16365,1,0,0:0:0:0:
288,160,17319,1,8,0:0:0:0:
288,160,17865,1,8,0:0:0:0:
32,32,18410,2,0,L|448:32,1,360
224,160,19501,1,0,0:0:0:0:
224,160,19774,1,0,0:0:0:0:
224,160,20046,1,0,0:0:0:0:
224,160,20456,1,0,0:0:0:0:
224,160,20728,1,0,0:0:0:0:
288,160,21683,1,8,0:0:0:0:
288,160,22228,1,8,0:0:0:0:
288,224,22774,1,12,0:0:0:0:
288,224,23319,1,12,0:0:0:0:
224,160,23865,1,0,0:0:0:0:
224,160,24137,1,0,0:0:0:0:
224,160,24410,1,0,0:0:0:0:
224,160,24819,1,0,0:0:0:0:
224,160,25092,1,0,0:0:0:0:
288,160,26046,1,8,0:0:0:0:
288,160,26592,1,8,0:0:0:0:
32,32,27137,2,0,L|416:32,1,360
224,160,28228,1,0,0:0:0:0:
224,160,28501,1,0,0:0:0:0:
224,160,28774,1,0,0:0:0:0:
224,160,29183,1,0,0:0:0:0:
224,160,29456,1,0,0:0:0:0:
256,192,30410,12,0,31501,0:0:0:0:
224,160,32046,5,0,0:0:0:0:
224,224,32592,5,4,0:0:0:0:
224,160,32865,1,0,0:0:0:0:
224,160,33137,1,0,0:0:0:0:
288,160,33546,1,8,0:0:0:0:
288,160,33819,1,8,0:0:0:0:
288,160,34774,1,8,0:0:0:0:
288,160,35046,1,8,0:0:0:0:
288,160,35319,1,8,0:0:0:0:
224,160,35865,1,0,0:0:0:0:
224,160,36956,1,0,0:0:0:0:
224,160,37228,1,0,0:0:0:0:
224,160,37501,1,0,0:0:0:0:
288,160,37910,1,8,0:0:0:0:
288,160,38183,1,8,0:0:0:0:
288,160,39137,1,8,0:0:0:0:
288,160,39410,1,8,0:0:0:0:
288,160,39683,1,8,0:0:0:0:
224,160,40228,1,0,0:0:0:0:
224,160,40501,1,0,0:0:0:0:
288,160,40774,1,8,0:0:0:0:
224,224,41319,1,4,0:0:0:0:
224,160,41592,1,0,0:0:0:0:
224,160,41865,1,0,0:0:0:0:
288,160,42274,1,8,0:0:0:0:
288,160,42546,1,8,0:0:0:0:
288,160,43501,1,8,0:0:0:0:
288,160,43774,1,8,0:0:0:0:
288,160,44046,1,8,0:0:0:0:
224,160,44592,1,0,0:0:0:0:
224,160,45683,1,0,0:0:0:0:
224,160,45956,1,0,0:0:0:0:
224,160,46228,1,0,0:0:0:0:
288,160,46637,1,8,0:0:0:0:
288,160,46910,1,8,0:0:0:0:
288,160,47865,1,8,0:0:0:0:
288,160,48137,1,8,0:0:0:0:
288,160,48410,1,8,0:0:0:0:
32,32,48956,2,0,L|192:32,6,120
288,160,51137,1,8,0:0:0:0:
224,160,51683,1,0,0:0:0:0:
288,160,51956,1,8,0:0:0:0:
224,160,52501,1,0,0:0:0:0:
224,160,52774,1,0,0:0:0:0:
288,160,53319,1,8,0:0:0:0:
224,160,53728,1,0,0:0:0:0:
288,160,54410,1,8,0:0:0:0:
288,160,55228,1,8,0:0:0:0:
288,160,55774,1,8,0:0:0:0:
288,160,56046,1,8,0:0:0:0:
288,160,56319,1,8,0:0:0:0:
224,224,56592,1,4,0:0:0:0:
256,192,59865,12,0,60683,0:0:0:0:
224,224,60956,5,4,0:0:0:0:
288,160,61228,1,8,0:0:0:0:
288,160,61501,1,8,0:0:0:0:
224,160,61910,1,0,0:0:0:0:
288,160,63137,1,8,0:0:0:0:
224,160,63410,1,0,0:0:0:0:
224,160,63683,1,0,0:0:0:0:
288,160,64228,1,8,0:0:0:0:
224,160,65319,1,0,0:0:0:0:
288,160,65592,1,8,0:0:0:0:
288,160,65865,1,8,0:0:0:0:
224,160,66274,1,0,0:0:0:0:
288,160,67501,1,8,0:0:0:0:
224,160,67774,1,0,0:0:0:0:
224,160,68046,1,0,0:0:0:0:
288,160,68592,1,8,0:0:0:0:
224,160,69137,1,0,0:0:0:0:
288,224,69683,1,12,0:0:0:0:
224,224,70774,1,4,0:0:0:0:
224,224,71865,5,4,0:0:0:0:
224,160,72410,1,0,0:0:0:0:
224,160,72956,1,0,0:0:0:0:
288,160,74046,1,8,0:0:0:0:
288,160,74319,1,8,0:0:0:0:
288,160,74592,1,8,0:0:0:0:
288,160,75137,1,8,0:0:0:0:
288,160,75410,1,8,0:0:0:0:
288,160,75683,1,8,0:0:0:0:
224,160,76228,1,0,0:0:0:0:
224,160,76774,1,0,0:0:0:0:
224,160,77319,1,0,0:0:0:0:
288,160,78410,1,8,0:0:0:0:
288,160,78683,1,8,0:0:0:0:
288,160,78956,1,8,0:0:0:0:
288,160,79501,1,8,0:0:0:0:
288,160,79774,1,8,0:0:0:0:
288,160,80046,1,8,0:0:0:0:
224,160,80592,1,0,0:0:0:0:
224,160,81137,1,0,0:0:0:0:
224,160,81683,1,0,0:0:0:0:
224,160,82774,1,0,0:0:0:0:
288,160,83046,1,8,0:0:0:0:
288,160,83319,1,8,0:0:0:0:
288,160,83865,1,8,0:0:0:0:
288,160,84137,1,8,0:0:0:0:
224,160,84956,1,0,0:0:0:0:
224,160,85501,1,0,0:0:0:0:
224,160,86046,1,0,0:0:0:0:
288,224,87137,5,12,0:0:0:0:
288,160,88228,1,8,0:0:0:0:
288,160,88501,1,8,0:0:0:0:
224,224,89319,1,4,0:0:0:0:
288,160,90137,1,8,0:0:0:0:
288,160,90683,1,8,0:0:0:0:
224,160,90956,1,0,0:0:0:0:
288,224,91501,1,12,0:0:0:0:
224,160,92046,1,0,0:0:0:0:
288,160,92319,1,8,0:0:0:0:
224,160,92592,1,0,0:0:0:0:
224,160,93137,1,0,0:0:0:0:
224,224,93683,1,4,0:0:0:0:
288,160,94228,1,8,0:0:0:0:
224,160,94774,1,0,0:0:0:0:
224,160,95046,1,0,0:0:0:0:
224,160,95319,1,0,0:0:0:0:
288,224,95865,1,12,0:0:0:0:
224,160,96956,1,0,0:0:0:0:
288,160,97228,1,8,0:0:0:0:
224,160,98046,1,0,0:0:0:0:
288,160,98319,1,8,0:0:0:0:
224,160,98592,1,0,0:0:0:0:
288,160,99137,1,8,0:0:0:0:
288,160,99410,1,8,0:0:0:0:
224,160,99683,1,0,0:0:0:0:
288,224,100228,1,12,0:0:0:0:
224,160,100774,1,0,0:0:0:0:
288,160,101046,1,8,0:0:0:0:
224,160,101319,1,0,0:0:0:0:
224,224,102410,1,4,0:0:0:0:
288,160,102956,1,8,0:0:0:0:
224,160,103501,1,0,0:0:0:0:
224,160,103774,1,0,0:0:0:0:
288,160,104046,1,8,0:0:0:0:
288,160,104592,1,8,0:0:0:0:
224,160,104865,1,0,0:0:0:0:
224,160,105137,1,0,0:0:0:0:
224,160,105410,1,0,0:0:0:0:
288,160,105683,1,8,0:0:0:0:
288,160,106228,1,8,0:0:0:0:
224,224,106774,5,4,0:0:0:0:
224,224,108956,1,4,0:0:0:0:
224,224,111137,1,4,0:0:0:0:
224,224,113319,1,4,0:0:0:0:
288,160,113865,1,8,0:0:0:0:
288,224,114410,1,12,0:0:0:0:
224,224,115501,1,4,0:0:0:0:
288,160,116046,1,8,0:0:0:0:
288,224,116592,1,12,0:0:0:0:
288,160,117137,1,8,0:0:0:0:
224,224,117683,1,4,0:0:0:0:
288,160,118228,1,8,0:0:0:0:
288,224,118774,1,12,0:0:0:0:
224,224,119865,1,4,0:0:0:0:
288,160,120410,1,8,0:0:0:0:
288,224,120956,1,12,0:0:0:0:
288,160,121501,1,8,0:0:0:0:
224,224,122046,1,4,0:0:0:0:
224,160,122592,1,0,0:0:0:0:
288,224,123137,1,12,0:0:0:0:
224,224,124228,1,4,0:0:0:0:
224,160,124774,1,0,0:0:0:0:
288,224,125319,1,12,0:0:0:0:
224,160,125865,1,0,0:0:0:0:
224,224,126410,1,4,0:0:0:0:
288,160,126956,1,8,0:0:0:0:
288,224,127501,1,12,0:0:0:0:
224,224,128592,1,4,0:0:0:0:
288,160,129137,1,8,0:0:0:0:
288,224,129683,1,12,0:0:0:0:
288,160,130228,1,8,0:0:0:0:
224,224,130774,1,4,0:0:0:0:
288,160,131319,1,8,0:0:0:0:
288,160,132410,1,8,0:0:0:0:
224,160,132683,1,0,0:0:0:0:
288,160,132956,1,8,0:0:0:0:
224,160,133501,1,0,0:0:0:0:
224,160,134046,1,0,0:0:0:0:
224,160,134319,1,0,0:0:0:0:
288,160,134592,1,8,0:0:0:0:
288,160,134865,1,8,0:0:0:0:
224,224,135137,1,4,0:0:0:0:
288,160,135683,1,8,0:0:0:0:
288,160,136774,1,8,0:0:0:0:
288,160,137046,1,8,0:0:0:0:
224,224,137319,1,4,0:0:0:0:
224,224,138410,1,4,0:0:0:0:
288,224,138956,1,12,0:0:0:0:
224,224,139501,1,4,0:0:0:0:
288,224,140046,1,12,0:0:0:0:
224,224,140592,5,4,0:0:0:0:
224,160,140865,1,0,0:0:0:0:
224,160,141137,1,0,0:0:0:0:
224,160,141546,1,0,0:0:0:0:
224,160,141819,1,0,0:0:0:0:
288,160,142774,1,8,0:0:0:0:
288,160,143319,1,8,0:0:0:0:
256,192,143865,12,0,144683,0:0:0:0:
224,160,144956,5,0,0:0:0:0:
224,160,145228,1,0,0:0:0:0:
224,160,145501,1,0,0:0:0:0:
224,160,145910,1,0,0:0:0:0:
224,160,146183,1,0,0:0:0:0:
288,160,147137,1,8,0:0:0:0:
288,160,147683,1,8,0:0:0:0:
288,224,148228,1,12,0:0:0:0:
288,224,148774,1,12,0:0:0:0:
224,224,149319,1,4,0:0:0:0:
224,160,149592,1,0,0:0:0:0:
224,160,149865,1,0,0:0:0:0:
288,160,150274,1,8,0:0:0:0:
288,160,150546,1,8,0:0:0:0:
256,192,150956,12,0,152319,0:0:0:0:
288,160,152592,5,8,0:0:0:0:
288,160,152865,1,8,0:0:0:0:
288,160,153137,1,8,0:0:0:0:
224,160,153683,1,0,0:0:0:0:
224,160,153956,1,0,0:0:0:0:
224,160,154228,1,0,0:0:0:0:
288,160,154637,1,8,0:0:0:0:
288,160,154910,1,8,0:0:0:0:
256,192,155319,12,0,156683,0:0:0:0:
288,160,156956,5,8,0:0:0:0:
288,160,157228,1,8,0:0:0:0:
288,160,157501,1,8,0:0:0:0:
288,160,157774,1,8,0:0:0:0:
224,224,158046,1,4,0:0:0:0:
288,160,162410,5,8,0:0:0:0:
288,160,162956,1,8,0:0:0:0:
288,160,163228,1,8,0:0:0:0:
288,160,163501,1,8,0:0:0:0:
288,160,164046,1,8,0:0:0:0:
224,224,164592,1,4,0:0:0:0:
224,224,165137,1,4,0:0:0:0:
224,224,165683,1,4,0:0:0:0:
288,160,166228,1,8,0:0:0:0:
224,160,166774,1,0,0:0:0:0:
288,160,168956,1,8,0:0:0:0:
288,160,169501,1,8,0:0:0:0:
224,160,170046,1,0,0:0:0:0:
288,160,171137,1,8,0:0:0:0:
224,224,172228,1,4,0:0:0:0:
288,160,172774,1,8,0:0:0:0:
224,160,173319,1,0,0:0:0:0:
224,160,174410,1,0,0:0:0:0:
224,160,175501,1,0,0:0:0:0:
288,160,176592,1,8,0:0:0:0:
224,160,177137,1,0,0:0:0:0:
288,160,177683,1,8,0:0:0:0:
288,160,178774,1,8,0:0:0:0:
288,160,179865,1,8,0:0:0:0:
224,224,180956,1,4,0:0:0:0:
288,160,181501,1,8,0:0:0:0:
224,160,182046,1,0,0:0:0:0:
224,160,183137,1,0,0:0:0:0:
224,160,184228,1,0,0:0:0:0:
224,160,184774,1,0,0:0:0:0:
288,224,185319,1,12,0:0:0:0:
224,160,185865,1,0,0:0:0:0:
288,160,186410,1,8,0:0:0:0:
288,160,187501,1,8,0:0:0:0:
288,160,188046,1,8,0:0:0:0:
288,160,188592,1,8,0:0:0:0:
288,160,189137,1,8,0:0:0:0:
224,224,189683,5,4,0:0:0:0:
288,160,190228,1,8,0:0:0:0:
288,160,191319,1,8,0:0:0:0:
224,160,191865,1,0,0:0:0:0:
288,160,192410,1,8,0:0:0:0:
288,160,193501,1,8,0:0:0:0:
224,224,194046,1,4,0:0:0:0:
288,160,194592,1,8,0:0:0:0:
288,160,195683,1,8,0:0:0:0:
224,160,196228,1,0,0:0:0:0:
288,160,196774,1,8,0:0:0:0:
288,160,197319,1,8,0:0:0:0:
288,160,197865,1,8,0:0:0:0:
224,224,198410,1,4,0:0:0:0:
224,160,198774,1,0,0:0:0:0:
288,160,199501,1,8,0:0:0:0:
288,160,199865,1,8,0:0:0:0:
224,160,200592,1,0,0:0:0:0:
288,160,200956,1,8,0:0:0:0:
288,160,201683,1,8,0:0:0:0:
224,160,202046,1,0,0:0:0:0:
288,160,202410,1,8,0:0:0:0:
224,160,202774,1,0,0:0:0:0:
224,160,203137,1,0,0:0:0:0:
288,160,203865,1,8,0:0:0:0:
288,160,204228,1,8,0:0:0:0:
224,224,204956,1,4,0:0:0:0:
224,160,206046,1,0,0:0:0:0:
288,160,206592,1,8,0:0:0:0:
224,224,207137,1,4,0:0:0:0:
288,160,207683,1,8,0:0:0:0:
224,160,208228,1,0,0:0:0:0:
320,160,209319,1,8,0:0:0:0:
224,160,209865,1,0,0:0:0:0:
288,160,210410,1,8,0:0:0:0:
288,160,210956,1,8,0:0:0:0:
224,160,211501,1,0,0:0:0:0:
224,160,212046,1,0,0:0:0:0:
288,160,212592,1,8,0:0:0:0:
288,160,213137,1,8,0:0:0:0:
224,160,213683,1,0,0:0:0:0:
288,160,214228,1,8,0:0:0:0:
256,192,214774,12,0,215592,0:0:0:0:
288,224,215865,5,12,0:0:0:0:
288,160,216410,1,8,0:0:0:0:
288,160,216956,1,8,0:0:0:0:
288,160,217501,1,8,0:0:0:0:
224,160,218046,1,0,0:0:0:0:
224,160,218592,1,0,0:0:0:0:
192,160,218956,1,0,0:0:0:0:
224,160,219137,1,0,0:0:0:0:
224,160,220228,1,0,0:0:0:0:
288,160,220774,1,8,0:0:0:0:
224,160,221319,1,0,0:0:0:0:
288,160,221865,1,8,0:0:0:0:
256,192,222410,12,0,223228,0:0:0:0:
256,192,223501,12,0,224319,0:0:0:0:
288,224,224592,5,12,0:0:0:0:
288,224,225137,1,12,0:0:0:0:
256,192,225683,12,0,226501,0:0:0:0:
224,224,226774,5,4,0:0:0:0:
224,160,227319,1,0,0:0:0:0:
224,160,227865,1,0,0:0:0:0:
288,160,228956,1,8,0:0:0:0:
288,160,229228,1,8,0:0:0:0:
224,160,229501,1,0,0:0:0:0:
288,160,230046,1,8,0:0:0:0:
288,160,230319,1,8,0:0:0:0:
224,160,230592,1,0,0:0:0:0:
224,160,231137,1,0,0:0:0:0:
224,160,231683,1,0,0:0:0:0:
224,160,232228,1,0,0:0:0:0:
288,160,233319,1,8,0:0:0:0:
288,160,233592,1,8,0:0:0:0:
224,160,233865,1,0,0:0:0:0:
288,160,234410,1,8,0:0:0:0:
288,160,234683,1,8,0:0:0:0:
224,160,234956,1,0,0:0:0:0:
224,160,235501,1,0,0:0:0:0:
224,160,236046,1,0,0:0:0:0:
224,160,236592,1,0,0:0:0:0:
288,160,237683,1,8,0:0:0:0:
288,160,237956,1,8,0:0:0:0:
224,160,238228,1,0,0:0:0:0:
288,160,238774,1,8,0:0:0:0:
224,160,239046,1,0,0:0:0:0:
224,160,239865,1,0,0:0:0:0:
224,160,240410,1,0,0:0:0:0:
224,160,240956,1,0,0:0:0:0:
288,224,242046,5,12,0:0:0:0:
288,160,243137,1,8,0:0:0:0:
288,160,243410,1,8,0:0:0:0:
224,224,244228,1,4,0:0:0:0:
288,160,245046,1,8,0:0:0:0:
288,160,245592,1,8,0:0:0:0:
224,160,245865,1,0,0:0:0:0:
288,224,246410,1,12,0:0:0:0:
224,160,246956,1,0,0:0:0:0:
288,160,247228,1,8,0:0:0:0:
224,160,247501,1,0,0:0:0:0:
288,160,248046,1,8,0:0:0:0:
224,224,248592,1,4,0:0:0:0:
288,160,249137,1,8,0:0:0:0:
224,160,249683,1,0,0:0:0:0:
224,160,249956,1,0,0:0:0:0:
224,160,250228,1,0,0:0:0:0:
288,224,250774,1,12,0:0:0:0:
224,160,251865,1,0,0:0:0:0:
224,160,252137,1,0,0:0:0:0:
224,160,252956,1,0,0:0:0:0:
288,160,253228,1,8,0:0:0:0:
224,160,253501,1,0,0:0:0:0:
288,160,254046,1,8,0:0:0:0:
288,160,254319,1,8,0:0:0:0:
224,160,254592,1,0,0:0:0:0:
288,224,255137,1,12,0:0:0:0:
224,160,255683,1,0,0:0:0:0:
288,160,255956,1,8,0:0:0:0:
224,160,256228,1,0,0:0:0:0:
288,160,256774,1,8,0:0:0:0:
224,224,257319,1,4,0:0:0:0:
288,160,257865,1,8,0:0:0:0:
224,160,258410,1,0,0:0:0:0:
224,160,258683,1,0,0:0:0:0:
288,160,258956,1,8,0:0:0:0:
288,160,259501,1,8,0:0:0:0:
224,160,259774,1,0,0:0:0:0:
224,160,260046,1,0,0:0:0:0:
224,160,260319,1,0,0:0:0:0:
288,160,260592,1,8,0:0:0:0:
288,160,261137,1,8,0:0:0:0:
224,224,261683,5,4,0:0:0:0:
224,224,263865,1,4,0:0:0:0:
224,224,266046,1,4,0:0:0:0:
224,224,268228,1,4,0:0:0:0:
224,160,268774,1,0,0:0:0:0:
288,224,269319,1,12,0:0:0:0:
224,224,270410,1,4,0:0:0:0:
224,160,270956,1,0,0:0:0:0:
288,224,271501,1,12,0:0:0:0:
288,160,272046,1,8,0:0:0:0:
224,224,272592,1,4,0:0:0:0:
224,160,273137,1,0,0:0:0:0:
288,224,273683,1,12,0:0:0:0:
224,224,274774,1,4,0:0:0:0:
224,160,275319,1,0,0:0:0:0:
288,224,275865,1,12,0:0:0:0:
288,160,276410,1,8,0:0:0:0:
224,224,276956,1,4,0:0:0:0:
288,160,277501,1,8,0:0:0:0:
288,224,278046,1,12,0:0:0:0:
224,224,279137,1,4,0:0:0:0:
288,160,279683,1,8,0:0:0:0:
288,224,280228,1,12,0:0:0:0:
224,160,280774,1,0,0:0:0:0:
224,224,281319,1,4,0:0:0:0:
288,160,281592,1,8,0:0:0:0:
288,160,281865,1,8,0:0:0:0:
288,224,282410,1,12,0:0:0:0:
224,224,283501,1,4,0:0:0:0:
288,160,283774,1,8,0:0:0:0:
288,160,284046,1,8,0:0:0:0:
288,224,284592,1,12,0:0:0:0:
224,160,284865,1,0,0:0:0:0:
288,160,285137,1,8,0:0:0:0:
224,224,285683,1,4,0:0:0:0:
288,160,285956,1,8,0:0:0:0:
288,160,286228,1,8,0:0:0:0:
288,160,287319,1,8,0:0:0:0:
224,160,287592,1,0,0:0:0:0:
288,160,287865,1,8,0:0:0:0:
224,160,288410,1,0,0:0:0:0:
224,160,288956,1,0,0:0:0:0:
224,160,289228,1,0,0:0:0:0:
288,160,289501,1,8,0:0:0:0:
288,160,289774,1,8,0:0:0:0:
224,224,290046,1,4,0:0:0:0:
288,160,290592,1,8,0:0:0:0:
288,160,291683,1,8,0:0:0:0:
288,160,291956,1,8,0:0:0:0:
224,224,292228,1,4,0:0:0:0:
224,224,293319,1,4,0:0:0:0:
288,224,293865,1,12,0:0:0:0:
224,224,294410,1,4,0:0:0:0:
288,224,294956,1,12,0:0:0:0:
224,224,295501,1,4,0:0:0:0:
224,224,295774,1,4,0:0:0:0:
224,224,296046,1,4,0:0:0:0:
224,224,296456,1,4,0:0:0:0:
224,224,296728,1,4,0:0:0:0:
288,160,297683,1,8,0:0:0:0:
288,160,297956,1,8,0:0:0:0:
224,160,298228,1,0,0:0:0:0:
288,160,298774,1,8,0:0:0:0:
224,160,299046,1,0,0:0:0:0:
224,160,299319,1,0,0:0:0:0:
224,224,299865,1,4,0:0:0:0:
