osu file format v14

[General]
AudioFilename: 01. Jikininki comprimido.mp3
AudioLeadIn: 0
PreviewTime: 268228
Countdown: 0
SampleSet: Normal
StackLeniency: 0.7
Mode: 1
LetterboxInBreaks: 0
WidescreenStoryboard: 0

[Editor]
DistanceSpacing: 1.1
BeatDivisor: 1
GridSize: 32
TimelineZoom: 2

[Metadata]
Title:Jikininki
TitleUnicode:Jikininki
Artist:Whispered
ArtistUnicode:Whispered
Creator:LZD
Version:Futsuu
Source:
Tags:folk metal samurai raiden nwolf
BeatmapID:918145
BeatmapSetID:415048

[Difficulty]
HPDrainRate:5
CircleSize:2
OverallDifficulty:4
ApproachRate:5
SliderMultiplier:1.2
SliderTickRate:1

[Events]
//Background and Video events
0,0,"samurai_shogun_warrior_1920x1080_2125204898.jpg",0,25
//Break Periods
//Storyboard Layer 0 (Background)
//Storyboard Layer 1 (Fail)
//Storyboard Layer 2 (Pass)
//Storyboard Layer 3 (Foreground)
//Storyboard Sound Samples

[TimingPoints]
12956,272.727272727273,4,1,0,64,1,0
71796,-125,4,1,0,64,0,0
73978,-100,4,1,0,64,0,0
76706,-125,4,1,0,64,0,0
78342,-100,4,1,0,64,0,0
81069,-125,4,1,0,64,0,0
82706,-100,4,1,0,64,0,0
85433,-125,4,1,0,64,0,0
87069,-100,4,1,0,64,0,0
107046,-125,4,1,0,64,0,0
113319,-100,4,1,0,64,0,1
137319,-100,4,1,0,64,0,0
138410,-100,4,1,0,64,0,1
140592,-100,4,1,0,64,0,0
160160,-166.666666666667,4,1,0,64,0,0
187410,-161.290322580645,4,1,0,64,0,0
187592,-156.25,4,1,0,64,0,0
187774,-151.515151515152,4,1,0,64,0,0
187956,-147.058823529412,4,1,0,64,0,0
188137,-142.857142857143,4,1,0,64,0,0
188319,-138.888888888889,4,1,0,64,0,0
188501,-135.135135135135,4,1,0,64,0,0
188683,-131.578947368421,4,1,0,64,0,0
188865,-128.205128205128,4,1,0,64,0,0
189046,-125,4,1,0,64,0,0
189228,-121.951219512195,4,1,0,64,0,0
189410,-119.047619047619,4,1,0,64,0,0
189592,-117.647058823529,4,1,0,64,0,0
205956,-111.111111111111,4,1,0,64,0,0
207137,-111.111111111111,4,1,0,64,0,1
225615,-100,4,1,0,64,0,1
226774,-100,4,1,0,64,0,0
227251,-125,4,1,0,64,0,0
228887,-100,4,1,0,64,0,0
231615,-125,4,1,0,64,0,0
233251,-100,4,1,0,64,0,0
235978,-125,4,1,0,64,0,0
237615,-100,4,1,0,64,0,0
240342,-125,4,1,0,64,0,0
241978,-100,4,1,0,64,0,0
262160,-125,4,1,0,64,0,0
268228,-100,4,1,0,64,0,1
292228,-100,4,1,0,64,0,0
293319,-100,4,1,0,64,0,1
295501,-100,4,1,0,64,0,0

[HitObjects]
256,192,15137,5,12,0:0:0:0:
256,192,15410,1,4,0:0:0:0:
256,192,15683,1,12,0:0:0:0:
64,128,16092,1,12,0:0:0:0:
192,160,16365,1,4,0:0:0:0:
128,128,17319,1,0,0:0:0:0:
128,128,17592,1,0,0:0:0:0:
128,128,17865,1,8,0:0:0:0:
128,160,18410,1,0,0:0:0:0:
128,160,18546,1,0,0:0:0:0:
64,160,18819,1,8,0:0:0:0:
128,160,19501,1,12,0:0:0:0:
128,160,19774,1,4,0:0:0:0:
128,160,20046,1,12,0:0:0:0:
320,96,20456,1,12,0:0:0:0:
192,96,20728,1,4,0:0:0:0:
128,128,21683,1,0,0:0:0:0:
128,128,21956,1,0,0:0:0:0:
128,128,22228,1,8,0:0:0:0:
224,160,22774,1,0,0:0:0:0:
224,160,22910,1,0,0:0:0:0:
224,160,23046,1,0,0:0:0:0:
224,160,23319,1,8,0:0:0:0:
224,160,23592,1,0,0:0:0:0:
224,160,23865,1,12,0:0:0:0:
224,160,24137,1,4,0:0:0:0:
224,160,24410,1,12,0:0:0:0:
224,160,24819,1,12,0:0:0:0:
96,128,25092,1,4,0:0:0:0:
480,384,26046,1,0,0:0:0:0:
352,320,26319,1,0,0:0:0:0:
224,256,26592,1,8,0:0:0:0:
192,160,27137,1,0,0:0:0:0:
192,160,27274,1,0,0:0:0:0:
192,160,27546,1,8,0:0:0:0:
192,160,28228,1,12,0:0:0:0:
192,160,28501,1,4,0:0:0:0:
192,160,28774,1,12,0:0:0:0:
192,160,29183,1,12,0:0:0:0:
192,160,29456,1,4,0:0:0:0:
256,192,30410,12,0,31501,0:0:0:0:
64,192,32046,5,4,0:0:0:0:
256,32,32592,1,8,0:0:0:0:
192,64,32728,1,8,0:0:0:0:
160,128,32865,1,0,0:0:0:0:
160,128,33137,1,8,0:0:0:0:
160,128,33546,1,8,0:0:0:0:
288,160,33819,1,0,0:0:0:0:
128,128,34092,1,8,0:0:0:0:
160,128,34774,1,8,0:0:0:0:
160,128,34910,1,8,0:0:0:0:
160,128,35046,1,0,0:0:0:0:
160,128,35319,1,8,0:0:0:0:
160,128,35865,1,8,0:0:0:0:
160,128,36137,1,8,0:0:0:0:
160,128,36410,1,0,0:0:0:0:
160,128,36683,1,0,0:0:0:0:
256,32,36956,1,8,0:0:0:0:
192,64,37092,1,8,0:0:0:0:
160,128,37228,1,0,0:0:0:0:
160,128,37501,1,8,0:0:0:0:
160,128,37910,1,8,0:0:0:0:
256,64,38183,1,0,0:0:0:0:
128,128,38456,1,8,0:0:0:0:
160,128,39137,1,8,0:0:0:0:
160,128,39274,1,8,0:0:0:0:
160,128,39410,1,0,0:0:0:0:
160,128,39683,1,8,0:0:0:0:
160,128,40228,1,0,0:0:0:0:
96,160,40365,1,0,0:0:0:0:
160,128,40501,1,0,0:0:0:0:
160,128,40774,1,8,0:0:0:0:
160,128,41046,1,8,0:0:0:0:
256,32,41319,1,8,0:0:0:0:
192,64,41456,1,8,0:0:0:0:
160,128,41592,1,0,0:0:0:0:
160,128,41865,1,8,0:0:0:0:
160,128,42274,1,8,0:0:0:0:
256,64,42546,1,0,0:0:0:0:
128,128,42819,1,8,0:0:0:0:
160,128,43501,1,8,0:0:0:0:
160,128,43637,1,8,0:0:0:0:
160,128,43774,1,0,0:0:0:0:
160,128,44046,1,8,0:0:0:0:
160,128,44592,1,8,0:0:0:0:
160,128,44865,1,8,0:0:0:0:
160,128,45137,1,0,0:0:0:0:
160,128,45410,1,0,0:0:0:0:
256,32,45683,1,8,0:0:0:0:
192,64,45819,1,8,0:0:0:0:
160,128,45956,1,0,0:0:0:0:
160,128,46228,1,8,0:0:0:0:
160,128,46637,1,8,0:0:0:0:
256,192,46910,1,0,0:0:0:0:
128,128,47183,1,8,0:0:0:0:
160,128,47865,1,8,0:0:0:0:
160,128,48001,1,8,0:0:0:0:
160,128,48137,1,0,0:0:0:0:
160,128,48410,1,8,0:0:0:0:
160,128,48956,1,8,0:0:0:0:
160,128,49365,1,8,0:0:0:0:
128,128,49774,1,8,0:0:0:0:
128,128,50183,1,8,0:0:0:0:
160,128,50592,1,0,0:0:0:0:
128,128,50728,1,0,0:0:0:0:
128,128,50865,1,0,0:0:0:0:
160,256,51137,1,8,0:0:0:0:
32,96,51546,1,0,0:0:0:0:
192,256,51956,1,8,0:0:0:0:
64,96,52365,1,8,0:0:0:0:
64,32,52501,1,8,0:0:0:0:
128,128,52774,1,0,0:0:0:0:
0,64,53046,1,0,0:0:0:0:
192,192,53319,1,8,0:0:0:0:
32,96,53728,1,0,0:0:0:0:
160,160,54001,1,0,0:0:0:0:
192,192,54137,1,0,0:0:0:0:
128,96,54410,1,12,0:0:0:0:
192,224,54683,1,0,0:0:0:0:
160,160,54819,1,0,0:0:0:0:
160,160,54956,1,0,0:0:0:0:
160,160,55228,1,12,0:0:0:0:
160,160,55774,1,12,0:0:0:0:
160,160,56046,1,12,0:0:0:0:
160,160,56319,1,12,0:0:0:0:
160,160,56592,1,4,0:0:0:0:
160,160,56728,1,4,0:0:0:0:
96,160,59865,1,4,0:0:0:0:
96,160,60410,1,12,0:0:0:0:
0,160,60956,1,0,0:0:0:0:
64,128,61092,1,0,0:0:0:0:
0,160,61228,1,8,0:0:0:0:
0,160,61501,1,8,0:0:0:0:
0,160,61910,1,8,0:0:0:0:
32,192,62319,1,0,0:0:0:0:
384,32,62728,1,8,0:0:0:0:
64,160,63137,1,0,0:0:0:0:
128,128,63274,1,0,0:0:0:0:
128,128,63410,1,8,0:0:0:0:
96,128,63683,1,8,0:0:0:0:
224,192,64092,1,0,0:0:0:0:
160,96,64501,1,0,0:0:0:0:
128,128,64910,1,8,0:0:0:0:
160,128,65319,1,0,0:0:0:0:
160,128,65456,1,0,0:0:0:0:
160,128,65592,1,8,0:0:0:0:
128,128,65865,1,8,0:0:0:0:
128,128,66274,1,8,0:0:0:0:
128,320,66683,1,0,0:0:0:0:
128,128,67092,1,8,0:0:0:0:
128,128,67501,1,0,0:0:0:0:
128,128,67637,1,0,0:0:0:0:
128,128,67774,1,8,0:0:0:0:
64,224,68046,1,8,0:0:0:0:
77,194,68319,2,0,L|320:128,2,240
96,160,69683,1,12,0:0:0:0:
96,160,70774,1,4,0:0:0:0:
224,192,71865,1,0,0:0:0:0:
224,192,72410,1,0,0:0:0:0:
224,192,72956,1,0,0:0:0:0:
224,192,73501,1,0,0:0:0:0:
224,192,74046,1,0,0:0:0:0:
224,192,74319,1,0,0:0:0:0:
224,192,74592,1,0,0:0:0:0:
224,192,74865,1,0,0:0:0:0:
224,192,75137,1,0,0:0:0:0:
224,192,75410,1,0,0:0:0:0:
224,192,75683,1,0,0:0:0:0:
224,192,75819,1,0,0:0:0:0:
224,192,75956,1,8,0:0:0:0:
224,192,76228,1,0,0:0:0:0:
96,32,76774,1,0,0:0:0:0:
224,192,77319,1,0,0:0:0:0:
64,32,77865,1,0,0:0:0:0:
192,160,78410,1,0,0:0:0:0:
288,256,78683,1,0,0:0:0:0:
192,160,78956,1,0,0:0:0:0:
288,256,79228,1,0,0:0:0:0:
192,160,79501,1,0,0:0:0:0:
288,256,79774,1,0,0:0:0:0:
192,160,80046,1,0,0:0:0:0:
224,224,80183,1,0,0:0:0:0:
192,160,80319,1,8,0:0:0:0:
192,160,80592,1,0,0:0:0:0:
192,160,81137,1,0,0:0:0:0:
192,160,81683,1,0,0:0:0:0:
192,160,82228,1,0,0:0:0:0:
192,160,82774,1,0,0:0:0:0:
192,160,82910,1,0,0:0:0:0:
192,160,83046,1,8,0:0:0:0:
192,160,83319,1,8,0:0:0:0:
192,160,83728,1,8,0:0:0:0:
160,160,84137,1,0,0:0:0:0:
160,160,84546,1,8,0:0:0:0:
96,128,84956,1,0,0:0:0:0:
96,128,85501,1,0,0:0:0:0:
96,128,86046,1,0,0:0:0:0:
96,128,86592,1,0,0:0:0:0:
96,128,87137,1,12,0:0:0:0:
96,128,87683,1,0,0:0:0:0:
96,128,87819,1,0,0:0:0:0:
96,128,87956,1,0,0:0:0:0:
96,128,88228,1,8,0:0:0:0:
96,128,88637,1,8,0:0:0:0:
96,128,89046,1,0,0:0:0:0:
96,128,89319,1,8,0:0:0:0:
128,64,90001,1,8,0:0:0:0:
96,128,90274,1,8,0:0:0:0:
96,128,90546,1,8,0:0:0:0:
64,128,90819,1,8,0:0:0:0:
64,192,90956,1,8,0:0:0:0:
96,128,91228,1,0,0:0:0:0:
64,128,91501,1,8,0:0:0:0:
64,160,92046,1,8,0:0:0:0:
64,160,92319,1,0,0:0:0:0:
64,160,92592,5,8,0:0:0:0:
320,96,93001,1,8,0:0:0:0:
128,160,93410,1,0,0:0:0:0:
224,224,93683,5,8,0:0:0:0:
224,224,94228,1,8,0:0:0:0:
224,224,94774,1,8,0:0:0:0:
64,160,95046,1,0,0:0:0:0:
224,224,95319,1,8,0:0:0:0:
224,224,95456,1,8,0:0:0:0:
224,224,95592,1,0,0:0:0:0:
96,160,95865,1,12,0:0:0:0:
64,160,96410,1,0,0:0:0:0:
64,160,96546,1,0,0:0:0:0:
64,160,96683,1,0,0:0:0:0:
64,160,96956,1,8,0:0:0:0:
64,160,97365,1,8,0:0:0:0:
224,192,97774,1,0,0:0:0:0:
224,192,98046,1,8,0:0:0:0:
224,192,98592,1,0,0:0:0:0:
224,192,99137,1,8,0:0:0:0:
224,192,99410,1,0,0:0:0:0:
224,192,99683,1,8,0:0:0:0:
224,192,99819,1,8,0:0:0:0:
224,192,99956,1,0,0:0:0:0:
96,160,100228,1,8,0:0:0:0:
352,160,100774,1,0,0:0:0:0:
224,160,101046,1,0,0:0:0:0:
96,160,101319,1,8,0:0:0:0:
288,160,101728,1,8,0:0:0:0:
64,160,102137,1,0,0:0:0:0:
224,224,102410,5,8,0:0:0:0:
224,224,102956,1,8,0:0:0:0:
224,224,103501,1,8,0:0:0:0:
224,224,103774,1,0,0:0:0:0:
224,224,104046,1,8,0:0:0:0:
224,224,104183,1,8,0:0:0:0:
224,224,104319,1,0,0:0:0:0:
224,224,104592,1,8,0:0:0:0:
96,160,104865,1,0,0:0:0:0:
96,160,105001,1,0,0:0:0:0:
128,160,105137,1,8,0:0:0:0:
96,160,105410,1,0,0:0:0:0:
192,96,105546,1,0,0:0:0:0:
128,160,105683,1,8,0:0:0:0:
224,32,105956,1,0,0:0:0:0:
128,160,106228,1,8,0:0:0:0:
128,160,106365,1,8,0:0:0:0:
128,160,106501,1,8,0:0:0:0:
128,160,106774,1,4,0:0:0:0:
160,160,107865,1,8,0:0:0:0:
32,320,108410,1,8,0:0:0:0:
160,160,108956,1,4,0:0:0:0:
160,160,110046,1,8,0:0:0:0:
160,160,110592,1,8,0:0:0:0:
160,160,111137,1,4,0:0:0:0:
64,128,112228,1,8,0:0:0:0:
64,128,112774,1,8,0:0:0:0:
128,192,113046,1,0,0:0:0:0:
64,128,113319,1,12,0:0:0:0:
64,128,113865,1,8,0:0:0:0:
192,96,114137,1,0,0:0:0:0:
64,128,114410,1,8,0:0:0:0:
64,128,114956,1,8,0:0:0:0:
192,96,115228,1,0,0:0:0:0:
64,128,115501,1,8,0:0:0:0:
192,96,115774,1,0,0:0:0:0:
64,128,116046,1,8,0:0:0:0:
64,128,116592,1,8,0:0:0:0:
160,224,116865,1,0,0:0:0:0:
64,128,117137,1,8,0:0:0:0:
96,192,117274,1,8,0:0:0:0:
160,224,117410,1,8,0:0:0:0:
64,128,117683,1,4,0:0:0:0:
64,128,118228,1,8,0:0:0:0:
192,96,118501,1,0,0:0:0:0:
64,128,118774,1,8,0:0:0:0:
64,128,119319,1,8,0:0:0:0:
192,64,119592,1,0,0:0:0:0:
64,128,119865,1,8,0:0:0:0:
64,128,120137,1,0,0:0:0:0:
64,128,120410,1,8,0:0:0:0:
256,288,120956,1,8,0:0:0:0:
160,224,121228,1,0,0:0:0:0:
32,160,121501,1,0,0:0:0:0:
96,128,121637,1,0,0:0:0:0:
160,224,121774,1,8,0:0:0:0:
64,128,122046,1,4,0:0:0:0:
64,128,122592,1,8,0:0:0:0:
160,224,122865,1,0,0:0:0:0:
64,128,123137,1,8,0:0:0:0:
64,128,123683,1,8,0:0:0:0:
160,224,123956,1,0,0:0:0:0:
64,128,124228,1,8,0:0:0:0:
160,224,124501,1,0,0:0:0:0:
64,128,124774,1,8,0:0:0:0:
64,128,125319,1,8,0:0:0:0:
96,224,125592,1,0,0:0:0:0:
64,160,125865,1,0,0:0:0:0:
64,160,126001,1,0,0:0:0:0:
64,160,126137,1,0,0:0:0:0:
64,160,126410,1,12,0:0:0:0:
64,288,126683,1,0,0:0:0:0:
64,160,126956,1,8,0:0:0:0:
64,160,127501,1,8,0:0:0:0:
64,288,127774,1,0,0:0:0:0:
64,160,128046,1,8,0:0:0:0:
64,160,128592,1,12,0:0:0:0:
64,288,128865,1,0,0:0:0:0:
64,160,129137,1,8,0:0:0:0:
64,160,129683,1,8,0:0:0:0:
64,96,129819,1,8,0:0:0:0:
64,32,129956,1,0,0:0:0:0:
64,160,130228,1,8,0:0:0:0:
64,32,130501,1,8,0:0:0:0:
64,96,130637,1,8,0:0:0:0:
64,160,130774,1,4,0:0:0:0:
64,160,131046,1,0,0:0:0:0:
64,160,131319,1,8,0:0:0:0:
64,160,131592,1,8,0:0:0:0:
192,128,131865,1,8,0:0:0:0:
64,160,132137,1,8,0:0:0:0:
192,128,132410,1,0,0:0:0:0:
64,160,132683,1,0,0:0:0:0:
192,128,132956,1,8,0:0:0:0:
64,160,133228,1,8,0:0:0:0:
192,96,133501,1,8,0:0:0:0:
64,160,133774,1,8,0:0:0:0:
32,160,134046,1,0,0:0:0:0:
32,160,134183,1,0,0:0:0:0:
64,160,134319,1,0,0:0:0:0:
32,160,134592,1,8,0:0:0:0:
32,160,134728,1,8,0:0:0:0:
32,160,134865,1,8,0:0:0:0:
160,128,135137,1,4,0:0:0:0:
64,160,135410,1,0,0:0:0:0:
192,96,135683,1,8,0:0:0:0:
64,160,135956,1,8,0:0:0:0:
192,96,136228,1,8,0:0:0:0:
64,160,136501,1,8,0:0:0:0:
192,160,136774,1,0,0:0:0:0:
128,160,136910,1,0,0:0:0:0:
128,160,137046,1,0,0:0:0:0:
128,160,137183,1,0,0:0:0:0:
128,160,137319,1,12,0:0:0:0:
64,160,138410,1,12,0:0:0:0:
64,160,138683,1,12,0:0:0:0:
64,160,138956,1,0,0:0:0:0:
195,153,139228,1,0,0:0:0:0:
219,23,139501,1,12,0:0:0:0:
219,23,139774,1,12,0:0:0:0:
64,160,140046,1,0,0:0:0:0:
193,136,140319,1,0,0:0:0:0:
256,192,140592,5,12,0:0:0:0:
256,192,140865,1,4,0:0:0:0:
256,192,141137,1,12,0:0:0:0:
64,128,141546,1,12,0:0:0:0:
192,160,141819,1,4,0:0:0:0:
256,160,142774,1,0,0:0:0:0:
256,160,143046,1,0,0:0:0:0:
256,160,143319,1,8,0:0:0:0:
128,160,143865,1,0,0:0:0:0:
128,160,144001,1,0,0:0:0:0:
64,160,144274,1,8,0:0:0:0:
128,160,144956,1,12,0:0:0:0:
128,160,145228,1,4,0:0:0:0:
128,160,145501,1,12,0:0:0:0:
320,96,145910,1,12,0:0:0:0:
192,96,146183,1,4,0:0:0:0:
256,160,147137,1,0,0:0:0:0:
256,160,147410,1,0,0:0:0:0:
256,160,147683,1,8,0:0:0:0:
224,160,148228,1,0,0:0:0:0:
224,160,148365,1,0,0:0:0:0:
224,160,148501,1,0,0:0:0:0:
224,160,148774,1,8,0:0:0:0:
224,160,149046,1,0,0:0:0:0:
224,160,149319,1,12,0:0:0:0:
224,160,149592,1,4,0:0:0:0:
224,160,149865,1,12,0:0:0:0:
224,160,150274,1,12,0:0:0:0:
96,128,150546,1,4,0:0:0:0:
256,160,151501,1,0,0:0:0:0:
256,160,151774,1,0,0:0:0:0:
256,160,152046,1,8,0:0:0:0:
123,154,152319,1,8,0:0:0:0:
192,160,152592,1,0,0:0:0:0:
192,160,152728,1,0,0:0:0:0:
192,160,153001,1,8,0:0:0:0:
192,160,153683,1,12,0:0:0:0:
192,160,153956,1,4,0:0:0:0:
192,160,154228,1,12,0:0:0:0:
192,160,154637,1,12,0:0:0:0:
192,160,154910,1,4,0:0:0:0:
192,160,155865,1,0,0:0:0:0:
192,160,156137,1,0,0:0:0:0:
192,160,156410,1,8,0:0:0:0:
59,165,156683,1,8,0:0:0:0:
128,192,156956,2,0,L|288:96,2,180
64,160,158046,1,4,0:0:0:0:
160,160,160228,1,8,0:0:0:0:
160,160,160774,1,0,0:0:0:0:
160,160,161319,1,0,0:0:0:0:
160,160,161865,1,0,0:0:0:0:
160,160,162410,1,0,0:0:0:0:
160,160,162956,1,0,0:0:0:0:
160,160,163501,1,0,0:0:0:0:
160,160,164046,1,8,0:0:0:0:
160,160,164592,1,0,0:0:0:0:
288,256,165137,1,0,0:0:0:0:
192,128,165683,1,8,0:0:0:0:
224,192,165956,1,0,0:0:0:0:
288,256,166228,1,8,0:0:0:0:
192,128,166774,1,0,0:0:0:0:
288,256,167319,1,0,0:0:0:0:
160,160,167865,1,0,0:0:0:0:
288,224,168410,1,8,0:0:0:0:
128,192,168956,1,8,0:0:0:0:
288,224,169501,1,8,0:0:0:0:
128,192,170046,1,0,0:0:0:0:
128,192,171137,1,0,0:0:0:0:
159,140,171683,1,0,0:0:0:0:
128,192,172228,1,8,0:0:0:0:
192,192,172774,1,8,0:0:0:0:
352,224,173319,1,8,0:0:0:0:
192,160,174228,1,8,0:0:0:0:
352,224,174410,1,8,0:0:0:0:
192,192,174956,1,8,0:0:0:0:
352,224,175501,1,8,0:0:0:0:
160,160,176410,1,8,0:0:0:0:
352,224,176592,1,8,0:0:0:0:
192,192,177137,1,8,0:0:0:0:
352,224,177683,1,8,0:0:0:0:
160,160,178592,1,8,0:0:0:0:
224,192,178774,1,8,0:0:0:0:
224,192,179319,1,8,0:0:0:0:
224,192,179865,1,8,0:0:0:0:
192,192,180774,1,8,0:0:0:0:
224,192,180956,1,8,0:0:0:0:
224,128,181501,1,8,0:0:0:0:
224,128,182046,1,8,0:0:0:0:
192,128,182956,1,8,0:0:0:0:
224,128,183137,1,8,0:0:0:0:
224,128,183683,1,8,0:0:0:0:
352,224,184228,1,8,0:0:0:0:
320,224,184410,1,8,0:0:0:0:
224,160,184774,1,0,0:0:0:0:
192,128,185137,1,8,0:0:0:0:
352,224,185319,1,8,0:0:0:0:
224,128,185865,1,8,0:0:0:0:
320,224,186410,1,8,0:0:0:0:
224,128,186956,1,8,0:0:0:0:
224,128,187501,1,8,0:0:0:0:
160,128,187683,1,8,0:0:0:0:
224,128,188046,1,8,0:0:0:0:
160,128,188228,1,8,0:0:0:0:
224,128,188592,1,8,0:0:0:0:
224,128,188774,1,0,0:0:0:0:
224,128,189137,1,8,0:0:0:0:
160,128,189319,1,0,0:0:0:0:
96,128,189501,1,0,0:0:0:0:
96,128,189683,1,8,0:0:0:0:
288,224,190228,1,8,0:0:0:0:
96,96,190774,1,8,0:0:0:0:
128,128,191319,1,8,0:0:0:0:
96,96,191865,1,0,0:0:0:0:
288,224,192410,1,0,0:0:0:0:
96,128,192956,1,0,0:0:0:0:
96,160,193501,1,0,0:0:0:0:
96,96,194046,1,8,0:0:0:0:
256,224,194592,1,8,0:0:0:0:
128,64,195137,1,8,0:0:0:0:
160,288,195683,1,8,0:0:0:0:
128,64,196228,1,0,0:0:0:0:
160,288,196774,1,0,0:0:0:0:
128,96,197319,5,0,0:0:0:0:
192,320,197865,1,0,0:0:0:0:
96,320,198410,5,8,0:0:0:0:
128,160,198774,1,8,0:0:0:0:
160,32,199137,1,0,0:0:0:0:
128,160,199501,1,8,0:0:0:0:
128,0,199865,1,8,0:0:0:0:
192,288,200592,1,8,0:0:0:0:
160,160,200956,1,8,0:0:0:0:
96,32,201319,1,0,0:0:0:0:
160,160,201683,1,8,0:0:0:0:
96,32,202046,1,8,0:0:0:0:
160,160,202410,1,0,0:0:0:0:
128,96,202592,1,0,0:0:0:0:
160,160,202774,1,8,0:0:0:0:
160,160,203137,1,8,0:0:0:0:
32,192,203501,1,0,0:0:0:0:
160,160,203865,1,8,0:0:0:0:
160,160,204228,1,8,0:0:0:0:
128,160,204956,1,8,0:0:0:0:
96,128,205319,1,8,0:0:0:0:
224,224,205683,1,0,0:0:0:0:
64,128,206046,1,8,0:0:0:0:
128,128,206228,1,8,0:0:0:0:
128,128,206592,1,0,0:0:0:0:
128,128,206774,1,0,0:0:0:0:
160,160,207137,1,8,0:0:0:0:
160,160,207683,1,8,0:0:0:0:
128,192,208228,1,0,0:0:0:0:
320,320,208774,1,8,0:0:0:0:
256,288,209137,1,8,0:0:0:0:
192,224,209319,1,0,0:0:0:0:
32,160,209683,1,8,0:0:0:0:
96,192,209865,1,8,0:0:0:0:
13,106,210228,1,0,0:0:0:0:
95,191,210410,1,8,0:0:0:0:
316,103,210956,1,0,0:0:0:0:
211,152,211501,1,8,0:0:0:0:
52,162,211865,1,0,0:0:0:0:
130,157,212046,1,8,0:0:0:0:
130,157,212592,1,8,0:0:0:0:
130,157,212956,1,0,0:0:0:0:
130,157,213137,1,8,0:0:0:0:
130,157,213683,1,0,0:0:0:0:
128,192,214228,1,8,0:0:0:0:
128,192,214774,1,0,0:0:0:0:
102,136,215319,1,0,0:0:0:0:
128,192,215865,1,8,0:0:0:0:
102,136,216410,1,0,0:0:0:0:
102,136,216956,1,8,0:0:0:0:
212,345,217501,1,0,0:0:0:0:
102,136,217865,1,0,0:0:0:0:
102,136,218046,1,0,0:0:0:0:
102,136,218410,1,0,0:0:0:0:
102,136,218592,1,0,0:0:0:0:
102,136,218956,1,0,0:0:0:0:
102,136,219137,1,8,0:0:0:0:
102,136,220228,1,0,0:0:0:0:
309,251,220774,1,8,0:0:0:0:
104,130,221319,1,0,0:0:0:0:
311,245,221865,1,8,0:0:0:0:
256,192,222410,12,0,223319,0:0:0:0:
256,192,223501,12,0,224410,0:0:0:0:
256,192,224592,12,0,225501,0:0:0:0:
123,129,225683,5,0,0:0:0:0:
98,121,225819,1,0,0:0:0:0:
9,61,225956,1,8,0:0:0:0:
135,99,226228,1,0,0:0:0:0:
135,99,226501,1,8,0:0:0:0:
224,192,226774,5,0,0:0:0:0:
224,192,227319,1,0,0:0:0:0:
224,192,227865,1,0,0:0:0:0:
224,192,228410,1,0,0:0:0:0:
224,192,228956,1,0,0:0:0:0:
224,192,229228,1,0,0:0:0:0:
224,192,229501,1,0,0:0:0:0:
224,192,229774,1,0,0:0:0:0:
224,192,230046,1,0,0:0:0:0:
224,192,230319,1,0,0:0:0:0:
224,192,230592,1,0,0:0:0:0:
224,192,230728,1,0,0:0:0:0:
224,192,230865,1,8,0:0:0:0:
224,192,231137,1,0,0:0:0:0:
96,32,231683,1,0,0:0:0:0:
224,192,232228,1,0,0:0:0:0:
64,32,232774,1,0,0:0:0:0:
192,160,233319,1,0,0:0:0:0:
288,256,233592,1,0,0:0:0:0:
192,160,233865,1,0,0:0:0:0:
288,256,234137,1,0,0:0:0:0:
192,160,234410,1,0,0:0:0:0:
288,256,234683,1,0,0:0:0:0:
192,160,234956,1,0,0:0:0:0:
224,224,235092,1,0,0:0:0:0:
192,160,235228,1,8,0:0:0:0:
192,160,235501,1,0,0:0:0:0:
192,160,236046,1,0,0:0:0:0:
192,160,236592,1,0,0:0:0:0:
192,160,237137,1,0,0:0:0:0:
192,160,237683,1,0,0:0:0:0:
192,160,237819,1,0,0:0:0:0:
192,160,237956,1,8,0:0:0:0:
192,160,238228,1,8,0:0:0:0:
192,160,238637,1,8,0:0:0:0:
160,160,239046,1,0,0:0:0:0:
160,160,239456,1,8,0:0:0:0:
96,128,239865,1,0,0:0:0:0:
96,128,240410,1,0,0:0:0:0:
96,128,240956,1,0,0:0:0:0:
96,128,241501,1,0,0:0:0:0:
96,128,242046,1,12,0:0:0:0:
96,128,242592,1,0,0:0:0:0:
64,192,242728,1,0,0:0:0:0:
96,128,242865,1,0,0:0:0:0:
96,128,243137,1,8,0:0:0:0:
96,128,243546,1,8,0:0:0:0:
96,128,243956,1,0,0:0:0:0:
96,128,244228,1,8,0:0:0:0:
128,64,244910,1,8,0:0:0:0:
96,128,245183,1,8,0:0:0:0:
96,128,245456,1,8,0:0:0:0:
64,128,245728,1,8,0:0:0:0:
64,192,245865,1,8,0:0:0:0:
96,128,246137,1,0,0:0:0:0:
64,128,246410,1,8,0:0:0:0:
64,160,246956,1,0,0:0:0:0:
64,160,247228,1,0,0:0:0:0:
64,160,247501,5,8,0:0:0:0:
320,96,247910,1,8,0:0:0:0:
128,160,248319,1,0,0:0:0:0:
224,224,248592,5,8,0:0:0:0:
224,224,249137,1,8,0:0:0:0:
224,224,249683,1,8,0:0:0:0:
224,224,249956,1,0,0:0:0:0:
224,224,250228,1,8,0:0:0:0:
224,224,250365,1,8,0:0:0:0:
224,224,250501,1,0,0:0:0:0:
96,160,250774,1,12,0:0:0:0:
64,160,251319,1,0,0:0:0:0:
64,160,251456,1,0,0:0:0:0:
64,160,251592,1,0,0:0:0:0:
64,160,251865,1,8,0:0:0:0:
64,160,252274,1,8,0:0:0:0:
224,192,252683,1,0,0:0:0:0:
224,192,252956,1,8,0:0:0:0:
224,192,253501,1,0,0:0:0:0:
224,192,254046,1,8,0:0:0:0:
224,192,254319,1,0,0:0:0:0:
224,192,254592,1,8,0:0:0:0:
224,192,254728,1,8,0:0:0:0:
224,192,254865,1,0,0:0:0:0:
96,160,255137,1,8,0:0:0:0:
352,160,255683,1,0,0:0:0:0:
224,160,255956,1,0,0:0:0:0:
96,160,256228,1,8,0:0:0:0:
288,160,256637,1,8,0:0:0:0:
64,160,257046,1,0,0:0:0:0:
224,224,257319,5,8,0:0:0:0:
224,224,257865,1,8,0:0:0:0:
224,224,258410,1,8,0:0:0:0:
224,224,258683,1,0,0:0:0:0:
224,224,258956,1,8,0:0:0:0:
224,224,259092,1,8,0:0:0:0:
224,224,259228,1,0,0:0:0:0:
224,224,259501,1,8,0:0:0:0:
96,160,259774,1,0,0:0:0:0:
96,160,259910,1,0,0:0:0:0:
128,160,260046,1,8,0:0:0:0:
96,160,260319,1,0,0:0:0:0:
96,160,260456,1,0,0:0:0:0:
128,160,260592,1,8,0:0:0:0:
224,32,260865,1,0,0:0:0:0:
128,160,261137,1,8,0:0:0:0:
192,96,261274,1,8,0:0:0:0:
128,160,261410,1,8,0:0:0:0:
128,160,261683,1,4,0:0:0:0:
160,160,262774,1,8,0:0:0:0:
32,320,263319,1,8,0:0:0:0:
160,160,263865,1,4,0:0:0:0:
160,160,264956,1,8,0:0:0:0:
160,160,265501,1,8,0:0:0:0:
160,160,266046,1,4,0:0:0:0:
64,128,267137,5,8,0:0:0:0:
64,128,267683,1,8,0:0:0:0:
160,192,267956,1,0,0:0:0:0:
64,128,268228,1,12,0:0:0:0:
64,128,268774,1,8,0:0:0:0:
193,126,269046,1,0,0:0:0:0:
64,128,269319,1,8,0:0:0:0:
64,128,269865,1,8,0:0:0:0:
180,126,270137,1,0,0:0:0:0:
64,128,270410,1,8,0:0:0:0:
180,126,270683,1,0,0:0:0:0:
64,128,270955,1,8,0:0:0:0:
64,128,271501,1,8,0:0:0:0:
160,224,271774,1,0,0:0:0:0:
64,128,272046,1,8,0:0:0:0:
96,192,272183,1,8,0:0:0:0:
160,224,272319,1,8,0:0:0:0:
64,128,272592,1,4,0:0:0:0:
64,128,273137,1,8,0:0:0:0:
184,126,273410,1,0,0:0:0:0:
64,128,273683,1,8,0:0:0:0:
64,128,274228,1,8,0:0:0:0:
197,126,274501,1,0,0:0:0:0:
64,128,274774,1,8,0:0:0:0:
173,126,275046,1,0,0:0:0:0:
64,128,275319,1,8,0:0:0:0:
256,288,275865,1,8,0:0:0:0:
160,224,276137,1,0,0:0:0:0:
32,160,276410,1,0,0:0:0:0:
96,192,276546,1,0,0:0:0:0:
160,224,276683,1,8,0:0:0:0:
64,128,276955,1,4,0:0:0:0:
64,128,277501,1,8,0:0:0:0:
184,126,277774,1,0,0:0:0:0:
64,128,278046,1,8,0:0:0:0:
64,128,278592,1,8,0:0:0:0:
172,126,278865,1,0,0:0:0:0:
64,128,279137,1,8,0:0:0:0:
172,126,279410,1,0,0:0:0:0:
64,128,279683,1,8,0:0:0:0:
64,128,280228,1,8,0:0:0:0:
96,224,280501,1,0,0:0:0:0:
64,160,280774,1,0,0:0:0:0:
64,160,280910,1,0,0:0:0:0:
64,160,281046,1,0,0:0:0:0:
64,160,281319,1,12,0:0:0:0:
64,288,281592,1,0,0:0:0:0:
64,160,281865,1,8,0:0:0:0:
64,160,282410,1,8,0:0:0:0:
64,288,282683,1,0,0:0:0:0:
64,160,282955,1,8,0:0:0:0:
64,160,283501,1,12,0:0:0:0:
64,288,283774,1,0,0:0:0:0:
64,160,284046,1,8,0:0:0:0:
64,160,284592,1,8,0:0:0:0:
64,96,284728,1,8,0:0:0:0:
64,32,284865,1,0,0:0:0:0:
64,160,285137,1,8,0:0:0:0:
64,32,285410,1,8,0:0:0:0:
64,96,285546,1,8,0:0:0:0:
64,160,285683,1,4,0:0:0:0:
64,160,285955,1,0,0:0:0:0:
64,160,286228,1,8,0:0:0:0:
64,160,286501,1,8,0:0:0:0:
192,128,286774,1,8,0:0:0:0:
64,160,287046,1,8,0:0:0:0:
192,128,287319,1,0,0:0:0:0:
64,160,287592,1,0,0:0:0:0:
192,128,287865,1,8,0:0:0:0:
64,160,288137,1,8,0:0:0:0:
192,96,288410,1,8,0:0:0:0:
64,160,288683,1,8,0:0:0:0:
32,160,288955,1,0,0:0:0:0:
32,160,289092,1,0,0:0:0:0:
64,160,289228,1,0,0:0:0:0:
32,160,289501,1,8,0:0:0:0:
32,160,289637,1,8,0:0:0:0:
32,160,289774,1,8,0:0:0:0:
160,128,290046,1,4,0:0:0:0:
64,160,290319,1,0,0:0:0:0:
192,96,290592,1,8,0:0:0:0:
64,160,290865,1,8,0:0:0:0:
192,96,291137,1,8,0:0:0:0:
64,160,291410,1,8,0:0:0:0:
192,160,291683,1,0,0:0:0:0:
128,160,291819,1,0,0:0:0:0:
128,160,291955,1,0,0:0:0:0:
128,160,292092,1,0,0:0:0:0:
128,160,292228,5,12,0:0:0:0:
64,160,293319,1,12,0:0:0:0:
64,160,293592,1,12,0:0:0:0:
64,160,293865,1,0,0:0:0:0:
195,153,294137,1,0,0:0:0:0:
219,23,294410,1,12,0:0:0:0:
219,23,294683,1,12,0:0:0:0:
64,160,294956,1,0,0:0:0:0:
193,136,295228,1,0,0:0:0:0:
256,192,295501,5,12,0:0:0:0:
256,192,295774,1,4,0:0:0:0:
256,192,296046,1,12,0:0:0:0:
64,128,296456,1,12,0:0:0:0:
192,160,296728,1,4,0:0:0:0:
256,160,297683,1,8,0:0:0:0:
256,160,297819,1,0,0:0:0:0:
256,160,298092,1,8,0:0:0:0:
176,54,298501,1,8,0:0:0:0:
215,106,298637,1,0,0:0:0:0:
175,52,298910,1,8,0:0:0:0:
167,47,299319,1,8,0:0:0:0:
138,106,299456,1,8,0:0:0:0:
167,47,299592,1,8,0:0:0:0:
138,106,299728,1,8,0:0:0:0:
167,46,299865,1,4,0:0:0:0:
