osu file format v14

[General]
AudioFilename: 01. Jikininki comprimido.mp3
AudioLeadIn: 0
PreviewTime: 268228
Countdown: 0
SampleSet: Normal
StackLeniency: 0.7
Mode: 1
LetterboxInBreaks: 0
WidescreenStoryboard: 0

[Editor]
DistanceSpacing: 1.1
BeatDivisor: 4
GridSize: 32
TimelineZoom: 3.399999

[Metadata]
Title:Jikininki
TitleUnicode:Jikininki
Artist:Whispered
ArtistUnicode:Whispered
Creator:LZD
Version:Inner Oni
Source:
Tags:folk metal samurai raiden nwolf
BeatmapID:899485
BeatmapSetID:415048

[Difficulty]
HPDrainRate:5
CircleSize:5
OverallDifficulty:6.5
ApproachRate:5
SliderMultiplier:1.4
SliderTickRate:1

[Events]
//Background and Video events
0,0,"samurai_shogun_warrior_1920x1080_2125204898.jpg",0,25
//Break Periods
//Storyboard Layer 0 (Background)
//Storyboard Layer 1 (Fail)
//Storyboard Layer 2 (Pass)
//Storyboard Layer 3 (Foreground)
//Storyboard Sound Samples

[TimingPoints]
12956,272.727272727273,4,1,0,64,1,0
71796,-125,4,1,0,64,0,0
73978,-100,4,1,0,64,0,0
76706,-125,4,1,0,64,0,0
78342,-100,4,1,0,64,0,0
81069,-125,4,1,0,64,0,0
82706,-100,4,1,0,64,0,0
85433,-125,4,1,0,64,0,0
87069,-100,4,1,0,64,0,0
104524,-90.9090909090909,4,1,0,64,0,0
106978,-125,4,1,0,64,0,0
113319,-100,4,1,0,64,0,1
137319,-100,4,1,0,64,0,0
138410,-100,4,1,0,64,0,1
140592,-100,4,1,0,64,0,0
160160,-166.666666666667,4,1,0,64,0,0
187410,-161.290322580645,4,1,0,64,0,0
187592,-156.25,4,1,0,64,0,0
187774,-151.515151515152,4,1,0,64,0,0
187956,-147.058823529412,4,1,0,64,0,0
188137,-142.857142857143,4,1,0,64,0,0
188319,-138.888888888889,4,1,0,64,0,0
188501,-135.135135135135,4,1,0,64,0,0
188683,-131.578947368421,4,1,0,64,0,0
188865,-128.205128205128,4,1,0,64,0,0
189046,-125,4,1,0,64,0,0
189228,-121.951219512195,4,1,0,64,0,0
189410,-119.047619047619,4,1,0,64,0,0
189592,-117.647058823529,4,1,0,64,0,0
205956,-111.111111111111,4,1,0,64,0,0
207137,-111.111111111111,4,1,0,64,0,1
225751,-100,4,1,0,64,0,1
226774,-100,4,1,0,64,0,0
227251,-125,4,1,0,64,0,0
228887,-100,4,1,0,64,0,0
231615,-125,4,1,0,64,0,0
233251,-100,4,1,0,64,0,0
235978,-125,4,1,0,64,0,0
237615,-100,4,1,0,64,0,0
240342,-125,4,1,0,64,0,0
241978,-100,4,1,0,64,0,0
259433,-90.9090909090909,4,1,0,64,0,0
261887,-125,4,1,0,64,0,0
268228,-100,4,1,0,64,0,1
292228,-100,4,1,0,64,0,0
293319,-100,4,1,0,64,0,1
295501,-100,4,1,0,64,0,0

[HitObjects]
224,288,15137,5,12,0:0:0:0:
320,160,15410,1,4,0:0:0:0:
224,288,15683,1,12,0:0:0:0:
256,224,15819,1,4,0:0:0:0:
256,224,16092,1,12,0:0:0:0:
256,224,16365,1,4,0:0:0:0:
256,224,16637,1,8,0:0:0:0:
256,224,16774,1,0,0:0:0:0:
128,160,17046,1,0,0:0:0:0:
64,160,17183,1,0,0:0:0:0:
320,224,17319,1,8,0:0:0:0:
256,192,17456,1,8,0:0:0:0:
192,192,17592,1,0,0:0:0:0:
192,128,17728,1,0,0:0:0:0:
256,192,17865,1,8,0:0:0:0:
192,160,18001,1,8,0:0:0:0:
128,160,18137,1,0,0:0:0:0:
256,192,18410,1,0,0:0:0:0:
256,192,18546,1,0,0:0:0:0:
256,192,18683,1,0,0:0:0:0:
180,178,18819,1,8,0:0:0:0:
65,157,18887,1,8,0:0:0:0:
103,164,18956,1,8,0:0:0:0:
65,157,19092,1,8,0:0:0:0:
96,160,19228,1,0,0:0:0:0:
96,160,19296,1,0,0:0:0:0:
96,160,19365,1,0,0:0:0:0:
96,160,19433,1,0,0:0:0:0:
224,288,19501,5,12,0:0:0:0:
320,160,19774,1,4,0:0:0:0:
224,288,20046,1,12,0:0:0:0:
256,224,20183,1,4,0:0:0:0:
256,224,20456,1,12,0:0:0:0:
256,224,20728,1,4,0:0:0:0:
256,224,21001,1,8,0:0:0:0:
256,224,21137,1,0,0:0:0:0:
128,128,21410,1,0,0:0:0:0:
128,128,21546,1,0,0:0:0:0:
224,160,21683,1,8,0:0:0:0:
224,160,21819,1,8,0:0:0:0:
160,128,21956,1,0,0:0:0:0:
224,160,22092,1,0,0:0:0:0:
192,160,22160,1,0,0:0:0:0:
160,128,22228,1,8,0:0:0:0:
96,192,22365,1,8,0:0:0:0:
128,128,22501,1,0,0:0:0:0:
96,192,22637,1,0,0:0:0:0:
32,96,22774,1,8,0:0:0:0:
32,96,22842,1,8,0:0:0:0:
32,96,22910,1,8,0:0:0:0:
32,96,22978,1,8,0:0:0:0:
32,96,23046,1,0,0:0:0:0:
32,96,23115,1,0,0:0:0:0:
32,96,23183,1,0,0:0:0:0:
32,96,23251,1,0,0:0:0:0:
32,96,23319,1,8,0:0:0:0:
32,96,23387,1,8,0:0:0:0:
32,96,23456,1,8,0:0:0:0:
32,96,23524,1,8,0:0:0:0:
32,96,23592,1,0,0:0:0:0:
32,96,23660,1,0,0:0:0:0:
32,96,23728,1,0,0:0:0:0:
32,96,23796,1,0,0:0:0:0:
224,288,23865,5,12,0:0:0:0:
320,160,24137,1,4,0:0:0:0:
224,288,24410,1,12,0:0:0:0:
256,224,24546,1,4,0:0:0:0:
256,224,24819,1,12,0:0:0:0:
256,224,25092,1,4,0:0:0:0:
256,224,25365,1,8,0:0:0:0:
256,224,25501,1,0,0:0:0:0:
128,160,25774,1,0,0:0:0:0:
128,160,25910,1,0,0:0:0:0:
128,160,26046,1,8,0:0:0:0:
160,96,26183,1,8,0:0:0:0:
128,128,26319,1,0,0:0:0:0:
128,128,26456,1,0,0:0:0:0:
128,128,26592,1,8,0:0:0:0:
256,224,26728,1,8,0:0:0:0:
256,224,26865,1,0,0:0:0:0:
256,192,27137,1,0,0:0:0:0:
256,192,27274,1,8,0:0:0:0:
256,192,27410,1,0,0:0:0:0:
182,169,27546,1,8,0:0:0:0:
146,153,27615,1,8,0:0:0:0:
110,139,27683,1,8,0:0:0:0:
110,139,27819,1,8,0:0:0:0:
96,160,27956,1,0,0:0:0:0:
96,160,28024,1,0,0:0:0:0:
96,160,28092,1,0,0:0:0:0:
96,160,28160,1,0,0:0:0:0:
224,288,28228,5,12,0:0:0:0:
320,160,28501,1,4,0:0:0:0:
224,288,28774,1,12,0:0:0:0:
256,224,28910,1,4,0:0:0:0:
256,224,29183,1,12,0:0:0:0:
256,224,29456,5,4,0:0:0:0:
256,224,29728,1,8,0:0:0:0:
256,224,29865,1,0,0:0:0:0:
128,128,30137,1,0,0:0:0:0:
192,160,30274,1,0,0:0:0:0:
288,160,30410,1,8,0:0:0:0:
256,160,30501,1,0,0:0:0:0:
224,128,30546,1,0,0:0:0:0:
192,128,30592,1,0,0:0:0:0:
128,128,30683,1,8,0:0:0:0:
160,224,32046,1,4,0:0:0:0:
224,288,32592,5,8,0:0:0:0:
192,224,32728,1,8,0:0:0:0:
320,160,32865,1,0,0:0:0:0:
192,160,32933,1,0,0:0:0:0:
256,160,33001,1,0,0:0:0:0:
224,288,33137,1,8,0:0:0:0:
256,224,33274,1,0,0:0:0:0:
192,160,33410,1,0,0:0:0:0:
192,160,33478,1,0,0:0:0:0:
256,224,33546,1,8,0:0:0:0:
192,160,33683,1,0,0:0:0:0:
192,160,33751,1,0,0:0:0:0:
256,224,33819,1,0,0:0:0:0:
192,160,33956,1,0,0:0:0:0:
256,224,34092,1,8,0:0:0:0:
256,224,34228,1,0,0:0:0:0:
224,192,34296,1,0,0:0:0:0:
192,160,34365,1,0,0:0:0:0:
128,160,34501,1,8,0:0:0:0:
64,160,34637,1,0,0:0:0:0:
320,224,34774,1,8,0:0:0:0:
224,160,34910,1,8,0:0:0:0:
192,192,35046,1,0,0:0:0:0:
128,128,35115,1,0,0:0:0:0:
192,128,35183,1,0,0:0:0:0:
256,192,35319,1,8,0:0:0:0:
160,160,35456,1,8,0:0:0:0:
128,160,35592,1,0,0:0:0:0:
160,128,35660,1,0,0:0:0:0:
192,128,35728,1,0,0:0:0:0:
256,192,35865,1,8,0:0:0:0:
128,128,35933,1,8,0:0:0:0:
256,192,36001,1,8,0:0:0:0:
256,192,36137,1,0,0:0:0:0:
192,160,36206,1,0,0:0:0:0:
128,128,36274,1,8,0:0:0:0:
128,96,36410,1,0,0:0:0:0:
160,160,36546,1,8,0:0:0:0:
128,128,36615,1,8,0:0:0:0:
96,160,36683,1,0,0:0:0:0:
96,160,36751,1,0,0:0:0:0:
96,160,36819,1,0,0:0:0:0:
224,288,36956,5,8,0:0:0:0:
192,224,37092,1,8,0:0:0:0:
320,160,37228,1,0,0:0:0:0:
224,192,37296,1,0,0:0:0:0:
256,192,37365,1,0,0:0:0:0:
224,288,37501,1,8,0:0:0:0:
256,224,37637,1,0,0:0:0:0:
192,192,37774,1,0,0:0:0:0:
192,192,37842,1,0,0:0:0:0:
256,224,37910,1,8,0:0:0:0:
192,192,38046,1,0,0:0:0:0:
160,160,38115,1,0,0:0:0:0:
256,224,38183,1,0,0:0:0:0:
192,192,38319,1,0,0:0:0:0:
256,224,38456,1,8,0:0:0:0:
256,224,38592,1,0,0:0:0:0:
160,128,38660,1,0,0:0:0:0:
192,160,38728,1,0,0:0:0:0:
128,160,38865,1,8,0:0:0:0:
64,160,39001,1,0,0:0:0:0:
320,224,39137,1,8,0:0:0:0:
256,192,39274,1,8,0:0:0:0:
192,192,39410,1,0,0:0:0:0:
224,160,39478,1,0,0:0:0:0:
192,128,39546,1,0,0:0:0:0:
256,192,39683,1,8,0:0:0:0:
192,160,39819,1,8,0:0:0:0:
128,160,39956,1,0,0:0:0:0:
160,160,40024,1,0,0:0:0:0:
64,160,40092,1,0,0:0:0:0:
96,320,40228,1,4,0:0:0:0:
96,256,40365,1,4,0:0:0:0:
128,192,40501,1,4,0:0:0:0:
128,192,40637,1,4,0:0:0:0:
256,160,40774,5,8,0:0:0:0:
256,160,40842,1,0,0:0:0:0:
256,160,40910,1,8,0:0:0:0:
256,160,40978,1,0,0:0:0:0:
256,160,41046,1,0,0:0:0:0:
256,160,41115,1,0,0:0:0:0:
256,160,41183,1,8,0:0:0:0:
256,160,41251,1,0,0:0:0:0:
224,288,41319,5,8,0:0:0:0:
128,192,41456,1,8,0:0:0:0:
320,160,41592,1,0,0:0:0:0:
224,256,41660,1,0,0:0:0:0:
256,160,41728,1,0,0:0:0:0:
224,288,41865,1,8,0:0:0:0:
256,224,42001,1,0,0:0:0:0:
192,224,42137,1,0,0:0:0:0:
160,224,42206,1,0,0:0:0:0:
256,224,42274,1,8,0:0:0:0:
192,224,42410,1,0,0:0:0:0:
224,224,42478,1,0,0:0:0:0:
256,224,42546,1,0,0:0:0:0:
192,224,42683,1,0,0:0:0:0:
256,224,42819,1,8,0:0:0:0:
256,224,42956,1,0,0:0:0:0:
192,160,43024,1,0,0:0:0:0:
192,160,43092,1,0,0:0:0:0:
128,160,43228,1,8,0:0:0:0:
64,160,43365,1,0,0:0:0:0:
320,224,43501,1,8,0:0:0:0:
256,192,43637,1,8,0:0:0:0:
192,192,43774,1,0,0:0:0:0:
224,160,43842,1,0,0:0:0:0:
192,128,43910,1,0,0:0:0:0:
256,192,44046,1,8,0:0:0:0:
192,160,44183,1,8,0:0:0:0:
128,160,44319,1,0,0:0:0:0:
192,128,44387,1,0,0:0:0:0:
160,224,44456,1,0,0:0:0:0:
192,288,44592,1,8,0:0:0:0:
210,136,44660,1,8,0:0:0:0:
71,149,44728,1,8,0:0:0:0:
256,192,44865,1,0,0:0:0:0:
224,192,44933,1,0,0:0:0:0:
192,192,45001,1,8,0:0:0:0:
96,224,45137,1,0,0:0:0:0:
32,224,45274,1,8,0:0:0:0:
64,192,45342,1,8,0:0:0:0:
96,160,45410,1,0,0:0:0:0:
96,160,45478,1,0,0:0:0:0:
96,160,45546,1,0,0:0:0:0:
224,288,45683,5,8,0:0:0:0:
160,224,45819,1,8,0:0:0:0:
320,160,45956,1,0,0:0:0:0:
192,256,46024,1,0,0:0:0:0:
256,160,46092,1,0,0:0:0:0:
224,288,46228,1,8,0:0:0:0:
256,224,46365,1,0,0:0:0:0:
128,160,46501,1,0,0:0:0:0:
128,160,46569,1,0,0:0:0:0:
256,224,46637,1,8,0:0:0:0:
128,160,46774,1,0,0:0:0:0:
128,160,46842,1,0,0:0:0:0:
256,224,46910,1,0,0:0:0:0:
128,160,47046,1,0,0:0:0:0:
256,224,47183,1,8,0:0:0:0:
256,224,47319,1,0,0:0:0:0:
128,160,47387,1,0,0:0:0:0:
128,160,47456,1,0,0:0:0:0:
128,160,47592,1,8,0:0:0:0:
64,160,47728,1,0,0:0:0:0:
320,224,47865,1,8,0:0:0:0:
256,192,48001,1,8,0:0:0:0:
192,192,48137,1,0,0:0:0:0:
288,192,48206,1,0,0:0:0:0:
192,128,48274,1,0,0:0:0:0:
256,192,48410,1,8,0:0:0:0:
192,160,48546,1,8,0:0:0:0:
128,160,48683,1,0,0:0:0:0:
224,160,48751,1,0,0:0:0:0:
64,128,48819,1,0,0:0:0:0:
256,192,48956,1,8,0:0:0:0:
160,160,49024,1,8,0:0:0:0:
160,160,49092,1,8,0:0:0:0:
256,192,49160,1,0,0:0:0:0:
160,160,49228,1,0,0:0:0:0:
160,160,49365,1,8,0:0:0:0:
160,160,49433,1,8,0:0:0:0:
160,160,49501,1,8,0:0:0:0:
160,160,49569,1,0,0:0:0:0:
160,160,49637,1,0,0:0:0:0:
160,160,49774,1,8,0:0:0:0:
160,160,49842,1,8,0:0:0:0:
160,160,49910,1,8,0:0:0:0:
160,160,49978,1,0,0:0:0:0:
160,160,50046,1,0,0:0:0:0:
160,160,50183,1,8,0:0:0:0:
160,160,50251,1,8,0:0:0:0:
160,160,50319,1,0,0:0:0:0:
160,160,50456,1,0,0:0:0:0:
160,160,50592,1,8,0:0:0:0:
160,160,50660,1,8,0:0:0:0:
160,160,50728,1,8,0:0:0:0:
160,160,50796,1,8,0:0:0:0:
160,160,50865,1,0,0:0:0:0:
160,160,50933,1,0,0:0:0:0:
160,160,51001,1,0,0:0:0:0:
160,160,51069,1,0,0:0:0:0:
160,160,51137,1,8,0:0:0:0:
160,160,51206,1,8,0:0:0:0:
160,160,51274,1,8,0:0:0:0:
128,160,51342,1,8,0:0:0:0:
160,160,51410,1,0,0:0:0:0:
160,160,51546,1,8,0:0:0:0:
160,160,51615,1,8,0:0:0:0:
160,160,51683,1,8,0:0:0:0:
160,160,51819,1,0,0:0:0:0:
192,160,51887,1,0,0:0:0:0:
160,160,51956,1,8,0:0:0:0:
160,256,52092,1,0,0:0:0:0:
160,160,52365,1,8,0:0:0:0:
160,160,52501,1,8,0:0:0:0:
160,160,52637,1,0,0:0:0:0:
192,224,52774,1,8,0:0:0:0:
128,160,52910,1,8,0:0:0:0:
96,96,53046,1,0,0:0:0:0:
128,160,53183,1,0,0:0:0:0:
160,128,53319,1,8,0:0:0:0:
160,128,53387,1,8,0:0:0:0:
160,128,53456,1,8,0:0:0:0:
160,128,53524,1,8,0:0:0:0:
160,128,53592,1,0,0:0:0:0:
160,128,53660,1,0,0:0:0:0:
160,128,53728,1,8,0:0:0:0:
160,128,53796,1,8,0:0:0:0:
160,128,53865,1,8,0:0:0:0:
160,128,53933,1,8,0:0:0:0:
160,128,54001,1,0,0:0:0:0:
160,128,54069,1,0,0:0:0:0:
160,128,54137,1,8,0:0:0:0:
160,128,54206,1,8,0:0:0:0:
160,128,54274,1,0,0:0:0:0:
160,128,54342,1,0,0:0:0:0:
160,128,54410,1,12,0:0:0:0:
0,160,54683,1,0,0:0:0:0:
32,160,54751,1,0,0:0:0:0:
32,160,54819,1,0,0:0:0:0:
32,160,54887,1,0,0:0:0:0:
32,160,54956,1,0,0:0:0:0:
32,160,55024,1,0,0:0:0:0:
32,160,55092,1,0,0:0:0:0:
32,192,55160,1,0,0:0:0:0:
32,160,55228,1,12,0:0:0:0:
192,128,55501,1,0,0:0:0:0:
128,160,55569,1,0,0:0:0:0:
128,160,55637,1,0,0:0:0:0:
128,160,55706,1,0,0:0:0:0:
352,160,55774,1,12,0:0:0:0:
288,160,55910,1,0,0:0:0:0:
224,160,56046,1,12,0:0:0:0:
192,96,56183,1,0,0:0:0:0:
128,32,56319,1,12,0:0:0:0:
160,96,56456,1,0,0:0:0:0:
224,160,56592,1,4,0:0:0:0:
192,96,56728,1,4,0:0:0:0:
224,128,59865,1,8,0:0:0:0:
224,128,59933,1,8,0:0:0:0:
224,128,60001,1,8,0:0:0:0:
224,128,60137,1,0,0:0:0:0:
224,128,60206,1,0,0:0:0:0:
224,128,60274,1,0,0:0:0:0:
224,128,60410,1,8,0:0:0:0:
224,128,60478,1,8,0:0:0:0:
224,128,60546,1,8,0:0:0:0:
256,160,60615,1,0,0:0:0:0:
288,192,60683,1,8,0:0:0:0:
320,224,60751,1,8,0:0:0:0:
352,224,60819,1,8,0:0:0:0:
384,256,60887,1,8,0:0:0:0:
416,256,60956,1,0,0:0:0:0:
352,224,61092,1,0,0:0:0:0:
256,192,61160,1,0,0:0:0:0:
288,192,61228,1,8,0:0:0:0:
224,160,61365,1,0,0:0:0:0:
192,160,61433,1,0,0:0:0:0:
160,96,61501,1,8,0:0:0:0:
96,64,61637,1,0,0:0:0:0:
160,64,61774,1,0,0:0:0:0:
128,160,61842,1,0,0:0:0:0:
96,64,61910,1,8,0:0:0:0:
192,192,62046,1,0,0:0:0:0:
192,192,62115,1,0,0:0:0:0:
192,192,62183,1,0,0:0:0:0:
192,192,62319,1,0,0:0:0:0:
192,192,62387,1,0,0:0:0:0:
192,192,62456,1,0,0:0:0:0:
128,160,62592,1,0,0:0:0:0:
96,64,62728,1,8,0:0:0:0:
128,160,62796,1,8,0:0:0:0:
160,128,62865,1,0,0:0:0:0:
128,160,62933,1,0,0:0:0:0:
96,64,63001,1,8,0:0:0:0:
64,128,63137,1,0,0:0:0:0:
64,128,63274,1,0,0:0:0:0:
160,128,63342,1,0,0:0:0:0:
32,288,63410,1,8,0:0:0:0:
64,128,63546,1,0,0:0:0:0:
160,128,63615,1,0,0:0:0:0:
64,128,63683,1,8,0:0:0:0:
160,128,63819,1,0,0:0:0:0:
224,192,63956,1,0,0:0:0:0:
224,192,64024,1,0,0:0:0:0:
224,192,64092,1,0,0:0:0:0:
224,192,64228,1,0,0:0:0:0:
224,192,64296,1,0,0:0:0:0:
224,192,64365,1,0,0:0:0:0:
288,224,64501,1,0,0:0:0:0:
256,192,64569,1,0,0:0:0:0:
256,192,64637,1,0,0:0:0:0:
192,160,64774,1,0,0:0:0:0:
96,192,64910,1,8,0:0:0:0:
64,192,64978,1,8,0:0:0:0:
64,192,65046,1,0,0:0:0:0:
64,192,65115,1,0,0:0:0:0:
64,192,65183,1,8,0:0:0:0:
160,160,65319,1,0,0:0:0:0:
224,160,65456,1,0,0:0:0:0:
192,160,65524,1,0,0:0:0:0:
160,160,65592,1,8,0:0:0:0:
160,160,65728,1,0,0:0:0:0:
160,160,65796,1,0,0:0:0:0:
160,160,65865,1,8,0:0:0:0:
224,192,66001,1,0,0:0:0:0:
224,192,66137,1,0,0:0:0:0:
224,192,66206,1,0,0:0:0:0:
352,288,66274,1,8,0:0:0:0:
224,256,66410,1,0,0:0:0:0:
224,256,66478,1,0,0:0:0:0:
224,256,66546,1,0,0:0:0:0:
224,256,66683,1,0,0:0:0:0:
224,256,66751,1,0,0:0:0:0:
224,256,66819,1,0,0:0:0:0:
256,192,66956,1,0,0:0:0:0:
224,320,67092,1,8,0:0:0:0:
224,320,67160,1,8,0:0:0:0:
224,320,67228,1,0,0:0:0:0:
224,320,67296,1,0,0:0:0:0:
224,320,67365,1,8,0:0:0:0:
192,256,67501,1,0,0:0:0:0:
224,320,67637,1,0,0:0:0:0:
224,320,67706,1,0,0:0:0:0:
224,320,67774,1,8,0:0:0:0:
224,256,67910,1,0,0:0:0:0:
192,160,67978,1,0,0:0:0:0:
192,160,68046,1,8,0:0:0:0:
224,96,68183,1,0,0:0:0:0:
192,128,68251,1,0,0:0:0:0:
192,128,68319,1,8,0:0:0:0:
192,128,68387,1,8,0:0:0:0:
192,128,68456,1,0,0:0:0:0:
192,128,68524,1,0,0:0:0:0:
192,128,68592,1,8,0:0:0:0:
160,160,68660,1,8,0:0:0:0:
160,128,68728,1,8,0:0:0:0:
128,96,68796,1,0,0:0:0:0:
96,64,68865,1,8,0:0:0:0:
96,32,68933,1,8,0:0:0:0:
64,0,69001,1,0,0:0:0:0:
192,160,69069,1,0,0:0:0:0:
192,160,69137,1,8,0:0:0:0:
192,160,69206,1,0,0:0:0:0:
192,160,69274,1,8,0:0:0:0:
192,160,69342,1,8,0:0:0:0:
192,160,69410,1,8,0:0:0:0:
192,160,69478,1,0,0:0:0:0:
192,160,69546,1,0,0:0:0:0:
192,160,69615,1,0,0:0:0:0:
192,160,69683,1,12,0:0:0:0:
160,128,70774,1,4,0:0:0:0:
224,96,71865,5,0,0:0:0:0:
224,96,72410,1,0,0:0:0:0:
224,96,72956,1,0,0:0:0:0:
256,256,73501,5,0,0:0:0:0:
64,32,74046,1,0,0:0:0:0:
96,64,74115,1,0,0:0:0:0:
128,96,74183,1,0,0:0:0:0:
160,160,74319,1,0,0:0:0:0:
160,160,74387,1,0,0:0:0:0:
160,160,74456,1,0,0:0:0:0:
160,160,74592,1,0,0:0:0:0:
160,160,74660,1,0,0:0:0:0:
160,160,74728,1,0,0:0:0:0:
160,160,74865,1,0,0:0:0:0:
160,160,74933,1,0,0:0:0:0:
160,160,75001,1,0,0:0:0:0:
160,160,75137,1,0,0:0:0:0:
160,160,75206,1,0,0:0:0:0:
160,160,75274,1,0,0:0:0:0:
160,160,75410,1,0,0:0:0:0:
160,160,75478,1,0,0:0:0:0:
160,160,75546,1,0,0:0:0:0:
160,160,75683,1,0,0:0:0:0:
160,160,75751,1,0,0:0:0:0:
160,160,75819,1,8,0:0:0:0:
160,160,75887,1,8,0:0:0:0:
160,160,75956,1,0,0:0:0:0:
160,160,76024,1,0,0:0:0:0:
160,160,76092,1,8,0:0:0:0:
160,160,76160,1,8,0:0:0:0:
160,160,76228,1,0,0:0:0:0:
448,256,76774,1,0,0:0:0:0:
160,160,77319,1,0,0:0:0:0:
448,256,77865,1,0,0:0:0:0:
128,160,78410,1,0,0:0:0:0:
160,160,78478,1,0,0:0:0:0:
192,160,78546,1,0,0:0:0:0:
224,224,78683,1,0,0:0:0:0:
192,192,78751,1,0,0:0:0:0:
192,192,78819,1,0,0:0:0:0:
192,192,78956,1,0,0:0:0:0:
192,192,79024,1,0,0:0:0:0:
192,192,79092,1,0,0:0:0:0:
192,192,79228,1,0,0:0:0:0:
192,192,79296,1,0,0:0:0:0:
192,192,79365,1,0,0:0:0:0:
192,192,79501,1,0,0:0:0:0:
192,192,79569,1,0,0:0:0:0:
192,192,79637,1,0,0:0:0:0:
192,192,79774,1,0,0:0:0:0:
192,192,79842,1,0,0:0:0:0:
192,192,79910,1,0,0:0:0:0:
192,192,80046,1,0,0:0:0:0:
192,192,80115,1,0,0:0:0:0:
192,192,80183,1,0,0:0:0:0:
192,192,80251,1,0,0:0:0:0:
192,192,80319,1,8,0:0:0:0:
192,192,80387,1,8,0:0:0:0:
192,192,80456,1,8,0:0:0:0:
192,192,80524,1,8,0:0:0:0:
192,192,80592,1,0,0:0:0:0:
160,160,81137,1,0,0:0:0:0:
128,224,81683,1,0,0:0:0:0:
128,224,82228,1,0,0:0:0:0:
416,256,82774,1,0,0:0:0:0:
352,224,82910,1,0,0:0:0:0:
256,192,82978,1,0,0:0:0:0:
288,192,83046,1,8,0:0:0:0:
224,160,83183,1,0,0:0:0:0:
192,160,83251,1,0,0:0:0:0:
160,96,83319,1,8,0:0:0:0:
96,64,83456,1,0,0:0:0:0:
160,64,83592,1,0,0:0:0:0:
128,160,83660,1,0,0:0:0:0:
96,64,83728,1,8,0:0:0:0:
96,160,83865,1,0,0:0:0:0:
96,160,83933,1,0,0:0:0:0:
96,160,84001,1,0,0:0:0:0:
96,160,84137,1,0,0:0:0:0:
96,160,84206,1,0,0:0:0:0:
96,160,84274,1,0,0:0:0:0:
96,160,84410,1,0,0:0:0:0:
96,160,84478,1,0,0:0:0:0:
96,160,84546,1,8,0:0:0:0:
96,160,84615,1,8,0:0:0:0:
96,160,84683,1,0,0:0:0:0:
160,192,84751,1,0,0:0:0:0:
160,192,84819,1,8,0:0:0:0:
160,192,84887,1,8,0:0:0:0:
128,224,84956,1,0,0:0:0:0:
128,224,85501,1,0,0:0:0:0:
128,224,86046,1,0,0:0:0:0:
128,224,86592,1,0,0:0:0:0:
128,224,87137,1,0,0:0:0:0:
160,64,87274,1,0,0:0:0:0:
160,64,87410,1,8,0:0:0:0:
160,64,87546,1,8,0:0:0:0:
160,160,87683,1,0,0:0:0:0:
160,160,87751,1,0,0:0:0:0:
160,160,87819,1,0,0:0:0:0:
160,64,87956,1,8,0:0:0:0:
160,64,88024,1,8,0:0:0:0:
160,64,88092,1,0,0:0:0:0:
160,64,88160,1,0,0:0:0:0:
160,96,88228,1,8,0:0:0:0:
160,64,88365,1,0,0:0:0:0:
160,64,88501,1,0,0:0:0:0:
160,64,88569,1,0,0:0:0:0:
160,96,88637,1,8,0:0:0:0:
96,128,88774,1,0,0:0:0:0:
96,128,88910,1,0,0:0:0:0:
96,128,88978,1,0,0:0:0:0:
96,128,89046,1,0,0:0:0:0:
96,128,89115,1,0,0:0:0:0:
96,128,89183,1,0,0:0:0:0:
64,160,89319,1,8,0:0:0:0:
96,128,89456,1,0,0:0:0:0:
96,128,89592,1,0,0:0:0:0:
96,128,89660,1,0,0:0:0:0:
96,128,89728,1,0,0:0:0:0:
96,128,89865,1,0,0:0:0:0:
64,160,90001,1,8,0:0:0:0:
96,224,90069,1,8,0:0:0:0:
96,224,90137,1,0,0:0:0:0:
96,160,90274,1,8,0:0:0:0:
96,224,90342,1,8,0:0:0:0:
96,224,90410,1,0,0:0:0:0:
96,224,90546,1,0,0:0:0:0:
160,160,90615,1,0,0:0:0:0:
96,224,90683,1,8,0:0:0:0:
96,224,90819,1,0,0:0:0:0:
256,224,90956,1,8,0:0:0:0:
256,224,91024,1,8,0:0:0:0:
256,224,91092,1,8,0:0:0:0:
256,224,91160,1,0,0:0:0:0:
256,224,91228,1,8,0:0:0:0:
256,224,91296,1,8,0:0:0:0:
256,224,91365,1,0,0:0:0:0:
256,224,91433,1,0,0:0:0:0:
256,224,91501,1,8,0:0:0:0:
128,128,91637,1,0,0:0:0:0:
128,128,91774,1,0,0:0:0:0:
96,160,91842,1,0,0:0:0:0:
128,128,91910,1,0,0:0:0:0:
128,128,91978,1,0,0:0:0:0:
128,128,92046,1,8,0:0:0:0:
128,128,92183,1,8,0:0:0:0:
160,160,92319,1,0,0:0:0:0:
160,160,92456,1,8,0:0:0:0:
96,128,92592,1,0,0:0:0:0:
96,128,92660,1,0,0:0:0:0:
96,128,92728,1,0,0:0:0:0:
96,128,92865,1,8,0:0:0:0:
96,128,93001,1,0,0:0:0:0:
96,128,93069,1,0,0:0:0:0:
96,128,93137,1,0,0:0:0:0:
128,128,93274,1,8,0:0:0:0:
96,128,93342,1,8,0:0:0:0:
96,128,93410,1,0,0:0:0:0:
96,128,93478,1,0,0:0:0:0:
96,128,93546,1,0,0:0:0:0:
160,128,93683,1,8,0:0:0:0:
160,128,93751,1,8,0:0:0:0:
160,128,93819,1,8,0:0:0:0:
96,160,93956,1,0,0:0:0:0:
160,128,94092,1,0,0:0:0:0:
160,128,94228,1,8,0:0:0:0:
160,128,94296,1,8,0:0:0:0:
160,128,94365,1,8,0:0:0:0:
96,160,94501,1,0,0:0:0:0:
128,128,94637,1,0,0:0:0:0:
224,192,94774,1,8,0:0:0:0:
192,192,94842,1,8,0:0:0:0:
160,160,94910,1,8,0:0:0:0:
192,192,94978,1,8,0:0:0:0:
160,160,95046,1,0,0:0:0:0:
192,192,95115,1,0,0:0:0:0:
160,160,95183,1,8,0:0:0:0:
192,192,95251,1,0,0:0:0:0:
224,192,95319,1,8,0:0:0:0:
192,192,95387,1,8,0:0:0:0:
160,160,95456,1,8,0:0:0:0:
192,192,95524,1,8,0:0:0:0:
160,160,95592,1,0,0:0:0:0:
192,192,95660,1,0,0:0:0:0:
160,160,95728,1,8,0:0:0:0:
128,160,95796,1,8,0:0:0:0:
224,192,95865,1,0,0:0:0:0:
32,128,96001,1,0,0:0:0:0:
32,128,96137,1,8,0:0:0:0:
32,128,96274,1,8,0:0:0:0:
160,192,96410,1,0,0:0:0:0:
160,192,96478,1,0,0:0:0:0:
160,192,96546,1,0,0:0:0:0:
160,64,96683,1,8,0:0:0:0:
160,64,96751,1,8,0:0:0:0:
160,64,96819,1,0,0:0:0:0:
160,64,96887,1,0,0:0:0:0:
160,96,96956,1,8,0:0:0:0:
160,64,97092,1,0,0:0:0:0:
160,64,97228,1,0,0:0:0:0:
160,64,97296,1,0,0:0:0:0:
160,96,97365,1,8,0:0:0:0:
96,128,97501,1,0,0:0:0:0:
96,128,97637,1,0,0:0:0:0:
96,128,97706,1,0,0:0:0:0:
96,128,97774,1,0,0:0:0:0:
96,128,97842,1,0,0:0:0:0:
96,128,97910,1,0,0:0:0:0:
128,192,98046,1,8,0:0:0:0:
128,160,98115,1,8,0:0:0:0:
96,128,98183,1,0,0:0:0:0:
96,128,98319,1,8,0:0:0:0:
96,128,98387,1,0,0:0:0:0:
96,128,98456,1,0,0:0:0:0:
96,128,98592,1,8,0:0:0:0:
96,128,98660,1,8,0:0:0:0:
96,128,98728,1,8,0:0:0:0:
96,128,98796,1,8,0:0:0:0:
96,128,98865,1,0,0:0:0:0:
96,96,99001,1,0,0:0:0:0:
96,96,99137,1,8,0:0:0:0:
96,128,99206,1,8,0:0:0:0:
96,96,99274,1,0,0:0:0:0:
96,128,99342,1,0,0:0:0:0:
64,128,99410,1,8,0:0:0:0:
96,128,99546,1,0,0:0:0:0:
128,160,99683,1,8,0:0:0:0:
128,160,99751,1,8,0:0:0:0:
128,160,99819,1,0,0:0:0:0:
128,160,99887,1,0,0:0:0:0:
128,160,99956,1,8,0:0:0:0:
96,192,100024,1,0,0:0:0:0:
96,192,100092,1,0,0:0:0:0:
96,192,100160,1,0,0:0:0:0:
96,192,100228,1,8,0:0:0:0:
128,128,100365,1,0,0:0:0:0:
64,160,100501,1,0,0:0:0:0:
64,160,100569,1,0,0:0:0:0:
64,160,100637,1,0,0:0:0:0:
64,160,100706,1,0,0:0:0:0:
128,128,100774,1,8,0:0:0:0:
64,160,100910,1,8,0:0:0:0:
160,160,101046,1,0,0:0:0:0:
160,160,101183,1,8,0:0:0:0:
96,128,101319,1,0,0:0:0:0:
96,128,101387,1,0,0:0:0:0:
96,128,101456,1,0,0:0:0:0:
96,128,101592,1,8,0:0:0:0:
96,128,101728,1,0,0:0:0:0:
96,128,101796,1,0,0:0:0:0:
96,128,101865,1,0,0:0:0:0:
128,128,102001,1,8,0:0:0:0:
96,128,102069,1,8,0:0:0:0:
96,128,102137,1,0,0:0:0:0:
96,128,102206,1,0,0:0:0:0:
96,128,102274,1,0,0:0:0:0:
160,160,102410,5,8,0:0:0:0:
160,160,102478,1,8,0:0:0:0:
160,160,102546,1,8,0:0:0:0:
160,160,102683,1,0,0:0:0:0:
160,128,102819,1,0,0:0:0:0:
160,128,102956,1,8,0:0:0:0:
160,128,103024,1,8,0:0:0:0:
160,128,103092,1,8,0:0:0:0:
160,128,103228,1,0,0:0:0:0:
160,128,103365,1,0,0:0:0:0:
160,128,103501,1,8,0:0:0:0:
160,128,103569,1,8,0:0:0:0:
160,128,103637,1,8,0:0:0:0:
160,128,103774,1,0,0:0:0:0:
128,128,103910,1,0,0:0:0:0:
128,128,104046,1,8,0:0:0:0:
128,128,104115,1,8,0:0:0:0:
128,128,104183,1,8,0:0:0:0:
128,128,104251,1,8,0:0:0:0:
160,128,104319,1,0,0:0:0:0:
160,160,104456,1,0,0:0:0:0:
160,192,104592,5,8,0:0:0:0:
160,192,104660,1,8,0:0:0:0:
160,192,104728,1,8,0:0:0:0:
160,192,104796,1,8,0:0:0:0:
160,192,104865,1,0,0:0:0:0:
160,192,104933,1,0,0:0:0:0:
160,192,105001,1,8,0:0:0:0:
160,192,105069,1,0,0:0:0:0:
160,192,105137,1,8,0:0:0:0:
160,192,105206,1,8,0:0:0:0:
160,192,105274,1,8,0:0:0:0:
160,192,105342,1,8,0:0:0:0:
160,192,105410,1,0,0:0:0:0:
160,192,105478,1,0,0:0:0:0:
160,192,105546,1,8,0:0:0:0:
160,192,105615,1,0,0:0:0:0:
160,192,105683,1,8,0:0:0:0:
160,192,105751,1,8,0:0:0:0:
160,192,105819,1,8,0:0:0:0:
160,192,105887,1,8,0:0:0:0:
160,192,105956,1,0,0:0:0:0:
160,192,106024,1,0,0:0:0:0:
160,192,106092,1,0,0:0:0:0:
160,192,106160,1,0,0:0:0:0:
160,192,106228,1,8,0:0:0:0:
160,192,106296,1,8,0:0:0:0:
160,192,106365,1,8,0:0:0:0:
160,192,106433,1,0,0:0:0:0:
160,192,106501,1,0,0:0:0:0:
160,160,106569,1,0,0:0:0:0:
160,160,106637,1,8,0:0:0:0:
224,160,106774,5,4,0:0:0:0:
96,160,107046,1,0,0:0:0:0:
256,160,107319,1,8,0:0:0:0:
256,160,107592,1,0,0:0:0:0:
256,160,107683,1,0,0:0:0:0:
256,160,107774,1,0,0:0:0:0:
256,160,107865,1,8,0:0:0:0:
160,224,108137,1,0,0:0:0:0:
160,224,108274,1,0,0:0:0:0:
160,224,108410,1,8,0:0:0:0:
160,224,108546,1,8,0:0:0:0:
160,128,108683,1,0,0:0:0:0:
256,160,108956,1,4,0:0:0:0:
256,160,109228,1,0,0:0:0:0:
256,160,109319,1,0,0:0:0:0:
256,160,109410,1,0,0:0:0:0:
256,160,109501,1,8,0:0:0:0:
256,160,109774,1,0,0:0:0:0:
256,160,109865,1,0,0:0:0:0:
256,160,109956,1,0,0:0:0:0:
192,160,110046,1,8,0:0:0:0:
160,96,110319,1,0,0:0:0:0:
160,96,110456,1,0,0:0:0:0:
160,96,110592,1,8,0:0:0:0:
160,96,110728,1,8,0:0:0:0:
160,96,110865,1,0,0:0:0:0:
128,96,111137,1,4,0:0:0:0:
128,96,111410,1,0,0:0:0:0:
128,96,111501,1,0,0:0:0:0:
128,96,111592,1,0,0:0:0:0:
128,96,111683,1,8,0:0:0:0:
128,96,111956,1,0,0:0:0:0:
128,96,112046,1,0,0:0:0:0:
128,96,112137,1,0,0:0:0:0:
128,96,112228,1,8,0:0:0:0:
96,160,112501,1,0,0:0:0:0:
193,192,112569,1,0,0:0:0:0:
96,160,112637,1,0,0:0:0:0:
193,192,112706,1,0,0:0:0:0:
96,160,112774,1,8,0:0:0:0:
128,160,113046,1,0,0:0:0:0:
128,160,113319,1,12,0:0:0:0:
160,192,113592,1,0,0:0:0:0:
160,192,113660,1,0,0:0:0:0:
160,192,113728,1,0,0:0:0:0:
160,192,113796,1,0,0:0:0:0:
160,192,113865,1,8,0:0:0:0:
160,192,114137,1,0,0:0:0:0:
160,192,114206,1,0,0:0:0:0:
160,192,114274,1,0,0:0:0:0:
160,192,114342,1,0,0:0:0:0:
160,192,114410,1,8,0:0:0:0:
160,192,114683,1,0,0:0:0:0:
160,192,114751,1,0,0:0:0:0:
160,192,114819,1,0,0:0:0:0:
160,192,114887,1,0,0:0:0:0:
160,192,114956,1,8,0:0:0:0:
160,192,115228,1,0,0:0:0:0:
160,192,115296,1,0,0:0:0:0:
160,192,115365,1,0,0:0:0:0:
160,192,115433,1,0,0:0:0:0:
160,192,115501,1,8,0:0:0:0:
160,192,115774,1,0,0:0:0:0:
160,192,115842,1,0,0:0:0:0:
160,192,115910,1,0,0:0:0:0:
160,192,115978,1,0,0:0:0:0:
160,192,116046,1,8,0:0:0:0:
160,192,116319,1,0,0:0:0:0:
160,192,116387,1,0,0:0:0:0:
160,192,116456,1,0,0:0:0:0:
160,192,116524,1,0,0:0:0:0:
160,192,116592,1,8,0:0:0:0:
156,156,116660,1,8,0:0:0:0:
156,156,116728,1,8,0:0:0:0:
156,156,116796,1,8,0:0:0:0:
160,192,116865,1,8,0:0:0:0:
160,192,116933,1,8,0:0:0:0:
160,192,117001,1,0,0:0:0:0:
160,192,117069,1,0,0:0:0:0:
160,192,117137,1,8,0:0:0:0:
160,192,117206,1,8,0:0:0:0:
160,192,117274,1,8,0:0:0:0:
160,192,117342,1,8,0:0:0:0:
160,192,117410,1,8,0:0:0:0:
160,192,117478,1,8,0:0:0:0:
160,192,117546,1,8,0:0:0:0:
160,192,117615,1,8,0:0:0:0:
160,192,117683,1,0,0:0:0:0:
160,192,117956,1,0,0:0:0:0:
160,192,118024,1,0,0:0:0:0:
160,192,118092,1,0,0:0:0:0:
160,192,118160,1,0,0:0:0:0:
160,192,118228,1,8,0:0:0:0:
160,192,118501,1,0,0:0:0:0:
160,192,118569,1,0,0:0:0:0:
160,192,118637,1,0,0:0:0:0:
160,192,118706,1,0,0:0:0:0:
160,192,118774,1,8,0:0:0:0:
160,192,119046,1,0,0:0:0:0:
160,192,119115,1,0,0:0:0:0:
160,192,119183,1,0,0:0:0:0:
160,192,119251,1,0,0:0:0:0:
160,192,119319,1,8,0:0:0:0:
160,192,119592,1,0,0:0:0:0:
160,192,119660,1,0,0:0:0:0:
160,192,119728,1,0,0:0:0:0:
160,192,119796,1,0,0:0:0:0:
160,192,119865,1,8,0:0:0:0:
160,192,120137,1,0,0:0:0:0:
160,192,120206,1,0,0:0:0:0:
160,192,120274,1,0,0:0:0:0:
160,192,120342,1,0,0:0:0:0:
160,192,120410,1,8,0:0:0:0:
160,192,120683,1,0,0:0:0:0:
160,192,120751,1,0,0:0:0:0:
160,192,120819,1,0,0:0:0:0:
160,192,120887,1,0,0:0:0:0:
160,192,120956,1,8,0:0:0:0:
256,224,121024,1,8,0:0:0:0:
256,224,121092,1,8,0:0:0:0:
256,224,121160,1,8,0:0:0:0:
256,224,121228,1,8,0:0:0:0:
256,224,121296,1,8,0:0:0:0:
256,224,121365,1,0,0:0:0:0:
256,224,121433,1,0,0:0:0:0:
256,224,121501,1,8,0:0:0:0:
192,160,121569,1,8,0:0:0:0:
192,160,121637,1,8,0:0:0:0:
192,160,121706,1,8,0:0:0:0:
128,187,121774,1,8,0:0:0:0:
128,187,121842,1,8,0:0:0:0:
128,187,121910,1,8,0:0:0:0:
128,187,121978,1,8,0:0:0:0:
202,170,122046,1,0,0:0:0:0:
202,170,122115,1,0,0:0:0:0:
202,170,122183,1,0,0:0:0:0:
202,170,122251,1,0,0:0:0:0:
160,192,122319,1,0,0:0:0:0:
160,192,122387,1,0,0:0:0:0:
160,192,122456,1,0,0:0:0:0:
160,192,122524,1,0,0:0:0:0:
160,192,122592,1,8,0:0:0:0:
224,160,122660,1,0,0:0:0:0:
224,160,122728,1,0,0:0:0:0:
224,160,122796,1,0,0:0:0:0:
160,192,122865,1,0,0:0:0:0:
160,192,122933,1,0,0:0:0:0:
160,192,123001,1,0,0:0:0:0:
160,192,123069,1,0,0:0:0:0:
160,192,123137,1,8,0:0:0:0:
224,160,123206,1,0,0:0:0:0:
224,160,123274,1,0,0:0:0:0:
224,160,123342,1,0,0:0:0:0:
160,192,123410,1,0,0:0:0:0:
160,192,123478,1,0,0:0:0:0:
160,192,123546,1,0,0:0:0:0:
160,192,123615,1,0,0:0:0:0:
160,192,123683,1,8,0:0:0:0:
224,160,123751,1,8,0:0:0:0:
224,160,123819,1,0,0:0:0:0:
224,160,123887,1,0,0:0:0:0:
160,192,123956,1,0,0:0:0:0:
160,192,124024,1,0,0:0:0:0:
160,192,124092,1,0,0:0:0:0:
160,192,124160,1,0,0:0:0:0:
160,192,124228,1,8,0:0:0:0:
224,160,124296,1,0,0:0:0:0:
224,160,124365,1,0,0:0:0:0:
224,160,124433,1,0,0:0:0:0:
160,192,124501,1,0,0:0:0:0:
160,192,124569,1,0,0:0:0:0:
160,192,124637,1,0,0:0:0:0:
160,192,124706,1,0,0:0:0:0:
160,192,124774,1,8,0:0:0:0:
224,160,124842,1,0,0:0:0:0:
224,160,124910,1,0,0:0:0:0:
224,160,124978,1,0,0:0:0:0:
224,160,125046,1,0,0:0:0:0:
160,192,125115,1,0,0:0:0:0:
160,192,125183,1,0,0:0:0:0:
160,192,125251,1,0,0:0:0:0:
160,192,125319,1,8,0:0:0:0:
127,140,125387,1,8,0:0:0:0:
127,140,125456,1,8,0:0:0:0:
127,140,125524,1,8,0:0:0:0:
127,140,125592,1,8,0:0:0:0:
127,140,125660,1,8,0:0:0:0:
127,140,125728,1,0,0:0:0:0:
127,140,125796,1,0,0:0:0:0:
127,140,125865,1,8,0:0:0:0:
127,140,125933,1,8,0:0:0:0:
127,140,126001,1,8,0:0:0:0:
127,140,126070,1,8,0:0:0:0:
127,140,126138,1,0,0:0:0:0:
127,140,126206,1,0,0:0:0:0:
127,140,126274,1,0,0:0:0:0:
127,140,126342,1,0,0:0:0:0:
127,140,126410,1,8,0:0:0:0:
64,160,126683,5,0,0:0:0:0:
160,160,126751,1,0,0:0:0:0:
160,160,126819,1,0,0:0:0:0:
160,160,126887,1,0,0:0:0:0:
160,160,126956,1,8,0:0:0:0:
160,160,127024,1,0,0:0:0:0:
160,160,127092,1,0,0:0:0:0:
160,160,127160,1,0,0:0:0:0:
160,160,127228,1,0,0:0:0:0:
160,160,127296,1,0,0:0:0:0:
160,160,127365,1,0,0:0:0:0:
160,160,127433,1,0,0:0:0:0:
160,160,127501,1,8,0:0:0:0:
160,160,127569,1,0,0:0:0:0:
160,160,127637,1,0,0:0:0:0:
160,160,127706,1,0,0:0:0:0:
160,160,127774,1,0,0:0:0:0:
160,160,127842,1,0,0:0:0:0:
160,160,127910,1,0,0:0:0:0:
160,160,127978,1,0,0:0:0:0:
160,160,128046,1,8,0:0:0:0:
160,160,128115,1,8,0:0:0:0:
160,160,128183,1,0,0:0:0:0:
160,160,128251,1,0,0:0:0:0:
160,160,128319,1,0,0:0:0:0:
160,160,128387,1,0,0:0:0:0:
160,160,128456,1,0,0:0:0:0:
160,160,128524,1,0,0:0:0:0:
160,160,128592,1,8,0:0:0:0:
160,160,128660,1,0,0:0:0:0:
160,160,128728,1,0,0:0:0:0:
160,160,128796,1,0,0:0:0:0:
160,160,128865,1,0,0:0:0:0:
160,160,128933,1,0,0:0:0:0:
160,160,129001,1,0,0:0:0:0:
160,160,129069,1,0,0:0:0:0:
160,160,129137,1,8,0:0:0:0:
160,160,129206,1,0,0:0:0:0:
160,160,129274,1,0,0:0:0:0:
160,160,129342,1,0,0:0:0:0:
160,160,129410,1,0,0:0:0:0:
160,160,129478,1,0,0:0:0:0:
160,160,129546,1,0,0:0:0:0:
160,160,129615,1,0,0:0:0:0:
224,224,129683,1,8,0:0:0:0:
230,146,129956,1,8,0:0:0:0:
230,146,130024,1,8,0:0:0:0:
224,224,130092,1,0,0:0:0:0:
224,224,130160,1,0,0:0:0:0:
224,224,130228,1,8,0:0:0:0:
230,146,130501,1,8,0:0:0:0:
230,146,130569,1,8,0:0:0:0:
230,146,130637,1,8,0:0:0:0:
230,146,130706,1,8,0:0:0:0:
230,146,130774,1,0,0:0:0:0:
288,224,131046,1,0,0:0:0:0:
256,192,131319,1,8,0:0:0:0:
256,192,131387,1,8,0:0:0:0:
256,192,131456,1,8,0:0:0:0:
256,192,131524,1,8,0:0:0:0:
256,192,131592,1,8,0:0:0:0:
256,192,131660,1,8,0:0:0:0:
256,192,131728,1,8,0:0:0:0:
256,192,131796,1,8,0:0:0:0:
256,192,131865,1,8,0:0:0:0:
256,192,131933,1,8,0:0:0:0:
256,192,132001,1,8,0:0:0:0:
256,192,132069,5,8,0:0:0:0:
256,192,132137,5,8,0:0:0:0:
256,192,132206,5,8,0:0:0:0:
256,192,132274,5,8,0:0:0:0:
256,192,132342,5,8,0:0:0:0:
256,192,132410,5,0,0:0:0:0:
256,192,132478,5,0,0:0:0:0:
256,192,132546,5,0,0:0:0:0:
256,192,132615,5,0,0:0:0:0:
256,192,132683,5,0,0:0:0:0:
256,192,132751,5,0,0:0:0:0:
256,192,132819,5,0,0:0:0:0:
256,192,132887,5,0,0:0:0:0:
256,192,132956,5,8,0:0:0:0:
256,192,133024,5,8,0:0:0:0:
256,192,133092,5,8,0:0:0:0:
256,192,133160,5,8,0:0:0:0:
256,192,133228,5,8,0:0:0:0:
256,192,133296,5,8,0:0:0:0:
256,192,133365,5,8,0:0:0:0:
256,192,133433,5,8,0:0:0:0:
256,192,133501,5,8,0:0:0:0:
256,192,133569,5,8,0:0:0:0:
256,192,133637,5,8,0:0:0:0:
256,192,133706,5,8,0:0:0:0:
256,192,133774,5,8,0:0:0:0:
256,192,133842,5,8,0:0:0:0:
256,192,133910,5,8,0:0:0:0:
256,192,133978,5,8,0:0:0:0:
256,192,134046,5,0,0:0:0:0:
256,192,134115,5,0,0:0:0:0:
256,192,134183,5,0,0:0:0:0:
256,192,134251,5,0,0:0:0:0:
256,192,134319,5,0,0:0:0:0:
256,192,134387,5,0,0:0:0:0:
256,192,134456,5,0,0:0:0:0:
256,192,134524,5,0,0:0:0:0:
256,192,134592,5,8,0:0:0:0:
256,192,134660,1,8,0:0:0:0:
256,192,134728,1,8,0:0:0:0:
256,192,134796,5,8,0:0:0:0:
256,192,134865,5,8,0:0:0:0:
256,192,134933,5,8,0:0:0:0:
256,192,135001,5,8,0:0:0:0:
256,192,135069,5,8,0:0:0:0:
288,192,135137,5,0,0:0:0:0:
256,192,135410,1,0,0:0:0:0:
256,192,135683,1,8,0:0:0:0:
256,192,135751,1,8,0:0:0:0:
256,192,135819,1,8,0:0:0:0:
256,192,135887,1,8,0:0:0:0:
256,192,135956,1,8,0:0:0:0:
256,192,136024,1,8,0:0:0:0:
256,192,136092,1,8,0:0:0:0:
256,192,136160,1,8,0:0:0:0:
256,192,136228,1,8,0:0:0:0:
288,160,136296,1,8,0:0:0:0:
288,160,136365,1,8,0:0:0:0:
288,160,136433,1,8,0:0:0:0:
288,160,136501,1,8,0:0:0:0:
288,160,136569,1,8,0:0:0:0:
288,160,136637,5,8,0:0:0:0:
288,160,136706,5,8,0:0:0:0:
288,160,136774,5,0,0:0:0:0:
288,160,136842,5,0,0:0:0:0:
288,160,136910,5,0,0:0:0:0:
288,160,136978,5,0,0:0:0:0:
288,160,137046,1,0,0:0:0:0:
288,160,137115,5,0,0:0:0:0:
288,160,137183,5,0,0:0:0:0:
288,160,137251,5,0,0:0:0:0:
288,160,137319,5,8,0:0:0:0:
128,128,138410,5,8,0:0:0:0:
160,192,138478,1,8,0:0:0:0:
192,192,138546,1,8,0:0:0:0:
192,192,138615,1,8,0:0:0:0:
192,192,138683,1,8,0:0:0:0:
192,192,138751,1,8,0:0:0:0:
192,192,138819,1,8,0:0:0:0:
192,192,138887,1,8,0:0:0:0:
192,192,138956,1,0,0:0:0:0:
192,192,139024,1,0,0:0:0:0:
192,192,139092,1,0,0:0:0:0:
192,192,139160,1,0,0:0:0:0:
192,192,139228,1,0,0:0:0:0:
192,192,139296,1,0,0:0:0:0:
192,192,139365,1,0,0:0:0:0:
192,192,139433,1,0,0:0:0:0:
192,192,139501,1,8,0:0:0:0:
192,192,139569,1,8,0:0:0:0:
192,192,139637,1,8,0:0:0:0:
192,192,139706,1,8,0:0:0:0:
192,192,139774,1,8,0:0:0:0:
192,192,139842,1,8,0:0:0:0:
192,192,139910,1,8,0:0:0:0:
192,192,139978,1,8,0:0:0:0:
192,192,140046,1,0,0:0:0:0:
192,192,140115,1,0,0:0:0:0:
192,192,140183,1,0,0:0:0:0:
192,192,140251,1,0,0:0:0:0:
192,192,140319,1,0,0:0:0:0:
192,192,140387,1,0,0:0:0:0:
192,192,140456,1,0,0:0:0:0:
192,192,140524,1,0,0:0:0:0:
224,288,140592,5,12,0:0:0:0:
320,160,140865,1,4,0:0:0:0:
224,288,141137,1,12,0:0:0:0:
256,224,141274,1,4,0:0:0:0:
256,224,141546,1,12,0:0:0:0:
256,224,141683,1,12,0:0:0:0:
224,160,141819,1,4,0:0:0:0:
256,224,141956,1,12,0:0:0:0:
320,224,142774,1,0,0:0:0:0:
256,192,142910,1,8,0:0:0:0:
192,128,143183,1,0,0:0:0:0:
256,192,143319,1,8,0:0:0:0:
192,160,143456,1,8,0:0:0:0:
128,160,143592,1,0,0:0:0:0:
256,192,143865,1,0,0:0:0:0:
256,192,144001,1,0,0:0:0:0:
256,192,144137,1,0,0:0:0:0:
180,175,144274,1,8,0:0:0:0:
176,213,144342,1,8,0:0:0:0:
173,251,144410,1,8,0:0:0:0:
167,327,144546,1,8,0:0:0:0:
96,160,144683,1,0,0:0:0:0:
96,160,144751,1,0,0:0:0:0:
96,160,144819,1,0,0:0:0:0:
96,160,144887,1,0,0:0:0:0:
224,288,144956,5,12,0:0:0:0:
320,160,145228,1,4,0:0:0:0:
224,288,145501,1,12,0:0:0:0:
256,224,145637,1,4,0:0:0:0:
256,224,145910,1,12,0:0:0:0:
256,224,146046,1,12,0:0:0:0:
224,160,146183,1,4,0:0:0:0:
256,224,146319,1,12,0:0:0:0:
224,160,147137,1,0,0:0:0:0:
224,160,147274,1,8,0:0:0:0:
224,160,147546,1,0,0:0:0:0:
192,160,147615,1,0,0:0:0:0:
160,128,147683,1,8,0:0:0:0:
96,192,147819,1,8,0:0:0:0:
128,128,147956,1,0,0:0:0:0:
96,192,148092,1,0,0:0:0:0:
32,96,148228,1,8,0:0:0:0:
32,96,148296,1,8,0:0:0:0:
32,96,148365,1,8,0:0:0:0:
32,96,148433,1,8,0:0:0:0:
32,96,148501,1,0,0:0:0:0:
32,96,148569,1,0,0:0:0:0:
32,96,148637,1,0,0:0:0:0:
32,96,148706,1,0,0:0:0:0:
32,96,148774,1,8,0:0:0:0:
32,96,148842,1,8,0:0:0:0:
32,96,148910,1,8,0:0:0:0:
32,96,148978,1,8,0:0:0:0:
32,96,149046,1,0,0:0:0:0:
32,96,149115,1,0,0:0:0:0:
32,96,149183,1,0,0:0:0:0:
32,96,149251,1,0,0:0:0:0:
224,288,149319,5,12,0:0:0:0:
320,160,149592,1,4,0:0:0:0:
224,288,149865,1,12,0:0:0:0:
256,224,150001,1,4,0:0:0:0:
256,224,150274,1,12,0:0:0:0:
256,224,150546,1,4,0:0:0:0:
256,224,150819,1,8,0:0:0:0:
256,224,150956,1,0,0:0:0:0:
128,160,151228,1,0,0:0:0:0:
128,160,151365,1,0,0:0:0:0:
128,160,151501,1,8,0:0:0:0:
160,96,151637,1,8,0:0:0:0:
128,128,151774,1,0,0:0:0:0:
128,128,151910,1,0,0:0:0:0:
128,128,152046,1,8,0:0:0:0:
256,224,152183,1,8,0:0:0:0:
256,224,152319,1,0,0:0:0:0:
256,192,152592,1,0,0:0:0:0:
256,192,152728,1,8,0:0:0:0:
256,192,152865,1,0,0:0:0:0:
128,160,153001,1,8,0:0:0:0:
128,160,153069,1,8,0:0:0:0:
128,160,153137,1,8,0:0:0:0:
128,160,153274,1,8,0:0:0:0:
96,160,153410,1,0,0:0:0:0:
96,160,153478,1,0,0:0:0:0:
96,160,153546,1,0,0:0:0:0:
96,160,153615,1,0,0:0:0:0:
224,288,153683,5,12,0:0:0:0:
320,160,153956,1,4,0:0:0:0:
224,288,154228,1,12,0:0:0:0:
256,224,154365,1,4,0:0:0:0:
256,224,154637,1,12,0:0:0:0:
256,224,154910,5,4,0:0:0:0:
256,224,155183,1,8,0:0:0:0:
256,224,155319,1,0,0:0:0:0:
128,128,155592,1,0,0:0:0:0:
192,160,155728,1,0,0:0:0:0:
96,192,155865,1,8,0:0:0:0:
96,192,156001,1,8,0:0:0:0:
128,192,156137,1,0,0:0:0:0:
128,192,156274,1,0,0:0:0:0:
128,192,156410,1,8,0:0:0:0:
128,192,156546,1,8,0:0:0:0:
128,192,156683,1,0,0:0:0:0:
128,192,156819,1,0,0:0:0:0:
224,192,156956,1,8,0:0:0:0:
224,192,157024,1,8,0:0:0:0:
224,192,157092,1,0,0:0:0:0:
224,192,157160,1,0,0:0:0:0:
224,192,157228,1,8,0:0:0:0:
224,192,157296,1,8,0:0:0:0:
224,192,157365,1,8,0:0:0:0:
224,192,157433,1,8,0:0:0:0:
224,192,157501,1,0,0:0:0:0:
224,192,157569,1,0,0:0:0:0:
224,192,157637,1,8,0:0:0:0:
224,192,157706,1,0,0:0:0:0:
224,192,157774,1,8,0:0:0:0:
224,192,157842,1,8,0:0:0:0:
224,192,157910,1,8,0:0:0:0:
224,192,157978,1,8,0:0:0:0:
224,192,158046,1,4,0:0:0:0:
192,192,160228,5,8,0:0:0:0:
128,160,160410,1,8,0:0:0:0:
128,160,160592,1,8,0:0:0:0:
128,160,160774,1,0,0:0:0:0:
128,160,161319,1,0,0:0:0:0:
128,160,161865,1,0,0:0:0:0:
224,224,162410,1,0,0:0:0:0:
224,224,162956,1,0,0:0:0:0:
224,224,163501,1,0,0:0:0:0:
224,224,164046,1,8,0:0:0:0:
224,224,164228,1,8,0:0:0:0:
224,224,164410,1,8,0:0:0:0:
224,224,164592,1,0,0:0:0:0:
160,192,164956,1,8,0:0:0:0:
160,192,165046,1,8,0:0:0:0:
160,192,165137,1,0,0:0:0:0:
288,224,165501,1,0,0:0:0:0:
288,224,165683,1,8,0:0:0:0:
128,128,165956,1,0,0:0:0:0:
128,128,166228,1,8,0:0:0:0:
64,160,166774,1,0,0:0:0:0:
96,128,167046,1,8,0:0:0:0:
96,128,167319,1,0,0:0:0:0:
96,96,167865,1,0,0:0:0:0:
96,96,168137,1,0,0:0:0:0:
96,96,168410,1,8,0:0:0:0:
32,192,168956,2,8,L|355:63,1,335.999989746094
256,192,170183,12,0,172092,0:0:0:0:
160,160,172228,5,8,0:0:0:0:
224,160,172410,1,8,0:0:0:0:
224,160,172592,1,0,0:0:0:0:
224,160,172774,1,8,0:0:0:0:
224,160,172956,1,8,0:0:0:0:
224,160,173137,1,0,0:0:0:0:
224,160,173319,1,8,0:0:0:0:
224,160,173501,1,8,0:0:0:0:
224,160,173683,1,0,0:0:0:0:
192,160,173865,1,8,0:0:0:0:
192,160,174046,1,0,0:0:0:0:
192,160,174228,1,0,0:0:0:0:
192,160,174410,1,8,0:0:0:0:
192,160,174592,1,8,0:0:0:0:
192,160,174774,1,0,0:0:0:0:
192,160,174956,1,8,0:0:0:0:
192,160,175137,1,8,0:0:0:0:
192,160,175319,1,0,0:0:0:0:
192,160,175501,1,8,0:0:0:0:
192,160,175683,1,8,0:0:0:0:
192,160,175865,1,0,0:0:0:0:
192,160,176046,1,8,0:0:0:0:
192,160,176228,1,0,0:0:0:0:
192,160,176410,1,0,0:0:0:0:
192,160,176592,1,8,0:0:0:0:
192,160,176774,1,8,0:0:0:0:
192,160,176956,1,0,0:0:0:0:
192,160,177137,1,8,0:0:0:0:
192,160,177319,1,8,0:0:0:0:
192,160,177501,1,0,0:0:0:0:
192,160,177683,1,8,0:0:0:0:
192,160,177865,1,8,0:0:0:0:
192,160,178046,1,0,0:0:0:0:
192,160,178228,1,8,0:0:0:0:
192,160,178410,1,0,0:0:0:0:
192,160,178592,1,0,0:0:0:0:
192,160,178774,1,8,0:0:0:0:
192,160,178956,1,8,0:0:0:0:
192,160,179137,1,0,0:0:0:0:
192,160,179319,1,8,0:0:0:0:
192,160,179501,1,8,0:0:0:0:
192,160,179683,1,0,0:0:0:0:
192,160,179865,1,8,0:0:0:0:
192,160,180046,1,0,0:0:0:0:
224,128,180137,1,0,0:0:0:0:
192,160,180228,1,0,0:0:0:0:
192,160,180410,1,8,0:0:0:0:
160,96,180592,1,0,0:0:0:0:
128,64,180774,1,0,0:0:0:0:
160,160,180956,5,8,0:0:0:0:
224,160,181137,1,8,0:0:0:0:
224,160,181319,1,0,0:0:0:0:
224,160,181501,1,8,0:0:0:0:
224,160,181683,1,8,0:0:0:0:
224,160,181865,1,0,0:0:0:0:
224,160,182046,1,8,0:0:0:0:
224,160,182228,1,8,0:0:0:0:
224,160,182410,1,0,0:0:0:0:
192,160,182592,1,8,0:0:0:0:
192,160,182774,1,0,0:0:0:0:
192,160,182956,1,0,0:0:0:0:
192,160,183137,1,8,0:0:0:0:
192,160,183319,1,8,0:0:0:0:
192,160,183501,1,0,0:0:0:0:
192,160,183683,1,8,0:0:0:0:
192,160,183865,1,8,0:0:0:0:
192,160,184046,1,0,0:0:0:0:
192,160,184228,1,8,0:0:0:0:
192,160,184410,1,8,0:0:0:0:
192,160,184592,1,0,0:0:0:0:
192,160,184774,1,8,0:0:0:0:
192,160,184956,1,0,0:0:0:0:
192,160,185137,1,0,0:0:0:0:
192,160,185319,1,8,0:0:0:0:
192,160,185501,1,8,0:0:0:0:
192,160,185683,1,0,0:0:0:0:
192,160,185865,1,8,0:0:0:0:
192,160,186046,1,8,0:0:0:0:
192,160,186228,1,0,0:0:0:0:
192,160,186410,1,8,0:0:0:0:
192,160,186592,1,8,0:0:0:0:
192,160,186774,1,0,0:0:0:0:
192,160,186956,1,8,0:0:0:0:
192,160,187137,1,0,0:0:0:0:
192,160,187319,1,0,0:0:0:0:
192,160,187501,1,12,0:0:0:0:
192,160,187683,1,12,0:0:0:0:
192,160,187865,1,0,0:0:0:0:
192,160,188046,1,12,0:0:0:0:
192,160,188228,1,12,0:0:0:0:
192,160,188410,1,0,0:0:0:0:
192,160,188592,1,12,0:0:0:0:
192,160,188774,1,4,0:0:0:0:
192,160,188956,1,4,0:0:0:0:
192,160,189137,1,12,0:0:0:0:
192,160,189319,1,4,0:0:0:0:
192,160,189501,1,4,0:0:0:0:
160,160,189683,5,12,0:0:0:0:
224,160,189865,1,8,0:0:0:0:
224,160,190046,1,0,0:0:0:0:
224,160,190228,1,8,0:0:0:0:
224,160,190410,1,8,0:0:0:0:
224,160,190592,1,0,0:0:0:0:
224,160,190774,1,8,0:0:0:0:
224,160,190956,1,8,0:0:0:0:
224,160,191137,1,0,0:0:0:0:
192,160,191319,1,8,0:0:0:0:
192,160,191501,1,0,0:0:0:0:
192,160,191683,1,0,0:0:0:0:
192,160,191865,1,8,0:0:0:0:
192,160,192046,1,8,0:0:0:0:
192,160,192228,1,0,0:0:0:0:
192,160,192410,1,8,0:0:0:0:
192,160,192592,1,8,0:0:0:0:
192,160,192774,1,0,0:0:0:0:
192,160,192956,1,8,0:0:0:0:
192,160,193137,1,8,0:0:0:0:
192,160,193319,1,0,0:0:0:0:
192,160,193501,1,8,0:0:0:0:
192,160,193683,1,0,0:0:0:0:
192,160,193774,1,0,0:0:0:0:
192,160,193865,1,0,0:0:0:0:
160,192,193956,1,0,0:0:0:0:
192,160,194046,1,8,0:0:0:0:
192,160,194228,1,8,0:0:0:0:
192,160,194410,1,0,0:0:0:0:
192,160,194592,1,8,0:0:0:0:
192,160,194774,1,8,0:0:0:0:
192,160,194956,1,0,0:0:0:0:
192,160,195137,1,8,0:0:0:0:
192,160,195319,1,8,0:0:0:0:
192,160,195501,1,0,0:0:0:0:
192,160,195683,1,8,0:0:0:0:
192,160,195865,1,0,0:0:0:0:
192,160,196046,1,0,0:0:0:0:
192,160,196228,1,8,0:0:0:0:
192,160,196410,1,8,0:0:0:0:
192,160,196592,1,0,0:0:0:0:
192,160,196774,1,8,0:0:0:0:
192,160,196956,1,8,0:0:0:0:
192,160,197137,1,0,0:0:0:0:
192,160,197319,1,8,0:0:0:0:
192,160,197501,1,8,0:0:0:0:
192,160,197683,1,0,0:0:0:0:
192,160,197865,1,8,0:0:0:0:
160,96,198046,1,0,0:0:0:0:
192,160,198137,1,0,0:0:0:0:
128,64,198228,1,0,0:0:0:0:
192,160,198319,1,0,0:0:0:0:
224,160,198410,1,8,0:0:0:0:
160,128,198774,1,8,0:0:0:0:
96,128,199137,1,0,0:0:0:0:
128,96,199319,1,0,0:0:0:0:
96,96,199501,1,8,0:0:0:0:
96,96,199865,1,8,0:0:0:0:
160,128,200592,1,8,0:0:0:0:
160,128,200956,1,8,0:0:0:0:
160,128,201319,1,0,0:0:0:0:
160,128,201501,1,0,0:0:0:0:
160,128,201683,1,8,0:0:0:0:
160,128,202046,1,8,0:0:0:0:
160,128,202410,1,0,0:0:0:0:
160,128,202501,1,0,0:0:0:0:
160,128,202592,1,0,0:0:0:0:
160,128,202683,1,0,0:0:0:0:
160,128,202774,1,8,0:0:0:0:
160,128,203137,1,8,0:0:0:0:
192,128,203501,1,0,0:0:0:0:
192,128,203774,1,0,0:0:0:0:
192,128,203865,1,8,0:0:0:0:
192,128,204228,1,8,0:0:0:0:
192,128,204592,1,0,0:0:0:0:
192,128,204774,1,0,0:0:0:0:
192,128,204956,1,8,0:0:0:0:
192,128,205319,5,8,0:0:0:0:
192,128,205501,1,0,0:0:0:0:
160,96,205683,1,8,0:0:0:0:
160,96,205865,1,8,0:0:0:0:
160,192,206046,5,0,0:0:0:0:
224,224,206228,1,8,0:0:0:0:
192,192,206319,1,0,0:0:0:0:
224,224,206410,1,8,0:0:0:0:
192,192,206501,1,0,0:0:0:0:
224,224,206592,1,8,0:0:0:0:
192,192,206683,1,8,0:0:0:0:
192,192,206774,1,0,0:0:0:0:
160,160,206865,1,0,0:0:0:0:
160,128,206956,1,8,0:0:0:0:
128,96,207046,1,8,0:0:0:0:
132,126,207137,1,0,0:0:0:0:
192,192,207319,1,0,0:0:0:0:
128,128,207501,1,0,0:0:0:0:
248,111,207683,1,8,0:0:0:0:
186,116,207865,1,8,0:0:0:0:
155,118,207956,1,8,0:0:0:0:
124,120,208046,1,8,0:0:0:0:
93,124,208137,1,8,0:0:0:0:
93,124,208228,1,0,0:0:0:0:
192,192,208592,1,0,0:0:0:0:
1,143,208774,1,8,0:0:0:0:
1,143,208865,1,8,0:0:0:0:
1,143,208956,1,0,0:0:0:0:
1,143,209046,1,8,0:0:0:0:
1,143,209137,1,8,0:0:0:0:
1,143,209228,1,8,0:0:0:0:
1,143,209319,1,0,0:0:0:0:
66,159,209501,1,0,0:0:0:0:
138,177,209683,1,8,0:0:0:0:
138,177,209865,1,8,0:0:0:0:
138,177,210046,1,0,0:0:0:0:
138,177,210137,1,8,0:0:0:0:
138,177,210228,1,0,0:0:0:0:
138,177,210319,1,8,0:0:0:0:
138,177,210410,1,8,0:0:0:0:
138,177,210501,1,0,0:0:0:0:
138,177,210592,1,8,0:0:0:0:
138,177,210683,1,8,0:0:0:0:
138,177,210774,1,0,0:0:0:0:
138,177,210865,1,0,0:0:0:0:
138,177,210956,1,8,0:0:0:0:
138,177,211137,1,0,0:0:0:0:
138,177,211228,1,0,0:0:0:0:
138,177,211319,1,0,0:0:0:0:
138,177,211410,1,0,0:0:0:0:
138,177,211501,1,8,0:0:0:0:
138,177,211683,1,8,0:0:0:0:
138,177,211774,1,8,0:0:0:0:
138,177,211865,1,0,0:0:0:0:
138,177,211956,1,0,0:0:0:0:
138,177,212046,1,8,0:0:0:0:
138,177,212228,1,0,0:0:0:0:
138,177,212319,1,8,0:0:0:0:
138,177,212410,1,0,0:0:0:0:
138,177,212501,1,0,0:0:0:0:
138,177,212592,1,8,0:0:0:0:
138,177,212774,1,8,0:0:0:0:
138,177,212865,1,8,0:0:0:0:
138,177,212956,1,0,0:0:0:0:
138,177,213046,1,0,0:0:0:0:
138,177,213137,1,8,0:0:0:0:
138,177,213228,1,8,0:0:0:0:
138,177,213319,1,0,0:0:0:0:
138,177,213410,1,0,0:0:0:0:
102,149,213501,1,8,0:0:0:0:
128,160,213592,1,8,0:0:0:0:
145,182,213683,1,0,0:0:0:0:
94,146,213865,1,0,0:0:0:0:
121,165,213956,1,0,0:0:0:0:
121,165,214046,1,8,0:0:0:0:
121,165,214137,1,8,0:0:0:0:
121,165,214228,1,0,0:0:0:0:
121,165,214319,1,8,0:0:0:0:
121,165,214410,1,0,0:0:0:0:
121,165,214501,1,8,0:0:0:0:
121,165,214592,1,0,0:0:0:0:
121,165,214683,1,0,0:0:0:0:
121,165,214774,1,8,0:0:0:0:
121,165,214865,1,0,0:0:0:0:
121,165,214956,1,8,0:0:0:0:
121,165,215046,1,8,0:0:0:0:
121,165,215137,1,8,0:0:0:0:
121,165,215228,1,0,0:0:0:0:
121,165,215319,1,8,0:0:0:0:
121,165,215410,1,8,0:0:0:0:
121,165,215501,1,0,0:0:0:0:
96,160,215592,1,8,0:0:0:0:
121,165,215683,1,0,0:0:0:0:
121,165,215774,1,0,0:0:0:0:
120,163,215865,1,8,0:0:0:0:
121,165,216046,1,8,0:0:0:0:
256,192,216137,1,8,0:0:0:0:
256,192,216228,1,0,0:0:0:0:
256,192,216319,1,0,0:0:0:0:
256,192,216410,1,8,0:0:0:0:
256,192,216501,1,0,0:0:0:0:
256,192,216592,1,8,0:0:0:0:
256,192,216683,1,8,0:0:0:0:
256,192,216774,1,0,0:0:0:0:
256,192,216865,1,0,0:0:0:0:
256,192,216956,1,8,0:0:0:0:
256,192,217046,1,0,0:0:0:0:
256,192,217137,1,8,0:0:0:0:
256,192,217228,1,8,0:0:0:0:
256,192,217319,1,0,0:0:0:0:
256,192,217410,1,0,0:0:0:0:
256,192,217501,1,8,0:0:0:0:
256,192,217592,1,0,0:0:0:0:
256,192,217683,1,8,0:0:0:0:
256,192,217774,1,8,0:0:0:0:
256,192,217865,1,0,0:0:0:0:
256,192,217956,1,8,0:0:0:0:
256,192,218046,1,0,0:0:0:0:
256,192,218228,1,8,0:0:0:0:
256,192,218319,1,8,0:0:0:0:
256,192,218410,1,0,0:0:0:0:
256,192,218501,1,0,0:0:0:0:
256,192,218592,1,8,0:0:0:0:
192,160,218774,1,0,0:0:0:0:
192,160,218865,1,0,0:0:0:0:
192,160,218956,1,8,0:0:0:0:
192,160,219046,1,0,0:0:0:0:
192,160,219137,1,8,0:0:0:0:
192,160,219501,1,0,0:0:0:0:
224,224,219683,1,8,0:0:0:0:
224,224,219865,1,0,0:0:0:0:
224,224,219956,1,0,0:0:0:0:
224,224,220046,1,8,0:0:0:0:
224,224,220137,1,0,0:0:0:0:
224,224,220228,1,8,0:0:0:0:
224,224,220319,1,8,0:0:0:0:
224,224,220410,1,0,0:0:0:0:
224,224,220501,1,8,0:0:0:0:
224,224,220592,1,0,0:0:0:0:
224,224,220683,1,0,0:0:0:0:
224,224,220774,1,8,0:0:0:0:
224,224,220865,1,8,0:0:0:0:
224,224,220956,1,0,0:0:0:0:
224,224,221046,1,0,0:0:0:0:
224,224,221137,1,8,0:0:0:0:
224,224,221228,1,0,0:0:0:0:
192,192,221319,1,0,0:0:0:0:
224,224,221410,1,8,0:0:0:0:
224,224,221501,1,8,0:0:0:0:
224,224,221592,1,0,0:0:0:0:
224,224,221683,1,8,0:0:0:0:
224,224,221774,1,0,0:0:0:0:
224,224,221865,1,8,0:0:0:0:
224,224,221956,1,8,0:0:0:0:
224,224,222046,1,0,0:0:0:0:
224,224,222137,1,8,0:0:0:0:
224,224,222228,1,0,0:0:0:0:
224,224,222319,1,0,0:0:0:0:
224,224,222410,1,8,0:0:0:0:
224,224,222501,1,8,0:0:0:0:
224,224,222592,1,8,0:0:0:0:
224,224,222683,1,8,0:0:0:0:
224,224,222774,1,8,0:0:0:0:
224,224,222865,1,8,0:0:0:0:
224,224,222956,1,0,0:0:0:0:
224,224,223046,1,0,0:0:0:0:
224,224,223137,1,0,0:0:0:0:
224,224,223228,1,0,0:0:0:0:
224,224,223319,1,0,0:0:0:0:
224,224,223410,1,0,0:0:0:0:
224,224,223501,1,8,0:0:0:0:
224,224,223592,1,8,0:0:0:0:
224,224,223683,1,8,0:0:0:0:
224,224,223774,1,8,0:0:0:0:
224,224,223865,1,8,0:0:0:0:
224,224,223956,1,8,0:0:0:0:
224,224,224046,1,0,0:0:0:0:
224,224,224137,1,0,0:0:0:0:
224,224,224228,1,0,0:0:0:0:
224,224,224319,1,0,0:0:0:0:
224,224,224410,1,0,0:0:0:0:
224,224,224501,1,0,0:0:0:0:
224,224,224592,1,8,0:0:0:0:
192,224,224660,1,8,0:0:0:0:
160,224,224728,1,0,0:0:0:0:
192,224,224796,1,0,0:0:0:0:
224,224,224865,1,8,0:0:0:0:
224,192,224956,1,8,0:0:0:0:
224,192,225046,1,0,0:0:0:0:
224,192,225137,1,8,0:0:0:0:
224,192,225228,1,8,0:0:0:0:
224,192,225319,1,0,0:0:0:0:
224,192,225410,1,0,0:0:0:0:
224,192,225501,1,8,0:0:0:0:
224,192,225592,1,0,0:0:0:0:
224,192,225683,1,8,0:0:0:0:
192,192,225819,1,8,0:0:0:0:
160,160,225956,1,0,0:0:0:0:
160,160,226092,1,8,0:0:0:0:
160,160,226228,1,0,0:0:0:0:
160,128,226296,1,8,0:0:0:0:
128,128,226365,1,0,0:0:0:0:
128,96,226433,1,0,0:0:0:0:
128,96,226501,1,8,0:0:0:0:
128,96,226569,1,0,0:0:0:0:
128,96,226637,1,8,0:0:0:0:
128,96,226706,1,8,0:0:0:0:
224,96,226774,5,0,0:0:0:0:
224,96,227319,1,0,0:0:0:0:
224,96,227865,1,0,0:0:0:0:
256,256,228410,5,0,0:0:0:0:
64,32,228956,1,0,0:0:0:0:
96,64,229024,1,0,0:0:0:0:
128,96,229092,1,0,0:0:0:0:
160,160,229228,1,0,0:0:0:0:
160,160,229296,1,0,0:0:0:0:
160,160,229365,1,0,0:0:0:0:
160,160,229501,1,0,0:0:0:0:
160,160,229569,1,0,0:0:0:0:
160,160,229637,1,0,0:0:0:0:
160,160,229774,1,0,0:0:0:0:
160,160,229842,1,0,0:0:0:0:
160,160,229910,1,0,0:0:0:0:
160,160,230046,1,0,0:0:0:0:
160,160,230115,1,0,0:0:0:0:
160,160,230183,1,0,0:0:0:0:
160,160,230319,1,0,0:0:0:0:
160,160,230387,1,0,0:0:0:0:
160,160,230456,1,0,0:0:0:0:
160,160,230592,1,0,0:0:0:0:
160,160,230660,1,0,0:0:0:0:
160,160,230728,1,8,0:0:0:0:
160,160,230796,1,8,0:0:0:0:
160,160,230865,1,0,0:0:0:0:
160,160,230933,1,0,0:0:0:0:
160,160,231001,1,8,0:0:0:0:
160,160,231069,1,8,0:0:0:0:
160,160,231137,1,0,0:0:0:0:
448,256,231683,1,0,0:0:0:0:
160,160,232228,1,0,0:0:0:0:
448,256,232774,1,0,0:0:0:0:
128,160,233319,1,0,0:0:0:0:
160,160,233387,1,0,0:0:0:0:
192,160,233456,1,0,0:0:0:0:
224,224,233592,1,0,0:0:0:0:
192,192,233660,1,0,0:0:0:0:
192,192,233728,1,0,0:0:0:0:
192,192,233865,1,0,0:0:0:0:
192,192,233933,1,0,0:0:0:0:
192,192,234001,1,0,0:0:0:0:
192,192,234137,1,0,0:0:0:0:
192,192,234206,1,0,0:0:0:0:
192,192,234274,1,0,0:0:0:0:
192,192,234410,1,0,0:0:0:0:
192,192,234478,1,0,0:0:0:0:
192,192,234546,1,0,0:0:0:0:
192,192,234683,1,0,0:0:0:0:
192,192,234751,1,0,0:0:0:0:
192,192,234819,1,0,0:0:0:0:
192,192,234956,1,0,0:0:0:0:
192,192,235024,1,0,0:0:0:0:
192,192,235092,1,0,0:0:0:0:
192,192,235160,1,0,0:0:0:0:
192,192,235228,1,8,0:0:0:0:
192,192,235296,1,8,0:0:0:0:
192,192,235365,1,8,0:0:0:0:
192,192,235433,1,8,0:0:0:0:
192,192,235501,1,0,0:0:0:0:
160,160,236046,1,0,0:0:0:0:
128,224,236592,1,0,0:0:0:0:
128,224,237137,1,0,0:0:0:0:
416,256,237683,1,0,0:0:0:0:
352,224,237819,1,0,0:0:0:0:
256,192,237887,1,0,0:0:0:0:
288,192,237956,1,8,0:0:0:0:
224,160,238092,1,0,0:0:0:0:
192,160,238160,1,0,0:0:0:0:
160,96,238228,1,8,0:0:0:0:
96,64,238365,1,0,0:0:0:0:
160,64,238501,1,0,0:0:0:0:
128,160,238569,1,0,0:0:0:0:
96,64,238637,1,8,0:0:0:0:
96,160,238774,1,0,0:0:0:0:
96,160,238842,1,0,0:0:0:0:
96,160,238910,1,0,0:0:0:0:
96,160,239046,1,0,0:0:0:0:
96,160,239115,1,0,0:0:0:0:
96,160,239183,1,0,0:0:0:0:
96,160,239319,1,0,0:0:0:0:
96,160,239387,1,0,0:0:0:0:
96,160,239456,1,8,0:0:0:0:
96,160,239524,1,8,0:0:0:0:
96,160,239592,1,0,0:0:0:0:
160,192,239660,1,0,0:0:0:0:
160,192,239728,1,8,0:0:0:0:
160,192,239796,1,8,0:0:0:0:
128,224,239865,1,0,0:0:0:0:
128,224,240410,1,0,0:0:0:0:
128,224,240956,1,0,0:0:0:0:
128,224,241501,1,0,0:0:0:0:
160,64,242046,1,0,0:0:0:0:
160,64,242183,1,0,0:0:0:0:
160,64,242319,1,8,0:0:0:0:
160,64,242456,1,8,0:0:0:0:
160,160,242592,1,0,0:0:0:0:
160,160,242660,1,0,0:0:0:0:
160,160,242728,1,0,0:0:0:0:
160,64,242865,1,8,0:0:0:0:
160,64,242933,1,8,0:0:0:0:
160,64,243001,1,0,0:0:0:0:
160,64,243069,1,0,0:0:0:0:
160,96,243137,1,8,0:0:0:0:
160,64,243274,1,0,0:0:0:0:
160,64,243410,1,0,0:0:0:0:
160,64,243478,1,0,0:0:0:0:
160,96,243546,1,8,0:0:0:0:
160,160,243683,1,0,0:0:0:0:
160,96,243819,1,0,0:0:0:0:
160,128,243887,1,0,0:0:0:0:
160,128,243956,1,0,0:0:0:0:
160,128,244024,1,0,0:0:0:0:
160,128,244092,1,0,0:0:0:0:
64,160,244228,1,8,0:0:0:0:
96,128,244365,1,0,0:0:0:0:
96,128,244501,1,0,0:0:0:0:
96,128,244569,1,0,0:0:0:0:
96,128,244637,1,0,0:0:0:0:
96,128,244774,1,0,0:0:0:0:
64,160,244910,1,8,0:0:0:0:
96,224,244978,1,8,0:0:0:0:
96,224,245046,1,0,0:0:0:0:
96,160,245183,1,8,0:0:0:0:
96,224,245251,1,8,0:0:0:0:
96,224,245319,1,0,0:0:0:0:
96,224,245456,1,0,0:0:0:0:
160,160,245524,1,0,0:0:0:0:
96,224,245592,1,8,0:0:0:0:
96,224,245728,1,0,0:0:0:0:
256,224,245865,1,8,0:0:0:0:
256,224,245933,1,8,0:0:0:0:
256,224,246001,1,8,0:0:0:0:
256,224,246069,1,0,0:0:0:0:
256,224,246137,1,8,0:0:0:0:
256,224,246206,1,8,0:0:0:0:
256,224,246274,1,0,0:0:0:0:
256,224,246342,1,0,0:0:0:0:
256,224,246410,1,8,0:0:0:0:
128,128,246546,1,0,0:0:0:0:
128,128,246683,1,0,0:0:0:0:
96,160,246751,1,0,0:0:0:0:
128,128,246819,1,0,0:0:0:0:
128,128,246887,1,0,0:0:0:0:
128,128,246956,1,8,0:0:0:0:
128,128,247092,1,8,0:0:0:0:
160,160,247228,1,0,0:0:0:0:
160,160,247365,1,8,0:0:0:0:
96,128,247501,1,0,0:0:0:0:
96,128,247569,1,0,0:0:0:0:
96,128,247637,1,0,0:0:0:0:
96,128,247774,1,8,0:0:0:0:
96,128,247910,1,0,0:0:0:0:
96,128,247978,1,0,0:0:0:0:
96,128,248046,1,0,0:0:0:0:
128,128,248183,1,8,0:0:0:0:
96,128,248251,1,8,0:0:0:0:
96,128,248319,1,0,0:0:0:0:
96,128,248387,1,0,0:0:0:0:
96,128,248456,1,0,0:0:0:0:
160,128,248592,1,8,0:0:0:0:
160,128,248660,1,8,0:0:0:0:
160,128,248728,1,8,0:0:0:0:
96,160,248865,1,0,0:0:0:0:
160,128,249001,1,0,0:0:0:0:
160,128,249137,1,8,0:0:0:0:
160,128,249206,1,8,0:0:0:0:
160,128,249274,1,8,0:0:0:0:
96,160,249410,1,0,0:0:0:0:
128,128,249546,1,0,0:0:0:0:
224,192,249683,1,8,0:0:0:0:
192,192,249751,1,8,0:0:0:0:
160,160,249819,1,8,0:0:0:0:
192,192,249887,1,8,0:0:0:0:
160,160,249956,1,0,0:0:0:0:
192,192,250024,1,0,0:0:0:0:
160,160,250092,1,8,0:0:0:0:
192,192,250160,1,0,0:0:0:0:
224,192,250228,1,8,0:0:0:0:
192,192,250296,1,8,0:0:0:0:
160,160,250365,1,8,0:0:0:0:
192,192,250433,1,8,0:0:0:0:
160,160,250501,1,0,0:0:0:0:
192,192,250569,1,0,0:0:0:0:
160,160,250637,1,8,0:0:0:0:
160,128,250706,1,8,0:0:0:0:
224,192,250774,1,0,0:0:0:0:
32,128,250910,1,0,0:0:0:0:
32,128,251046,1,8,0:0:0:0:
32,128,251183,1,8,0:0:0:0:
160,192,251319,1,0,0:0:0:0:
160,192,251387,1,0,0:0:0:0:
160,192,251456,1,0,0:0:0:0:
160,64,251592,1,8,0:0:0:0:
160,64,251660,1,8,0:0:0:0:
160,64,251728,1,0,0:0:0:0:
160,64,251796,1,0,0:0:0:0:
160,96,251865,1,8,0:0:0:0:
160,64,252001,1,0,0:0:0:0:
160,64,252137,1,0,0:0:0:0:
160,64,252206,1,0,0:0:0:0:
160,96,252274,1,8,0:0:0:0:
96,128,252410,1,0,0:0:0:0:
96,128,252546,1,0,0:0:0:0:
96,128,252615,1,0,0:0:0:0:
96,128,252683,1,0,0:0:0:0:
96,128,252751,1,0,0:0:0:0:
96,128,252819,1,0,0:0:0:0:
64,160,252956,1,8,0:0:0:0:
64,160,253024,1,8,0:0:0:0:
96,128,253092,1,0,0:0:0:0:
96,128,253228,1,8,0:0:0:0:
64,160,253296,1,0,0:0:0:0:
96,128,253365,1,0,0:0:0:0:
96,128,253501,1,8,0:0:0:0:
128,160,253569,1,8,0:0:0:0:
128,160,253637,1,8,0:0:0:0:
128,160,253706,1,8,0:0:0:0:
128,160,253774,1,0,0:0:0:0:
96,96,253910,1,0,0:0:0:0:
96,96,254046,1,8,0:0:0:0:
96,128,254115,1,8,0:0:0:0:
96,96,254183,1,0,0:0:0:0:
96,128,254251,1,0,0:0:0:0:
64,128,254319,1,8,0:0:0:0:
96,128,254456,1,0,0:0:0:0:
128,160,254592,1,8,0:0:0:0:
128,160,254660,1,8,0:0:0:0:
128,160,254728,1,0,0:0:0:0:
128,160,254796,1,0,0:0:0:0:
128,160,254865,1,8,0:0:0:0:
96,192,254933,1,0,0:0:0:0:
96,192,255001,1,0,0:0:0:0:
96,192,255069,1,0,0:0:0:0:
96,192,255137,1,8,0:0:0:0:
128,128,255274,1,0,0:0:0:0:
64,160,255410,1,0,0:0:0:0:
64,160,255478,1,0,0:0:0:0:
64,160,255546,1,0,0:0:0:0:
64,160,255615,1,0,0:0:0:0:
64,160,255683,1,8,0:0:0:0:
128,128,255819,1,8,0:0:0:0:
160,160,255956,1,0,0:0:0:0:
160,160,256092,1,8,0:0:0:0:
96,128,256228,1,0,0:0:0:0:
96,128,256296,1,0,0:0:0:0:
96,128,256365,1,0,0:0:0:0:
96,128,256501,1,8,0:0:0:0:
96,128,256637,1,0,0:0:0:0:
96,128,256706,1,0,0:0:0:0:
96,128,256774,1,0,0:0:0:0:
128,128,256910,1,8,0:0:0:0:
96,128,256978,1,8,0:0:0:0:
96,128,257046,1,0,0:0:0:0:
96,128,257115,1,0,0:0:0:0:
96,128,257183,1,0,0:0:0:0:
160,160,257319,5,8,0:0:0:0:
160,160,257387,1,8,0:0:0:0:
160,160,257456,1,8,0:0:0:0:
160,160,257592,1,0,0:0:0:0:
160,128,257728,1,0,0:0:0:0:
160,128,257865,1,8,0:0:0:0:
160,128,257933,1,8,0:0:0:0:
160,128,258001,1,8,0:0:0:0:
160,128,258137,1,0,0:0:0:0:
160,128,258274,1,0,0:0:0:0:
160,128,258410,5,8,0:0:0:0:
160,128,258478,1,8,0:0:0:0:
160,128,258546,1,8,0:0:0:0:
160,128,258683,1,0,0:0:0:0:
128,128,258819,1,0,0:0:0:0:
128,128,258956,1,8,0:0:0:0:
128,128,259024,1,8,0:0:0:0:
128,128,259092,1,8,0:0:0:0:
128,128,259160,1,8,0:0:0:0:
160,128,259228,1,0,0:0:0:0:
160,160,259365,1,0,0:0:0:0:
160,192,259501,5,8,0:0:0:0:
160,192,259569,1,8,0:0:0:0:
160,192,259637,1,8,0:0:0:0:
160,192,259706,1,8,0:0:0:0:
160,192,259774,1,0,0:0:0:0:
160,192,259842,1,0,0:0:0:0:
160,192,259910,1,8,0:0:0:0:
160,192,259978,1,0,0:0:0:0:
160,192,260046,1,8,0:0:0:0:
160,192,260115,1,8,0:0:0:0:
160,192,260183,1,8,0:0:0:0:
160,192,260251,1,8,0:0:0:0:
160,192,260319,1,0,0:0:0:0:
160,192,260387,1,0,0:0:0:0:
160,192,260456,1,8,0:0:0:0:
160,192,260524,1,0,0:0:0:0:
160,192,260592,1,8,0:0:0:0:
160,192,260660,1,8,0:0:0:0:
160,192,260728,1,8,0:0:0:0:
160,192,260796,1,8,0:0:0:0:
160,192,260865,1,0,0:0:0:0:
160,192,260933,1,0,0:0:0:0:
160,192,261001,1,0,0:0:0:0:
160,192,261069,1,0,0:0:0:0:
160,192,261137,1,8,0:0:0:0:
160,192,261206,1,8,0:0:0:0:
160,192,261274,1,8,0:0:0:0:
160,192,261342,1,0,0:0:0:0:
160,192,261410,1,0,0:0:0:0:
160,192,261478,1,0,0:0:0:0:
192,192,261546,1,8,0:0:0:0:
224,160,261683,5,4,0:0:0:0:
256,160,261956,1,0,0:0:0:0:
256,160,262228,1,8,0:0:0:0:
256,160,262501,1,0,0:0:0:0:
256,160,262592,1,0,0:0:0:0:
256,160,262683,1,0,0:0:0:0:
256,160,262774,1,8,0:0:0:0:
160,224,263046,1,0,0:0:0:0:
160,224,263183,1,0,0:0:0:0:
160,224,263319,1,8,0:0:0:0:
160,224,263456,1,8,0:0:0:0:
160,128,263592,1,0,0:0:0:0:
256,160,263865,1,4,0:0:0:0:
256,160,264137,1,0,0:0:0:0:
256,160,264228,1,0,0:0:0:0:
256,160,264319,1,0,0:0:0:0:
256,160,264410,1,8,0:0:0:0:
256,160,264683,1,0,0:0:0:0:
256,160,264774,1,0,0:0:0:0:
256,160,264865,1,0,0:0:0:0:
192,160,264956,1,8,0:0:0:0:
160,96,265228,1,0,0:0:0:0:
160,96,265365,1,0,0:0:0:0:
160,96,265501,1,8,0:0:0:0:
160,96,265637,1,8,0:0:0:0:
160,96,265774,1,0,0:0:0:0:
128,96,266046,1,4,0:0:0:0:
128,96,266319,1,0,0:0:0:0:
128,96,266410,1,0,0:0:0:0:
128,96,266501,1,0,0:0:0:0:
128,96,266592,1,8,0:0:0:0:
128,96,266865,1,0,0:0:0:0:
128,96,266956,1,0,0:0:0:0:
128,96,267046,1,0,0:0:0:0:
128,96,267137,1,8,0:0:0:0:
96,160,267410,1,0,0:0:0:0:
96,160,267478,1,0,0:0:0:0:
96,160,267546,1,0,0:0:0:0:
121,150,267615,1,0,0:0:0:0:
96,160,267683,1,8,0:0:0:0:
128,160,267956,1,0,0:0:0:0:
128,160,268228,1,8,0:0:0:0:
160,160,268296,1,0,0:0:0:0:
192,160,268365,1,0,0:0:0:0:
192,160,268433,1,0,0:0:0:0:
160,192,268501,1,0,0:0:0:0:
160,192,268569,1,0,0:0:0:0:
160,192,268637,1,0,0:0:0:0:
160,192,268706,1,0,0:0:0:0:
160,192,268774,1,8,0:0:0:0:
160,160,268842,1,0,0:0:0:0:
160,160,268910,1,0,0:0:0:0:
160,160,268978,1,0,0:0:0:0:
160,192,269046,1,0,0:0:0:0:
160,192,269115,1,0,0:0:0:0:
160,192,269183,1,0,0:0:0:0:
160,192,269251,1,0,0:0:0:0:
160,192,269319,1,8,0:0:0:0:
160,160,269387,1,0,0:0:0:0:
160,160,269456,1,0,0:0:0:0:
160,160,269524,1,0,0:0:0:0:
160,192,269592,1,0,0:0:0:0:
160,192,269660,1,0,0:0:0:0:
160,192,269728,1,0,0:0:0:0:
160,192,269796,1,0,0:0:0:0:
160,192,269865,1,8,0:0:0:0:
160,160,269933,1,8,0:0:0:0:
160,160,270001,1,0,0:0:0:0:
160,160,270069,1,0,0:0:0:0:
160,192,270137,1,0,0:0:0:0:
160,192,270206,1,0,0:0:0:0:
160,192,270274,1,0,0:0:0:0:
160,192,270342,1,0,0:0:0:0:
160,192,270410,1,8,0:0:0:0:
160,160,270478,1,0,0:0:0:0:
160,160,270546,1,0,0:0:0:0:
160,160,270615,1,0,0:0:0:0:
160,192,270683,1,0,0:0:0:0:
160,192,270751,1,0,0:0:0:0:
160,192,270819,1,0,0:0:0:0:
160,192,270887,1,0,0:0:0:0:
160,192,270956,1,8,0:0:0:0:
160,160,271024,1,0,0:0:0:0:
160,160,271092,1,0,0:0:0:0:
160,160,271160,1,0,0:0:0:0:
160,192,271228,1,0,0:0:0:0:
160,192,271296,1,0,0:0:0:0:
160,192,271365,1,0,0:0:0:0:
160,192,271433,1,0,0:0:0:0:
160,192,271501,1,8,0:0:0:0:
160,160,271569,1,8,0:0:0:0:
160,160,271637,1,8,0:0:0:0:
160,160,271706,1,8,0:0:0:0:
160,192,271774,1,8,0:0:0:0:
160,192,271842,1,8,0:0:0:0:
160,192,271910,1,0,0:0:0:0:
160,192,271978,1,0,0:0:0:0:
160,192,272046,1,8,0:0:0:0:
160,192,272115,1,8,0:0:0:0:
160,192,272183,1,8,0:0:0:0:
160,192,272251,1,8,0:0:0:0:
160,192,272319,1,8,0:0:0:0:
160,192,272387,1,8,0:0:0:0:
160,192,272456,1,8,0:0:0:0:
160,192,272524,1,8,0:0:0:0:
160,192,272592,1,0,0:0:0:0:
160,160,272660,1,0,0:0:0:0:
160,160,272728,1,0,0:0:0:0:
160,160,272796,1,0,0:0:0:0:
160,192,272865,1,0,0:0:0:0:
160,192,272933,1,0,0:0:0:0:
160,192,273001,1,0,0:0:0:0:
160,192,273069,1,0,0:0:0:0:
160,192,273137,1,8,0:0:0:0:
160,160,273206,1,0,0:0:0:0:
160,160,273274,1,0,0:0:0:0:
160,160,273342,1,0,0:0:0:0:
160,192,273410,1,0,0:0:0:0:
160,192,273478,1,0,0:0:0:0:
160,192,273546,1,0,0:0:0:0:
160,192,273615,1,0,0:0:0:0:
160,192,273683,1,8,0:0:0:0:
160,160,273751,1,0,0:0:0:0:
160,160,273819,1,0,0:0:0:0:
160,160,273887,1,0,0:0:0:0:
160,192,273956,1,0,0:0:0:0:
160,192,274024,1,0,0:0:0:0:
160,192,274092,1,0,0:0:0:0:
160,192,274160,1,0,0:0:0:0:
160,192,274228,1,8,0:0:0:0:
160,160,274296,1,8,0:0:0:0:
160,160,274365,1,0,0:0:0:0:
160,160,274433,1,0,0:0:0:0:
160,192,274501,1,0,0:0:0:0:
160,192,274569,1,0,0:0:0:0:
160,192,274637,1,0,0:0:0:0:
160,192,274706,1,0,0:0:0:0:
160,192,274774,1,8,0:0:0:0:
160,160,274842,1,0,0:0:0:0:
160,160,274910,1,0,0:0:0:0:
160,160,274978,1,0,0:0:0:0:
160,192,275046,1,0,0:0:0:0:
160,192,275115,1,0,0:0:0:0:
160,192,275183,1,0,0:0:0:0:
160,192,275251,1,0,0:0:0:0:
160,192,275319,1,8,0:0:0:0:
160,160,275387,1,0,0:0:0:0:
160,160,275456,1,0,0:0:0:0:
160,160,275524,1,0,0:0:0:0:
160,192,275592,1,0,0:0:0:0:
160,192,275660,1,0,0:0:0:0:
160,192,275728,1,0,0:0:0:0:
160,192,275796,1,0,0:0:0:0:
160,192,275865,1,8,0:0:0:0:
256,224,275933,1,8,0:0:0:0:
256,224,276001,1,8,0:0:0:0:
256,224,276069,1,8,0:0:0:0:
256,224,276137,1,8,0:0:0:0:
256,224,276206,1,8,0:0:0:0:
256,224,276274,1,0,0:0:0:0:
256,224,276342,1,0,0:0:0:0:
256,224,276410,1,8,0:0:0:0:
192,160,276478,1,8,0:0:0:0:
192,160,276546,1,8,0:0:0:0:
192,160,276615,1,8,0:0:0:0:
128,187,276683,1,8,0:0:0:0:
128,187,276751,1,8,0:0:0:0:
128,187,276819,1,8,0:0:0:0:
128,187,276887,1,8,0:0:0:0:
202,170,276956,1,0,0:0:0:0:
202,170,277024,1,0,0:0:0:0:
202,170,277092,1,0,0:0:0:0:
202,170,277160,1,0,0:0:0:0:
160,192,277228,1,0,0:0:0:0:
160,192,277296,1,0,0:0:0:0:
160,192,277365,1,0,0:0:0:0:
160,192,277433,1,0,0:0:0:0:
160,192,277501,1,8,0:0:0:0:
224,160,277569,1,0,0:0:0:0:
224,160,277637,1,0,0:0:0:0:
224,160,277706,1,0,0:0:0:0:
160,192,277774,1,0,0:0:0:0:
160,192,277842,1,0,0:0:0:0:
160,192,277910,1,0,0:0:0:0:
160,192,277978,1,0,0:0:0:0:
160,192,278046,1,8,0:0:0:0:
224,160,278115,1,0,0:0:0:0:
224,160,278183,1,0,0:0:0:0:
224,160,278251,1,0,0:0:0:0:
160,192,278319,1,0,0:0:0:0:
160,192,278387,1,0,0:0:0:0:
160,192,278456,1,0,0:0:0:0:
160,192,278524,1,0,0:0:0:0:
160,192,278592,1,8,0:0:0:0:
224,160,278660,1,8,0:0:0:0:
224,160,278728,1,0,0:0:0:0:
224,160,278796,1,0,0:0:0:0:
160,192,278865,1,0,0:0:0:0:
160,192,278933,1,0,0:0:0:0:
160,192,279001,1,0,0:0:0:0:
160,192,279069,1,0,0:0:0:0:
160,192,279137,1,8,0:0:0:0:
224,160,279206,1,0,0:0:0:0:
224,160,279274,1,0,0:0:0:0:
224,160,279342,1,0,0:0:0:0:
160,192,279410,1,0,0:0:0:0:
160,192,279478,1,0,0:0:0:0:
160,192,279546,1,0,0:0:0:0:
160,192,279615,1,0,0:0:0:0:
160,192,279683,1,8,0:0:0:0:
224,160,279751,1,0,0:0:0:0:
224,160,279819,1,0,0:0:0:0:
224,160,279887,1,0,0:0:0:0:
224,160,279956,1,0,0:0:0:0:
160,192,280024,1,0,0:0:0:0:
160,192,280092,1,0,0:0:0:0:
160,192,280160,1,0,0:0:0:0:
160,192,280228,1,8,0:0:0:0:
127,140,280296,1,8,0:0:0:0:
127,140,280365,1,8,0:0:0:0:
127,140,280433,1,8,0:0:0:0:
127,140,280501,1,8,0:0:0:0:
127,140,280569,1,8,0:0:0:0:
127,140,280637,1,0,0:0:0:0:
127,140,280706,1,0,0:0:0:0:
127,140,280774,1,8,0:0:0:0:
127,140,280842,1,8,0:0:0:0:
127,140,280910,1,8,0:0:0:0:
127,140,280979,1,8,0:0:0:0:
127,140,281047,1,0,0:0:0:0:
127,140,281115,1,0,0:0:0:0:
127,140,281183,1,0,0:0:0:0:
127,140,281251,1,0,0:0:0:0:
127,140,281319,1,8,0:0:0:0:
160,160,281387,1,0,0:0:0:0:
160,160,281456,1,0,0:0:0:0:
160,160,281524,1,0,0:0:0:0:
64,160,281592,1,0,0:0:0:0:
160,160,281660,1,0,0:0:0:0:
160,160,281728,1,0,0:0:0:0:
160,160,281796,1,0,0:0:0:0:
160,160,281865,1,8,0:0:0:0:
160,160,281933,1,0,0:0:0:0:
160,160,282001,1,0,0:0:0:0:
160,160,282069,1,0,0:0:0:0:
160,160,282137,1,0,0:0:0:0:
160,160,282206,1,0,0:0:0:0:
160,160,282274,1,0,0:0:0:0:
160,160,282342,1,0,0:0:0:0:
160,160,282410,1,8,0:0:0:0:
160,160,282478,1,0,0:0:0:0:
160,160,282546,1,0,0:0:0:0:
160,160,282615,1,0,0:0:0:0:
160,160,282683,1,0,0:0:0:0:
160,160,282751,1,0,0:0:0:0:
160,160,282819,1,0,0:0:0:0:
160,160,282887,1,0,0:0:0:0:
160,160,282956,1,8,0:0:0:0:
160,160,283024,1,8,0:0:0:0:
160,160,283092,1,0,0:0:0:0:
160,160,283160,1,0,0:0:0:0:
160,160,283228,1,0,0:0:0:0:
160,160,283296,1,0,0:0:0:0:
160,160,283365,1,0,0:0:0:0:
160,160,283433,1,0,0:0:0:0:
160,160,283501,1,8,0:0:0:0:
160,160,283569,1,0,0:0:0:0:
160,160,283637,1,0,0:0:0:0:
160,160,283706,1,0,0:0:0:0:
160,160,283774,1,0,0:0:0:0:
160,160,283842,1,0,0:0:0:0:
160,160,283910,1,0,0:0:0:0:
160,160,283978,1,0,0:0:0:0:
160,160,284046,1,8,0:0:0:0:
160,160,284115,1,0,0:0:0:0:
160,160,284183,1,0,0:0:0:0:
160,160,284251,1,0,0:0:0:0:
160,160,284319,1,0,0:0:0:0:
160,160,284387,1,0,0:0:0:0:
160,160,284456,1,0,0:0:0:0:
160,160,284524,1,0,0:0:0:0:
224,224,284592,1,8,0:0:0:0:
160,160,284660,1,8,0:0:0:0:
160,160,284728,1,8,0:0:0:0:
160,160,284796,1,8,0:0:0:0:
224,224,284865,1,8,0:0:0:0:
224,224,284933,1,8,0:0:0:0:
224,224,285001,1,0,0:0:0:0:
224,224,285069,1,0,0:0:0:0:
224,224,285137,1,8,0:0:0:0:
160,160,285206,1,8,0:0:0:0:
160,160,285274,1,8,0:0:0:0:
160,160,285342,1,8,0:0:0:0:
224,224,285410,1,8,0:0:0:0:
224,224,285478,1,8,0:0:0:0:
224,224,285546,1,8,0:0:0:0:
224,224,285615,1,8,0:0:0:0:
224,224,285683,1,0,0:0:0:0:
160,160,285751,1,0,0:0:0:0:
160,160,285819,1,0,0:0:0:0:
160,160,285887,1,0,0:0:0:0:
288,224,285956,1,0,0:0:0:0:
160,160,286024,1,0,0:0:0:0:
160,160,286092,1,0,0:0:0:0:
160,160,286160,1,0,0:0:0:0:
256,192,286228,1,8,0:0:0:0:
256,192,286296,1,8,0:0:0:0:
256,192,286365,1,8,0:0:0:0:
256,192,286433,1,8,0:0:0:0:
256,192,286501,1,8,0:0:0:0:
256,192,286569,1,8,0:0:0:0:
256,192,286637,1,8,0:0:0:0:
256,192,286706,1,8,0:0:0:0:
256,192,286774,1,8,0:0:0:0:
256,192,286842,1,8,0:0:0:0:
256,192,286910,1,8,0:0:0:0:
256,192,286978,1,8,0:0:0:0:
256,192,287046,1,8,0:0:0:0:
256,192,287115,1,8,0:0:0:0:
256,192,287183,1,8,0:0:0:0:
256,192,287251,1,8,0:0:0:0:
256,192,287319,1,0,0:0:0:0:
256,192,287387,1,0,0:0:0:0:
256,192,287456,1,0,0:0:0:0:
256,192,287524,1,0,0:0:0:0:
256,192,287592,1,0,0:0:0:0:
256,192,287660,1,0,0:0:0:0:
256,192,287728,1,0,0:0:0:0:
256,192,287796,1,0,0:0:0:0:
256,192,287865,1,8,0:0:0:0:
256,192,287933,1,8,0:0:0:0:
256,192,288001,1,8,0:0:0:0:
256,192,288069,1,8,0:0:0:0:
256,192,288137,1,8,0:0:0:0:
256,192,288206,1,8,0:0:0:0:
256,192,288274,1,8,0:0:0:0:
256,192,288342,1,8,0:0:0:0:
256,192,288410,1,8,0:0:0:0:
256,192,288478,1,8,0:0:0:0:
256,192,288546,1,8,0:0:0:0:
256,192,288615,1,8,0:0:0:0:
256,192,288683,1,8,0:0:0:0:
256,192,288751,1,8,0:0:0:0:
256,192,288819,1,8,0:0:0:0:
256,192,288887,1,8,0:0:0:0:
256,192,288956,1,0,0:0:0:0:
256,192,289024,1,0,0:0:0:0:
256,192,289092,1,0,0:0:0:0:
256,192,289160,1,0,0:0:0:0:
256,192,289228,1,0,0:0:0:0:
256,192,289296,1,0,0:0:0:0:
256,192,289365,1,0,0:0:0:0:
256,192,289433,1,0,0:0:0:0:
256,192,289501,1,8,0:0:0:0:
256,192,289569,1,8,0:0:0:0:
256,192,289637,1,8,0:0:0:0:
256,192,289706,1,8,0:0:0:0:
256,192,289774,1,8,0:0:0:0:
256,192,289842,1,8,0:0:0:0:
256,192,289910,1,8,0:0:0:0:
256,192,289978,1,8,0:0:0:0:
288,192,290046,1,0,0:0:0:0:
256,192,290115,1,0,0:0:0:0:
224,192,290183,1,0,0:0:0:0:
192,192,290251,1,0,0:0:0:0:
160,192,290319,1,0,0:0:0:0:
160,160,290387,1,0,0:0:0:0:
160,160,290456,1,0,0:0:0:0:
160,160,290524,1,0,0:0:0:0:
256,192,290592,1,8,0:0:0:0:
256,192,290660,1,8,0:0:0:0:
256,192,290728,1,8,0:0:0:0:
256,192,290796,1,8,0:0:0:0:
256,192,290865,1,8,0:0:0:0:
256,192,290933,1,8,0:0:0:0:
256,192,291001,1,8,0:0:0:0:
256,192,291069,1,8,0:0:0:0:
256,192,291137,1,8,0:0:0:0:
288,160,291206,1,8,0:0:0:0:
288,160,291274,1,8,0:0:0:0:
288,160,291342,1,8,0:0:0:0:
288,160,291410,1,8,0:0:0:0:
288,160,291478,1,8,0:0:0:0:
288,160,291546,1,8,0:0:0:0:
288,160,291615,1,8,0:0:0:0:
288,160,291683,1,0,0:0:0:0:
288,160,291751,1,0,0:0:0:0:
288,160,291819,1,0,0:0:0:0:
288,160,291887,1,0,0:0:0:0:
288,160,291956,1,0,0:0:0:0:
288,160,292024,1,0,0:0:0:0:
288,160,292092,1,0,0:0:0:0:
288,160,292160,1,0,0:0:0:0:
288,160,292228,1,8,0:0:0:0:
128,128,293319,5,8,0:0:0:0:
160,192,293387,1,8,0:0:0:0:
192,192,293456,1,8,0:0:0:0:
192,192,293524,1,8,0:0:0:0:
192,192,293592,1,8,0:0:0:0:
192,192,293660,1,8,0:0:0:0:
192,192,293728,1,8,0:0:0:0:
192,192,293796,1,8,0:0:0:0:
192,192,293865,1,0,0:0:0:0:
192,192,293933,1,0,0:0:0:0:
192,192,294001,1,0,0:0:0:0:
192,192,294069,1,0,0:0:0:0:
192,192,294137,1,0,0:0:0:0:
192,192,294206,1,0,0:0:0:0:
192,192,294274,1,0,0:0:0:0:
192,192,294342,1,0,0:0:0:0:
192,192,294410,1,8,0:0:0:0:
192,192,294478,1,8,0:0:0:0:
192,192,294546,1,8,0:0:0:0:
192,192,294615,1,8,0:0:0:0:
192,192,294683,1,8,0:0:0:0:
192,192,294751,1,8,0:0:0:0:
192,192,294819,1,8,0:0:0:0:
192,192,294887,1,8,0:0:0:0:
192,192,294956,1,0,0:0:0:0:
192,192,295024,1,0,0:0:0:0:
160,160,295092,1,0,0:0:0:0:
128,128,295160,1,0,0:0:0:0:
128,128,295228,1,0,0:0:0:0:
128,128,295296,1,0,0:0:0:0:
128,128,295365,1,0,0:0:0:0:
128,128,295433,1,0,0:0:0:0:
224,288,295501,5,12,0:0:0:0:
320,160,295774,1,4,0:0:0:0:
224,288,296046,1,12,0:0:0:0:
256,224,296183,1,4,0:0:0:0:
256,224,296456,1,12,0:0:0:0:
256,224,296592,1,12,0:0:0:0:
128,128,296728,1,4,0:0:0:0:
256,224,296865,1,12,0:0:0:0:
320,224,297683,1,8,0:0:0:0:
256,192,297819,1,8,0:0:0:0:
192,192,297956,1,0,0:0:0:0:
192,128,298092,1,8,0:0:0:0:
256,192,298228,1,8,0:0:0:0:
192,160,298365,1,0,0:0:0:0:
128,160,298501,1,8,0:0:0:0:
128,128,298637,1,8,0:0:0:0:
256,192,298774,1,0,0:0:0:0:
256,192,298910,1,8,0:0:0:0:
256,192,299046,1,8,0:0:0:0:
224,192,299183,1,0,0:0:0:0:
64,160,299319,1,8,0:0:0:0:
64,160,299387,1,8,0:0:0:0:
64,160,299456,1,8,0:0:0:0:
64,160,299524,1,8,0:0:0:0:
64,160,299592,1,8,0:0:0:0:
64,160,299660,1,8,0:0:0:0:
64,160,299728,1,8,0:0:0:0:
64,160,299796,1,8,0:0:0:0:
96,192,299865,5,4,0:0:0:0:
