osu file format v14

[General]
AudioFilename: audio.mp3
AudioLeadIn: 0
PreviewTime: 118400
Countdown: 0
SampleSet: Soft
StackLeniency: 0.6
Mode: 0
LetterboxInBreaks: 0
WidescreenStoryboard: 0

[Editor]
DistanceSpacing: 2.6
BeatDivisor: 4
GridSize: 4
TimelineZoom: 1.8

[Metadata]
Title:Hold the Sword
TitleUnicode:Hold the Sword
Artist:Whispered
ArtistUnicode:Whispered
Creator:MrKosiej
Version:Katana
Source:
Tags:shogunate macabre metal english melodic death power
BeatmapID:1650859
BeatmapSetID:786432

[Difficulty]
HPDrainRate:6
CircleSize:4
OverallDifficulty:8.8
ApproachRate:9.4
SliderMultiplier:2
SliderTickRate:1

[Events]
//Background and Video events
0,0,"fantasyart-1527204024032-2191.jpg",0,0
//Break Periods
2,114485,116488
2,161799,169288
//Storyboard Layer 0 (Background)
//Storyboard Layer 1 (Fail)
//Storyboard Layer 2 (Pass)
//Storyboard Layer 3 (Foreground)
//Storyboard Sound Samples

[TimingPoints]
3200.02955665025,342.857142857143,4,1,1,80,1,0
5942,-100,4,2,1,80,0,0
8000,-100,4,2,1,80,0,0
8685,-100,4,1,1,80,0,0
11428,-100,4,2,1,80,0,0
13485,-100,4,2,1,80,0,0
14171,-100,4,1,1,80,0,0
16914,-100,4,2,1,80,0,0
19657,-100,4,1,1,80,0,0
22400,-100,4,2,1,80,0,0
26514,-133.333333333333,4,1,1,60,0,0
30628,-133.333333333333,4,2,1,60,0,0
32000,-133.333333333333,4,1,1,60,0,0
36114,-133.333333333333,4,2,1,60,0,0
36714,-133.333333333333,4,1,1,5,0,0
36800,-133.333333333333,4,1,1,60,0,0
37485,-100,4,1,1,80,0,0
38857,-100,4,2,1,80,0,0
40228,-100,4,1,1,80,0,0
41600,-100,4,2,1,80,0,0
42971,-100,4,1,1,80,0,0
44342,-100,4,2,1,80,0,0
45714,-100,4,1,1,80,0,0
47085,-100,4,2,1,80,0,0
48457,-100,4,1,1,80,0,0
49828,-100,4,2,1,80,0,0
51200,-100,4,1,1,80,0,0
52571,-100,4,2,1,80,0,0
53942,-100,4,1,1,80,0,0
55314,-100,4,2,1,80,0,0
56685,-100,4,1,1,80,0,0
58057,-100,4,2,1,80,0,0
59428,-133.333333333333,4,1,1,60,0,0
60714,-133.333333333333,4,1,1,5,0,0
60800,-133.333333333333,4,2,1,60,0,0
61057,-133.333333333333,4,1,1,5,0,0
61142,-133.333333333333,4,1,1,60,0,0
61400,-133.333333333333,4,1,1,5,0,0
61485,-133.333333333333,4,1,1,60,0,0
61914,-133.333333333333,4,1,1,10,0,0
62000,-133.333333333333,4,1,1,60,0,0
62085,-133.333333333333,4,1,1,10,0,0
62171,-133.333333333333,4,2,1,60,0,0
62428,-133.333333333333,4,1,1,5,0,0
62514,-133.333333333333,4,1,1,60,0,0
62771,-133.333333333333,4,1,1,5,0,0
62857,-133.333333333333,4,1,1,60,0,0
63542,-100,4,1,1,60,0,0
63800,-100,4,1,1,5,0,0
63885,-100,4,1,1,60,0,0
64228,-100,4,2,1,60,0,0
64914,-133.333333333333,4,1,1,60,0,0
65514,-133.333333333333,4,1,1,5,0,0
65600,-133.333333333333,4,1,1,60,0,0
66200,-133.333333333333,4,1,1,5,0,0
66285,-133.333333333333,4,2,1,60,0,0
66542,-133.333333333333,4,1,1,5,0,0
66628,-133.333333333333,4,1,1,60,0,0
66885,-133.333333333333,4,1,1,5,0,0
66971,-133.333333333333,4,1,1,60,0,0
67400,-133.333333333333,4,1,1,10,0,0
67485,-133.333333333333,4,1,1,60,0,0
67571,-133.333333333333,4,1,1,10,0,0
67657,-133.333333333333,4,2,1,60,0,0
67914,-133.333333333333,4,1,1,5,0,0
68000,-133.333333333333,4,1,1,60,0,0
68257,-133.333333333333,4,1,1,5,0,0
68342,-133.333333333333,4,1,1,60,0,0
69028,-100,4,1,1,60,0,0
69285,-100,4,1,1,5,0,0
69371,-100,4,1,1,60,0,0
69714,-100,4,2,1,60,0,0
70400,-117.647058823529,4,1,1,60,0,0
70657,-117.647058823529,4,1,1,5,0,0
70742,-117.647058823529,4,1,1,60,0,0
71000,-117.647058823529,4,1,1,5,0,0
71085,-117.647058823529,4,1,1,60,0,0
71685,-117.647058823529,4,1,1,5,0,0
71771,-117.647058823529,4,2,1,60,0,0
72028,-117.647058823529,4,1,1,5,0,0
72114,-117.647058823529,4,1,1,60,0,0
73142,-117.647058823529,4,2,1,60,0,0
73400,-117.647058823529,4,1,1,5,0,0
73485,-117.647058823529,4,1,1,60,0,0
73742,-117.647058823529,4,1,1,5,0,0
73828,-117.647058823529,4,1,1,60,0,0
74514,-100,4,1,1,60,0,0
74771,-100,4,1,1,5,0,0
74857,-100,4,1,1,60,0,0
75200,-100,4,2,1,60,0,0
75885,-117.647058823529,4,1,1,60,0,0
76142,-117.647058823529,4,1,1,5,0,0
76228,-117.647058823529,4,1,1,60,0,0
76485,-117.647058823529,4,1,1,5,0,0
76571,-117.647058823529,4,1,1,60,0,0
77257,-117.647058823529,4,2,1,60,0,0
77514,-117.647058823529,4,1,1,5,0,0
77600,-117.647058823529,4,1,1,60,0,0
77857,-117.647058823529,4,1,1,5,0,0
77942,-117.647058823529,4,1,1,60,0,0
78628,-117.647058823529,4,2,1,60,0,0
78885,-117.647058823529,4,1,1,5,0,0
78971,-117.647058823529,4,1,1,60,0,0
79228,-117.647058823529,4,1,1,5,0,0
79314,-117.647058823529,4,1,1,60,0,0
80000,-100,4,1,1,60,0,0
80257,-100,4,1,1,5,0,0
80342,-100,4,1,1,60,0,0
81371,-133.333333333333,4,2,1,60,0,0
82742,-200,4,1,1,60,0,0
85485,-133.333333333333,4,2,1,60,0,0
86857,-200,4,1,1,60,0,0
87457,-200,4,1,1,5,0,0
87542,-200,4,1,1,60,0,0
88142,-200,4,1,1,5,0,0
88228,-200,4,1,1,60,0,0
89171,-200,4,1,1,5,0,0
89257,-200,4,1,1,60,0,0
89600,-133.333333333333,4,2,1,60,0,0
90971,-200,4,1,1,60,0,0
93714,-133.333333333333,4,2,1,70,0,0
95085,-117.647058823529,4,1,1,70,0,0
96457,-117.647058823529,4,2,1,70,0,0
97828,-117.647058823529,4,1,1,70,0,0
99200,-117.647058823529,4,2,1,70,0,0
100571,-117.647058823529,4,1,1,70,0,0
101257,-117.647058823529,4,2,1,70,0,0
101942,-117.647058823529,4,1,1,70,0,0
102628,-117.647058823529,4,2,1,70,0,0
105714,-117.647058823529,4,2,1,70,0,0
106057,-117.647058823529,4,1,1,70,0,0
107428,-117.647058823529,4,2,1,70,0,0
108800,-117.647058823529,4,1,1,70,0,0
110171,-117.647058823529,4,2,1,70,0,0
112914,-117.647058823529,4,2,1,70,0,0
113600,-117.647058823529,4,2,1,80,0,0
113942,-117.647058823529,4,2,1,85,0,0
114285,-200,4,1,1,90,0,0
117028,-133.333333333333,4,1,1,60,0,0
118400,-117.647058823529,4,1,1,65,0,0
118742,-117.647058823529,4,2,1,65,0,0
119085,-117.647058823529,4,1,1,70,0,0
119428,-117.647058823529,4,2,1,70,0,0
119771,-100,4,1,1,75,0,0
120114,-100,4,2,1,75,0,0
120457,-100,4,2,1,80,0,0
121142,-80,4,1,1,90,0,1
123542,-80,4,2,1,90,0,1
123885,-80,4,1,1,90,0,1
126285,-80,4,2,1,90,0,1
126628,-80,4,1,1,90,0,1
129028,-80,4,2,1,90,0,1
129371,-80,4,1,1,90,0,1
130057,-80,4,2,1,90,0,1
132114,-80,4,1,1,90,0,1
134514,-80,4,2,1,90,0,1
134857,-80,4,1,1,90,0,1
137257,-80,4,2,1,90,0,1
137600,-50,4,1,1,90,0,1
137857,-50,4,1,1,5,0,1
137942,-80,4,1,1,90,0,1
140000,-80,4,2,1,90,0,1
140342,-80,4,2,1,90,0,1
143085,-100,4,1,1,80,0,0
145828,-100,4,2,1,80,0,0
148571,-100,4,1,1,80,0,0
150200,-100,4,1,1,5,0,0
150285,-100,4,1,1,80,0,0
151314,-100,4,2,1,80,0,0
153714,-66.6666666666667,4,1,1,80,0,0
153971,-66.6666666666667,4,1,1,5,0,0
154057,-100,4,1,1,80,0,0
156800,-80,4,2,1,80,0,0
158171,-86.9565217391304,4,2,1,80,0,0
159542,-133.333333333333,4,1,1,80,0,0
159628,-133.333333333333,4,1,1,5,0,0
169828,-80,4,2,1,80,0,0
170514,-100,4,1,1,60,0,0
170857,-100,4,2,1,60,0,0
180800,-80,4,2,1,80,0,0
181485,-100,4,1,1,60,0,0
182171,-100,4,2,1,60,0,0
192457,-100,4,1,1,60,0,0
193142,-100,4,2,1,60,0,0
203428,-100,4,1,1,70,0,0
204114,-100,4,2,1,70,0,0
206171,-100,4,1,1,70,0,0
206857,-100,4,2,1,70,0,0
208914,-100,4,1,1,70,0,0
209600,-100,4,2,1,70,0,0
211657,-100,4,1,1,70,0,0
212342,-100,4,2,1,70,0,0
214400,-100,4,1,1,70,0,0
215085,-100,4,2,1,70,0,0
217142,-100,4,1,1,70,0,0
217828,-100,4,2,1,70,0,0
219885,-100,4,1,1,70,0,0
220571,-100,4,2,1,70,0,0
222628,-100,4,1,1,70,0,0
223314,-100,4,2,1,70,0,0
225371,-200,4,1,1,40,0,0
225457,-200,4,1,1,5,0,0
230514,-200,4,1,1,40,0,0
231457,-200,4,1,1,5,0,0
231885,-200,4,1,1,40,0,0
231971,-200,4,1,1,5,0,0
232228,-200,4,1,1,40,0,0
232314,-200,4,1,1,5,0,0
236000,-200,4,1,1,40,0,0
236942,-200,4,1,1,5,0,0
237371,-200,4,1,1,40,0,0
237457,-200,4,1,1,5,0,0
237714,-200,4,1,1,40,0,0
237800,-200,4,1,1,5,0,0
239085,-200,4,1,1,40,0,0
239171,-200,4,1,1,5,0,0
240457,-133.333333333333,4,1,1,50,0,0
245857,-133.333333333333,4,1,1,5,0,0
245942,-133.333333333333,4,1,1,50,0,0
256485,-133.333333333333,4,1,1,5,0,0
256571,-133.333333333333,4,1,1,50,0,0
256828,-133.333333333333,4,1,1,5,0,0
256914,-133.333333333333,4,1,1,50,0,0
261971,-133.333333333333,4,1,1,5,0,0
262057,-133.333333333333,4,1,1,50,0,0
262314,-133.333333333333,4,1,1,5,0,0
262400,-133.333333333333,4,1,1,50,0,0
269942,-117.647058823529,4,2,1,70,0,0
270200,-117.647058823529,4,1,1,5,0,0
270285,-100,4,2,1,70,0,0
270542,-100,4,1,1,5,0,0
270628,-100,4,1,1,70,0,0
272000,-100,4,2,1,70,0,0
273371,-100,4,1,1,70,0,0
274742,-100,4,2,1,70,0,0
276114,-100,4,1,1,70,0,0
277485,-100,4,2,1,70,0,0
278857,-100,4,1,1,70,0,0
280228,-100,4,2,1,70,0,0
280571,-100,4,2,1,75,0,0
280914,-100,4,2,1,80,0,0
281257,-100,4,2,1,85,0,0
281600,-80,4,1,1,90,0,1
284000,-80,4,2,1,90,0,1
284342,-80,4,1,1,90,0,1
286742,-80,4,2,1,90,0,1
287085,-80,4,1,1,90,0,1
287771,-80,4,2,1,90,0,1
289828,-80,4,1,1,90,0,1
292228,-80,4,2,1,90,0,1
292571,-80,4,1,1,90,0,1
294971,-80,4,2,1,90,0,1
295314,-50,4,1,1,90,0,1
295571,-50,4,1,1,5,0,1
295657,-80,4,1,1,90,0,1
297714,-80,4,2,1,90,0,1
298057,-80,4,1,1,90,0,1
300114,-80,4,2,1,90,0,1
300800,-80,4,1,1,90,0,1
303200,-80,4,2,1,90,0,1
303542,-80,4,1,1,90,0,1
305942,-80,4,2,1,90,0,1
306285,-50,4,1,1,90,0,1
306542,-50,4,1,1,5,0,1
306628,-80,4,1,1,90,0,1
308685,-80,4,2,1,90,0,1
311771,-133.333333333333,4,1,1,90,0,0
312114,-133.333333333333,4,1,1,60,0,0
313142,-133.333333333333,4,2,1,60,0,0
315885,-133.333333333333,4,1,1,60,0,0
315971,-133.333333333333,4,1,1,5,0,0

[Colours]
Combo1 : 252,186,97
Combo2 : 249,141,136
Combo3 : 194,157,124
Combo4 : 173,173,173

[HitObjects]
254,162,3200,38,0,P|187:127|209:221,1,200,6|0,0:0|0:0,0:0:0:0:
362,23,3714,1,0,0:0:0:0:
362,48,3800,1,0,0:0:0:0:
362,72,3885,2,0,P|340:137|360:175,1,100,8|0,0:0|0:0,0:0:0:0:
289,328,4228,2,0,P|311:263|291:225,1,100,8|0,0:0|0:0,0:0:0:0:
240,75,4571,38,0,P|176:115|268:143,1,200,2|0,0:0|0:0,0:0:0:0:
58,0,5086,1,0,0:0:0:0:
58,25,5172,1,0,0:0:0:0:
58,49,5257,2,0,P|80:114|60:152,1,100,8|0,0:0|0:0,0:0:0:0:
139,305,5600,2,0,P|117:240|137:202,1,100,8|0,0:0|0:0,0:0:0:0:
354,201,5942,38,0,P|309:260|187:248,1,200,6|0,0:0|0:0,0:0:0:0:
442,170,6457,1,0,0:0:0:0:
442,195,6543,1,0,0:0:0:0:
442,219,6628,2,0,P|420:284|437:324,1,100,6|0,0:0|0:0,0:0:0:0:
500,275,6971,1,8,0:0:0:0:
354,52,7142,37,0,0:0:0:0:
354,77,7228,1,0,0:0:0:0:
354,101,7313,2,0,L|354:204,1,100,6|0,0:0|0:0,0:0:0:0:
265,287,7657,6,0,L|277:239,1,50,8|0,0:0|0:0,0:0:0:0:
380,184,7828,2,0,L|368:232,1,50,8|0,0:0|0:0,0:0:0:0:
346,319,8000,37,6,0:0:0:0:
425,0,8171,1,8,0:0:0:0:
459,108,8342,2,8,L|479:171,2,50,12|8|8,0:0|0:0|0:0,0:0:0:0:
184,108,8685,22,0,P|187:183|257:117,1,200,6|0,0:0|0:0,0:0:0:0:
66,0,9200,1,0,0:0:0:0:
66,25,9286,1,0,0:0:0:0:
66,49,9371,2,0,P|88:114|68:152,1,100,8|0,0:0|0:0,0:0:0:0:
121,310,9714,2,0,P|99:245|119:207,1,100,8|0,0:0|0:0,0:0:0:0:
346,107,10057,6,0,P|342:182|272:116,1,200,2|0,0:0|0:0,0:0:0:0:
470,2,10571,1,0,0:0:0:0:
470,27,10657,1,0,0:0:0:0:
470,51,10742,2,0,P|448:116|468:154,1,100,8|0,0:0|0:0,0:0:0:0:
415,312,11085,2,0,P|437:247|417:209,1,100,8|0,0:0|0:0,0:0:0:0:
240,320,11428,6,0,P|304:277|427:328,1,200,6|0,0:0|0:0,0:0:0:0:
148,345,11942,1,0,0:0:0:0:
148,320,12028,1,0,0:0:0:0:
148,296,12113,2,0,P|168:230|150:193,1,100,6|0,0:0|0:0,0:0:0:0:
89,244,12457,1,8,0:0:0:0:
262,70,12628,37,0,0:0:0:0:
262,95,12714,1,0,0:0:0:0:
262,119,12799,2,0,P|240:184|260:222,1,100,6|0,0:0|0:0,0:0:0:0:
354,236,13057,5,0,0:0:0:0:
341,215,13142,2,0,L|310:162,1,50,8|0,0:0|0:0,0:0:0:0:
342,110,13314,2,0,L|342:159,1,50
240,320,13485,5,6,0:0:0:0:
279,313,13570,1,0,0:0:0:0:
318,306,13656,2,0,L|302:358,1,50,8|0,0:0|0:0,0:0:0:0:
413,336,13827,37,6,0:0:0:0:
426,297,13914,1,0,0:0:0:0:
438,259,14000,1,8,0:0:0:0:
451,221,14085,1,0,0:0:0:0:
463,182,14171,6,0,L|481:128,3,50,6|0|0|0,0:0|0:0|0:0|0:0,0:0:0:0:
421,58,14514,1,8,0:0:0:0:
262,119,14685,38,0,L|277:166,1,50
315,171,14857,1,8,0:0:0:0:
137,105,15028,6,0,L|152:152,1,50
190,157,15200,1,8,0:0:0:0:
155,176,15285,1,0,0:0:0:0:
145,215,15371,1,0,0:0:0:0:
159,252,15457,1,0,0:0:0:0:
196,265,15542,38,0,L|178:319,3,50,2|0|0|0,0:0|0:0|0:0|0:0,0:0:0:0:
93,352,15885,1,8,0:0:0:0:
8,213,16057,6,0,L|23:260,1,50
61,265,16229,1,8,0:0:0:0:
0,77,16400,38,0,L|15:124,1,50
53,129,16572,1,8,0:0:0:0:
42,101,16657,1,0,0:0:0:0:
31,73,16742,1,0,0:0:0:0:
20,44,16828,1,0,0:0:0:0:
8,16,16914,5,6,0:0:0:0:
49,43,16999,1,0,0:0:0:0:
97,55,17085,1,0,0:0:0:0:
147,50,17171,1,0,0:0:0:0:
195,37,17257,1,8,0:0:0:0:
244,29,17342,1,0,0:0:0:0:
294,32,17428,1,0,0:0:0:0:
340,50,17514,1,0,0:0:0:0:
369,92,17600,38,0,L|384:30,1,50,6|0,0:0|0:0,0:0:0:0:
277,158,17771,2,0,L|266:110,1,50
462,84,17942,1,8,0:0:0:0:
455,108,18027,1,0,0:0:0:0:
448,132,18113,1,0,0:0:0:0:
441,156,18199,1,0,0:0:0:0:
435,180,18285,6,0,L|446:228,1,50,6|0,0:0|0:0,0:0:0:0:
486,384,18457,2,0,L|474:335,1,50
372,301,18628,2,0,P|341:293|315:305,3,50,8|0|0|0,0:0|0:0|0:0|0:0,0:0:0:0:
223,280,18971,37,14,0:0:0:0:
228,304,19056,1,8,0:0:0:0:
234,328,19142,1,8,0:0:0:0:
102,258,19314,5,14,0:0:0:0:
107,282,19399,1,8,0:0:0:0:
113,306,19485,1,8,0:0:0:0:
119,330,19571,1,8,0:0:0:0:
124,354,19657,38,0,L|142:300,3,50,6|0|0|0,0:0|0:0|0:0|0:0,0:0:0:0:
173,217,20000,1,8,0:0:0:0:
25,123,20171,6,0,L|40:170,1,50
78,175,20342,1,8,0:0:0:0:
95,41,20514,38,0,L|110:88,1,50
148,93,20686,1,8,0:0:0:0:
175,64,20771,1,0,0:0:0:0:
214,56,20857,1,0,0:0:0:0:
252,66,20942,1,0,0:0:0:0:
279,95,21028,6,0,L|261:149,3,50,2|0|0|0,0:0|0:0|0:0|0:0,0:0:0:0:
358,150,21371,1,8,0:0:0:0:
447,107,21542,38,0,L|431:59,1,50
394,55,21714,1,8,0:0:0:0:
492,253,21885,6,0,L|476:205,1,50
439,201,22057,1,8,0:0:0:0:
450,229,22142,1,0,0:0:0:0:
461,257,22227,1,0,0:0:0:0:
472,286,22313,1,0,0:0:0:0:
482,314,22400,37,6,0:0:0:0:
441,286,22485,1,0,0:0:0:0:
393,275,22571,1,0,0:0:0:0:
343,280,22657,1,0,0:0:0:0:
295,292,22742,1,8,0:0:0:0:
246,301,22828,1,0,0:0:0:0:
196,298,22914,1,0,0:0:0:0:
150,280,23000,1,0,0:0:0:0:
121,238,23086,6,0,L|106:300,1,50,6|0,0:0|0:0,0:0:0:0:
232,171,23257,2,0,L|243:219,1,50
106,144,23428,1,8,0:0:0:0:
114,120,23513,1,0,0:0:0:0:
121,96,23599,1,0,0:0:0:0:
128,72,23685,1,0,0:0:0:0:
136,48,23771,38,0,L|124:-1,1,50,6|0,0:0|0:0,0:0:0:0:
33,33,23942,2,0,L|44:81,1,50
228,14,24114,1,8,0:0:0:0:
255,43,24199,1,0,0:0:0:0:
294,51,24285,1,0,0:0:0:0:
332,41,24370,1,0,0:0:0:0:
360,12,24457,5,6,0:0:0:0:
355,31,24542,2,0,L|343:79,1,50,8|0,0:0|0:0,0:0:0:0:
451,171,24714,37,0,0:0:0:0:
446,151,24799,2,0,L|434:102,1,50,14|0,0:0|0:0,0:0:0:0:
232,171,24971,2,0,L|243:219,1,50,8|0,0:0|0:0,0:0:0:0:
376,266,25142,5,6,0:0:0:0:
368,242,25227,1,0,0:0:0:0:
361,218,25313,37,0,0:0:0:0:
331,124,25485,1,8,0:0:0:0:
466,219,25657,5,0,0:0:0:0:
458,195,25742,1,0,0:0:0:0:
451,171,25828,37,10,0:0:0:0:
333,345,26085,1,2,0:0:0:0:
428,74,26342,1,2,0:0:0:0:
459,313,26514,37,14,0:0:0:0:
474,293,26857,38,0,L|496:364,1,75.0000028610231
333,345,27114,1,0,0:0:0:0:
318,326,27200,2,0,L|333:252,1,75.0000028610231,8|0,0:0|0:0,0:0:0:0:
208,174,27542,2,0,L|223:247,1,75.0000028610231,8|0,0:0|0:0,0:0:0:0:
341,31,27885,5,6,0:0:0:0:
362,44,28228,38,0,L|384:115,1,75.0000028610231
208,174,28485,1,0,0:0:0:0:
193,155,28571,2,0,L|208:81,1,75.0000028610231,8|0,0:0|0:0,0:0:0:0:
384,115,28913,2,0,L|408:188,1,75.0000028610231,8|0,0:0|0:0,0:0:0:0:
89,300,29257,5,6,0:0:0:0:
110,315,29600,38,0,L|128:242,1,75.0000028610231
27,144,29857,1,0,0:0:0:0:
12,163,29943,2,0,L|27:236,1,75.0000028610231,8|0,0:0|0:0,0:0:0:0:
177,384,30285,2,0,L|192:310,1,75.0000028610231,8|0,0:0|0:0,0:0:0:0:
460,243,30628,37,6,0:0:0:0:
444,268,30713,1,0,0:0:0:0:
422,288,30799,1,0,0:0:0:0:
395,301,30885,1,0,0:0:0:0:
365,306,30970,1,0,0:0:0:0:
336,302,31056,1,0,0:0:0:0:
309,289,31142,37,6,0:0:0:0:
349,271,31227,1,0,0:0:0:0:
371,233,31313,1,0,0:0:0:0:
366,189,31399,1,0,0:0:0:0:
336,156,31484,1,0,0:0:0:0:
293,148,31570,1,0,0:0:0:0:
253,171,31657,6,0,L|241:120,1,37.5000014305115,12|0,0:0|0:0,0:0:0:0:
336,33,31828,2,0,L|328:70,1,37.5000014305115,12|0,0:0|0:0,0:0:0:0:
155,254,32000,37,6,0:0:0:0:
165,277,32342,37,0,0:0:0:0:
66,254,32514,1,0,0:0:0:0:
79,288,32599,1,0,0:0:0:0:
93,323,32685,5,8,0:0:0:0:
122,179,32857,1,0,0:0:0:0:
165,277,33028,37,8,0:0:0:0:
80,82,33200,1,0,0:0:0:0:
209,376,33371,5,6,0:0:0:0:
239,384,33714,37,0,0:0:0:0:
301,237,33885,1,0,0:0:0:0:
288,271,33970,1,0,0:0:0:0:
274,306,34056,5,8,0:0:0:0:
212,190,34228,1,0,0:0:0:0:
165,277,34400,37,8,0:0:0:0:
260,103,34572,1,0,0:0:0:0:
352,384,34742,5,6,0:0:0:0:
395,274,35085,38,0,L|362:355,1,75.0000028610231,8|0,0:0|0:0,0:0:0:0:
470,288,35428,2,0,L|416:218,1,75.0000028610231,8|0,0:0|0:0,0:0:0:0:
419,344,35771,2,0,L|505:332,1,75.0000028610231,8|0,0:0|0:0,0:0:0:0:
355,163,36114,5,6,0:0:0:0:
192,131,36285,2,0,B|232:153|268:138|268:138|280:167|280:167|323:146|361:166,1,187.500007152558,8|0,0:0|0:0,0:0:0:0:
374,174,36800,1,2,0:0:0:0:
341,67,36971,1,0,0:0:0:0:
225,245,37142,5,8,0:0:0:0:
232,281,37227,1,0,0:0:0:0:
254,311,37313,1,0,0:0:0:0:
287,329,37399,1,0,0:0:0:0:
324,331,37485,22,0,P|259:341|233:367,1,100,6|0,0:0|0:0,0:0:0:0:
403,363,37828,2,0,P|409:314|386:270,1,100
225,245,38171,37,8,0:0:0:0:
324,331,38342,1,0,0:0:0:0:
126,162,38514,5,8,0:0:0:0:
102,291,38685,1,0,0:0:0:0:
229,135,38857,37,6,0:0:0:0:
248,116,39028,6,0,L|236:188,1,50
225,245,39200,1,8,0:0:0:0:
126,162,39371,1,0,0:0:0:0:
333,80,39542,6,0,L|317:196,1,100,2|0,0:0|0:0,0:0:0:0:
158,65,39800,1,0,0:0:0:0:
180,55,39885,2,0,L|288:10,1,100,8|0,0:0|0:0,0:0:0:0:
414,183,40228,38,0,P|343:170|301:190,1,100,6|0,0:0|0:0,0:0:0:0:
309,335,40571,2,0,P|355:280|359:233,1,100,8|0,0:0|0:0,0:0:0:0:
230,174,40914,6,0,P|254:241|292:268,1,100,2|0,0:0|0:0,0:0:0:0:
431,340,41257,1,8,0:0:0:0:
360,254,41428,1,0,0:0:0:0:
174,284,41600,38,0,P|220:338|224:385,1,100,6|0,0:0|0:0,0:0:0:0:
42,302,41942,1,8,0:0:0:0:
97,187,42114,2,0,L|110:244,1,50
21,209,42285,5,12,0:0:0:0:
15,184,42370,1,0,0:0:0:0:
10,160,42456,1,0,0:0:0:0:
5,135,42542,1,0,0:0:0:0:
0,111,42628,37,12,0:0:0:0:
42,134,42713,1,0,0:0:0:0:
85,112,42799,1,0,0:0:0:0:
92,65,42885,1,0,0:0:0:0:
65,23,42971,6,0,P|126:46|161:37,1,100,6|0,0:0|0:0,0:0:0:0:
266,159,43228,1,0,0:0:0:0:
256,139,43314,2,0,P|194:115|159:124,1,100,8|0,0:0|0:0,0:0:0:0:
342,116,43571,1,0,0:0:0:0:
355,137,43657,2,0,P|416:160|451:151,1,100,8|0,0:0|0:0,0:0:0:0:
251,30,44000,37,0,0:0:0:0:
197,197,44171,1,0,0:0:0:0:
447,153,44342,5,6,0:0:0:0:
465,133,44514,38,0,L|455:205,1,50
447,259,44685,1,8,0:0:0:0:
355,137,44857,1,0,0:0:0:0:
471,83,45028,6,0,L|455:199,1,100,2|0,0:0|0:0,0:0:0:0:
439,305,45285,1,0,0:0:0:0:
443,281,45371,2,0,L|456:181,1,100,8|0,0:0|0:0,0:0:0:0:
355,137,45714,6,0,P|295:145|242:109,1,100,6|0,0:0|0:0,0:0:0:0:
313,67,46057,1,8,0:0:0:0:
443,281,46228,1,0,0:0:0:0:
171,25,46400,38,0,P|163:85|199:138,1,100,2|0,0:0|0:0,0:0:0:0:
220,292,46742,2,0,P|228:232|192:179,1,100,8|0,0:0|0:0,0:0:0:0:
150,249,47086,5,6,0:0:0:0:
308,335,47257,1,0,0:0:0:0:
307,310,47342,1,0,0:0:0:0:
307,285,47428,1,8,0:0:0:0:
401,304,47600,37,0,0:0:0:0:
400,279,47685,1,0,0:0:0:0:
399,253,47771,2,0,L|438:293,1,50,12|0,0:0|0:0,0:0:0:0:
512,244,47942,2,0,L|478:208,1,50
280,187,48114,5,12,0:0:0:0:
304,162,48199,1,0,0:0:0:0:
329,137,48285,1,0,0:0:0:0:
353,112,48371,1,0,0:0:0:0:
377,86,48457,38,0,L|418:43,3,50,6|0|0|0,0:0|0:0|0:0|0:0,0:0:0:0:
361,0,48800,2,0,L|360:60,1,50,2|0,0:0|0:0,0:0:0:0:
476,155,48971,2,0,L|476:105,1,50,8|0,0:0|0:0,0:0:0:0:
330,20,49142,6,0,L|329:80,1,50,2|0,0:0|0:0,0:0:0:0:
445,170,49314,2,0,L|445:120,1,50,8|0,0:0|0:0,0:0:0:0:
251,49,49485,38,0,L|250:109,3,50,2|0|0|0,0:0|0:0|0:0|0:0,0:0:0:0:
142,21,49828,1,6,0:0:0:0:
152,48,49913,1,0,0:0:0:0:
155,78,49999,1,8,0:0:0:0:
152,108,50085,1,0,0:0:0:0:
145,137,50171,1,2,0:0:0:0:
139,167,50256,1,0,0:0:0:0:
135,196,50342,1,8,0:0:0:0:
138,226,50427,1,0,0:0:0:0:
149,254,50514,5,2,0:0:0:0:
167,210,50599,1,0,0:0:0:0:
215,203,50685,1,8,0:0:0:0:
244,241,50771,1,0,0:0:0:0:
232,289,50857,2,0,P|212:310|188:317,1,50,8|0,0:0|0:0,0:0:0:0:
65,291,51028,2,0,P|85:312|109:319,1,50,8|0,0:0|0:0,0:0:0:0:
263,384,51200,37,6,0:0:0:0:
280,366,51285,1,0,0:0:0:0:
297,348,51371,1,8,0:0:0:0:
315,330,51457,1,0,0:0:0:0:
332,312,51542,1,2,0:0:0:0:
350,294,51628,1,0,0:0:0:0:
367,276,51714,1,8,0:0:0:0:
385,259,51799,1,0,0:0:0:0:
400,245,51885,6,0,L|399:184,3,50,2|0|0|0,0:0|0:0|0:0|0:0,0:0:0:0:
321,165,52228,2,0,L|321:214,1,50,8|0,0:0|0:0,0:0:0:0:
479,277,52400,2,0,L|478:227,1,50,8|0,0:0|0:0,0:0:0:0:
472,81,52571,37,6,0:0:0:0:
431,106,52656,1,0,0:0:0:0:
385,91,52742,1,8,0:0:0:0:
369,45,52828,1,0,0:0:0:0:
400,5,52914,6,0,L|431:57,1,50,2|0,0:0|0:0,0:0:0:0:
223,1,53085,2,0,L|192:53,1,50,8|0,0:0|0:0,0:0:0:0:
295,122,53257,38,0,L|326:174,1,50,6|0,0:0|0:0,0:0:0:0:
156,121,53428,2,0,L|125:173,1,50,8|0,0:0|0:0,0:0:0:0:
180,227,53600,6,0,L|211:279,1,50,6|0,0:0|0:0,0:0:0:0:
96,227,53771,2,0,L|65:279,1,50,8|0,0:0|0:0,0:0:0:0:
259,338,53942,38,0,L|284:295,3,50,6|0|0|0,0:0|0:0|0:0|0:0,0:0:0:0:
180,227,54285,2,0,L|211:279,1,50,2|0,0:0|0:0,0:0:0:0:
452,309,54457,2,0,L|426:352,1,50,8|0,0:0|0:0,0:0:0:0:
197,196,54628,6,0,L|228:248,1,50,2|0,0:0|0:0,0:0:0:0:
437,273,54800,2,0,L|411:316,1,50,8|0,0:0|0:0,0:0:0:0:
282,159,54971,38,0,L|256:116,3,50,2|0|0|0,0:0|0:0|0:0|0:0,0:0:0:0:
331,237,55314,1,6,0:0:0:0:
354,218,55399,1,0,0:0:0:0:
371,193,55485,1,8,0:0:0:0:
383,166,55571,1,0,0:0:0:0:
391,137,55657,1,2,0:0:0:0:
400,108,55742,1,0,0:0:0:0:
410,80,55828,1,8,0:0:0:0:
427,55,55913,1,0,0:0:0:0:
450,35,56000,5,2,0:0:0:0:
416,44,56085,1,0,0:0:0:0:
381,44,56171,1,8,0:0:0:0:
348,35,56257,1,0,0:0:0:0:
317,20,56342,2,0,L|320:72,1,50,8|0,0:0|0:0,0:0:0:0:
477,158,56514,2,0,L|484:108,1,50,8|0,0:0|0:0,0:0:0:0:
242,91,56685,37,6,0:0:0:0:
222,106,56770,1,0,0:0:0:0:
200,118,56856,1,8,0:0:0:0:
176,125,56942,1,0,0:0:0:0:
151,128,57027,1,2,0:0:0:0:
127,125,57113,1,0,0:0:0:0:
103,118,57199,1,8,0:0:0:0:
81,106,57284,1,0,0:0:0:0:
59,92,57371,5,2,0:0:0:0:
83,135,57456,1,0,0:0:0:0:
87,185,57542,1,8,0:0:0:0:
64,230,57628,1,0,0:0:0:0:
22,258,57714,2,0,L|14:197,1,50,8|0,0:0|0:0,0:0:0:0:
158,224,57885,2,0,L|151:273,1,50,8|0,0:0|0:0,0:0:0:0:
41,370,58057,37,6,0:0:0:0:
247,196,58228,5,0,0:0:0:0:
253,245,58313,1,0,0:0:0:0:
261,295,58400,2,0,L|267:344,1,50,8|0,0:0|0:0,0:0:0:0:
512,258,58571,2,0,L|505:208,1,50,8|0,0:0|0:0,0:0:0:0:
330,254,58742,38,0,L|336:303,1,50,6|0,0:0|0:0,0:0:0:0:
434,270,58914,2,0,L|427:220,1,50,2|0,0:0|0:0,0:0:0:0:
363,223,59085,6,0,L|369:272,1,50,12|0,0:0|0:0,0:0:0:0:
404,287,59256,2,0,L|397:237,1,50,8|0,0:0|0:0,0:0:0:0:
379,69,59428,6,0,P|330:69|381:123,1,150.000005722046,6|0,0:0|0:0,0:0:0:0:
475,123,59942,2,0,P|453:129|438:142,1,37.5000014305115
363,223,60114,5,8,0:0:0:0:
456,35,60285,1,0,0:0:0:0:
312,326,60457,2,0,P|367:311|427:334,1,112.500004291535,8|0,0:0|0:0,0:0:0:0:
250,378,60800,6,0,P|266:325|251:271,1,112.500004291535,6|0,0:0|0:0,0:0:0:0:
241,251,61142,2,0,P|224:198|239:144,1,112.500004291535
253,127,61485,5,8,0:0:0:0:
310,193,61657,1,0,0:0:0:0:
197,58,61828,2,0,L|173:27,1,37.5000014305115,8|0,0:0|0:0,0:0:0:0:
197,11,62000,2,0,L|219:40,1,37.5000014305115
82,15,62171,6,0,P|98:67|83:121,1,112.500004291535,6|0,0:0|0:0,0:0:0:0:
73,142,62513,2,0,P|56:194|71:248,1,112.500004291535
88,269,62857,5,2,0:0:0:0:
153,196,63028,1,0,0:0:0:0:
20,343,63200,1,8,0:0:0:0:
73,142,63371,1,0,0:0:0:0:
266,368,63542,6,0,B|241:300|241:300|278:210,1,150,6|0,0:0|0:0,0:0:0:0:
340,58,63885,1,0,0:0:0:0:
330,81,63970,1,0,0:0:0:0:
321,104,64056,1,0,0:0:0:0:
311,127,64142,1,0,0:0:0:0:
302,150,64228,5,12,0:0:0:0:
451,72,64400,1,0,0:0:0:0:
270,228,64571,5,12,0:0:0:0:
418,149,64742,1,0,0:0:0:0:
232,73,64914,6,0,P|189:81|152:66,1,75.0000028610231,6|0,0:0|0:0,0:0:0:0:
67,0,65257,2,0,P|83:52|68:106,1,112.500004291535,2|0,0:0|0:0,0:0:0:0:
51,126,65600,5,2,0:0:0:0:
198,0,65771,1,0,0:0:0:0:
146,155,65942,2,0,P|129:207|144:261,1,112.500004291535,2|0,0:0|0:0,0:0:0:0:
250,262,66285,6,0,P|197:245|143:260,1,112.500004291535,6|0,0:0|0:0,0:0:0:0:
121,274,66628,2,0,P|67:289|14:272,1,112.500004291535,2|0,0:0|0:0,0:0:0:0:
0,250,66971,5,8,0:0:0:0:
68,194,67142,1,0,0:0:0:0:
174,337,67314,2,0,L|198:368,1,37.5000014305115,8|0,0:0|0:0,0:0:0:0:
174,384,67486,2,0,L|151:354,1,37.5000014305115
250,262,67657,6,0,P|302:278|356:263,1,112.500004291535,6|0,0:0|0:0,0:0:0:0:
375,251,68000,2,0,P|428:235|481:252,1,112.500004291535,2|0,0:0|0:0,0:0:0:0:
498,267,68342,5,8,0:0:0:0:
428,332,68514,1,0,0:0:0:0:
305,189,68685,2,0,L|304:107,1,75.0000028610231,8|0,0:0|0:0,0:0:0:0:
349,36,69028,6,0,B|292:85|292:85|210:84,1,150,6|0,0:0|0:0,0:0:0:0:
112,28,69371,1,0,0:0:0:0:
125,60,69456,1,0,0:0:0:0:
131,94,69542,1,0,0:0:0:0:
127,129,69628,1,0,0:0:0:0:
115,161,69713,5,12,0:0:0:0:
201,0,69885,1,0,0:0:0:0:
115,307,70057,5,12,0:0:0:0:
16,95,70229,1,0,0:0:0:0:
305,189,70400,6,0,P|358:173|436:195,1,127.50000243187,6|0,0:0|0:0,0:0:0:0:
474,130,70742,2,0,P|458:183|480:261,1,127.50000243187,2|0,0:0|0:0,0:0:0:0:
368,285,71085,5,8,0:0:0:0:
393,77,71257,1,0,0:0:0:0:
429,364,71428,2,0,P|375:379|298:358,1,127.50000243187,8|0,0:0|0:0,0:0:0:0:
184,362,71771,6,0,P|237:346|315:368,1,127.50000243187,6|0,0:0|0:0,0:0:0:0:
367,200,72114,2,0,L|368:294,1,85.0000016212464,2|0,0:0|0:0,0:0:0:0:
429,364,72457,1,8,0:0:0:0:
276,275,72628,1,0,0:0:0:0:
452,130,72800,2,0,L|453:224,1,85.0000016212464,8|0,0:0|0:0,0:0:0:0:
184,362,73142,6,0,P|199:308|178:231,1,127.50000243187,6|0,0:0|0:0,0:0:0:0:
240,197,73485,2,0,P|178:212|117:197,1,127.50000243187,2|0,0:0|0:0,0:0:0:0:
181,103,73828,5,8,0:0:0:0:
276,275,74000,1,0,0:0:0:0:
21,337,74171,2,0,L|113:315,1,85.0000016212464,8|0,0:0|0:0,0:0:0:0:
386,248,74514,6,0,B|347:162|347:162|365:98,1,150,6|0,0:0|0:0,0:0:0:0:
473,46,74857,1,0,0:0:0:0:
466,70,74942,1,0,0:0:0:0:
459,94,75028,1,0,0:0:0:0:
453,118,75114,1,0,0:0:0:0:
446,142,75199,5,12,0:0:0:0:
392,17,75371,1,0,0:0:0:0:
417,234,75542,5,12,0:0:0:0:
362,108,75714,1,0,0:0:0:0:
473,360,75885,6,0,P|419:344|342:366,1,127.50000243187,6|0,0:0|0:0,0:0:0:0:
228,360,76228,2,0,P|289:375|350:360,1,127.50000243187,2|0,0:0|0:0,0:0:0:0:
417,234,76571,5,8,0:0:0:0:
473,360,76742,1,0,0:0:0:0:
287,195,76914,2,0,P|277:238|289:290,1,85.0000016212464,8|0,0:0|0:0,0:0:0:0:
135,318,77257,6,0,P|150:256|135:195,1,127.50000243187,6|0,0:0|0:0,0:0:0:0:
73,150,77600,2,0,P|134:165|195:149,1,127.50000243187,2|0,0:0|0:0,0:0:0:0:
252,99,77942,5,8,0:0:0:0:
287,195,78114,1,0,0:0:0:0:
133,0,78285,2,0,P|143:43|131:95,1,85.0000016212464,8|0,0:0|0:0,0:0:0:0:
364,13,78628,6,0,P|348:74|363:135,1,127.50000243187,6|0,0:0|0:0,0:0:0:0:
362,257,78971,2,0,P|377:195|362:134,1,127.50000243187,2|0,0:0|0:0,0:0:0:0:
458,74,79314,5,8,0:0:0:0:
287,195,79485,1,0,0:0:0:0:
505,371,79657,2,0,L|437:315,1,85.0000016212464,8|0,0:0|0:0,0:0:0:0:
193,225,80000,6,0,L|320:328,1,150,6|0,0:0|0:0,0:0:0:0:
187,320,80342,2,0,P|202:272|182:207,1,100,8|0,0:0|0:0,0:0:0:0:
114,264,80685,5,10,0:0:0:0:
110,196,80800,1,8,0:0:0:0:
154,146,80914,1,8,0:0:0:0:
220,142,81028,1,10,0:0:0:0:
270,184,81142,1,8,0:0:0:0:
336,195,81257,1,8,0:0:0:0:
388,154,81371,6,0,P|391:121|382:97,2,50.0000019073487,6|0|0,0:0|0:0|0:0,0:0:0:0:
320,273,81714,2,0,P|314:297|318:321,2,50.0000019073487
465,175,82057,6,0,P|468:142|459:118,2,50.0000019073487,12|0|0,0:0|0:0|0:0,0:0:0:0:
399,263,82400,2,0,P|393:287|397:311,2,50.0000019073487
485,263,82742,6,0,P|494:299|400:327,1,150,6|0,0:0|0:0,0:0:0:0:
399,263,83428,1,8,0:0:0:0:
399,263,84114,6,0,P|402:230|393:206,1,50.0000019073487,8|0,0:0|0:0,0:0:0:0:
388,190,84457,2,0,P|385:157|394:133,1,50.0000019073487,8|0,0:0|0:0,0:0:0:0:
403,120,84800,1,8,0:0:0:0:
399,263,85142,5,2,0:0:0:0:
465,175,85314,1,2,0:0:0:0:
335,68,85485,5,4,0:0:0:0:
286,77,85599,1,0,0:0:0:0:
237,86,85713,1,0,0:0:0:0:
187,95,85828,2,0,L|132:103,2,50.0000019073487,8|0|0,0:0|0:0|0:0,0:0:0:0:
290,208,86171,5,4,0:0:0:0:
339,199,86285,1,0,0:0:0:0:
388,190,86399,1,0,0:0:0:0:
438,181,86514,2,0,L|493:173,2,50.0000019073487,8|0|0,0:0|0:0|0:0,0:0:0:0:
236,294,86857,6,0,P|224:339|133:299,1,175,6|0,0:0|0:0,0:0:0:0:
133,286,87542,2,0,P|90:224|30:282,1,175
34,293,88228,2,0,B|97:217|13:180|0:95|74:31,1,275
82,30,89257,1,2,0:0:0:0:
140,123,89428,1,2,0:0:0:0:
237,56,89600,6,0,P|234:23|243:-1,2,50.0000019073487,6|0|0,0:0|0:0|0:0,0:0:0:0:
381,113,89942,2,0,P|384:146|375:170,2,50.0000019073487,8|0|0,0:0|0:0|0:0,0:0:0:0:
321,51,90285,6,0,P|318:18|327:-6,2,50.0000019073487,6|0|0,0:0|0:0|0:0,0:0:0:0:
465,108,90628,2,0,P|468:141|459:165,2,50.0000019073487,8|0|0,0:0|0:0|0:0,0:0:0:0:
238,172,90971,6,0,P|276:213|362:184,1,150,6|0,0:0|0:0,0:0:0:0:
379,161,91657,1,8,0:0:0:0:
379,161,92342,6,0,P|376:194|385:218,1,50.0000019073487,8|0,0:0|0:0,0:0:0:0:
390,234,92685,2,0,P|393:267|384:291,1,50.0000019073487,8|0,0:0|0:0,0:0:0:0:
375,304,93028,1,8,0:0:0:0:
379,161,93371,5,2,0:0:0:0:
473,286,93542,1,2,0:0:0:0:
279,318,93714,5,6,0:0:0:0:
241,303,93828,1,0,0:0:0:0:
201,305,93942,1,0,0:0:0:0:
168,328,94057,1,8,0:0:0:0:
169,308,94171,1,0,0:0:0:0:
166,288,94285,1,0,0:0:0:0:
159,268,94400,6,0,L|142:231,2,25.0000009536744,6|0|0,0:0|0:0|0:0,0:0:0:0:
231,223,94628,1,8,0:0:0:0:
317,249,94742,6,0,L|334:212,2,25.0000009536744,6|0|0,0:0|0:0|0:0,0:0:0:0:
231,197,94970,1,8,0:0:0:0:
73,290,95085,2,0,L|26:181,1,113.333335494995,6|0,0:0|0:0,0:0:0:0:
212,73,95428,5,8,0:0:0:0:
191,113,95542,1,0,0:0:0:0:
152,137,95657,1,0,0:0:0:0:
106,136,95771,2,0,P|61:92|57:36,1,113.333335494995,2|0,0:0|0:0,0:0:0:0:
307,40,96114,5,8,0:0:0:0:
329,92,96228,1,0,0:0:0:0:
351,144,96342,1,0,0:0:0:0:
373,196,96457,6,0,L|397:138,1,56.6666677474976,6|0,0:0|0:0,0:0:0:0:
410,283,96685,2,0,L|347:291,1,56.6666677474976,0|8,0:0|0:0,0:0:0:0:
466,208,96914,2,0,L|504:257,1,56.6666677474976
373,196,97142,6,0,L|435:187,1,56.6666677474976,6|0,0:0|0:0,0:0:0:0:
316,271,97370,2,0,L|277:221,1,56.6666677474976,0|8,0:0|0:0,0:0:0:0:
410,283,97599,2,0,L|386:341,1,56.6666677474976
257,345,97828,5,6,0:0:0:0:
233,329,97942,1,0,0:0:0:0:
206,319,98056,1,0,0:0:0:0:
178,315,98170,1,8,0:0:0:0:
150,317,98285,1,0,0:0:0:0:
123,326,98399,1,0,0:0:0:0:
100,342,98514,5,2,0:0:0:0:
112,311,98628,1,0,0:0:0:0:
104,278,98742,1,0,0:0:0:0:
79,257,98856,1,8,0:0:0:0:
46,255,98971,1,0,0:0:0:0:
18,273,99085,1,0,0:0:0:0:
6,305,99200,6,0,P|12:344|33:365,1,56.6666677474976,6|0,0:0|0:0,0:0:0:0:
53,164,99428,2,0,P|16:149|-12:157,1,56.6666677474976,0|8,0:0|0:0,0:0:0:0:
175,240,99657,2,0,P|205:215|213:186,1,56.6666677474976
138,75,99885,5,6,0:0:0:0:
169,108,100000,1,0,0:0:0:0:
212,120,100114,1,0,0:0:0:0:
256,111,100228,1,8,0:0:0:0:
290,82,100342,1,0,0:0:0:0:
335,74,100457,1,0,0:0:0:0:
376,92,100571,5,6,0:0:0:0:
343,123,100686,1,0,0:0:0:0:
331,166,100800,1,0,0:0:0:0:
340,210,100914,1,8,0:0:0:0:
369,244,101028,1,0,0:0:0:0:
377,289,101143,1,0,0:0:0:0:
360,331,101257,6,0,P|331:354|304:354,1,56.6666677474976,6|0,0:0|0:0,0:0:0:0:
449,298,101485,2,0,P|483:311|496:334,1,56.6666677474976,0|8,0:0|0:0,0:0:0:0:
369,244,101714,2,0,P|363:207|377:184,1,56.6666677474976
360,331,101942,5,6,0:0:0:0:
312,355,102057,1,0,0:0:0:0:
261,345,102171,1,0,0:0:0:0:
228,305,102285,1,8,0:0:0:0:
181,282,102400,1,0,0:0:0:0:
130,290,102514,1,0,0:0:0:0:
95,327,102628,5,14,0:0:0:0:
168,357,102742,1,8,0:0:0:0:
228,305,102857,1,8,0:0:0:0:
222,226,102971,1,8,0:0:0:0:
288,183,103085,1,8,0:0:0:0:
358,220,103200,1,8,0:0:0:0:
368,298,103314,6,0,L|375:361,1,56.6666677474976,6|0,0:0|0:0,0:0:0:0:
488,259,103542,2,0,L|429:233,1,56.6666677474976,0|8,0:0|0:0,0:0:0:0:
467,384,103771,2,0,L|518:346,1,56.6666677474976
335,293,104000,6,0,L|342:356,1,56.6666677474976,6|0,0:0|0:0,0:0:0:0:
497,229,104228,2,0,L|438:203,1,56.6666677474976,0|8,0:0|0:0,0:0:0:0:
467,384,104457,2,0,L|518:346,1,56.6666677474976
485,143,104685,6,0,L|443:123,4,28.3333338737488,2|0|0|0|0,0:0|0:0|0:0|0:0|0:0,0:0:0:0:
497,229,105028,2,0,L|438:203,1,56.6666677474976,8|0,0:0|0:0,0:0:0:0:
371,175,105257,1,0,0:0:0:0:
364,118,105371,2,0,L|371:180,1,56.6666677474976,6|0,0:0|0:0,0:0:0:0:
379,253,105600,1,0,0:0:0:0:
389,331,105714,5,14,0:0:0:0:
316,298,105828,1,8,0:0:0:0:
237,307,105942,1,8,0:0:0:0:
179,362,106057,5,6,0:0:0:0:
184,317,106171,1,0,0:0:0:0:
172,273,106285,1,0,0:0:0:0:
141,239,106400,1,8,0:0:0:0:
124,196,106514,1,0,0:0:0:0:
131,151,106628,1,0,0:0:0:0:
167,123,106742,5,2,0:0:0:0:
158,167,106857,1,0,0:0:0:0:
124,196,106971,1,0,0:0:0:0:
79,190,107085,1,8,0:0:0:0:
45,158,107200,1,0,0:0:0:0:
41,112,107314,1,0,0:0:0:0:
63,72,107428,6,0,P|93:53|125:56,1,56.6666677474976,6|0,0:0|0:0,0:0:0:0:
208,156,107657,2,0,P|176:139|163:110,1,56.6666677474976,0|8,0:0|0:0,0:0:0:0:
219,0,107885,2,0,P|220:35|201:61,1,56.6666677474976
166,122,108114,6,0,P|196:103|228:106,1,56.6666677474976,6|0,0:0|0:0,0:0:0:0:
310,205,108343,2,0,P|278:188|265:159,1,56.6666677474976,0|8,0:0|0:0,0:0:0:0:
322,50,108571,2,0,P|323:85|304:111,1,56.6666677474976
269,172,108800,5,6,0:0:0:0:
310,154,108914,1,0,0:0:0:0:
355,157,109028,1,0,0:0:0:0:
395,176,109142,1,8,0:0:0:0:
440,182,109257,1,0,0:0:0:0:
478,157,109371,1,0,0:0:0:0:
485,112,109485,5,2,0:0:0:0:
446,137,109600,1,0,0:0:0:0:
440,182,109714,1,0,0:0:0:0:
461,221,109828,1,8,0:0:0:0:
470,265,109942,1,0,0:0:0:0:
451,306,110057,1,0,0:0:0:0:
409,323,110171,6,0,P|380:314|364:280,1,56.6666677474976,6|0,0:0|0:0,0:0:0:0:
318,314,110400,2,0,P|339:293|377:296,1,56.6666677474976,0|8,0:0|0:0,0:0:0:0:
370,239,110628,2,0,P|376:268|355:299,1,56.6666677474976
257,369,110857,5,6,0:0:0:0:
238,327,110971,1,0,0:0:0:0:
244,282,111085,1,0,0:0:0:0:
272,246,111200,5,2,0:0:0:0:
216,257,111314,1,0,0:0:0:0:
165,232,111428,1,0,0:0:0:0:
145,178,111542,6,0,P|145:150|158:121,2,56.6666677474976,6|0|0,0:0|0:0|0:0,0:0:0:0:
72,240,111885,2,0,P|72:268|59:297,2,56.6666677474976,8|0|0,0:0|0:0|0:0,0:0:0:0:
225,171,112228,5,14,0:0:0:0:
291,160,112342,1,8,0:0:0:0:
347,199,112457,1,8,0:0:0:0:
377,259,112571,1,8,0:0:0:0:
444,268,112685,1,8,0:0:0:0:
492,219,112800,1,8,0:0:0:0:
492,151,112914,6,0,P|479:134|456:120,4,28.3333338737488,6|0|0|0|0,0:0|0:0|0:0|0:0|0:0,0:0:0:0:
463,363,113257,2,0,P|490:356|520:330,2,56.6666677474976,8|0|0,0:0|0:0|0:0,0:0:0:0:
199,357,113600,5,14,0:0:0:0:
161,315,113714,1,8,0:0:0:0:
157,260,113828,1,8,0:0:0:0:
188,213,113942,1,12,0:0:0:0:
221,141,114056,1,8,0:0:0:0:
172,78,114170,1,8,0:0:0:0:
133,152,114285,5,4,0:0:0:0:
145,178,117028,5,2,0:0:0:0:
151,199,117371,1,2,0:0:0:0:
151,221,117714,1,2,0:0:0:0:
147,243,118057,1,2,0:0:0:0:
139,264,118400,5,6,0:0:0:0:
233,166,118571,1,8,0:0:0:0:
271,297,118742,1,12,0:0:0:0:
145,178,118914,1,8,0:0:0:0:
288,312,119085,5,6,0:0:0:0:
236,143,119257,1,8,0:0:0:0:
115,273,119428,1,12,0:0:0:0:
305,327,119600,1,8,0:0:0:0:
128,160,119771,5,6,0:0:0:0:
321,342,119942,1,8,0:0:0:0:
240,119,120114,1,12,0:0:0:0:
92,282,120285,1,0,0:0:0:0:
400,262,120457,5,10,0:0:0:0:
357,237,120542,1,8,0:0:0:0:
337,192,120628,1,8,0:0:0:0:
349,144,120714,1,8,0:0:0:0:
386,113,120799,1,8,0:0:0:0:
435,111,120885,1,8,0:0:0:0:
476,138,120971,1,8,0:0:0:0:
492,185,121057,1,8,0:0:0:0:
477,231,121142,5,6,0:0:0:0:
414,188,121228,1,0,0:0:0:0:
337,192,121314,1,0,0:0:0:0:
284,246,121400,1,0,0:0:0:0:
285,320,121485,1,8,0:0:0:0:
234,375,121571,1,0,0:0:0:0:
159,368,121657,1,0,0:0:0:0:
118,305,121742,1,0,0:0:0:0:
135,231,121828,1,0,0:0:0:0:
200,194,121914,1,0,0:0:0:0:
209,119,122000,1,0,0:0:0:0:
162,60,122085,1,0,0:0:0:0:
87,71,122171,6,0,P|55:94|43:129,1,62.5,8|0,0:0|0:0,0:0:0:0:
13,256,122342,2,0,P|41:229|53:194,1,62.5,8|0,0:0|0:0,0:0:0:0:
87,71,122514,6,0,P|99:107|126:133,1,62.5,2|0,0:0|0:0,0:0:0:0:
209,119,122685,1,0,0:0:0:0:
239,96,122771,1,0,0:0:0:0:
275,85,122857,2,0,P|305:80|335:87,1,62.5,8|0,0:0|0:0,0:0:0:0:
440,191,123028,5,2,0:0:0:0:
427,177,123113,1,0,0:0:0:0:
417,161,123199,1,0,0:0:0:0:
412,143,123285,1,0,0:0:0:0:
411,124,123370,1,0,0:0:0:0:
414,106,123456,1,0,0:0:0:0:
421,88,123542,2,0,P|444:55|466:44,3,62.5,12|0|0|0,0:0|0:0|0:0|0:0,0:0:0:0:
281,174,123885,5,6,0:0:0:0:
338,194,123970,1,0,0:0:0:0:
363,249,124056,1,0,0:0:0:0:
342,306,124142,1,0,0:0:0:0:
286,330,124228,1,8,0:0:0:0:
230,306,124313,1,0,0:0:0:0:
207,249,124400,1,0,0:0:0:0:
184,193,124485,1,0,0:0:0:0:
128,169,124571,1,0,0:0:0:0:
72,193,124657,1,0,0:0:0:0:
51,250,124742,1,0,0:0:0:0:
76,305,124828,1,0,0:0:0:0:
134,329,124914,6,0,P|141:288|127:256,1,62.5,8|0,0:0|0:0,0:0:0:0:
6,71,125085,2,0,P|38:97|72:101,1,62.5,8|0,0:0|0:0,0:0:0:0:
333,144,125257,6,0,P|293:158|273:186,1,62.5,2|0,0:0|0:0,0:0:0:0:
134,329,125428,2,0,P|173:314|193:286,1,62.5,8|0,0:0|0:0,0:0:0:0:
394,335,125600,2,0,P|364:326|341:305,1,62.5,8|0,0:0|0:0,0:0:0:0:
144,72,125771,5,2,0:0:0:0:
159,82,125856,1,0,0:0:0:0:
176,89,125942,1,0,0:0:0:0:
195,92,126028,1,0,0:0:0:0:
214,92,126113,1,0,0:0:0:0:
232,88,126199,1,0,0:0:0:0:
249,81,126285,2,0,P|272:62|290:28,3,62.5,12|0|0|0,0:0|0:0|0:0|0:0,0:0:0:0:
310,192,126628,5,6,0:0:0:0:
285,263,126714,1,0,0:0:0:0:
313,332,126800,1,0,0:0:0:0:
387,339,126885,1,0,0:0:0:0:
431,278,126971,1,8,0:0:0:0:
359,255,127057,1,0,0:0:0:0:
285,263,127142,1,0,0:0:0:0:
223,307,127228,1,0,0:0:0:0:
152,334,127314,1,0,0:0:0:0:
84,301,127400,1,0,0:0:0:0:
74,227,127485,1,0,0:0:0:0:
130,176,127571,1,0,0:0:0:0:
204,185,127657,6,0,L|182:244,1,62.5,8|0,0:0|0:0,0:0:0:0:
57,153,127828,2,0,L|35:94,1,62.5,8|0,0:0|0:0,0:0:0:0:
254,53,128000,6,0,L|232:112,1,62.5,2|0,0:0|0:0,0:0:0:0:
204,185,128171,1,0,0:0:0:0:
254,182,128257,1,0,0:0:0:0:
300,199,128342,2,0,P|330:222|346:250,1,62.5,8|0,0:0|0:0,0:0:0:0:
457,310,128514,5,2,0:0:0:0:
443,296,128599,1,0,0:0:0:0:
433,281,128685,1,0,0:0:0:0:
427,263,128771,1,0,0:0:0:0:
424,244,128856,1,0,0:0:0:0:
427,226,128942,1,0,0:0:0:0:
434,209,129028,2,0,P|462:177|491:168,3,62.5,12|0|0|0,0:0|0:0|0:0|0:0,0:0:0:0:
224,265,129371,5,6,0:0:0:0:
225,325,129456,1,0,0:0:0:0:
182,368,129542,1,0,0:0:0:0:
121,368,129628,1,0,0:0:0:0:
79,324,129713,1,8,0:0:0:0:
81,263,129799,1,0,0:0:0:0:
132,227,129885,2,0,L|153:289,1,62.5,8|0,0:0|0:0,0:0:0:0:
174,120,130057,5,6,0:0:0:0:
132,76,130143,1,0,0:0:0:0:
72,75,130228,1,0,0:0:0:0:
29,118,130314,1,0,0:0:0:0:
36,181,130400,2,0,P|77:171|97:151,1,62.5,8|0,0:0|0:0,0:0:0:0:
246,0,130571,2,0,P|234:40|241:67,1,62.5,8|0,0:0|0:0,0:0:0:0:
341,193,130742,5,6,0:0:0:0:
326,165,130827,1,0,0:0:0:0:
328,135,130913,1,0,0:0:0:0:
347,110,130999,1,0,0:0:0:0:
376,100,131084,1,8,0:0:0:0:
406,107,131170,1,0,0:0:0:0:
427,130,131256,1,0,0:0:0:0:
433,160,131342,1,0,0:0:0:0:
423,191,131428,5,6,0:0:0:0:
382,180,131513,1,0,0:0:0:0:
341,193,131599,1,0,0:0:0:0:
313,226,131685,1,0,0:0:0:0:
308,269,131770,1,8,0:0:0:0:
327,307,131856,1,0,0:0:0:0:
364,329,131942,1,0,0:0:0:0:
407,327,132028,1,0,0:0:0:0:
442,302,132114,5,6,0:0:0:0:
382,256,132200,1,0,0:0:0:0:
308,269,132285,1,0,0:0:0:0:
257,325,132371,1,0,0:0:0:0:
181,320,132457,1,8,0:0:0:0:
142,256,132542,1,0,0:0:0:0:
159,182,132628,1,0,0:0:0:0:
227,150,132714,1,0,0:0:0:0:
294,183,132800,1,0,0:0:0:0:
364,158,132885,1,0,0:0:0:0:
391,88,132971,1,0,0:0:0:0:
347,26,133057,1,0,0:0:0:0:
272,20,133142,6,0,P|278:57|299:83,1,62.5,8|0,0:0|0:0,0:0:0:0:
459,204,133314,2,0,P|453:167|432:141,1,62.5,8|0,0:0|0:0,0:0:0:0:
294,183,133485,6,0,P|277:209|273:240,1,62.5,2|0,0:0|0:0,0:0:0:0:
454,328,133657,1,0,0:0:0:0:
408,309,133742,1,0,0:0:0:0:
358,314,133828,2,0,P|330:328|312:353,1,62.5,8|0,0:0|0:0,0:0:0:0:
179,384,134000,5,2,0:0:0:0:
193,370,134085,1,0,0:0:0:0:
203,355,134171,1,0,0:0:0:0:
209,337,134257,1,0,0:0:0:0:
212,318,134342,1,0,0:0:0:0:
209,300,134428,1,0,0:0:0:0:
202,283,134514,2,0,P|174:251|145:242,3,62.5,12|0|0|0,0:0|0:0|0:0|0:0,0:0:0:0:
127,318,134857,5,6,0:0:0:0:
84,273,134942,1,0,0:0:0:0:
79,212,135028,1,0,0:0:0:0:
114,162,135114,1,0,0:0:0:0:
172,145,135199,1,8,0:0:0:0:
229,168,135285,1,0,0:0:0:0:
258,223,135371,1,0,0:0:0:0:
286,277,135456,1,0,0:0:0:0:
343,300,135542,1,0,0:0:0:0:
402,283,135628,1,0,0:0:0:0:
436,233,135713,1,0,0:0:0:0:
431,172,135799,1,0,0:0:0:0:
388,126,135885,6,0,P|359:161|352:191,1,62.5,8|0,0:0|0:0,0:0:0:0:
429,338,136057,2,0,P|412:295|390:274,1,62.5,8|0,0:0|0:0,0:0:0:0:
225,273,136228,6,0,P|270:280|299:271,1,62.5,2|0,0:0|0:0,0:0:0:0:
388,126,136400,2,0,P|342:118|313:127,1,62.5,8|0,0:0|0:0,0:0:0:0:
178,103,136571,2,0,P|194:145|216:166,1,62.5,8|0,0:0|0:0,0:0:0:0:
243,52,136742,5,2,0:0:0:0:
229,38,136827,1,0,0:0:0:0:
214,28,136913,1,0,0:0:0:0:
196,22,136999,1,0,0:0:0:0:
177,19,137084,1,0,0:0:0:0:
159,22,137170,1,0,0:0:0:0:
142,29,137256,2,0,P|110:57|101:86,3,62.5,12|0|0|0,0:0|0:0|0:0|0:0,0:0:0:0:
42,140,137600,6,0,B|63:146|71:171|71:171|81:210|70:237|70:237|105:266|113:317|113:317|104:255|113:208,1,300,6|0,0:0|0:0,0:0:0:0:
178,103,137942,5,10,0:0:0:0:
169,164,138027,1,0,0:0:0:0:
196,219,138113,1,0,0:0:0:0:
248,251,138199,1,0,0:0:0:0:
310,250,138284,1,0,0:0:0:0:
361,214,138370,1,0,0:0:0:0:
384,157,138456,1,0,0:0:0:0:
372,97,138542,1,0,0:0:0:0:
328,52,138628,6,0,P|308:83|309:117,1,62.5,8|0,0:0|0:0,0:0:0:0:
435,82,138800,2,0,P|418:49|388:33,1,62.5,8|0,0:0|0:0,0:0:0:0:
361,214,138971,6,0,P|397:215|426:197,1,62.5,2|0,0:0|0:0,0:0:0:0:
511,153,139142,1,0,0:0:0:0:
512,203,139228,1,0,0:0:0:0:
512,253,139314,2,0,L|512:320,1,62.5,8|0,0:0|0:0,0:0:0:0:
426,339,139485,5,2,0:0:0:0:
412,325,139570,1,0,0:0:0:0:
397,315,139656,1,0,0:0:0:0:
379,309,139742,1,0,0:0:0:0:
360,306,139827,1,0,0:0:0:0:
342,309,139913,1,0,0:0:0:0:
325,316,139999,2,0,P|293:344|284:373,3,62.5,12|0|0|0,0:0|0:0|0:0|0:0,0:0:0:0:
201,257,140342,5,14,0:0:0:0:
216,285,140427,1,0,0:0:0:0:
214,315,140513,1,0,0:0:0:0:
195,340,140600,1,0,0:0:0:0:
166,350,140684,1,8,0:0:0:0:
136,343,140770,1,0,0:0:0:0:
115,320,140856,1,0,0:0:0:0:
109,290,140942,1,0,0:0:0:0:
119,259,141028,5,14,0:0:0:0:
160,270,141113,1,0,0:0:0:0:
201,257,141199,1,0,0:0:0:0:
229,224,141285,1,0,0:0:0:0:
234,181,141370,1,8,0:0:0:0:
215,143,141456,1,0,0:0:0:0:
178,121,141542,1,0,0:0:0:0:
135,123,141628,1,0,0:0:0:0:
100,148,141714,1,6,0:0:0:0:
356,25,141885,5,10,0:0:0:0:
317,55,141970,1,8,0:0:0:0:
307,103,142056,1,8,0:0:0:0:
331,145,142142,1,8,0:0:0:0:
377,162,142227,1,8,0:0:0:0:
423,144,142313,1,8,0:0:0:0:
446,101,142400,1,6,0:0:0:0:
355,384,142571,5,10,0:0:0:0:
316,354,142656,1,8,0:0:0:0:
306,306,142742,1,8,0:0:0:0:
330,264,142828,1,8,0:0:0:0:
376,247,142913,1,8,0:0:0:0:
422,265,142999,1,8,0:0:0:0:
445,308,143085,6,0,P|349:302|355:384,1,200,4|0,0:0|0:0,0:0:0:0:
180,209,143600,38,0,L|195:256,1,50
233,261,143772,1,8,0:0:0:0:
60,204,143942,38,0,L|75:251,1,50
110,255,144114,1,8,0:0:0:0:
98,221,144200,1,0,0:0:0:0:
87,187,144285,1,0,0:0:0:0:
78,153,144371,1,0,0:0:0:0:
69,119,144457,38,0,P|122:89|35:49,1,200,2|0,0:0|0:0,0:0:0:0:
257,179,144971,38,0,L|267:130,1,50
237,107,145143,1,8,0:0:0:0:
387,216,145314,38,0,L|397:167,1,50
369,146,145486,1,8,0:0:0:0:
361,180,145572,1,0,0:0:0:0:
354,214,145657,1,0,0:0:0:0:
346,248,145743,1,0,0:0:0:0:
337,281,145828,6,0,P|403:296|461:185,1,200,6|0,0:0|0:0,0:0:0:0:
245,38,146342,1,0,0:0:0:0:
245,63,146428,1,0,0:0:0:0:
245,87,146513,2,0,P|263:148|247:190,1,100,12|0,0:0|0:0,0:0:0:0:
184,140,146857,1,8,0:0:0:0:
194,366,147028,37,0,0:0:0:0:
194,341,147114,1,0,0:0:0:0:
194,317,147200,2,0,P|172:252|192:214,1,100,6|0,0:0|0:0,0:0:0:0:
286,200,147457,1,0,0:0:0:0:
273,221,147542,2,0,L|242:274,1,50,8|0,0:0|0:0,0:0:0:0:
274,326,147714,2,0,L|274:277,1,50,8|0,0:0|0:0,0:0:0:0:
362,252,147885,6,0,L|387:208,2,50,6|0|0,0:0|0:0|0:0,0:0:0:0:
407,344,148228,1,12,0:0:0:0:
424,313,148313,1,0,0:0:0:0:
442,283,148399,1,0,0:0:0:0:
460,253,148485,1,0,0:0:0:0:
478,223,148571,6,0,P|461:157|479:128,1,100,6|0,0:0|0:0,0:0:0:0:
378,0,148914,2,0,P|392:57|377:95,1,100,2|0,0:0|0:0,0:0:0:0:
313,48,149257,5,2,0:0:0:0:
480,53,149428,1,8,0:0:0:0:
297,128,149600,5,2,0:0:0:0:
505,43,149771,1,8,0:0:0:0:
311,252,149942,6,0,P|259:227|174:258,1,150,2|0,0:0|0:0,0:0:0:0:
155,284,150285,1,8,0:0:0:0:
163,144,150457,1,0,0:0:0:0:
247,338,150628,5,2,0:0:0:0:
57,230,150800,1,8,0:0:0:0:
311,252,150971,5,2,0:0:0:0:
37,219,151142,1,8,0:0:0:0:
215,47,151314,6,0,P|167:57|119:45,2,100,6|0|0,0:0|0:0|0:0,0:0:0:0:
406,45,151828,6,0,L|403:9,3,33.3333333333333,0|0|0|4,0:0|0:0|0:0|0:0,0:0:0:0:
418,172,152171,1,0,0:0:0:0:
309,53,152342,2,0,P|286:104|296:152,1,100,8|0,0:0|0:0,0:0:0:0:
380,262,152685,5,6,0:0:0:0:
359,247,152770,1,0,0:0:0:0:
335,239,152856,1,0,0:0:0:0:
311,239,152942,1,0,0:0:0:0:
287,247,153028,2,0,P|293:282|323:313,2,66.6666666666667,8|0|0,0:0|0:0|0:0,0:0:0:0:
292,146,153371,5,6,0:0:0:0:
371,81,153714,6,0,B|310:90|291:147|291:147|271:134|271:134|234:174|187:174,1,225.000008583069,2|0,0:0|0:0,0:0:0:0:
136,120,154057,6,0,P|157:172|147:229,1,100,6|0,0:0|0:0,0:0:0:0:
62,181,154400,1,8,0:0:0:0:
293,145,154571,37,0,0:0:0:0:
293,170,154657,1,0,0:0:0:0:
293,194,154742,2,0,P|279:257|294:296,1,100,8|0,0:0|0:0,0:0:0:0:
458,245,155085,2,0,P|410:230|362:241,1,100,8|0,0:0|0:0,0:0:0:0:
164,347,155342,5,0,0:0:0:0:
181,363,155428,2,0,P|192:314|177:267,1,100,2|0,0:0|0:0,0:0:0:0:
62,181,155771,1,8,0:0:0:0:
293,194,155942,37,0,0:0:0:0:
293,169,156028,1,0,0:0:0:0:
293,145,156113,2,0,P|307:82|292:43,1,100,8|0,0:0|0:0,0:0:0:0:
212,94,156457,1,8,0:0:0:0:
385,203,156628,2,0,L|383:138,1,50
381,19,156800,5,6,0:0:0:0:
212,94,156971,1,0,0:0:0:0:
183,106,157057,1,0,0:0:0:0:
154,118,157142,5,10,0:0:0:0:
198,156,157227,1,8,0:0:0:0:
183,213,157313,1,8,0:0:0:0:
125,225,157400,1,8,0:0:0:0:
88,174,157485,5,6,0:0:0:0:
96,190,157570,1,0,0:0:0:0:
102,208,157656,1,0,0:0:0:0:
105,226,157742,1,0,0:0:0:0:
104,245,157827,1,0,0:0:0:0:
99,263,157913,1,0,0:0:0:0:
91,280,157999,1,0,0:0:0:0:
83,297,158085,1,0,0:0:0:0:
72,310,158171,5,6,0:0:0:0:
103,323,158256,1,0,0:0:0:0:
137,330,158342,1,0,0:0:0:0:
171,330,158428,1,0,0:0:0:0:
205,324,158513,1,0,0:0:0:0:
239,318,158599,1,0,0:0:0:0:
273,314,158685,1,0,0:0:0:0:
308,317,158771,1,0,0:0:0:0:
339,330,158857,2,0,P|370:341|401:339,1,57.5000010967255,6|0,0:0|0:0,0:0:0:0:
356,173,159028,5,8,0:0:0:0:
358,218,159113,1,0,0:0:0:0:
387,254,159200,2,0,P|418:265|449:263,1,57.5000010967255,6|0,0:0|0:0,0:0:0:0:
439,178,159371,5,8,0:0:0:0:
398,157,159456,1,0,0:0:0:0:
356,173,159542,6,0,B|286:202|213:142|203:75|203:75|263:73|305:103|305:103|265:36|193:24|133:61|133:61|128:143|218:225|218:225|182:305|115:277|88:217|156:178,1,900.000034332277,6|0,0:0|0:0,0:0:0:0:
176,263,169828,6,0,B|143:290|143:290|135:338,2,83.3333333333333,12|0|0,0:0|0:0|0:0,0:0:0:0:
217,331,170171,2,0,B|257:345|257:345|302:329,2,83.3333333333333,8|0|0,0:0|0:0|0:0,0:0:0:0:
137,196,170514,5,6,0:0:0:0:
136,169,170628,1,0,0:0:0:0:
136,142,170742,1,0,0:0:0:0:
136,115,170857,2,0,L|135:42,2,66.6666666666667,12|0|0,0:0|0:0|0:0,0:0:0:0:
137,196,171200,5,2,0:0:0:0:
114,210,171314,1,0,0:0:0:0:
90,223,171428,1,0,0:0:0:0:
67,237,171543,2,0,L|4:274,2,66.6666666666667,12|0|0,0:0|0:0|0:0,0:0:0:0:
137,196,171885,5,2,0:0:0:0:
160,208,171999,1,0,0:0:0:0:
183,223,172113,1,0,0:0:0:0:
207,236,172228,2,0,L|270:271,2,66.6666666666667,12|0|0,0:0|0:0|0:0,0:0:0:0:
222,140,172571,5,2,0:0:0:0:
256,160,172685,1,0,0:0:0:0:
295,168,172799,1,0,0:0:0:0:
334,162,172913,1,0,0:0:0:0:
369,143,173028,1,0,0:0:0:0:
395,113,173142,1,0,0:0:0:0:
407,74,173257,5,2,0:0:0:0:
417,98,173371,1,0,0:0:0:0:
427,122,173485,1,0,0:0:0:0:
437,146,173600,2,0,L|465:216,2,66.6666666666667,12|0|0,0:0|0:0|0:0,0:0:0:0:
334,162,173942,5,2,0:0:0:0:
344,186,174056,1,0,0:0:0:0:
354,210,174170,1,0,0:0:0:0:
364,234,174285,2,0,L|392:304,2,66.6666666666667,12|0|0,0:0|0:0|0:0,0:0:0:0:
258,250,174628,5,2,0:0:0:0:
268,274,174742,1,0,0:0:0:0:
278,298,174856,1,0,0:0:0:0:
288,322,174971,2,0,L|316:392,2,66.6666666666667,12|0|0,0:0|0:0|0:0,0:0:0:0:
217,150,175314,5,2,0:0:0:0:
186,174,175428,1,0,0:0:0:0:
147,175,175542,1,0,0:0:0:0:
116,150,175656,1,0,0:0:0:0:
108,112,175771,1,0,0:0:0:0:
126,77,175885,1,0,0:0:0:0:
162,61,175999,5,2,0:0:0:0:
129,52,176114,1,0,0:0:0:0:
96,43,176228,1,0,0:0:0:0:
63,34,176342,2,0,L|28:104,2,66.6666666666667,12|0|0,0:0|0:0|0:0,0:0:0:0:
217,150,176685,5,2,0:0:0:0:
250,140,176800,1,0,0:0:0:0:
283,131,176914,1,0,0:0:0:0:
316,122,177028,2,0,L|351:192,2,66.6666666666667,12|0|0,0:0|0:0|0:0,0:0:0:0:
160,239,177371,5,2,0:0:0:0:
127,229,177486,1,0,0:0:0:0:
94,220,177600,1,0,0:0:0:0:
61,211,177714,2,0,L|26:281,2,66.6666666666667,12|0|0,0:0|0:0|0:0,0:0:0:0:
224,335,178057,5,2,0:0:0:0:
251,306,178171,1,0,0:0:0:0:
287,287,178285,1,0,0:0:0:0:
326,280,178399,1,0,0:0:0:0:
365,285,178514,1,0,0:0:0:0:
401,302,178628,1,0,0:0:0:0:
431,328,178742,6,0,B|422:291|422:291|432:249,1,66.6666666666667,2|0,0:0|0:0,0:0:0:0:
278,174,178971,2,0,B|314:184|314:184|345:214,1,66.6666666666667,12|0,0:0|0:0,0:0:0:0:
488,120,179200,2,0,B|460:146|460:146|419:158,1,66.6666666666667,12|0,0:0|0:0,0:0:0:0:
356,359,179428,6,0,B|366:322|366:322|396:291,1,66.6666666666667,2|0,0:0|0:0,0:0:0:0:
300,149,179657,2,0,B|326:176|326:176|338:217,1,66.6666666666667,12|0,0:0|0:0,0:0:0:0:
509,207,179886,2,0,B|472:216|472:216|429:206,1,66.6666666666667,12|0,0:0|0:0,0:0:0:0:
276,349,180114,6,0,B|303:322|303:322|344:310,1,66.6666666666667,2|0,0:0|0:0,0:0:0:0:
332,139,180343,2,0,B|341:175|341:175|331:217,1,66.6666666666667,12|0,0:0|0:0,0:0:0:0:
484,293,180572,2,0,B|447:282|447:282|416:252,1,66.6666666666667,12|0,0:0|0:0,0:0:0:0:
179,321,180800,5,10,0:0:0:0:
233,265,180914,1,8,0:0:0:0:
232,186,181028,1,8,0:0:0:0:
175,131,181142,1,8,0:0:0:0:
97,133,181257,1,8,0:0:0:0:
44,193,181371,1,8,0:0:0:0:
56,271,181485,6,0,B|97:270|97:270|121:244,2,66.6666666666667,12|0|0,0:0|0:0|0:0,0:0:0:0:
46,278,181828,1,0,0:0:0:0:
50,92,182171,2,0,B|71:127|71:127|105:134,2,66.6666666666667,12|0|0,0:0|0:0|0:0,0:0:0:0:
38,86,182514,1,0,0:0:0:0:
214,14,182857,2,0,B|194:50|194:50|204:83,2,66.6666666666667,12|0|0,0:0|0:0|0:0,0:0:0:0:
213,0,183200,1,0,0:0:0:0:
333,160,183542,5,8,0:0:0:0:
350,98,183656,1,0,0:0:0:0:
407,66,183770,1,0,0:0:0:0:
469,84,183884,1,0,0:0:0:0:
499,141,183999,1,0,0:0:0:0:
479,203,184113,1,0,0:0:0:0:
422,232,184228,6,0,B|402:195|402:195|412:162,2,66.6666666666667,12|0|0,0:0|0:0|0:0,0:0:0:0:
419,245,184571,1,0,0:0:0:0:
348,272,184914,2,0,B|307:259|307:259|291:229,2,66.6666666666667,12|0|0,0:0|0:0|0:0,0:0:0:0:
355,283,185257,1,0,0:0:0:0:
408,342,185600,2,0,B|371:362|371:362|338:352,2,66.6666666666667,12|0|0,0:0|0:0|0:0,0:0:0:0:
420,344,185943,1,0,0:0:0:0:
321,149,186285,5,10,0:0:0:0:
338,77,186399,1,8,0:0:0:0:
404,42,186514,1,8,0:0:0:0:
476,61,186627,1,8,0:0:0:0:
510,126,186742,1,8,0:0:0:0:
486,198,186856,1,8,0:0:0:0:
422,232,186971,6,0,B|402:195|402:195|412:162,2,66.6666666666667,12|0|0,0:0|0:0|0:0,0:0:0:0:
419,245,187314,1,0,0:0:0:0:
274,190,187657,2,0,B|296:154|296:154|329:146,2,66.6666666666667,12|0|0,0:0|0:0|0:0,0:0:0:0:
261,193,188000,1,0,0:0:0:0:
279,57,188342,2,0,B|321:58|321:58|344:83,2,66.6666666666667,12|0|0,0:0|0:0|0:0,0:0:0:0:
270,47,188685,1,0,0:0:0:0:
30,126,189028,5,8,0:0:0:0:
47,188,189142,1,0,0:0:0:0:
104,220,189256,1,0,0:0:0:0:
166,202,189370,1,0,0:0:0:0:
196,145,189485,1,0,0:0:0:0:
176,83,189599,1,0,0:0:0:0:
119,54,189714,6,0,B|99:90|99:90|109:123,2,66.6666666666667,12|0|0,0:0|0:0|0:0,0:0:0:0:
114,41,190057,1,0,0:0:0:0:
259,47,190400,2,0,B|279:83|279:83|269:116,2,66.6666666666667,12|0|0,0:0|0:0|0:0,0:0:0:0:
264,34,190742,1,0,0:0:0:0:
30,126,191085,5,10,0:0:0:0:
49,196,191199,1,8,0:0:0:0:
113,232,191313,1,8,0:0:0:0:
183,212,191428,2,8,P|211:172|216:133,2,66.6666666666667,14|8|8,0:0|0:0|0:0,0:0:0:0:
59,366,191771,5,10,0:0:0:0:
95,303,191885,1,8,0:0:0:0:
166,285,191999,1,8,0:0:0:0:
229,322,192114,2,8,P|246:367|241:406,2,66.6666666666667,14|8|8,0:0|0:0|0:0,0:0:0:0:
281,117,192457,6,0,B|302:81|302:81|336:74,2,66.6666666666667,12|0|0,0:0|0:0|0:0,0:0:0:0:
268,120,192800,1,0,0:0:0:0:
379,206,193142,2,0,B|419:195|419:195|448:214,2,66.6666666666667,12|0|0,0:0|0:0|0:0,0:0:0:0:
367,198,193485,1,0,0:0:0:0:
387,325,193828,2,0,B|422:345|422:345|430:379,2,66.6666666666667,12|0|0,0:0|0:0|0:0,0:0:0:0:
384,310,194171,1,0,0:0:0:0:
202,143,194514,5,8,0:0:0:0:
152,183,194628,1,0,0:0:0:0:
147,249,194742,1,0,0:0:0:0:
190,297,194856,1,0,0:0:0:0:
254,301,194971,1,0,0:0:0:0:
302,256,195085,1,0,0:0:0:0:
304,193,195200,6,0,B|263:190|263:190|236:214,2,66.6666666666667,12|0|0,0:0|0:0|0:0,0:0:0:0:
317,194,195542,1,0,0:0:0:0:
345,117,195885,2,0,B|310:93|310:93|275:101,2,66.6666666666667,12|0|0,0:0|0:0|0:0,0:0:0:0:
355,124,196227,1,0,0:0:0:0:
420,76,196571,2,0,B|402:38|402:38|367:27,2,66.6666666666667,12|0|0,0:0|0:0|0:0,0:0:0:0:
425,87,196913,1,0,0:0:0:0:
287,265,197257,5,10,0:0:0:0:
304,193,197371,1,8,0:0:0:0:
370,158,197486,1,8,0:0:0:0:
442,177,197599,1,8,0:0:0:0:
476,242,197714,1,8,0:0:0:0:
452,314,197828,1,8,0:0:0:0:
388,348,197943,6,0,B|365:306|365:306|377:267,2,66.6666666666667,12|0|0,0:0|0:0|0:0,0:0:0:0:
385,361,198285,1,0,0:0:0:0:
243,310,198628,2,0,B|267:269|267:269|307:259,2,66.6666666666667,12|0|0,0:0|0:0|0:0,0:0:0:0:
230,313,198970,1,0,0:0:0:0:
152,169,199314,2,0,B|199:170|199:170|227:199,2,66.6666666666667,12|0|0,0:0|0:0|0:0,0:0:0:0:
142,159,199656,1,0,0:0:0:0:
390,37,200000,5,8,0:0:0:0:
340,77,200114,1,0,0:0:0:0:
335,143,200228,1,0,0:0:0:0:
378,191,200342,1,0,0:0:0:0:
442,195,200457,1,0,0:0:0:0:
490,150,200571,1,0,0:0:0:0:
492,87,200686,6,0,B|451:84|451:84|424:108,2,66.6666666666667,12|0|0,0:0|0:0|0:0,0:0:0:0:
503,79,201028,1,0,0:0:0:0:
357,17,201371,2,0,B|333:51|333:51|341:86,2,66.6666666666667,12|0|0,0:0|0:0|0:0,0:0:0:0:
355,4,201714,1,0,0:0:0:0:
238,49,202057,5,10,0:0:0:0:
246,88,202171,1,8,0:0:0:0:
255,127,202285,1,8,0:0:0:0:
263,166,202400,2,8,L|279:241,2,66.6666666666667,14|8|8,0:0|0:0|0:0,0:0:0:0:
142,33,202742,5,10,0:0:0:0:
151,73,202856,1,8,0:0:0:0:
160,112,202970,1,8,0:0:0:0:
169,151,203085,2,8,L|185:227,2,66.6666666666667,14|8|8,0:0|0:0|0:0,0:0:0:0:
54,93,203428,5,6,0:0:0:0:
68,158,203542,1,0,0:0:0:0:
82,223,203656,1,0,0:0:0:0:
96,288,203770,1,8,0:0:0:0:
108,293,203885,1,8,0:0:0:0:
120,298,204000,1,8,0:0:0:0:
132,303,204114,5,6,0:0:0:0:
117,237,204228,1,0,0:0:0:0:
103,172,204342,1,0,0:0:0:0:
88,107,204456,1,8,0:0:0:0:
99,103,204571,1,8,0:0:0:0:
111,98,204686,1,8,0:0:0:0:
123,93,204800,5,6,0:0:0:0:
137,158,204914,1,0,0:0:0:0:
151,223,205028,1,0,0:0:0:0:
165,288,205142,1,8,0:0:0:0:
177,293,205257,1,8,0:0:0:0:
189,298,205372,1,8,0:0:0:0:
201,303,205485,5,2,0:0:0:0:
204,225,205599,1,0,0:0:0:0:
262,172,205713,1,0,0:0:0:0:
340,174,205827,1,0,0:0:0:0:
393,231,205942,1,0,0:0:0:0:
391,309,206056,1,0,0:0:0:0:
335,363,206171,5,6,0:0:0:0:
312,301,206285,1,0,0:0:0:0:
287,238,206400,1,0,0:0:0:0:
262,172,206514,1,8,0:0:0:0:
264,158,206628,1,8,0:0:0:0:
266,145,206742,1,8,0:0:0:0:
268,131,206857,5,6,0:0:0:0:
291,193,206971,1,0,0:0:0:0:
316,256,207086,1,0,0:0:0:0:
342,317,207200,1,8,0:0:0:0:
344,303,207314,1,8,0:0:0:0:
346,290,207428,1,8,0:0:0:0:
348,276,207542,5,6,0:0:0:0:
324,213,207656,1,0,0:0:0:0:
299,150,207771,1,0,0:0:0:0:
274,84,207885,1,8,0:0:0:0:
276,70,207999,1,8,0:0:0:0:
278,57,208113,1,8,0:0:0:0:
280,43,208228,6,0,L|308:114,2,66.6666666666667,2|0|0,0:0|0:0|0:0,0:0:0:0:
488,86,208571,2,0,L|516:157,2,66.6666666666667,2|0|0,0:0|0:0|0:0,0:0:0:0:
165,20,208914,5,6,0:0:0:0:
188,82,209028,1,0,0:0:0:0:
213,145,209143,1,0,0:0:0:0:
238,211,209257,1,8,0:0:0:0:
236,225,209371,1,8,0:0:0:0:
234,238,209485,1,8,0:0:0:0:
232,252,209600,5,6,0:0:0:0:
209,190,209714,1,0,0:0:0:0:
184,127,209829,1,0,0:0:0:0:
158,66,209943,1,8,0:0:0:0:
156,80,210057,1,8,0:0:0:0:
154,93,210171,1,8,0:0:0:0:
152,107,210285,5,6,0:0:0:0:
176,170,210399,1,0,0:0:0:0:
201,233,210514,1,0,0:0:0:0:
226,299,210628,1,8,0:0:0:0:
223,318,210742,1,8,0:0:0:0:
220,337,210856,1,8,0:0:0:0:
217,354,210971,5,2,0:0:0:0:
152,312,211085,1,0,0:0:0:0:
135,235,211199,1,0,0:0:0:0:
176,170,211313,1,0,0:0:0:0:
253,151,211428,1,0,0:0:0:0:
318,192,211542,1,0,0:0:0:0:
338,267,211657,5,6,0:0:0:0:
352,201,211771,1,0,0:0:0:0:
366,136,211885,1,0,0:0:0:0:
380,71,211999,1,8,0:0:0:0:
392,67,212114,1,8,0:0:0:0:
404,62,212229,1,8,0:0:0:0:
416,57,212343,5,6,0:0:0:0:
401,123,212457,1,0,0:0:0:0:
387,188,212571,1,0,0:0:0:0:
372,253,212685,1,8,0:0:0:0:
383,257,212800,1,8,0:0:0:0:
395,262,212915,1,8,0:0:0:0:
407,267,213028,5,10,0:0:0:0:
361,332,213142,1,8,0:0:0:0:
281,322,213257,1,8,0:0:0:0:
239,253,213371,2,8,B|239:215|239:215|256:186,2,66.6666666666667,12|8|8,0:0|0:0|0:0,0:0:0:0:
71,267,213714,5,10,0:0:0:0:
117,332,213827,1,8,0:0:0:0:
197,322,213942,1,8,0:0:0:0:
239,253,214056,2,8,B|239:215|239:215|222:186,2,66.6666666666667,12|8|8,0:0|0:0|0:0,0:0:0:0:
407,267,214400,5,6,0:0:0:0:
347,242,214514,1,0,0:0:0:0:
325,181,214628,1,0,0:0:0:0:
357,125,214742,1,0,0:0:0:0:
420,111,214857,1,0,0:0:0:0:
472,150,214971,1,0,0:0:0:0:
478,214,215085,6,0,B|439:209|439:209|411:190,2,66.6666666666667,12|0|0,0:0|0:0|0:0,0:0:0:0:
469,68,215428,2,0,B|444:99|444:99|414:113,2,66.6666666666667,8|0|0,0:0|0:0|0:0,0:0:0:0:
177,88,215771,5,6,0:0:0:0:
117,113,215885,1,0,0:0:0:0:
95,174,215999,1,0,0:0:0:0:
127,230,216113,1,0,0:0:0:0:
190,244,216228,1,0,0:0:0:0:
242,205,216342,1,0,0:0:0:0:
257,145,216457,5,6,0:0:0:0:
201,180,216571,1,0,0:0:0:0:
190,244,216685,1,0,0:0:0:0:
232,293,216799,1,0,0:0:0:0:
296,296,216914,1,0,0:0:0:0:
342,249,217028,1,0,0:0:0:0:
334,182,217142,5,6,0:0:0:0:
340,193,217257,2,0,L|381:265,1,66.6666666666667,8|0,0:0|0:0,0:0:0:0:
480,259,217485,2,0,L|447:201,1,66.6666666666667,8|0,0:0|0:0,0:0:0:0:
394,110,217714,5,2,0:0:0:0:
388,99,217828,2,0,L|347:27,2,66.6666666666667,12|0|0,0:0|0:0|0:0,0:0:0:0:
493,107,218171,2,0,L|452:35,2,66.6666666666667,8|0|0,0:0|0:0|0:0,0:0:0:0:
292,343,218514,5,6,0:0:0:0:
259,284,218628,1,0,0:0:0:0:
225,225,218743,1,0,0:0:0:0:
191,163,218857,1,8,0:0:0:0:
192,149,218971,1,8,0:0:0:0:
192,136,219085,1,8,0:0:0:0:
192,122,219200,6,0,L|229:188,2,66.6666666666667,6|0|0,0:0|0:0|0:0,0:0:0:0:
301,123,219543,2,0,L|338:189,2,66.6666666666667,2|0|0,0:0|0:0|0:0,0:0:0:0:
85,384,219885,5,6,0:0:0:0:
25,359,219999,1,0,0:0:0:0:
3,298,220113,1,0,0:0:0:0:
35,242,220227,1,0,0:0:0:0:
98,228,220342,1,0,0:0:0:0:
150,267,220456,1,0,0:0:0:0:
156,331,220571,6,0,B|116:325|116:325|88:306,2,66.6666666666667,12|0|0,0:0|0:0|0:0,0:0:0:0:
292,343,220914,2,0,B|331:348|331:348|359:367,2,66.6666666666667,8|0|0,0:0|0:0|0:0,0:0:0:0:
224,46,221257,5,6,0:0:0:0:
164,71,221371,1,0,0:0:0:0:
142,132,221485,1,0,0:0:0:0:
174,188,221599,1,0,0:0:0:0:
237,202,221714,1,0,0:0:0:0:
289,163,221828,1,0,0:0:0:0:
304,103,221943,5,6,0:0:0:0:
248,138,222057,1,0,0:0:0:0:
237,202,222171,1,0,0:0:0:0:
279,251,222285,1,0,0:0:0:0:
343,254,222400,1,0,0:0:0:0:
389,207,222514,1,0,0:0:0:0:
381,140,222628,5,6,0:0:0:0:
392,146,222742,2,0,B|424:161|424:161|473:154,1,66.6666666666667,8|0,0:0|0:0,0:0:0:0:
472,30,222971,2,0,B|442:50|442:50|424:96,1,66.6666666666667,8|0,0:0|0:0,0:0:0:0:
512,266,223200,5,2,0:0:0:0:
501,260,223314,2,0,B|468:244|468:244|420:252,2,66.6666666666667,12|0|0,0:0|0:0|0:0,0:0:0:0:
492,348,223657,2,0,B|459:332|459:332|411:340,2,66.6666666666667,8|0|0,0:0|0:0|0:0,0:0:0:0:
347,286,224000,6,0,L|341:246,5,33.3333333333333,2|0|0|0|0|0,0:0|0:0|0:0|0:0|0:0|0:0,0:0:0:0:
319,306,224342,2,0,B|307:229|307:229|263:168,1,133.333333333333,8|0,0:0|0:0,0:0:0:0:
139,175,224685,2,0,L|221:289,1,133.333333333333,6|0,0:0|0:0,0:0:0:0:
374,168,225028,5,8,0:0:0:0:
350,135,225142,1,8,0:0:0:0:
327,103,225256,1,8,0:0:0:0:
303,70,225371,6,0,B|262:109|207:71|207:71|248:16|351:57|351:57|386:21|429:43|429:43|418:88|418:88|458:114|458:114|448:157|448:157|481:180|481:180|413:206|413:278|454:304|454:304|391:279|335:313|335:313|368:227|263:162|166:252|237:331|237:331|173:312|123:348|123:348|147:316|139:282|139:282|161:252|154:216|154:216|191:199|190:166|190:166|160:145|131:186,1,1475,6|0,0:0|0:0,0:0:0:0:
39,217,230514,6,0,P|79:234|97:224,1,50,0|0,0:0|0:0,0:0:0:0:
78,105,230857,2,0,P|43:131|42:151,1,50,2|0,0:0|0:0,0:0:0:0:
139,174,231200,1,0,0:0:0:0:
177,37,231371,6,0,P|172:71|250:110,1,125
263,106,231885,2,0,P|319:124|336:150,1,75,0|0,0:0|0:0,0:0:0:0:
336,158,232228,2,0,B|367:210|428:232|460:212|460:212|445:162|400:172|400:172|366:234|300:236|271:176|271:176|241:236|274:273|274:273|326:303|382:279|382:279|354:317|376:359|376:359|267:308|168:364|168:364|188:318|160:278|160:278|182:234,1,1050
131,160,236000,6,0,L|108:204,1,50
21,209,236342,2,0,L|43:164,1,50,2|0,0:0|0:0,0:0:0:0:
96,62,236685,1,0,0:0:0:0:
278,29,236857,6,0,P|232:48|222:119,1,125
235,136,237371,2,0,P|230:195|208:215,1,75
204,222,237714,6,0,B|171:263|185:327|185:327|229:314|244:290|244:290|300:340|365:311|365:311|352:263|313:266|313:266,1,375,2|0,0:0|0:0,0:0:0:0:
448,222,239085,2,0,B|481:263|467:327|467:327|423:314|408:290|408:290|352:340|286:311|286:311|300:263|339:266|339:266,1,375,2|0,0:0|0:0,0:0:0:0:
322,183,240457,6,0,P|352:130|320:42,1,150.000005722046,2|0,0:0|0:0,0:0:0:0:
397,37,240971,2,0,P|354:54|313:39,1,75.0000028610231,8|0,0:0|0:0,0:0:0:0:
188,124,241314,2,0,P|231:107|272:122,1,75.0000028610231,8|0,0:0|0:0,0:0:0:0:
448,222,241828,5,2,0:0:0:0:
453,236,242171,5,0,0:0:0:0:
372,324,242342,2,0,L|356:281,1,37.5000014305115
322,183,242514,5,8,0:0:0:0:
453,236,242685,1,0,0:0:0:0:
317,169,242857,5,8,0:0:0:0:
448,222,243028,1,0,0:0:0:0:
255,358,243200,5,2,0:0:0:0:
359,39,243542,1,0,0:0:0:0:
255,358,243885,6,0,L|281:280,1,75.0000028610231,8|0,0:0|0:0,0:0:0:0:
230,337,244228,2,0,L|256:259,1,75.0000028610231,8|0,0:0|0:0,0:0:0:0:
311,96,244571,6,0,P|260:109|227:99,1,75.0000028610231,2|0,0:0|0:0,0:0:0:0:
77,89,244828,1,0,0:0:0:0:
90,69,244914,2,0,P|141:56|174:66,1,75.0000028610231,8|0,0:0|0:0,0:0:0:0:
239,104,245171,5,0,0:0:0:0:
226,124,245257,1,8,0:0:0:0:
296,11,245428,1,0,0:0:0:0:
331,205,245600,2,0,P|388:188|447:207,1,112.500004291535
466,225,245942,6,0,P|443:180|476:77,1,150.000005722046,2|0,0:0|0:0,0:0:0:0:
323,134,246457,2,0,P|336:190|324:214,1,75.0000028610231,8|0,0:0|0:0,0:0:0:0:
396,349,246800,2,0,P|383:293|395:269,1,75.0000028610231,8|0,0:0|0:0,0:0:0:0:
76,234,247314,5,2,0:0:0:0:
71,248,247657,5,0,0:0:0:0:
152,336,247828,2,0,L|168:293,1,37.5000014305115
202,195,248000,5,8,0:0:0:0:
71,248,248171,1,0,0:0:0:0:
207,181,248343,5,8,0:0:0:0:
76,234,248514,1,0,0:0:0:0:
269,370,248686,5,2,0:0:0:0:
165,51,249028,1,0,0:0:0:0:
269,370,249371,6,0,L|243:292,1,75.0000028610231,8|0,0:0|0:0,0:0:0:0:
294,349,249714,2,0,L|268:271,1,75.0000028610231,8|0,0:0|0:0,0:0:0:0:
213,108,250057,6,0,P|264:121|297:111,1,75.0000028610231,2|0,0:0|0:0,0:0:0:0:
447,101,250314,1,0,0:0:0:0:
434,81,250400,2,0,P|383:68|350:78,1,75.0000028610231,8|0,0:0|0:0,0:0:0:0:
285,116,250657,5,0,0:0:0:0:
298,136,250743,1,8,0:0:0:0:
228,23,250914,1,0,0:0:0:0:
184,267,251086,2,0,L|201:174,1,75.0000028610231
115,70,251428,5,2,0:0:0:0:
101,143,251771,6,0,L|118:50,1,75.0000028610231,8|0,0:0|0:0,0:0:0:0:
87,216,252114,2,0,L|104:123,1,75.0000028610231,8|0,0:0|0:0,0:0:0:0:
184,267,252457,1,2,0:0:0:0:
6,171,252628,2,0,L|0:207,1,37.5000014305115
88,317,252800,5,8,0:0:0:0:
283,214,252971,1,0,0:0:0:0:
118,334,253142,5,8,0:0:0:0:
313,231,253313,1,0,0:0:0:0:
184,267,253485,6,0,L|260:307,1,75.0000028610231,2|0,0:0|0:0,0:0:0:0:
278,316,253828,2,0,L|354:356,1,75.0000028610231,2|0,0:0|0:0,0:0:0:0:
451,288,254171,6,0,P|424:241|455:144,2,150.000005722046,2|0|0,0:0|0:0|0:0,0:0:0:0:
313,231,255028,1,0,0:0:0:0:
316,158,255200,2,0,P|322:194|312:230,1,75.0000028610231,8|0,0:0|0:0,0:0:0:0:
251,191,255542,2,0,P|279:167|315:157,1,75.0000028610231,8|0,0:0|0:0,0:0:0:0:
204,273,255885,5,2,0:0:0:0:
259,348,256057,2,0,P|286:318|246:188,1,187.500007152558,8|0,0:0|0:0,0:0:0:0:
232,177,256571,2,0,P|203:137|210:68,1,112.500004291535
220,58,256914,5,2,0:0:0:0:
290,83,257257,6,0,L|200:51,1,75.0000028610231,8|0,0:0|0:0,0:0:0:0:
360,107,257600,2,0,L|270:75,1,75.0000028610231,8|0,0:0|0:0,0:0:0:0:
355,216,257943,1,2,0:0:0:0:
361,14,258114,2,0,L|396:26,1,37.5000014305115
447,158,258286,5,8,0:0:0:0:
267,278,258457,1,0,0:0:0:0:
470,167,258628,5,8,0:0:0:0:
290,287,258800,2,0,L|331:259,1,37.5000014305115
456,279,258971,2,0,L|378:337,1,75.0000028610231,2|0,0:0|0:0,0:0:0:0:
124,292,259314,2,0,L|184:247,1,75.0000028610231,2|0,0:0|0:0,0:0:0:0:
327,160,259657,6,0,P|271:182|250:110,2,150.000005722046,2|0|0,0:0|0:0|0:0,0:0:0:0:
333,87,260685,6,0,P|321:127|327:162,1,75.0000028610231
467,101,261028,2,0,P|437:123|400:131,1,75.0000028610231,2|0,0:0|0:0,0:0:0:0:
408,26,261371,1,8,0:0:0:0:
471,314,261542,6,0,L|458:272,1,37.5000014305115
489,203,261714,2,0,P|431:203|383:249,1,112.500004291535,2|0,0:0|0:0,0:0:0:0:
379,255,262057,2,0,P|335:288|280:287,1,112.500004291535,2|0,0:0|0:0,0:0:0:0:
260,276,262400,5,2,0:0:0:0:
246,202,262743,6,0,L|263:295,1,75.0000028610231,8|0,0:0|0:0,0:0:0:0:
231,129,263086,2,0,L|248:221,1,75.0000028610231,8|0,0:0|0:0,0:0:0:0:
328,79,263429,1,2,0:0:0:0:
150,175,263600,2,0,L|143:138,1,37.5000014305115
232,28,263772,5,8,0:0:0:0:
422,132,263942,1,0,0:0:0:0:
262,16,264114,5,8,0:0:0:0:
452,120,264285,2,0,P|438:177|453:206,2,75.0000028610231,2|0|0,0:0|0:0|0:0,0:0:0:0:
442,190,264800,2,0,P|457:223|451:260,1,75.0000028610231,8|0,0:0|0:0,0:0:0:0:
317,352,265142,6,0,P|308:315|379:342,2,150.000005722046,2|0|0,0:0|0:0|0:0,0:0:0:0:
227,228,266171,6,0,P|235:267|221:303,1,75.0000028610231
220,370,266514,2,0,P|211:330|226:295,1,75.0000028610231,2|0,0:0|0:0,0:0:0:0:
232,153,266857,1,8,0:0:0:0:
139,255,267028,5,2,0:0:0:0:
69,253,267200,2,0,P|108:244|144:259,1,75.0000028610231,8|0,0:0|0:0,0:0:0:0:
370,342,267542,2,0,P|330:350|295:336,1,75.0000028610231,8|0,0:0|0:0,0:0:0:0:
227,228,267885,5,2,0:0:0:0:
295,197,268228,6,0,L|208:235,1,75.0000028610231,8|0,0:0|0:0,0:0:0:0:
362,163,268571,2,0,L|275:201,1,75.0000028610231,8|0,0:0|0:0,0:0:0:0:
432,130,268914,1,2,0:0:0:0:
277,113,269085,2,0,L|270:76,1,37.5000014305115
362,37,269257,5,8,0:0:0:0:
500,222,269427,1,0,0:0:0:0:
361,65,269600,5,8,0:0:0:0:
499,250,269770,1,0,0:0:0:0:
293,193,269942,6,0,L|158:256,1,127.50000243187,6|0,0:0|0:0,0:0:0:0:
160,353,270285,2,0,L|305:287,1,150,6|0,0:0|0:0,0:0:0:0:
99,129,270628,1,6,0:0:0:0:
34,255,270800,6,0,L|33:199,1,50
206,13,270971,1,2,0:0:0:0:
177,31,271056,1,0,0:0:0:0:
174,65,271142,1,0,0:0:0:0:
198,88,271228,1,0,0:0:0:0:
232,83,271314,5,2,0:0:0:0:
258,61,271399,1,0,0:0:0:0:
292,55,271485,1,0,0:0:0:0:
324,68,271571,1,0,0:0:0:0:
345,95,271656,1,0,0:0:0:0:
348,130,271742,1,0,0:0:0:0:
333,161,271828,1,0,0:0:0:0:
305,180,271913,1,0,0:0:0:0:
270,181,271999,5,12,0:0:0:0:
368,253,272171,1,8,0:0:0:0:
480,109,272342,5,2,0:0:0:0:
480,158,272427,1,0,0:0:0:0:
480,208,272513,1,0,0:0:0:0:
481,258,272599,1,0,0:0:0:0:
481,308,272684,1,12,0:0:0:0:
368,253,272857,5,2,0:0:0:0:
329,257,272942,1,0,0:0:0:0:
302,285,273028,1,0,0:0:0:0:
301,324,273114,1,0,0:0:0:0:
326,355,273199,1,0,0:0:0:0:
364,361,273285,1,0,0:0:0:0:
398,340,273371,1,12,0:0:0:0:
270,181,273714,6,0,L|291:104,2,66.6666666666667,2|0|0,0:0|0:0|0:0,0:0:0:0:
202,225,274057,2,0,L|181:147,2,66.6666666666667,8|0|0,0:0|0:0|0:0,0:0:0:0:
167,296,274400,2,0,L|110:239,2,66.6666666666667,8|0|0,0:0|0:0|0:0,0:0:0:0:
222,351,274742,5,6,0:0:0:0:
92,384,274914,1,0,0:0:0:0:
117,162,275085,5,2,0:0:0:0:
66,185,275170,1,0,0:0:0:0:
16,164,275256,1,0,0:0:0:0:
0,112,275342,1,0,0:0:0:0:
25,65,275428,1,12,0:0:0:0:
215,71,275771,5,2,0:0:0:0:
167,45,275856,1,0,0:0:0:0:
115,61,275942,1,0,0:0:0:0:
95,110,276028,1,0,0:0:0:0:
117,162,276113,1,12,0:0:0:0:
313,64,276457,6,0,L|309:106,1,33.3333333333333
323,114,276571,2,0,L|319:34,1,66.6666666666667,2|0,0:0|0:0,0:0:0:0:
487,84,276800,2,0,L|490:150,2,66.6666666666667,8|0|0,0:0|0:0|0:0,0:0:0:0:
400,66,277142,2,0,L|396:0,2,66.6666666666667,8|0|0,0:0|0:0|0:0,0:0:0:0:
403,153,277485,5,6,0:0:0:0:
476,3,277657,1,0,0:0:0:0:
504,286,277828,5,2,0:0:0:0:
476,264,277913,1,0,0:0:0:0:
443,254,277999,1,0,0:0:0:0:
408,258,278085,1,0,0:0:0:0:
377,274,278170,1,12,0:0:0:0:
440,384,278342,6,0,L|439:330,1,50
250,262,278514,1,2,0:0:0:0:
278,284,278599,1,0,0:0:0:0:
311,294,278685,1,0,0:0:0:0:
346,290,278771,1,0,0:0:0:0:
377,274,278856,1,12,0:0:0:0:
377,274,280228,5,6,0:0:0:0:
229,384,280400,1,8,0:0:0:0:
448,327,280571,5,12,0:0:0:0:
182,310,280743,1,8,0:0:0:0:
454,245,280914,5,6,0:0:0:0:
346,384,281085,2,8,L|379:342,1,50
378,194,281257,5,8,0:0:0:0:
322,210,281342,1,8,0:0:0:0:
274,177,281428,1,8,0:0:0:0:
271,119,281514,1,8,0:0:0:0:
318,81,281600,5,6,0:0:0:0:
352,144,281685,1,0,0:0:0:0:
322,210,281771,1,0,0:0:0:0:
252,226,281857,1,0,0:0:0:0:
197,179,281942,1,8,0:0:0:0:
134,145,282027,1,0,0:0:0:0:
68,175,282113,1,0,0:0:0:0:
52,245,282199,1,0,0:0:0:0:
99,300,282286,1,0,0:0:0:0:
169,301,282371,1,0,0:0:0:0:
215,245,282457,1,0,0:0:0:0:
197,179,282543,1,0,0:0:0:0:
134,145,282628,6,0,P|171:135|199:111,1,62.5,8|0,0:0|0:0,0:0:0:0:
290,21,282799,2,0,P|252:30|224:54,1,62.5,8|0,0:0|0:0,0:0:0:0:
316,163,282971,6,0,P|306:125|282:97,1,62.5,2|0,0:0|0:0,0:0:0:0:
104,4,283142,2,0,P|113:41|137:69,1,62.5,8|0,0:0|0:0,0:0:0:0:
434,38,283314,2,0,P|396:47|368:71,1,62.5,8|0,0:0|0:0,0:0:0:0:
425,272,283485,5,2,0:0:0:0:
412,258,283570,1,0,0:0:0:0:
402,242,283656,1,0,0:0:0:0:
397,224,283742,1,0,0:0:0:0:
396,205,283827,1,0,0:0:0:0:
399,187,283913,1,0,0:0:0:0:
406,169,283999,2,0,P|429:136|451:125,3,62.5,12|0|0|0,0:0|0:0|0:0|0:0,0:0:0:0:
347,357,284342,5,6,0:0:0:0:
333,285,284427,1,0,0:0:0:0:
270,248,284513,1,0,0:0:0:0:
202,271,284599,1,0,0:0:0:0:
147,323,284685,1,8,0:0:0:0:
75,310,284770,1,0,0:0:0:0:
38,247,284856,1,0,0:0:0:0:
62,178,284942,1,0,0:0:0:0:
132,152,285028,1,0,0:0:0:0:
196,187,285113,1,0,0:0:0:0:
265,163,285199,1,0,0:0:0:0:
291,95,285285,1,0,0:0:0:0:
248,33,285371,6,0,P|218:65|215:99,1,62.5,8|0,0:0|0:0,0:0:0:0:
364,79,285542,2,0,P|353:49|329:29,1,62.5,8|0,0:0|0:0,0:0:0:0:
265,163,285714,6,0,P|307:172|338:158,1,62.5,2|0,0:0|0:0,0:0:0:0:
453,70,285885,1,0,0:0:0:0:
448,107,285971,1,0,0:0:0:0:
456,144,286057,2,0,P|466:172|487:194,1,62.5,8|0,0:0|0:0,0:0:0:0:
439,290,286228,5,2,0:0:0:0:
425,277,286313,1,0,0:0:0:0:
409,267,286399,1,0,0:0:0:0:
391,262,286485,1,0,0:0:0:0:
372,261,286570,1,0,0:0:0:0:
354,264,286656,1,0,0:0:0:0:
336,271,286742,2,0,P|303:294|292:316,3,62.5,12|0|0|0,0:0|0:0|0:0|0:0,0:0:0:0:
212,380,287085,5,6,0:0:0:0:
208,348,287170,1,0,0:0:0:0:
204,317,287256,1,0,0:0:0:0:
201,286,287342,1,0,0:0:0:0:
197,255,287428,2,0,L|246:188,1,62.5,8|0,0:0|0:0,0:0:0:0:
372,219,287600,2,0,L|323:286,1,62.5,8|0,0:0|0:0,0:0:0:0:
110,314,287771,5,6,0:0:0:0:
106,283,287856,1,0,0:0:0:0:
103,252,287942,1,0,0:0:0:0:
99,221,288028,1,0,0:0:0:0:
96,190,288114,2,0,L|144:122,1,62.5,8|0,0:0|0:0,0:0:0:0:
270,153,288286,2,0,L|221:220,1,62.5,8|0,0:0|0:0,0:0:0:0:
151,34,288457,5,6,0:0:0:0:
168,51,288542,1,0,0:0:0:0:
189,65,288628,1,0,0:0:0:0:
213,73,288714,1,0,0:0:0:0:
237,76,288799,1,8,0:0:0:0:
262,74,288885,1,0,0:0:0:0:
286,66,288971,1,0,0:0:0:0:
307,53,289056,1,0,0:0:0:0:
327,38,289142,5,14,0:0:0:0:
323,74,289227,1,8,0:0:0:0:
336,109,289313,1,8,0:0:0:0:
365,133,289399,1,8,0:0:0:0:
401,141,289485,1,8,0:0:0:0:
437,131,289570,1,8,0:0:0:0:
464,106,289656,1,8,0:0:0:0:
476,71,289741,1,8,0:0:0:0:
471,34,289827,5,6,0:0:0:0:
401,66,289914,1,0,0:0:0:0:
401,141,290000,1,0,0:0:0:0:
460,185,290085,1,0,0:0:0:0:
453,259,290171,1,8,0:0:0:0:
390,300,290257,1,0,0:0:0:0:
323,267,290342,1,0,0:0:0:0:
309,192,290428,1,0,0:0:0:0:
295,117,290514,1,0,0:0:0:0:
228,84,290599,1,0,0:0:0:0:
165,125,290685,1,0,0:0:0:0:
158,199,290771,1,0,0:0:0:0:
217,243,290857,6,0,P|231:205|227:175,1,62.5,8|0,0:0|0:0,0:0:0:0:
240,24,291028,2,0,P|226:62|230:92,1,62.5,8|0,0:0|0:0,0:0:0:0:
354,129,291200,6,0,P|316:115|286:119,1,62.5,2|0,0:0|0:0,0:0:0:0:
98,186,291371,2,0,P|136:200|166:196,1,62.5,8|0,0:0|0:0,0:0:0:0:
79,20,291542,2,0,P|65:58|69:88,1,62.5,8|0,0:0|0:0,0:0:0:0:
34,321,291714,5,2,0:0:0:0:
48,308,291799,1,0,0:0:0:0:
64,298,291885,1,0,0:0:0:0:
82,293,291971,1,0,0:0:0:0:
101,292,292056,1,0,0:0:0:0:
119,295,292142,1,0,0:0:0:0:
137,302,292228,2,0,P|170:325|181:347,3,62.5,12|0|0|0,0:0|0:0|0:0|0:0,0:0:0:0:
303,357,292571,5,6,0:0:0:0:
264,311,292656,1,0,0:0:0:0:
281,253,292742,1,0,0:0:0:0:
338,235,292828,1,0,0:0:0:0:
384,274,292914,1,8,0:0:0:0:
430,312,292999,1,0,0:0:0:0:
487,294,293085,1,0,0:0:0:0:
504,236,293171,1,0,0:0:0:0:
465,191,293256,1,0,0:0:0:0:
402,187,293342,1,0,0:0:0:0:
367,134,293428,1,0,0:0:0:0:
389,75,293514,1,0,0:0:0:0:
449,57,293600,6,0,P|437:98|444:125,1,62.5,8|0,0:0|0:0,0:0:0:0:
273,166,293771,2,0,P|285:125|278:98,1,62.5,8|0,0:0|0:0,0:0:0:0:
242,44,293942,6,0,P|271:32|302:35,1,62.5,2|0,0:0|0:0,0:0:0:0:
312,233,294114,2,0,P|271:245|244:238,1,62.5,8|0,0:0|0:0,0:0:0:0:
122,54,294285,2,0,P|133:97|126:124,1,62.5,8|0,0:0|0:0,0:0:0:0:
0,231,294457,5,2,0:0:0:0:
14,218,294542,1,0,0:0:0:0:
30,208,294628,1,0,0:0:0:0:
48,203,294714,1,0,0:0:0:0:
67,202,294799,1,0,0:0:0:0:
85,205,294885,1,0,0:0:0:0:
103,212,294971,2,0,P|136:235|147:257,3,62.5,12|0|0|0,0:0|0:0|0:0|0:0,0:0:0:0:
27,307,295314,6,0,B|12:335|36:347|36:347|71:324|61:281|61:281|96:349|166:341|166:341|185:377|137:358,1,300,6|0,0:0|0:0,0:0:0:0:
237,232,295657,5,10,0:0:0:0:
241,293,295742,1,0,0:0:0:0:
279,341,295828,1,0,0:0:0:0:
339,357,295914,1,0,0:0:0:0:
397,337,295999,1,0,0:0:0:0:
432,286,296085,1,0,0:0:0:0:
432,225,296171,1,0,0:0:0:0:
396,175,296256,1,0,0:0:0:0:
338,154,296342,6,0,P|341:202|334:225,1,62.5,8|0,0:0|0:0,0:0:0:0:
480,150,296514,2,0,P|477:102|484:79,1,62.5,8|0,0:0|0:0,0:0:0:0:
272,11,296685,6,0,P|224:14|201:7,1,62.5,2|0,0:0|0:0,0:0:0:0:
276,153,296857,2,0,P|324:150|347:157,1,62.5,8|0,0:0|0:0,0:0:0:0:
480,88,297028,2,0,P|432:91|409:84,1,62.5,8|0,0:0|0:0,0:0:0:0:
142,82,297200,5,2,0:0:0:0:
155,96,297285,1,0,0:0:0:0:
165,112,297371,1,0,0:0:0:0:
170,130,297457,1,0,0:0:0:0:
171,149,297542,1,0,0:0:0:0:
168,167,297628,1,0,0:0:0:0:
161,185,297714,2,0,P|138:218|116:229,3,62.5,12|0|0|0,0:0|0:0|0:0|0:0,0:0:0:0:
82,147,298057,5,6,0:0:0:0:
26,171,298142,1,0,0:0:0:0:
0,227,298228,1,0,0:0:0:0:
18,286,298314,1,0,0:0:0:0:
69,318,298399,1,8,0:0:0:0:
130,305,298485,1,0,0:0:0:0:
192,306,298571,1,0,0:0:0:0:
252,321,298657,1,0,0:0:0:0:
308,349,298743,1,0,0:0:0:0:
364,332,298828,1,0,0:0:0:0:
397,280,298914,1,0,0:0:0:0:
386,219,299000,1,0,0:0:0:0:
340,182,299085,6,0,P|341:223|321:258,1,62.5,8|0,0:0|0:0,0:0:0:0:
470,240,299257,2,0,P|469:199|489:164,1,62.5,8|0,0:0|0:0,0:0:0:0:
264,204,299428,5,6,0:0:0:0:
405,48,299600,6,0,P|404:89|424:124,1,62.5,8|0,0:0|0:0,0:0:0:0:
275,106,299772,2,0,P|276:65|256:30,1,62.5,8|0,0:0|0:0,0:0:0:0:
472,101,299942,2,0,P|431:100|396:120,1,62.5,8|0,0:0|0:0,0:0:0:0:
200,88,300114,5,6,0:0:0:0:
104,176,300285,6,0,P|145:175|180:195,1,62.5,8|0,0:0|0:0,0:0:0:0:
195,260,300457,2,0,P|175:296|140:316,1,62.5,12|0,0:0|0:0,0:0:0:0:
75,297,300628,2,0,P|53:261|53:221,1,62.5,8|0,0:0|0:0,0:0:0:0:
264,204,300800,6,0,L|289:285,1,62.5,6|0,0:0|0:0,0:0:0:0:
18,167,300971,2,0,L|-7:86,1,62.5,10|0,0:0|0:0,0:0:0:0:
335,209,301142,6,0,L|338:293,1,62.5,2|0,0:0|0:0,0:0:0:0:
106,109,301314,2,0,L|102:24,1,62.5,10|0,0:0|0:0,0:0:0:0:
395,244,301485,6,0,L|376:326,1,62.5,2|0,0:0|0:0,0:0:0:0:
200,88,301656,2,0,L|218:5,1,62.5,10|0,0:0|0:0,0:0:0:0:
438,300,301828,6,0,L|398:374,1,62.5,2|0,0:0|0:0,0:0:0:0:
290,98,301999,2,0,L|329:23,1,62.5,8|0,0:0|0:0,0:0:0:0:
463,161,302171,6,0,P|422:162|387:142,1,62.5,2|0,0:0|0:0,0:0:0:0:
203,196,302342,2,0,P|244:195|279:215,1,62.5,8|0,0:0|0:0,0:0:0:0:
447,26,302514,6,0,P|449:56|440:86,1,62.5,8|0,0:0|0:0,0:0:0:0:
286,349,302685,5,2,0:0:0:0:
299,335,302770,1,0,0:0:0:0:
309,319,302856,1,8,0:0:0:0:
314,301,302942,1,0,0:0:0:0:
315,282,303027,1,0,0:0:0:0:
312,264,303113,1,0,0:0:0:0:
305,246,303199,2,0,P|282:213|260:202,3,62.5,12|0|0|0,0:0|0:0|0:0|0:0,0:0:0:0:
227,284,303542,5,6,0:0:0:0:
189,261,303627,1,0,0:0:0:0:
146,258,303713,1,0,0:0:0:0:
106,274,303799,1,0,0:0:0:0:
78,307,303885,2,0,L|65:243,1,62.5,8|0,0:0|0:0,0:0:0:0:
178,121,304057,2,0,L|165:182,1,62.5,8|0,0:0|0:0,0:0:0:0:
48,150,304228,2,0,L|34:85,1,62.5,8|0,0:0|0:0,0:0:0:0:
276,22,304400,5,2,0:0:0:0:
268,81,304485,1,0,0:0:0:0:
311,123,304571,1,8,0:0:0:0:
370,115,304657,1,0,0:0:0:0:
399,61,304742,2,0,L|423:142,1,62.5,8|0,0:0|0:0,0:0:0:0:
512,220,304914,6,0,P|471:221|436:201,1,62.5,2|0,0:0|0:0,0:0:0:0:
395,377,305085,2,0,P|436:376|471:396,1,62.5,8|0,0:0|0:0,0:0:0:0:
335,225,305257,2,0,P|337:255|328:285,1,62.5,8|0,0:0|0:0,0:0:0:0:
237,361,305428,5,2,0:0:0:0:
223,348,305513,1,0,0:0:0:0:
207,338,305599,1,8,0:0:0:0:
189,333,305685,1,0,0:0:0:0:
170,332,305770,1,0,0:0:0:0:
152,335,305856,1,0,0:0:0:0:
134,342,305942,2,0,P|101:365|90:387,3,62.5,12|0|0|0,0:0|0:0|0:0|0:0,0:0:0:0:
124,185,306285,6,0,B|126:216|105:220|105:220|52:198|25:241|25:241|38:287|18:335|18:335|44:297|68:284,1,300,6|0,0:0|0:0,0:0:0:0:
189,251,306628,6,0,L|223:188,1,62.5,8|0,0:0|0:0,0:0:0:0:
91,73,306800,2,0,L|57:136,1,62.5,8|0,0:0|0:0,0:0:0:0:
300,354,306971,2,0,L|329:298,3,62.5,2|0|0|0,0:0|0:0|0:0|0:0,0:0:0:0:
316,133,307314,6,0,P|275:134|240:114,1,62.5,8|0,0:0|0:0,0:0:0:0:
189,251,307485,2,0,P|230:250|265:270,1,62.5,8|0,0:0|0:0,0:0:0:0:
465,103,307657,6,0,P|424:104|389:84,1,62.5,2|0,0:0|0:0,0:0:0:0:
338,221,307828,2,0,P|379:220|414:240,1,62.5,8|0,0:0|0:0,0:0:0:0:
302,0,308000,2,0,P|303:41|283:76,1,62.5,8|0,0:0|0:0,0:0:0:0:
397,359,308171,5,2,0:0:0:0:
383,346,308256,1,0,0:0:0:0:
367,336,308342,1,8,0:0:0:0:
349,331,308428,1,0,0:0:0:0:
330,330,308513,1,0,0:0:0:0:
312,333,308599,1,0,0:0:0:0:
294,340,308685,2,0,P|261:363|250:385,3,62.5,12|0|0|0,0:0|0:0|0:0|0:0,0:0:0:0:
141,360,309028,5,6,0:0:0:0:
176,310,309113,1,0,0:0:0:0:
169,249,309200,1,8,0:0:0:0:
123,209,309285,1,0,0:0:0:0:
62,209,309371,2,0,L|80:290,1,62.5,8|0,0:0|0:0,0:0:0:0:
258,228,309542,2,0,L|271:166,1,62.5,8|0,0:0|0:0,0:0:0:0:
25,45,309714,5,6,0:0:0:0:
71,85,309799,1,0,0:0:0:0:
130,107,309885,1,0,0:0:0:0:
192,106,309971,1,0,0:0:0:0:
252,89,310056,1,10,0:0:0:0:
312,72,310142,1,0,0:0:0:0:
374,71,310228,1,0,0:0:0:0:
434,88,310313,1,0,0:0:0:0:
488,120,310400,5,6,0:0:0:0:
424,97,310485,1,0,0:0:0:0:
357,112,310571,1,0,0:0:0:0:
309,159,310657,1,0,0:0:0:0:
293,225,310742,1,8,0:0:0:0:
315,297,310828,1,0,0:0:0:0:
366,333,310914,1,0,0:0:0:0:
433,343,310999,1,0,0:0:0:0:
495,315,311085,1,12,0:0:0:0:
175,197,311257,5,10,0:0:0:0:
215,258,311342,1,8,0:0:0:0:
199,329,311428,1,8,0:0:0:0:
137,367,311514,1,8,0:0:0:0:
66,350,311599,1,8,0:0:0:0:
29,287,311685,1,8,0:0:0:0:
49,216,311771,37,6,0:0:0:0:
24,218,312114,38,0,L|74:272,1,75.0000028610231
238,203,312371,1,0,0:0:0:0:
248,180,312457,2,0,L|175:196,1,75.0000028610231,8|0,0:0|0:0,0:0:0:0:
277,315,312800,2,0,L|349:298,1,75.0000028610231,8|0,0:0|0:0,0:0:0:0:
372,32,313142,37,6,0:0:0:0:
397,34,313485,38,0,L|346:88,1,75.0000028610231
183,50,313742,1,0,0:0:0:0:
173,27,313828,2,0,L|245:43,1,75.0000028610231,8|0,0:0|0:0,0:0:0:0:
111,182,314171,2,0,L|38:165,1,75.0000028610231,8|0,0:0|0:0,0:0:0:0:
247,44,314514,37,6,0:0:0:0:
272,46,314857,38,0,L|221:100,1,75.0000028610231
139,189,315200,1,8,0:0:0:0:
442,204,315371,6,0,L|430:261,1,37.5000014305115,8|0,0:0|0:0,0:0:0:0:
265,238,315542,2,0,L|257:201,1,37.5000014305115,2|0,0:0|0:0,0:0:0:0:
357,203,315714,2,0,L|345:260,1,37.5000014305115,2|0,0:0|0:0,0:0:0:0:
286,319,315885,6,0,B|227:327|198:284|198:284|162:333|56:309|56:231|56:231|87:288|163:299|192:263|192:263,1,450.000017166138,14|0,0:0|0:0,0:0:0:0:
