osu file format v14

[General]
AudioFilename: audio.mp3
AudioLeadIn: 0
PreviewTime: 86460
Countdown: 0
SampleSet: Drum
StackLeniency: 0.5
Mode: 0
LetterboxInBreaks: 0
WidescreenStoryboard: 1

[Editor]
Bookmarks: 18193,21926,22460,25660,26726,34193,50193,51260,59793,60860,68326,101393,112060,118460,126193,126993,133393,142993,144593,148593,150193,152059,152593,157393,162719,162986,163786,164186,165386,168586,171786,172319,172586,173386,173919,174186,174986,178186,180319,180586,181386,182986,187786,188852,195252,197386,199519,200586,201652,203786,205919,209119,209386,211386,211652,211786,212052,212319,212586,213119,213386,213652,213786,213919,214186,218719,222719,225919,226186,226719,235786,248319
DistanceSpacing: 1
BeatDivisor: 4
GridSize: 4
TimelineZoom: 2.5

[Metadata]
Title:Exile of the Floating World
TitleUnicode:Exile of the Floating World
Artist:Whispered
ArtistUnicode:Whispered
Creator:MrKosiej
Version:TKH's Hard
Source:
Tags:metal japanese metsutan songs of the void english Blood9 SaltyLucario TheKingHenry -Kemsyt Gabdu09 Saltking Salty melodic death melodeath folk oriental japanese
BeatmapID:2825506
BeatmapSetID:769346

[Difficulty]
HPDrainRate:5
CircleSize:3.4
OverallDifficulty:7
ApproachRate:8
SliderMultiplier:1.3
SliderTickRate:1

[Events]
//Background and Video events
0,0,"landscape-1524086395332-3775.jpg",0,0
//Break Periods
2,69593,76110
2,146393,151843
2,184786,191836
//Storyboard Layer 0 (Background)
//Storyboard Layer 1 (Fail)
//Storyboard Layer 2 (Pass)
//Storyboard Layer 3 (Foreground)
Sprite,Foreground,Centre,"sb/a2.png",0,0 S,0,59793,,2.8 C,0,59793,,0,0,0 F,2,59693,59793,0,0.7 M,7,59693,59793,567,378 M,0,59793,59826,567,378,569.6715,394.0289 M,0,59826,59859,569.6715,394.0289,572.343,410.0578 M,0,59859,59893,572.343,410.0578,569.6715,394.0289 M,0,59893,59926,569.6715,394.0289,567,378 M,0,59926,59959,567,378,569.6715,394.0289 M,0,59959,59993,569.6715,394.0289,572.343,410.0578 M,7,59993,60060,572.343,410.0578,537,371 M,7,60060,60326,537,371,449,292 M,0,60326,60359,449,292,450.8769,275.8588 M,0,60359,60392,450.8769,275.8588,452.7538,259.7175 M,0,60392,60426,452.7538,259.7175,450.8769,275.8588 M,0,60426,60459,450.8769,275.8588,449,292 M,0,60459,60492,449,292,450.8769,275.8588 M,0,60492,60526,450.8769,275.8588,452.7538,259.7175 M,7,60526,60593,452.7538,259.7175,417,304 S,19,60860,60960,2.8,14 F,0,60860,61360,0.7,0
Sprite,Foreground,Centre,"sb/w.png",0,0 S,2,235786,236186,1,0.2 F,2,235786,236186,1,0 P,0,235786,236186,A C,0,235786,,221,66,70 M,0,235786,235819,518,391,501.8925,393.1477 M,0,235819,235852,501.8925,393.1477,485.7851,395.2953 M,0,235852,235886,485.7851,395.2953,501.8925,393.1477 M,0,235886,235919,501.8925,393.1477,518,391 M,0,235919,235952,518,391,501.8925,393.1477 M,0,235952,235986,501.8925,393.1477,485.7851,395.2953
Sprite,Foreground,Centre,"sb/w.png",0,0 S,2,236052,236385,1,0.2 F,2,236052,236385,1,0 P,0,236052,236385,A C,0,236052,,221,66,70 M,0,236052,236085,460,362,443.8853,359.9072 M,0,236085,236118,443.8853,359.9072,427.7707,357.8144 M,0,236118,236152,427.7707,357.8144,411.656,355.7216 M,0,236152,236185,411.656,355.7216,395.5413,353.6288
Sprite,Foreground,Centre,"sb/w.png",0,0 S,2,236319,236652,1,0.2 F,2,236319,236652,1,0 P,0,236319,236652,A C,0,236319,,221,66,70 M,0,236319,236352,348,425,331.8853,427.0928 M,0,236352,236385,331.8853,427.0928,315.7707,429.1856 M,0,236385,236419,315.7707,429.1856,299.656,431.2784 M,0,236419,236452,299.656,431.2784,283.5413,433.3712
Sprite,Foreground,Centre,"sb/w.png",0,0 S,2,236586,236919,1,0.2 F,2,236586,236919,1,0 P,0,236586,236919,A C,0,236586,,221,66,70 M,0,236586,236619,240,361,226.1901,352.5078 M,0,236619,236652,226.1901,352.5078,211.4481,345.8264 M,0,236652,236686,211.4481,345.8264,195.8849,341.3701 M,0,236686,236719,195.8849,341.3701,179.8325,339.2351
Sprite,Foreground,Centre,"sb/w.png",178,333 S,2,236786,236986,1,0.2 F,2,236786,236986,1,0 P,0,236786,236986,A C,0,236786,,221,66,70
Sprite,Foreground,Centre,"sb/w.png",0,0 S,2,236852,237185,1,0.2 F,2,236852,237185,1,0 P,0,236852,237185,A C,0,236852,,152,7,7 M,0,236852,236885,176,327,162.4854,318.0667 M,0,236885,236918,162.4854,318.0667,150.432,307.2953 M,0,236918,236952,150.432,307.2953,140.3588,294.648 M,0,236952,236985,140.3588,294.648,132.5528,280.4827
Sprite,Foreground,Centre,"sb/w.png",0,0 S,2,237119,237452,1,0.2 F,2,237119,237452,1,0 P,0,237119,237452,A C,0,237119,,152,7,7 M,0,237119,237152,110,198,111.4342,181.8134 M,0,237152,237185,111.4342,181.8134,112.8685,165.6268 M,0,237185,237219,112.8685,165.6268,114.3028,149.4402 M,0,237219,237252,114.3028,149.4402,115.737,133.2537
Sprite,Foreground,Centre,"sb/w.png",0,0 S,2,237386,237719,1,0.2 F,2,237386,237719,1,0 P,0,237386,237719,A C,0,237386,,152,7,7 M,0,237386,237419,191,95,195.3594,110.6543 M,0,237419,237452,195.3594,110.6543,199.7189,126.3086 M,0,237452,237486,199.7189,126.3086,204.0783,141.963 M,0,237486,237519,204.0783,141.963,208.4377,157.6173
Sprite,Foreground,Centre,"sb/w.png",0,0 S,2,237652,237985,1,0.2 F,2,237652,237985,1,0 P,0,237652,237985,A C,0,237652,,152,7,7 M,0,237652,237685,290,176,292.6064,159.9604 M,0,237685,237718,292.6064,159.9604,295.2129,143.9208 M,0,237718,237752,295.2129,143.9208,297.8193,127.8812 M,0,237752,237785,297.8193,127.8812,300.4258,111.8416
Sprite,Foreground,Centre,"sb/w.png",306,111 S,2,237852,238052,1,0.2 F,2,237852,238052,1,0 P,0,237852,238052,A C,0,237852,,152,7,7
Sprite,Foreground,Centre,"sb/w.png",0,0 S,2,237919,238252,1,0.2 F,2,237919,238252,1,0 P,0,237919,238252,A C,0,237919,,221,66,70 M,0,237919,237952,312,110,314.4709,93.93896 M,0,237952,237985,314.4709,93.93896,316.9419,77.87791 M,0,237985,238019,316.9419,77.87791,314.4709,93.93896 M,0,238019,238052,314.4709,93.93896,312,110
Sprite,Foreground,Centre,"sb/w.png",371,161 S,2,238186,238386,1,0.2 F,2,238186,238386,1,0 P,0,238186,238386,A C,0,238186,,221,66,70
Sprite,Foreground,Centre,"sb/w.png",0,0 S,2,238319,238652,1,0.2 F,2,238319,238652,1,0 P,0,238319,238652,A C,0,238319,,221,66,70 M,0,238319,238352,435,204,437.9439,219.9811 M,0,238352,238385,437.9439,219.9811,440.8878,235.9622 M,0,238385,238419,440.8878,235.9622,437.9439,219.9811 M,0,238419,238452,437.9439,219.9811,435,204
Sprite,Foreground,Centre,"sb/w.png",494,153 S,2,238586,238786,1,0.2 F,2,238586,238786,1,0 P,0,238586,238786,A C,0,238586,,221,66,70
Sprite,Foreground,Centre,"sb/w.png",0,0 S,2,238719,239052,1,0.2 F,2,238719,239052,1,0 P,0,238719,239052,A C,0,238719,,221,66,70 M,0,238719,238752,550,100,559.671,112.948 M,0,238752,238785,559.671,112.948,566.6569,127.452 M,0,238785,238819,566.6569,127.452,570.2391,143.1551 M,0,238819,238852,570.2391,143.1551,570.2341,159.2733
Sprite,Foreground,Centre,"sb/w.png",0,0 S,2,238986,239386,1,0.2 F,2,238986,239386,1,0 P,0,238986,239386,A C,0,238986,,152,7,7 M,0,238986,239019,528,233,530.8443,248.9991 M,0,239019,239052,530.8443,248.9991,533.6886,264.9983 M,0,239052,239086,533.6886,264.9983,530.8443,248.9991 M,0,239086,239119,530.8443,248.9991,528,233 M,0,239119,239152,528,233,530.8443,248.9991 M,0,239152,239186,530.8443,248.9991,533.6886,264.9983
Sprite,Foreground,Centre,"sb/w.png",0,0 S,2,239252,239585,1,0.2 F,2,239252,239585,1,0 P,0,239252,239585,A C,0,239252,,152,7,7 M,0,239252,239285,572,282,568.3791,297.8414 M,0,239285,239318,568.3791,297.8414,564.7582,313.6829 M,0,239318,239352,564.7582,313.6829,561.1373,329.5244 M,0,239352,239385,561.1373,329.5244,557.5164,345.3658
Sprite,Foreground,Centre,"sb/w.png",0,0 S,2,239519,239919,1,0.2 F,2,239519,239919,1,0 P,0,239519,239919,A C,0,239519,,152,7,7 M,0,239519,239552,500,408,491.2512,394.3062 M,0,239552,239585,491.2512,394.3062,482.5023,380.6124 M,0,239585,239619,482.5023,380.6124,491.2512,394.3062 M,0,239619,239652,491.2512,394.3062,500,408 M,0,239652,239685,500,408,491.2512,394.3062 M,0,239685,239719,491.2512,394.3062,482.5023,380.6124
Sprite,Foreground,Centre,"sb/w.png",0,0 S,2,239785,240118,1,0.2 F,2,239785,240118,1,0 P,0,239785,240118,A C,0,239785,,152,7,7 M,0,239785,239818,478,338,463.1986,331.2931 M,0,239818,239851,463.1986,331.2931,448.3973,324.5863 M,0,239851,239885,448.3973,324.5863,433.5959,317.8794 M,0,239885,239918,433.5959,317.8794,418.7945,311.1725
Sprite,Foreground,Centre,"sb/w.png",0,0 S,2,240052,240452,1,0.2 F,2,240052,240452,1,0 P,0,240052,240452,A C,0,240052,,221,66,70 M,0,240052,240085,376,384,360.2164,387.8654 M,0,240085,240118,360.2164,387.8654,344.4328,391.7307 M,0,240118,240152,344.4328,391.7307,360.2164,387.8654 M,0,240152,240185,360.2164,387.8654,376,384 M,0,240185,240218,376,384,360.2164,387.8654 M,0,240218,240252,360.2164,387.8654,344.4328,391.7307
Sprite,Foreground,Centre,"sb/w.png",0,0 S,2,240319,240652,1,0.2 F,2,240319,240652,1,0 P,0,240319,240652,A C,0,240319,,221,66,70 M,0,240319,240352,315,360,299.2605,355.9588 M,0,240352,240385,299.2605,355.9588,283.5211,351.9176 M,0,240385,240419,283.5211,351.9176,267.7816,347.8763 M,0,240419,240452,267.7816,347.8763,252.0421,343.8351
Sprite,Foreground,Centre,"sb/w.png",0,0 S,2,240586,240919,1,0.2 F,2,240586,240919,1,0 P,0,240586,240919,A C,0,240586,,221,66,70 M,0,240586,240619,215,267,230.6413,262.594 M,0,240619,240652,230.6413,262.594,246.2826,258.188 M,0,240652,240686,246.2826,258.188,261.9238,253.782 M,0,240686,240719,261.9238,253.782,277.5651,249.376
Sprite,Foreground,Centre,"sb/w.png",0,0 S,2,240852,241185,1,0.2 F,2,240852,241185,1,0 P,0,240852,241185,A C,0,240852,,221,66,70 M,0,240852,240885,361,244,364.3876,228.1284 M,0,240885,240918,364.3876,228.1284,370.4401,213.0714 M,0,240918,240952,370.4401,213.0714,378.9787,199.2728 M,0,240952,240985,378.9787,199.2728,389.7514,187.1392
Sprite,Foreground,Centre,"sb/w.png",395,185 S,2,241052,241252,1,0.2 F,2,241052,241252,1,0 P,0,241052,241252,A C,0,241052,,221,66,70
Sprite,Foreground,Centre,"sb/w.png",0,0 S,2,241119,241452,1,0.2 F,2,241119,241452,1,0 P,0,241119,241452,A C,0,241119,,152,7,7 M,0,241119,241152,401,184,399.7473,167.8308 M,0,241152,241185,399.7473,167.8308,395.0411,152.3115 M,0,241185,241219,395.0411,152.3115,387.1025,138.1708 M,0,241219,241252,387.1025,138.1708,376.3044,126.0727
Sprite,Foreground,Centre,"sb/w.png",0,0 S,2,241386,241719,1,0.2 F,2,241386,241719,1,0 P,0,241386,241719,A C,0,241386,,152,7,7 M,0,241386,241419,295,100,292.3673,116.0353 M,0,241419,241452,292.3673,116.0353,289.7347,132.0706 M,0,241452,241486,289.7347,132.0706,287.102,148.106 M,0,241486,241519,287.102,148.106,284.4694,164.1413
Sprite,Foreground,Centre,"sb/w.png",0,0 S,2,241652,241985,1,0.2 F,2,241652,241985,1,0 P,0,241652,241985,A C,0,241652,,152,7,7 M,0,241652,241685,202,184,199.6723,167.9176 M,0,241685,241718,199.6723,167.9176,197.3446,151.8352 M,0,241718,241752,197.3446,151.8352,195.0168,135.7527 M,0,241752,241785,195.0168,135.7527,192.6891,119.6703
Sprite,Foreground,Centre,"sb/w.png",0,0 S,2,241919,242252,1,0.2 F,2,241919,242252,1,0 P,0,241919,242252,A C,0,241919,,152,7,7 M,0,241919,241952,107,114,99.73278,128.5344 M,0,241952,241985,99.73278,128.5344,92.46556,143.0689 M,0,241985,242019,92.46556,143.0689,88.4558,158.721 M,0,242019,242052,88.4558,158.721,85.26891,174.6554
Sprite,Foreground,Centre,"sb/w.png",110,265 S,2,242186,242386,1,0.2 F,2,242186,242386,1,0 P,0,242186,242386,A C,0,242186,,221,66,70
Sprite,Foreground,Centre,"sb/w.png",110,265 S,2,242252,242452,1,0.2 F,2,242252,242452,1,0 P,0,242252,242452,A C,0,242252,,221,66,70
Sprite,Foreground,Centre,"sb/w.png",0,0 S,2,242319,242785,1,0.2 F,2,242319,242785,1,0 P,0,242319,242785,A C,0,242319,,221,66,70 M,0,242319,242352,110,265,105.3753,280.578 M,0,242352,242385,105.3753,280.578,100.7506,296.156 M,0,242385,242419,100.7506,296.156,96.12583,311.734 M,0,242419,242452,96.12583,311.734,91.50111,327.312 M,0,242452,242485,91.50111,327.312,96.12583,311.734 M,0,242485,242519,96.12583,311.734,100.7506,296.156 M,0,242519,242552,100.7506,296.156,105.3753,280.578 M,0,242552,242585,105.3753,280.578,110,265
Sprite,Foreground,Centre,"sb/w.png",195,308 S,2,242719,242919,1,0.2 F,2,242719,242919,1,0 P,0,242719,242919,A C,0,242719,,152,7,7
Sprite,Foreground,Centre,"sb/w.png",195,308 S,2,242785,242985,1,0.2 F,2,242785,242985,1,0 P,0,242785,242985,A C,0,242785,,152,7,7
Sprite,Foreground,Centre,"sb/w.png",0,0 S,2,242852,243318,1,0.2 F,2,242852,243318,1,0 P,0,242852,243318,A C,0,242852,,152,7,7 M,0,242852,242885,195,308,199.6247,323.578 M,0,242885,242918,199.6247,323.578,204.2495,339.156 M,0,242918,242952,204.2495,339.156,208.8742,354.734 M,0,242952,242985,208.8742,354.734,213.4989,370.312 M,0,242985,243018,213.4989,370.312,208.8742,354.734 M,0,243018,243052,208.8742,354.734,204.2495,339.156 M,0,243052,243085,204.2495,339.156,199.6247,323.578 M,0,243085,243118,199.6247,323.578,195,308
Sprite,Foreground,Centre,"sb/w.png",0,0 S,2,243252,243585,1,0.2 F,2,243252,243585,1,0 P,0,243252,243585,A C,0,243252,,221,66,70 M,0,243252,243285,263,258,277.4292,265.3729 M,0,243285,243318,277.4292,265.3729,292.7089,270.6684 M,0,243318,243352,292.7089,270.6684,308.6462,273.4339 M,0,243352,243385,308.6462,273.4339,324.827,273.5958
Sprite,Foreground,Centre,"sb/w.png",332,271 S,2,243452,243652,1,0.2 F,2,243452,243652,1,0 P,0,243452,243652,A C,0,243452,,221,66,70
Sprite,Foreground,Centre,"sb/w.png",0,0 S,2,243519,243852,1,0.2 F,2,243519,243852,1,0 P,0,243519,243852,A C,0,243519,,221,66,70 M,0,243519,243552,339,269,355.1981,268.8223 M,0,243552,243585,355.1981,268.8223,371.1873,271.179 M,0,243585,243619,371.1873,271.179,386.4968,276.3586 M,0,243619,243652,386.4968,276.3586,400.8344,283.8978
Sprite,Foreground,Centre,"sb/w.png",0,0 S,2,243786,244119,1,0.2 F,2,243786,244119,1,0 P,0,243786,244119,A C,0,243786,,221,66,70 M,0,243786,243819,478,250,475.2157,233.9903 M,0,243819,243852,475.2157,233.9903,472.4314,217.9806 M,0,243852,243886,472.4314,217.9806,469.6471,201.9709 M,0,243886,243919,469.6471,201.9709,466.8628,185.9612
Sprite,Foreground,Centre,"sb/w.png",480,84 S,2,244052,244252,1,0.2 F,2,244052,244252,1,0 P,0,244052,244252,A C,0,244052,,152,7,7
Sprite,Foreground,Centre,"sb/w.png",398,108 S,2,244186,244386,1,0.2 F,2,244186,244386,1,0 P,0,244186,244386,A C,0,244186,,152,7,7
Sprite,Foreground,Centre,"sb/glow.png",0,0 S,2,192586,193141,1,0.2 F,2,192586,193141,1,0 P,0,192586,193141,A C,0,192586,,193,193,193 M,0,192586,192619,140,173,137.6098,161.0492 M,0,192619,192652,137.6098,161.0492,135.2197,149.0983 M,0,192652,192686,135.2197,149.0983,132.8295,137.1475 M,0,192686,192719,132.8295,137.1475,127.2583,126.6091 M,0,192719,192752,127.2583,126.6091,119.9965,116.8213 M,0,192752,192786,119.9965,116.8213,122.4171,120.0839 M,0,192786,192819,122.4171,120.0839,129.679,129.8716 M,0,192819,192852,129.679,129.8716,133.6262,141.1311 M,0,192852,192886,133.6262,141.1311,136.0164,153.082 M,0,192886,192919,136.0164,153.082,138.4066,165.0328 M,0,192919,192941,138.4066,165.0328,140,173
Sprite,Foreground,Centre,"sb/glow.png",0,0 S,2,193119,193852,1,0.2 F,2,193119,193852,1,0 P,0,193119,193852,A C,0,193119,,138,138,138 M,0,193119,193152,112,256,120.1241,256.1177 M,0,193152,193185,120.1241,256.1177,128.2483,256.2355 M,0,193185,193219,128.2483,256.2355,136.3724,256.3532 M,0,193219,193252,136.3724,256.3532,144.4966,256.4709 M,0,193252,193285,144.4966,256.4709,152.6207,256.5887 M,0,193285,193319,152.6207,256.5887,160.7449,256.7065 M,0,193319,193352,160.7449,256.7065,168.869,256.8242 M,0,193352,193385,168.869,256.8242,176.9932,256.9419 M,0,193385,193419,176.9932,256.9419,184.7299,258.7446 M,0,193419,193452,184.7299,258.7446,192.0896,262.1871 M,0,193452,193485,192.0896,262.1871,199.4493,265.6295 M,0,193485,193519,199.4493,265.6295,206.809,269.072 M,0,193519,193552,206.809,269.072,214.1687,272.5144 M,0,193552,193585,214.1687,272.5144,221.5284,275.9568 M,0,193585,193619,221.5284,275.9568,228.8881,279.3993 M,0,193619,193652,228.8881,279.3993,236.2478,282.8417
Sprite,Foreground,Centre,"sb/glow.png",278,356 S,2,193919,194119,1,0.2 F,2,193919,194119,1,0 P,0,193919,194119,A C,0,193919,,138,138,138
Sprite,Foreground,Centre,"sb/glow.png",0,0 S,2,194186,194652,1,0.2 F,2,194186,194652,1,0 P,0,194186,194652,A C,0,194186,,193,193,193 M,0,194186,194219,318,430,326.0724,429.0774 M,0,194219,194252,326.0724,429.0774,334.1449,428.1549 M,0,194252,194286,334.1449,428.1549,342.2173,427.2323 M,0,194286,194319,342.2173,427.2323,350.2898,426.3097 M,0,194319,194352,350.2898,426.3097,358.0192,424.0157 M,0,194352,194386,358.0192,424.0157,365.5751,421.0284 M,0,194386,194419,365.5751,421.0284,373.131,418.0412 M,0,194419,194452,373.131,418.0412,380.687,415.054
Sprite,Foreground,Centre,"sb/glow.png",0,0 S,2,194719,195185,1,0.2 F,2,194719,195185,1,0 P,0,194719,195185,A C,0,194719,,193,193,193 M,0,194719,194752,405,334,413.0724,334.9226 M,0,194752,194785,413.0724,334.9226,421.1449,335.8451 M,0,194785,194819,421.1449,335.8451,429.2173,336.7677 M,0,194819,194852,429.2173,336.7677,437.2898,337.6903 M,0,194852,194885,437.2898,337.6903,445.0192,339.9843 M,0,194885,194919,445.0192,339.9843,452.5751,342.9716 M,0,194919,194952,452.5751,342.9716,460.131,345.9588 M,0,194952,194985,460.131,345.9588,467.687,348.946
Sprite,Foreground,Centre,"sb/glow.png",518,416 S,2,195252,195452,1,0.2 F,2,195252,195452,1,0 P,0,195252,195452,A C,0,195252,,138,138,138
Sprite,Foreground,Centre,"sb/glow.png",0,0 S,2,195786,196252,1,0.2 F,2,195786,196252,1,0 P,0,195786,196252,A C,0,195786,,138,138,138 M,0,195786,195819,544,248,539.493,241.2396 M,0,195819,195852,539.493,241.2396,534.9861,234.4792 M,0,195852,195886,534.9861,234.4792,530.4792,227.7188 M,0,195886,195919,530.4792,227.7188,525.9722,220.9584 M,0,195919,195952,525.9722,220.9584,521.8416,214.0492 M,0,195952,195986,521.8416,214.0492,520.5058,206.0347 M,0,195986,196019,520.5058,206.0347,519.17,198.0203 M,0,196019,196052,519.17,198.0203,517.8343,190.0058
Sprite,Foreground,Centre,"sb/glow.png",0,0 S,2,196319,197052,1,0.2 F,2,196319,197052,1,0 P,0,196319,197052,A C,0,196319,,193,193,193 M,0,196319,196352,436,167,435.8308,158.8768 M,0,196352,196385,435.8308,158.8768,435.6615,150.7535 M,0,196385,196419,435.6615,150.7535,435.4923,142.6303 M,0,196419,196452,435.4923,142.6303,435.3231,134.507 M,0,196452,196485,435.3231,134.507,435.1538,126.3838 M,0,196485,196519,435.1538,126.3838,434.7345,118.3097 M,0,196519,196552,434.7345,118.3097,431.8178,110.7263 M,0,196552,196585,431.8178,110.7263,428.9011,103.1428 M,0,196585,196619,428.9011,103.1428,431.8178,110.7263 M,0,196619,196652,431.8178,110.7263,434.7345,118.3097 M,0,196652,196685,434.7345,118.3097,435.1538,126.3838 M,0,196685,196719,435.1538,126.3838,435.3231,134.507 M,0,196719,196752,435.3231,134.507,435.4923,142.6303 M,0,196752,196785,435.4923,142.6303,435.6615,150.7535 M,0,196785,196819,435.6615,150.7535,435.8308,158.8768 M,0,196819,196852,435.8308,158.8768,436,167
Sprite,Foreground,Centre,"sb/glow.png",365,214 S,2,197119,197319,1,0.2 F,2,197119,197319,1,0 P,0,197119,197319,A C,0,197119,,193,193,193
Sprite,Foreground,Centre,"sb/glow.png",294,261 S,2,197386,197586,1,0.2 F,2,197386,197586,1,0 P,0,197386,197586,A C,0,197386,,138,138,138
Sprite,Foreground,Centre,"sb/glow.png",0,0 S,2,197652,198385,1,0.2 F,2,197652,198385,1,0 P,0,197652,198385,A C,0,197652,,138,138,138 M,0,197652,197685,240,195,231.944,193.9435 M,0,197685,197718,231.944,193.9435,223.888,192.8869 M,0,197718,197752,223.888,192.8869,215.832,191.8304 M,0,197752,197785,215.832,191.8304,207.7759,190.7739 M,0,197785,197818,207.7759,190.7739,199.7199,189.7174 M,0,197818,197852,199.7199,189.7174,191.6639,188.6608 M,0,197852,197885,191.6639,188.6608,183.6079,187.6043 M,0,197885,197918,183.6079,187.6043,175.673,188.0126 M,0,197918,197952,175.673,188.0126,167.9001,190.3783 M,0,197952,197985,167.9001,190.3783,160.1271,192.7439 M,0,197985,198018,160.1271,192.7439,152.3541,195.1096 M,0,198018,198052,152.3541,195.1096,144.5811,197.4753 M,0,198052,198085,144.5811,197.4753,136.8082,199.841 M,0,198085,198118,136.8082,199.841,129.0352,202.2067 M,0,198118,198152,129.0352,202.2067,121.2622,204.5724 M,0,198152,198185,121.2622,204.5724,113.4892,206.9381
Sprite,Foreground,Centre,"sb/glow.png",0,0 S,2,198452,199185,1,0.2 F,2,198452,199185,1,0 P,0,198452,199185,A C,0,198452,,193,193,193 M,0,198452,198485,104,122,99.125,115.5 M,0,198485,198518,99.125,115.5,94.25,109 M,0,198518,198552,94.25,109,89.375,102.5 M,0,198552,198585,89.375,102.5,84.5,96 M,0,198585,198618,84.5,96,79.625,89.5 M,0,198618,198652,79.625,89.5,74.75,83 M,0,198652,198685,74.75,83,69.875,76.5 M,0,198685,198718,69.875,76.5,65,70 M,0,198718,198752,65,70,69.875,76.5 M,0,198752,198785,69.875,76.5,74.75,83 M,0,198785,198818,74.75,83,79.625,89.5 M,0,198818,198852,79.625,89.5,84.5,96 M,0,198852,198885,84.5,96,89.375,102.5 M,0,198885,198918,89.375,102.5,94.25,109 M,0,198918,198952,94.25,109,99.125,115.5 M,0,198952,198985,99.125,115.5,104,122
Sprite,Foreground,Centre,"sb/glow.png",175,76 S,2,199252,199452,1,0.2 F,2,199252,199452,1,0 P,0,199252,199452,A C,0,199252,,193,193,193
Sprite,Foreground,Centre,"sb/glow.png",0,0 S,2,199519,200252,1,0.2 F,2,199519,200252,1,0 P,0,199519,200252,A C,0,199519,,138,138,138 M,0,199519,199552,251,112,258.7855,114.324 M,0,199552,199585,258.7855,114.324,266.571,116.6481 M,0,199585,199619,266.571,116.6481,274.3566,118.9721 M,0,199619,199652,274.3566,118.9721,282.1421,121.2962 M,0,199652,199685,282.1421,121.2962,289.9276,123.6202 M,0,199685,199719,289.9276,123.6202,297.7132,125.9442 M,0,199719,199752,297.7132,125.9442,305.4987,128.2683 M,0,199752,199785,305.4987,128.2683,313.2842,130.5923 M,0,199785,199819,313.2842,130.5923,321.1855,131.6602 M,0,199819,199852,321.1855,131.6602,329.2647,130.7984 M,0,199852,199885,329.2647,130.7984,337.3439,129.9366 M,0,199885,199919,337.3439,129.9366,345.423,129.0749 M,0,199919,199952,345.423,129.0749,353.5022,128.2131 M,0,199952,199985,353.5022,128.2131,361.5814,127.3513 M,0,199985,200019,361.5814,127.3513,369.6606,126.4895 M,0,200019,200052,369.6606,126.4895,377.7397,125.6278
Sprite,Foreground,Centre,"sb/glow.png",448,172 S,2,200319,200519,1,0.2 F,2,200319,200519,1,0 P,0,200319,200519,A C,0,200319,,138,138,138
Sprite,Foreground,Centre,"sb/glow.png",518,218 S,2,200586,200786,1,0.2 F,2,200586,200786,1,0 P,0,200586,200786,A C,0,200586,,193,193,193
Sprite,Foreground,Centre,"sb/glow.png",0,0 S,2,201119,201674,1,0.2 F,2,201119,201674,1,0 P,0,201119,201674,A C,0,201119,,193,193,193 M,0,201119,201152,518,218,524.4044,207.6309 M,0,201152,201185,524.4044,207.6309,530.8089,197.2618 M,0,201185,201219,530.8089,197.2618,537.2133,186.8927 M,0,201219,201252,537.2133,186.8927,540.09,175.2803 M,0,201252,201285,540.09,175.2803,541.6016,163.187 M,0,201285,201319,541.6016,163.187,541.0978,167.2181 M,0,201319,201352,541.0978,167.2181,539.5861,179.3115 M,0,201352,201385,539.5861,179.3115,535.0785,190.3491 M,0,201385,201419,535.0785,190.3491,528.6741,200.7182 M,0,201419,201452,528.6741,200.7182,522.2697,211.0873 M,0,201452,201474,522.2697,211.0873,518,218
Sprite,Foreground,Centre,"sb/glow.png",444,256 S,2,201652,201852,1,0.2 F,2,201652,201852,1,0 P,0,201652,201852,A C,0,201652,,138,138,138
Sprite,Foreground,Centre,"sb/glow.png",0,0 S,2,202186,202652,1,0.2 F,2,202186,202652,1,0 P,0,202186,202652,A C,0,202186,,138,138,138 M,0,202186,202219,444,256,435.9695,254.7645 M,0,202219,202252,435.9695,254.7645,427.939,253.5291 M,0,202252,202286,427.939,253.5291,419.9084,252.2936 M,0,202286,202319,419.9084,252.2936,411.8779,251.0581 M,0,202319,202352,411.8779,251.0581,403.8405,250.1242 M,0,202352,202386,403.8405,250.1242,395.7617,250.9898 M,0,202386,202419,395.7617,250.9898,387.683,251.8554 M,0,202419,202452,387.683,251.8554,379.6042,252.721
Sprite,Foreground,Centre,"sb/glow.png",294,300 S,2,202719,202919,1,0.2 F,2,202719,202919,1,0 P,0,202719,202919,A C,0,202719,,138,138,138
Sprite,Foreground,Centre,"sb/glow.png",0,0 S,2,203252,203718,1,0.2 F,2,203252,203718,1,0 P,0,203252,203718,A C,0,203252,,138,138,138 M,0,203252,203285,294,300,285.9695,301.2355 M,0,203285,203318,285.9695,301.2355,277.939,302.4709 M,0,203318,203352,277.939,302.4709,269.9084,303.7064 M,0,203352,203385,269.9084,303.7064,261.8779,304.9419 M,0,203385,203418,261.8779,304.9419,253.8405,305.8758 M,0,203418,203452,253.8405,305.8758,245.7617,305.0102 M,0,203452,203485,245.7617,305.0102,237.683,304.1446 M,0,203485,203518,237.683,304.1446,229.6042,303.279
Sprite,Foreground,Centre,"sb/glow.png",0,0 S,2,203786,204519,1,0.2 F,2,203786,204519,1,0 P,0,203786,204519,A C,0,203786,,221,66,70 M,0,203786,203819,155,239,152.5765,231.2448 M,0,203819,203852,152.5765,231.2448,150.153,223.4897 M,0,203852,203886,150.153,223.4897,147.7296,215.7346 M,0,203886,203919,147.7296,215.7346,145.3061,207.9794 M,0,203919,203952,145.3061,207.9794,142.8826,200.2242 M,0,203952,203986,142.8826,200.2242,140.4591,192.4691 M,0,203986,204019,140.4591,192.4691,135.4957,186.1954 M,0,204019,204052,135.4957,186.1954,129.9387,180.2679 M,0,204052,204086,129.9387,180.2679,135.4957,186.1954 M,0,204086,204119,135.4957,186.1954,140.4591,192.4691 M,0,204119,204152,140.4591,192.4691,142.8826,200.2242 M,0,204152,204186,142.8826,200.2242,145.3061,207.9794 M,0,204186,204219,145.3061,207.9794,147.7296,215.7346 M,0,204219,204252,147.7296,215.7346,150.153,223.4897 M,0,204252,204286,150.153,223.4897,152.5765,231.2448 M,0,204286,204319,152.5765,231.2448,155,239
Sprite,Foreground,Centre,"sb/glow.png",117,329 S,2,204586,204786,1,0.2 F,2,204586,204786,1,0 P,0,204586,204786,A C,0,204586,,221,66,70
Sprite,Foreground,Centre,"sb/glow.png",78,418 S,2,204852,205052,1,0.2 F,2,204852,205052,1,0 P,0,204852,205052,A C,0,204852,,193,193,193
Sprite,Foreground,Centre,"sb/glow.png",0,0 S,2,205386,205852,1,0.2 F,2,205386,205852,1,0 P,0,205386,205852,A C,0,205386,,193,193,193 M,0,205386,205419,78,418,85.86189,415.9491 M,0,205419,205452,85.86189,415.9491,93.72379,413.8981 M,0,205452,205486,93.72379,413.8981,101.5857,411.8472 M,0,205486,205519,101.5857,411.8472,109.4476,409.7963 M,0,205519,205552,109.4476,409.7963,117.3094,407.7454 M,0,205552,205586,117.3094,407.7454,125.207,406.0928 M,0,205586,205619,125.207,406.0928,133.308,406.716 M,0,205619,205652,133.308,406.716,141.4091,407.3392
Sprite,Foreground,Centre,"sb/glow.png",286,428 S,2,205919,206119,1,0.2 F,2,205919,206119,1,0 P,0,205919,206119,A C,0,205919,,221,66,70
Sprite,Foreground,Centre,"sb/glow.png",0,0 S,2,206452,206918,1,0.2 F,2,206452,206918,1,0 P,0,206452,206918,A C,0,206452,,221,66,70 M,0,206452,206485,286,428,296.3796,421.6125 M,0,206485,206518,296.3796,421.6125,306.7592,415.2251 M,0,206518,206552,306.7592,415.2251,317.1388,408.8377 M,0,206552,206585,317.1388,408.8377,327.5183,402.4503 M,0,206585,206618,327.5183,402.4503,337.8979,396.0628 M,0,206618,206652,337.8979,396.0628,343.8156,385.4261 M,0,206652,206685,343.8156,385.4261,349.689,374.7473 M,0,206685,206718,349.689,374.7473,355.5624,364.0684
Sprite,Foreground,Centre,"sb/glow.png",0,0 S,2,206986,207452,1,0.2 F,2,206986,207452,1,0 P,0,206986,207452,A C,0,206986,,193,193,193 M,0,206986,207019,459,259,464.8875,269.6711 M,0,207019,207052,464.8875,269.6711,470.775,280.3422 M,0,207052,207086,470.775,280.3422,476.6625,291.0133 M,0,207086,207119,476.6625,291.0133,482.55,301.6844 M,0,207119,207152,482.55,301.6844,488.4375,312.3555 M,0,207152,207186,488.4375,312.3555,491.2117,323.8798 M,0,207186,207219,491.2117,323.8798,491.5865,336.0615 M,0,207219,207252,491.5865,336.0615,491.9613,348.2432
Sprite,Foreground,Centre,"sb/glow.png",0,0 S,2,207519,207985,1,0.2 F,2,207519,207985,1,0 P,0,207519,207985,A C,0,207519,,193,193,193 M,0,207519,207552,364,276,364.8937,263.8453 M,0,207552,207585,364.8937,263.8453,365.7874,251.6906 M,0,207585,207619,365.7874,251.6906,366.6812,239.5359 M,0,207619,207652,366.6812,239.5359,367.5749,227.3813 M,0,207652,207685,367.5749,227.3813,368.4686,215.2266 M,0,207685,207719,368.4686,215.2266,371.3848,203.6721 M,0,207719,207752,371.3848,203.6721,377.2665,192.9978 M,0,207752,207785,377.2665,192.9978,383.1483,182.3235
Sprite,Foreground,Centre,"sb/glow.png",479,71 S,2,208052,208252,1,0.2 F,2,208052,208252,1,0 P,0,208052,208252,A C,0,208052,,221,66,70
Sprite,Foreground,Centre,"sb/glow.png",0,0 S,2,208319,209052,1,0.2 F,2,208319,209052,1,0 P,0,208319,209052,A C,0,208319,,221,66,70 M,0,208319,208352,333,86,321.0417,88.35246 M,0,208352,208385,321.0417,88.35246,309.0834,90.70491 M,0,208385,208419,309.0834,90.70491,297.1251,93.05736 M,0,208419,208452,297.1251,93.05736,285.1668,95.40982 M,0,208452,208485,285.1668,95.40982,273.2085,97.76227 M,0,208485,208519,273.2085,97.76227,261.5654,94.66092 M,0,208519,208552,261.5654,94.66092,249.9577,90.94646 M,0,208552,208585,249.9577,90.94646,238.35,87.23201 M,0,208585,208619,238.35,87.23201,249.9577,90.94646 M,0,208619,208652,249.9577,90.94646,261.5654,94.66091 M,0,208652,208685,261.5654,94.66091,273.2084,97.76227 M,0,208685,208719,273.2084,97.76227,285.1667,95.40982 M,0,208719,208752,285.1667,95.40982,297.1251,93.05737 M,0,208752,208785,297.1251,93.05737,309.0834,90.70491 M,0,208785,208819,309.0834,90.70491,321.0417,88.35246 M,0,208819,208852,321.0417,88.35246,333,86
Sprite,Foreground,Centre,"sb/glow.png",462,153 S,2,209119,209319,1,0.2 F,2,209119,209319,1,0 P,0,209119,209319,A C,0,209119,,193,193,193
Sprite,Foreground,Centre,"sb/glow.png",0,0 S,2,209386,209786,1,0.2 F,2,209386,209786,1,0 P,0,209386,209786,A C,0,209386,,193,193,193 M,0,209386,209419,511,301,494.9711,298.3285 M,0,209419,209452,494.9711,298.3285,478.9422,295.657 M,0,209452,209486,478.9422,295.657,494.9711,298.3285 M,0,209486,209519,494.9711,298.3285,511,301 M,0,209519,209552,511,301,494.9711,298.3285 M,0,209552,209586,494.9711,298.3285,478.9422,295.657
Sprite,Foreground,Centre,"sb/glow.png",0,0 S,2,209652,210052,1,0.2 F,2,209652,210052,1,0 P,0,209652,210052,A C,0,209652,,193,193,193 M,0,209652,209685,489,333,472.9711,330.3285 M,0,209685,209718,472.9711,330.3285,456.9422,327.657 M,0,209718,209752,456.9422,327.657,472.9711,330.3285 M,0,209752,209785,472.9711,330.3285,489,333 M,0,209785,209818,489,333,472.9711,330.3285 M,0,209818,209852,472.9711,330.3285,456.9422,327.657
Sprite,Foreground,Centre,"sb/glow.png",0,0 S,2,209919,210319,1,0.2 F,2,209919,210319,1,0 P,0,209919,210319,A C,0,209919,,193,193,193 M,0,209919,209952,467,365,450.9711,362.3285 M,0,209952,209985,450.9711,362.3285,434.9422,359.657 M,0,209985,210019,434.9422,359.657,450.9711,362.3285 M,0,210019,210052,450.9711,362.3285,467,365 M,0,210052,210085,467,365,450.9711,362.3285 M,0,210085,210119,450.9711,362.3285,434.9422,359.657
Sprite,Foreground,Centre,"sb/b.png",211,160 S,0,247986,,0.6 F,2,247986,248986,1,0
Sprite,Foreground,Centre,"sb/glow.png",0,0 S,19,247519,248085,1.2,0.9 F,2,247785,248085,1,0 M,0,247519,247552,244,259,245.7236,246.935 M,0,247552,247585,245.7236,246.935,247.4471,234.87 M,0,247585,247619,247.4471,234.87,249.1707,222.805 M,0,247619,247652,249.1707,222.805,250.8943,210.74 M,0,247652,247685,250.8943,210.74,250.1361,199.0486 M,0,247685,247719,250.1361,199.0486,244.9367,188.0258 M,0,247719,247752,244.9367,188.0258,239.7373,177.0031 M,0,247752,247785,239.7373,177.0031,234.5379,165.9803
Sprite,Foreground,Centre,"sb/glow.png",227,164 S,19,247852,248152,1.2,0.9 F,2,247852,248152,1,0
Sprite,Foreground,Centre,"sb/glow.png",219,162 S,19,247919,248219,1.2,0.9 F,2,247919,248219,1,0
Sprite,Foreground,Centre,"sb/glow.png",211,160 S,19,247986,248286,1.2,0.9 F,2,247986,248286,1,0
Sprite,Foreground,Centre,"sb/a.png",0,0 S,0,216052,,3.5 C,0,216052,,0,0,0 F,2,215852,216052,0,0.65 M,7,215852,216052,247,311 M,0,216052,216085,247,311,242.98,295.2551 M,0,216085,216118,242.98,295.2551,238.9601,279.5102 M,0,216118,216152,238.9601,279.5102,242.98,295.2551 M,0,216152,216185,242.98,295.2551,247,311 M,0,216185,216218,247,311,242.98,295.2551 M,0,216218,216252,242.98,295.2551,238.9601,279.5102 M,7,216252,216319,238.9601,279.5102,262,243 M,0,216319,216352,262,243,257.98,227.2551 M,0,216352,216385,257.98,227.2551,253.9601,211.5102 M,0,216385,216419,253.9601,211.5102,257.98,227.2551 M,0,216419,216452,257.98,227.2551,262,243 M,0,216452,216485,262,243,257.98,227.2551 M,0,216485,216519,257.98,227.2551,253.9601,211.5102 M,7,216519,216586,253.9601,211.5102,217,189 M,0,216586,216619,217,189,215.0493,172.9117 M,0,216619,216652,215.0493,172.9117,215.4126,156.7417 M,0,216652,216686,215.4126,156.7417,218.419,140.8492 M,0,216686,216719,218.419,140.8492,223.9873,125.6629 M,0,216719,216752,223.9873,125.6629,231.9675,111.5928 M,0,216752,216786,231.9675,111.5928,242.1446,99.01875 M,0,216786,216819,242.1446,99.01875,254.244,88.28017 M,0,216819,216852,254.244,88.28017,267.9396,79.66716 M,0,216852,216886,267.9396,79.66716,282.8621,73.41254 M,0,216886,216919,282.8621,73.41254,298.6088,69.68555 M,0,216919,216952,298.6088,69.68555,314.755,68.5873 M,0,216952,216986,314.755,68.5873,330.8651,70.14804 M,7,216986,217052,330.8651,70.14804,336,73 M,7,217052,217119,336,73,341,76 M,0,217119,217152,341,76,353.7897,86.02432 M,0,217152,217185,353.7897,86.02432,366.5793,96.04865 M,0,217185,217219,366.5793,96.04865,353.7897,86.02432 M,0,217219,217252,353.7897,86.02432,341,76 M,0,217252,217285,341,76,353.7897,86.02432 M,0,217285,217319,353.7897,86.02432,366.5793,96.04865 M,7,217319,217386,366.5793,96.04865,411,95 M,0,217386,217419,411,95,423.7897,105.0243 M,0,217419,217452,423.7897,105.0243,436.5793,115.0487 M,0,217452,217486,436.5793,115.0487,423.7897,105.0243 M,0,217486,217519,423.7897,105.0243,411,95 M,0,217519,217552,411,95,423.7897,105.0243 M,0,217552,217586,423.7897,105.0243,436.5793,115.0487 M,7,217586,217652,436.5793,115.0487,443,156 M,0,217652,217685,443,156,456.0148,165.6965 M,0,217685,217718,456.0148,165.6965,467.2748,177.3816 M,0,217718,217752,467.2748,177.3816,476.4799,190.7428 M,0,217752,217785,476.4799,190.7428,483.3846,205.4228 M,7,217785,217919,483.3846,205.4228,462,287 M,0,217919,217952,462,287,461.1885,303.2297 M,0,217952,217985,461.1885,303.2297,460.377,319.4594 M,0,217985,218019,460.377,319.4594,461.1885,303.2297 M,0,218019,218052,461.1885,303.2297,462,287 M,0,218052,218085,462,287,461.1885,303.2297 M,0,218085,218119,461.1885,303.2297,460.377,319.4594 M,7,218119,218186,460.377,319.4594,478,358 M,0,218186,218219,478,358,466.41,369.3901 M,0,218219,218252,466.41,369.3901,454.8201,380.7803 M,0,218252,218286,454.8201,380.7803,443.2301,392.1704 M,0,218286,218319,443.2301,392.1704,431.6401,403.5605 M,7,218319,218452,431.6401,403.5605,357,364 M,0,218452,218485,357,364,345.41,375.3901 M,0,218485,218518,345.41,375.3901,333.8201,386.7803 M,0,218518,218552,333.8201,386.7803,322.2301,398.1704 M,0,218552,218585,322.2301,398.1704,310.6401,409.5605 S,19,218719,218919,3.5,17.5 F,0,218719,219219,0.65,0
Sprite,Foreground,Centre,"sb/a.png",0,0 S,0,224585,,3.5 C,0,224585,,0,0,0 F,2,224386,224586,0,0.65 M,7,224385,224586,228,163 M,0,224586,224619,228,163,211.7845,161.9425 M,0,224619,224652,211.7845,161.9425,195.5689,160.8849 M,0,224652,224686,195.5689,160.8849,211.7845,161.9425 M,0,224686,224719,211.7845,161.9425,228,163 M,0,224719,224752,228,163,211.7845,161.9425 M,0,224752,224786,211.7845,161.9425,195.5689,160.8849 M,7,224786,224852,195.5689,160.8849,177,198 M,0,224852,224885,177,198,161.6876,203.4399 M,0,224885,224918,161.6876,203.4399,146.3752,208.8799 M,0,224918,224952,146.3752,208.8799,131.0628,214.3198 M,0,224952,224985,131.0628,214.3198,115.7504,219.7597 M,7,224985,225119,115.7504,219.7597,104,310 M,7,225119,225186,104,310 M,7,225186,225252,104,310 M,0,225252,225285,104,310,106.8566,325.9969 M,0,225285,225318,106.8566,325.9969,109.7132,341.9939 M,0,225318,225352,109.7132,341.9939,106.8566,325.9969 M,0,225352,225385,106.8566,325.9969,104,310 M,0,225385,225418,104,310,106.8566,325.9969 M,0,225418,225452,106.8566,325.9969,109.7132,341.9939 M,0,225452,225485,109.7132,341.9939,106.8566,325.9969 M,0,225485,225518,106.8566,325.9969,104,310 M,0,225518,225552,104,310,106.8566,325.9969 M,0,225552,225585,106.8566,325.9969,109.7132,341.9939 M,7,225585,225652,109.7132,341.9939,148,379 M,0,225652,225685,148,379,146.5923,395.1889 M,0,225685,225718,146.5923,395.1889,145.1845,411.3778 M,0,225718,225752,145.1845,411.3778,146.5923,395.1889 M,0,225752,225785,146.5923,395.1889,148,379 M,7,225785,225919,148,379,229,399 M,0,225919,225952,229,399,232.9412,414.7648 M,0,225952,225985,232.9412,414.7648,236.8824,430.5296 M,0,225985,226019,236.8824,430.5296,232.9412,414.7648 M,0,226019,226052,232.9412,414.7648,229,399 M,7,226052,226186,229,399,206,317 M,0,226186,226219,206,317,205.3088,300.7849 M,0,226219,226252,205.3088,300.7849,207.4013,284.6906 M,0,226252,226286,207.4013,284.6906,212.2157,269.1915 M,0,226286,226319,212.2157,269.1915,219.6101,254.7444 M,7,226319,226386,219.6101,254.7444,224,251 M,7,226386,226452,224,251,229,246 M,0,226452,226485,229,246,236.3163,231.5148 M,0,226485,226518,236.3163,231.5148,240.9899,215.9756 M,0,226518,226552,240.9899,215.9756,242.8774,199.8603 M,0,226552,226585,242.8774,199.8603,242,184 M,7,226585,226719,242,184,178,127 M,0,226719,226752,178,127,193.4506,122.073 M,0,226752,226785,193.4506,122.073,208.141,115.2605 M,0,226785,226819,208.141,115.2605,221.7037,106.4134 M,0,226819,226852,221.7037,106.4134,233.8588,95.71408 M,7,226852,226986,233.8588,95.71408,311,130 S,19,227252,227452,3.5,17.5 F,0,227252,227752,0.65,0
Sprite,Foreground,Centre,"sb/glow.png",0,0 S,19,210186,211286,1.2,0.9 F,2,210986,211286,1,0 C,0,210186,,212,0,0 M,0,210186,210219,445,397,441.7818,396.5461 M,0,210219,210252,441.7818,396.5461,438.5637,396.0923 M,0,210252,210286,438.5637,396.0923,435.3455,395.6385 M,0,210286,210319,435.3455,395.6385,432.1274,395.1846 M,0,210319,210352,432.1274,395.1846,428.9092,394.7308 M,0,210352,210386,428.9092,394.7308,425.6911,394.2769 M,0,210386,210419,425.6911,394.2769,422.4729,393.8231 M,0,210419,210452,422.4729,393.8231,419.2548,393.3693 M,0,210452,210486,419.2548,393.3693,416.0366,392.9154 M,0,210486,210519,416.0366,392.9154,412.8185,392.4616 M,0,210519,210552,412.8185,392.4616,409.6003,392.0077 M,0,210552,210586,409.6003,392.0077,406.3821,391.5539 M,0,210586,210619,406.3821,391.5539,403.164,391.1 M,0,210619,210652,403.164,391.1,399.9458,390.6462 M,0,210652,210686,399.9458,390.6462,396.7277,390.1924 M,0,210686,210719,396.7277,390.1924,393.5095,389.7385 M,0,210719,210752,393.5095,389.7385,390.2914,389.2847 M,0,210752,210786,390.2914,389.2847,387.0732,388.8308 M,0,210786,210819,387.0732,388.8308,383.855,388.377 M,0,210819,210852,383.855,388.377,380.6369,387.9232 M,0,210852,210886,380.6369,387.9232,377.4187,387.4693 M,0,210886,210919,377.4187,387.4693,374.2006,387.0155 M,0,210919,210952,374.2006,387.0155,370.9824,386.5616 M,0,210952,210986,370.9824,386.5616,367.7643,386.1078
Sprite,Foreground,Centre,"sb/glow.png",0,0 S,19,211252,211729,1.2,0.9 F,2,211429,211729,1,0 C,0,211252,,212,0,0 M,0,211252,211285,262,430,260.7401,413.8739 M,0,211285,211318,260.7401,413.8739,256.5594,398.3044 M,0,211318,211352,256.5594,398.3044,249.1878,383.9659 M,0,211352,211385,249.1878,383.9659,238.9561,371.5034 M,0,211385,211418,238.9561,371.5034,226.3235,361.4779 M,0,211418,211429,226.3235,361.4779,221.8129,358.4837
Sprite,Foreground,Centre,"sb/glow.png",0,0 S,19,211519,211996,1.2,0.9 F,2,211696,211996,1,0 C,0,211519,,212,0,0 M,0,211519,211552,171,341,166.6329,325.3934 M,0,211552,211585,166.6329,325.3934,164.5718,309.3511 M,0,211585,211619,164.5718,309.3511,164.433,303.9599 M,0,211619,211652,164.433,303.9599,165.608,320.0989 M,0,211652,211685,165.608,320.0989,169.4361,335.8206 M,0,211685,211696,169.4361,335.8206,171,341
Sprite,Foreground,Centre,"sb/glow.png",126,369 S,19,211786,212086,1.2,0.9 F,2,211786,212086,1,0 C,0,211786,,212,0,0
Sprite,Foreground,Centre,"sb/glow.png",0,0 S,19,212052,212552,1.2,0.9 F,2,212252,212552,1,0 C,0,212052,,212,0,0 M,0,212052,212085,75,221,77.23549,204.9045 M,0,212085,212118,77.23549,204.9045,79.47097,188.809 M,0,212118,212152,79.47097,188.809,77.23549,204.9045 M,0,212152,212185,77.23549,204.9045,75,221 M,0,212185,212218,75,221,77.23549,204.9045 M,0,212218,212252,77.23549,204.9045,79.47097,188.809
Sprite,Foreground,Centre,"sb/glow.png",110,164 S,19,212319,212619,1.2,0.9 F,2,212319,212619,1,0 C,0,212319,,212,0,0
Sprite,Foreground,Centre,"sb/glow.png",0,0 S,19,212586,213086,1.2,0.9 F,2,212786,213086,1,0 C,0,212586,,212,0,0 M,0,212586,212619,245,241,247.2355,257.0955 M,0,212619,212652,247.2355,257.0955,249.471,273.191 M,0,212652,212686,249.471,273.191,247.2355,257.0955 M,0,212686,212719,247.2355,257.0955,245,241 M,0,212719,212752,245,241,247.2355,257.0955 M,0,212752,212786,247.2355,257.0955,249.471,273.191
Sprite,Foreground,Centre,"sb/glow.png",280,298 S,19,212853,213153,1.2,0.9 F,2,212853,213153,1,0 C,0,212853,,212,0,0
Sprite,Foreground,Centre,"sb/glow.png",0,0 S,19,213119,213552,1.2,0.9 F,2,213252,213552,1,0 C,0,213119,,212,0,0 M,0,213119,213152,415,221,416.7466,204.8441 M,0,213152,213185,416.7466,204.8441,418.4932,188.6883 M,0,213185,213219,418.4932,188.6883,420.2397,172.5324 M,0,213219,213252,420.2397,172.5324,421.9863,156.3765
Sprite,Foreground,Centre,"sb/glow.png",349,113 S,19,213386,213686,1.2,0.9 F,2,213386,213686,1,0 C,0,213386,,212,0,0
Sprite,Foreground,Centre,"sb/glow.png",349,113 S,19,213452,213752,1.2,0.9 F,2,213452,213752,1,0 C,0,213452,,212,0,0
Sprite,Foreground,Centre,"sb/glow.png",0,0 S,19,213519,214152,1.2,0.9 F,2,213852,214152,1,0 C,0,213519,,212,0,0 M,0,213519,213552,349,113,344.9639,128.7408 M,0,213552,213585,344.9639,128.7408,340.9278,144.4816 M,0,213585,213619,340.9278,144.4816,344.9639,128.7408 M,0,213619,213652,344.9639,128.7408,349,113 M,0,213652,213685,349,113,344.9639,128.7408 M,0,213685,213719,344.9639,128.7408,340.9278,144.4816 M,0,213719,213752,340.9278,144.4816,344.9639,128.7408 M,0,213752,213785,344.9639,128.7408,349,113 M,0,213785,213819,349,113,344.9639,128.7408 M,0,213819,213852,344.9639,128.7408,340.9278,144.4816
Sprite,Foreground,Centre,"sb/glow.png",0,0 S,19,213919,214352,1.2,0.9 F,2,214052,214352,1,0 C,0,213919,,212,0,0 M,0,213919,213952,313,172,299.3669,163.1569 M,0,213952,213985,299.3669,163.1569,285.7338,154.3138 M,0,213985,214019,285.7338,154.3138,271.3674,147.6244 M,0,214019,214052,271.3674,147.6244,255.1705,146.3111
Sprite,Foreground,Centre,"sb/glow.png",178,162 S,19,214186,214486,1.2,0.9 F,2,214186,214486,1,0 C,0,214186,,212,0,0
Sprite,Foreground,Centre,"sb/w.png",0,0 S,2,125393,125859,1,0.2 F,2,125393,125859,1,0 P,0,125393,125859,A C,0,125393,,245,134,101 M,0,125393,125426,295,343,297.0156,326.8755 M,0,125426,125459,297.0156,326.8755,299.0311,310.751 M,0,125459,125492,299.0311,310.751,301.0467,294.6265 M,0,125492,125526,301.0467,294.6265,303.0623,278.502 M,0,125526,125559,303.0623,278.502,310.2638,264.9771 M,0,125559,125592,310.2638,264.9771,321.9774,253.7141 M,0,125592,125626,321.9774,253.7141,333.6909,242.4511 M,0,125626,125659,333.6909,242.4511,345.4044,231.188
Sprite,Foreground,Centre,"sb/w.png",0,0 S,2,125793,126259,1,0.2 F,2,125793,126259,1,0 P,0,125793,126259,A C,0,125793,,245,134,101 M,0,125793,125826,289,167,301.1849,156.2487 M,0,125826,125859,301.1849,156.2487,313.3698,145.4973 M,0,125859,125892,313.3698,145.4973,325.5546,134.7459 M,0,125892,125926,325.5546,134.7459,337.7395,123.9946 M,0,125926,125959,337.7395,123.9946,341.8983,108.9016 M,0,125959,125992,341.8983,108.9016,344.229,92.81956 M,0,125992,126026,344.229,92.81956,346.5598,76.73758 M,0,126026,126059,346.5598,76.73758,348.8905,60.65559
Sprite,Foreground,Centre,"sb/w.png",433,59 S,2,126193,126393,1,0.2 F,2,126193,126393,1,0 P,0,126193,126393,A C,0,126193,,193,193,193
Sprite,Foreground,Centre,"sb/w.png",433,59 S,2,126326,126526,1,0.2 F,2,126326,126526,1,0 P,0,126326,126526,A C,0,126326,,193,193,193
Sprite,Foreground,Centre,"sb/w.png",0,0 S,2,126459,126792,1,0.2 F,2,126459,126792,1,0 P,0,126459,126792,A C,0,126459,,193,193,193 M,0,126459,126492,491,119,488.5009,134.9968 M,0,126492,126525,488.5009,134.9968,488.7191,151.1431 M,0,126525,126558,488.7191,151.1431,492.0297,166.9479 M,0,126558,126592,492.0297,166.9479,498.3098,181.8246
Sprite,Foreground,Centre,"sb/w.png",440,244 S,2,126726,126926,1,0.2 F,2,126726,126926,1,0 P,0,126726,126926,A C,0,126726,,193,193,193
Sprite,Foreground,Centre,"sb/w.png",440,244 S,2,126859,127059,1,0.2 F,2,126859,127059,1,0 P,0,126859,127059,A C,0,126859,,193,193,193
Sprite,Foreground,Centre,"sb/w.png",0,0 S,2,128593,129059,1,0.2 F,2,128593,129059,1,0 P,0,128593,129059,A C,0,128593,,245,134,101 M,0,128593,128626,167,237,183.2075,235.8255 M,0,128626,128659,183.2075,235.8255,199.415,234.6511 M,0,128659,128692,199.415,234.6511,215.6225,233.4766 M,0,128692,128726,215.6225,233.4766,231.83,232.3022 M,0,128726,128759,231.83,232.3022,245.9076,225.1078 M,0,128759,128792,245.9076,225.1078,259.2473,215.828 M,0,128792,128826,259.2473,215.828,272.587,206.5482 M,0,128826,128859,272.587,206.5482,285.9267,197.2684
Sprite,Foreground,Centre,"sb/w.png",0,0 S,2,128993,129459,1,0.2 F,2,128993,129459,1,0 P,0,128993,129459,A C,0,128993,,245,134,101 M,0,128993,129026,332,268,345.2232,258.5549 M,0,129026,129059,345.2232,258.5549,358.4464,249.1098 M,0,129059,129092,358.4464,249.1098,371.6695,239.6646 M,0,129092,129126,371.6695,239.6646,385.7712,232.6543 M,0,129126,129159,385.7712,232.6543,401.9787,231.4798 M,0,129159,129192,401.9787,231.4798,418.1862,230.3053 M,0,129192,129226,418.1862,230.3053,434.3937,229.1309 M,0,129226,129259,434.3937,229.1309,450,228
Sprite,Foreground,Centre,"sb/w.png",0,0 S,2,129393,129726,1,0.2 F,2,129393,129726,1,0 P,0,129393,129726,A C,0,129393,,193,193,193 M,0,129393,129426,522,182,514.3357,167.671 M,0,129426,129459,514.3357,167.671,506.6713,153.342 M,0,129459,129492,506.6713,153.342,499.007,139.013 M,0,129492,129526,499.007,139.013,496.0957,123.0266
Sprite,Foreground,Centre,"sb/w.png",0,0 S,2,129659,129992,1,0.2 F,2,129659,129992,1,0 P,0,129659,129992,A C,0,129659,,193,193,193 M,0,129659,129692,417,92,411.8613,107.4161 M,0,129692,129725,411.8613,107.4161,406.7226,122.8322 M,0,129725,129758,406.7226,122.8322,403.5842,138.4398 M,0,129758,129792,403.5842,138.4398,405.7041,154.551
Sprite,Foreground,Centre,"sb/w.png",450,228 S,2,129926,130126,1,0.2 F,2,129926,130126,1,0 P,0,129926,130126,A C,0,129926,,221,66,70
Sprite,Foreground,Centre,"sb/w.png",427,302 S,2,130059,130259,1,0.2 F,2,130059,130259,1,0 P,0,130059,130259,A C,0,130059,,221,66,70
Sprite,Foreground,Centre,"sb/w.png",0,0 S,2,131793,132259,1,0.2 F,2,131793,132259,1,0 P,0,131793,132259,A C,0,131793,,193,193,193 M,0,131793,131826,401,136,411.0396,148.7777 M,0,131826,131859,411.0396,148.7777,421.0792,161.5553 M,0,131859,131893,421.0792,161.5553,431.1188,174.333 M,0,131893,131926,431.1188,174.333,441.1584,187.1107 M,0,131926,131959,441.1584,187.1107,445.8108,201.9992 M,0,131959,131993,445.8108,201.9992,447.124,218.1961 M,0,131993,132026,447.124,218.1961,448.4373,234.3929 M,0,132026,132059,448.4373,234.3929,449.7505,250.5898
Sprite,Foreground,Centre,"sb/w.png",0,0 S,2,132193,132659,1,0.2 F,2,132193,132659,1,0 P,0,132193,132659,A C,0,132193,,193,193,193 M,0,132193,132226,529,217,530.2959,233.1982 M,0,132226,132259,530.2959,233.1982,531.5917,249.3965 M,0,132259,132293,531.5917,249.3965,532.8876,265.5947 M,0,132293,132326,532.8876,265.5947,534.1835,281.793 M,0,132326,132359,534.1835,281.793,538.7649,296.6852 M,0,132359,132393,538.7649,296.6852,548.9437,309.3522 M,0,132393,132426,548.9437,309.3522,559.1226,322.0192 M,0,132426,132459,559.1226,322.0192,569.3014,334.6862
Sprite,Foreground,Centre,"sb/w.png",522,405 S,2,132593,132793,1,0.2 F,2,132593,132793,1,0 P,0,132593,132793,A C,0,132593,,221,66,70
Sprite,Foreground,Centre,"sb/w.png",522,405 S,2,132726,132926,1,0.2 F,2,132726,132926,1,0 P,0,132726,132926,A C,0,132726,,221,66,70
Sprite,Foreground,Centre,"sb/w.png",0,0 S,2,132859,133192,1,0.2 F,2,132859,133192,1,0 P,0,132859,133192,A C,0,132859,,221,66,70 M,0,132859,132892,458,349,442.6548,343.8549 M,0,132892,132925,442.6548,343.8549,426.7034,341.4115 M,0,132925,132959,426.7034,341.4115,410.5814,342.1526 M,0,132959,132992,410.5814,342.1526,394.9177,346.0502
Sprite,Foreground,Centre,"sb/w.png",338,408 S,2,133126,133326,1,0.2 F,2,133126,133326,1,0 P,0,133126,133326,A C,0,133126,,221,66,70
Sprite,Foreground,Centre,"sb/w.png",338,408 S,2,133259,133459,1,0.2 F,2,133259,133459,1,0 P,0,133259,133459,A C,0,133259,,221,66,70
Sprite,Foreground,Centre,"sb/w.png",0,0 S,2,122193,122659,1,0.2 F,2,122193,122659,1,0 P,0,122193,122659,A C,0,122193,,138,138,138 M,0,122193,122226,530,153,524.7935,168.3933 M,0,122226,122259,524.7935,168.3933,519.5869,183.7866 M,0,122259,122292,519.5869,183.7866,514.3803,199.1799 M,0,122292,122326,514.3803,199.1799,509.1737,214.5733 M,0,122326,122359,509.1737,214.5733,509.5334,230.1203 M,0,122359,122392,509.5334,230.1203,513.8826,245.7774 M,0,122392,122426,513.8826,245.7774,518.2318,261.4346 M,0,122426,122459,518.2318,261.4346,522.5811,277.0918
Sprite,Foreground,Centre,"sb/w.png",0,0 S,2,122593,123059,1,0.2 F,2,122593,123059,1,0 P,0,122593,123059,A C,0,122593,,138,138,138 M,0,122593,122626,437,273,441.2938,288.6725 M,0,122626,122659,441.2938,288.6725,445.5876,304.3449 M,0,122659,122692,445.5876,304.3449,449.8815,320.0173 M,0,122692,122726,449.8815,320.0173,454.1753,335.6898 M,0,122726,122759,454.1753,335.6898,455.2186,351.2667 M,0,122759,122792,455.2186,351.2667,450.0121,366.6601 M,0,122792,122826,450.0121,366.6601,444.8055,382.0534 M,0,122826,122859,444.8055,382.0534,439.5989,397.4467
Sprite,Foreground,Centre,"sb/w.png",0,0 S,2,122993,123326,1,0.2 F,2,122993,123326,1,0 P,0,122993,123326,A C,0,122993,,245,134,101 M,0,122993,123026,355,406,353.5923,389.8111 M,0,123026,123059,353.5923,389.8111,352.1845,373.6222 M,0,123059,123092,352.1845,373.6222,349.7834,357.7289 M,0,123092,123126,349.7834,357.7289,342.1098,343.4049
Sprite,Foreground,Centre,"sb/w.png",0,0 S,2,123259,123592,1,0.2 F,2,123259,123592,1,0 P,0,123259,123592,A C,0,123259,,245,134,101 M,0,123259,123292,259,326,260.4077,309.8111 M,0,123292,123325,260.4077,309.8111,261.8155,293.6222 M,0,123325,123358,261.8155,293.6222,264.2166,277.7289 M,0,123358,123392,264.2166,277.7289,271.8902,263.4049
Sprite,Foreground,Centre,"sb/w.png",341,214 S,2,123526,123726,1,0.2 F,2,123526,123726,1,0 P,0,123526,123726,A C,0,123526,,193,193,193
Sprite,Foreground,Centre,"sb/w.png",296,150 S,2,123659,123859,1,0.2 F,2,123659,123859,1,0 P,0,123659,123859,A C,0,123659,,193,193,193
Sprite,Foreground,Centre,"sb/glow.png",220,69 S,19,146193,146493,1.2,0.9 F,2,146193,146493,1,0
Sprite,Foreground,Centre,"sb/glow.png",0,0 S,19,152593,153426,1.2,0.9 F,2,153126,153426,1,0 M,0,152593,152626,360,366,361.2916,349.8199 M,0,152626,152659,361.2916,349.8199,365.3179,334.1008 M,0,152659,152693,365.3179,334.1008,372.1748,319.3963 M,0,152693,152726,372.1748,319.3963,381.6373,306.2148 M,0,152726,152759,381.6373,306.2148,393.2892,294.9173 M,0,152759,152793,393.2892,294.9173,406.6317,285.6713 M,0,152793,152826,406.6317,285.6713,421.1717,278.4403 M,0,152826,152859,421.1717,278.4403,436.3319,272.5945 M,0,152859,152893,436.3319,272.5945,451.423,266.5773 M,0,152893,152926,451.423,266.5773,465.7779,258.9886 M,0,152926,152959,465.7779,258.9886,478.864,249.383 M,0,152959,152993,478.864,249.383,490.2465,237.8123 M,0,152993,153026,490.2465,237.8123,499.5324,224.5021 M,0,153026,153059,499.5324,224.5021,506.4327,209.8129 M,0,153059,153093,506.4327,209.8129,510.83,194.1888 M,0,153093,153126,510.83,194.1888,512.8189,178.0768
Sprite,Foreground,Centre,"sb/glow.png",0,0 S,19,153393,153826,1.2,0.9 F,2,153526,153826,1,0 M,0,153393,153426,375,79,380.1606,94.37702 M,0,153426,153459,380.1606,94.37702,383.5185,110.2233 M,0,153459,153493,383.5185,110.2233,384.7429,126.3764 M,0,153493,153526,384.7429,126.3764,383.8118,142.5509
Sprite,Foreground,Centre,"sb/glow.png",0,0 S,19,153659,154092,1.2,0.9 F,2,153792,154092,1,0 M,0,153659,153692,302,121,299.7084,137.0621 M,0,153692,153725,299.7084,137.0621,295.7349,152.7739 M,0,153725,153759,295.7349,152.7739,289.8703,167.8828 M,0,153759,153792,289.8703,167.8828,282.2023,182.1627
Sprite,Foreground,Centre,"sb/glow.png",0,0 S,19,153926,154359,1.2,0.9 F,2,154059,154359,1,0 M,0,153926,153959,217,128,205.0364,138.955 M,0,153959,153992,205.0364,138.955,191.95,148.5062 M,0,153992,154026,191.95,148.5062,177.7448,156.2997 M,0,154026,154059,177.7448,156.2997,162.6548,162.2065
Sprite,Foreground,Centre,"sb/glow.png",0,0 S,19,154193,154670,1.2,0.9 F,2,154370,154670,1,0 M,0,154193,154226,113,232,97.96373,226.2557 M,0,154226,154259,97.96373,226.2557,82.07596,224.459 M,0,154259,154293,82.07596,224.459,76.7234,224.6934 M,0,154293,154326,76.7234,224.6934,92.77599,224.9868 M,0,154326,154359,92.77599,224.9868,108.0235,229.9188 M,0,154359,154370,108.0235,229.9188,113,232
Sprite,Foreground,Centre,"sb/glow.png",0,0 S,19,154459,154936,1.2,0.9 F,2,154636,154936,1,0 M,0,154459,154492,128,286,112.0838,288.4879 M,0,154492,154525,112.0838,288.4879,97.30173,294.6433 M,0,154525,154559,97.30173,294.6433,92.70309,297.4078 M,0,154559,154592,92.70309,297.4078,106.9327,289.9263 M,0,154592,154625,106.9327,289.9263,122.6466,286.6771 M,0,154625,154636,122.6466,286.6771,128,286
Sprite,Foreground,Centre,"sb/glow.png",0,0 S,19,154726,155203,1.2,0.9 F,2,154903,155203,1,0 M,0,154726,154759,157,334,144.2919,343.862 M,0,154759,154792,144.2919,343.862,134.6061,356.5624 M,0,154792,154826,134.6061,356.5624,132.0739,361.2824 M,0,154826,154859,132.0739,361.2824,140.5251,347.642 M,0,154859,154892,140.5251,347.642,152.6371,337.1694 M,0,154892,154903,152.6371,337.1694,157,334
Sprite,Foreground,Centre,"sb/glow.png",0,0 S,19,154993,155826,1.2,0.9 F,2,155526,155826,1,0 M,0,154993,155026,210,354,216.4479,339.1209 M,0,155026,155059,216.4479,339.1209,224.6977,325.1887 M,0,155059,155093,224.6977,325.1887,234.8671,312.589 M,0,155093,155126,234.8671,312.589,246.7446,301.584 M,0,155126,155159,246.7446,301.584,260.0829,292.403 M,0,155159,155193,260.0829,292.403,274.6045,285.2373 M,0,155193,155226,274.6045,285.2373,290.007,280.2363 M,0,155226,155259,290.007,280.2363,305.9699,277.5043 M,0,155259,155293,305.9699,277.5043,290.007,280.2363 M,0,155293,155326,290.007,280.2363,274.6045,285.2373 M,0,155326,155359,274.6045,285.2373,260.0829,292.403 M,0,155359,155393,260.0829,292.403,246.7446,301.584 M,0,155393,155426,246.7446,301.584,234.8671,312.589 M,0,155426,155459,234.8671,312.589,224.6977,325.1887 M,0,155459,155493,224.6977,325.1887,216.4479,339.1209 M,0,155493,155526,216.4479,339.1209,210,354
Sprite,Foreground,Centre,"sb/glow.png",0,0 S,19,155793,156626,1.2,0.9 F,2,156326,156626,1,0 M,0,155793,155826,369,411,369.9556,394.7958 M,0,155826,155859,369.9556,394.7958,373.4215,378.9393 M,0,155859,155893,373.4215,378.9393,379.3129,363.8167 M,0,155893,155926,379.3129,363.8167,387.4858,349.7967 M,0,155926,155959,387.4858,349.7967,397.7406,337.2207 M,0,155959,155993,397.7406,337.2207,409.827,326.3952 M,0,155993,156026,409.827,326.3952,423.45,317.5836 M,0,156026,156059,423.45,317.5836,438.2775,311.0005 M,0,156059,156093,438.2775,311.0005,453.9478,306.806 M,0,156093,156126,453.9478,306.806,470.0789,305.102 M,0,156126,156159,470.0789,305.102,486.2773,305.9296 M,0,156159,156193,486.2773,305.9296,502.1483,309.2683 M,0,156193,156226,502.1483,309.2683,517.3051,315.0365 M,0,156226,156259,517.3051,315.0365,531.3783,323.093 M,0,156259,156293,531.3783,323.093,544.025,333.2413 M,0,156293,156326,544.025,333.2413,554.9372,345.2337
Sprite,Foreground,Centre,"sb/glow.png",0,0 S,19,156593,157426,1.2,0.9 F,2,157126,157426,1,0 M,0,156593,156626,571,176,557.8914,185.5643 M,0,156626,156659,557.8914,185.5643,543.2892,192.6379 M,0,156659,156693,543.2892,192.6379,527.6615,196.9946 M,0,156693,156726,527.6615,196.9946,511.5089,198.4954 M,0,156726,156759,511.5089,198.4954,495.3492,197.0928 M,0,156759,156793,495.3492,197.0928,479.6998,192.8322 M,0,156793,156826,479.6998,192.8322,465.062,185.8507 M,0,156826,156859,465.062,185.8507,451.9045,176.3724 M,0,156859,156893,451.9045,176.3724,440.6485,164.7014 M,0,156893,156926,440.6485,164.7014,431.6542,151.212 M,0,156926,156959,431.6542,151.212,425.2094,136.3365 M,0,156959,156993,425.2094,136.3365,421.5199,120.5517 M,0,156993,157026,421.5199,120.5517,420.7037,104.3634 M,0,157026,157059,420.7037,104.3634,422.7863,88.29036 M,0,157059,157093,422.7863,88.29036,427.7004,72.84728 M,0,157093,157126,427.7004,72.84728,435.2884,58.52883
Sprite,Foreground,Centre,"sb/glow.png",0,0 S,19,157393,157959,1.2,0.9 F,2,157659,157959,1,0 M,0,157393,157426,266,75,271.9215,90.13269 M,0,157426,157459,271.9215,90.13269,277.843,105.2654 M,0,157459,157493,277.843,105.2654,283.7645,120.3981 M,0,157493,157526,283.7645,120.3981,289.686,135.5308 M,0,157526,157559,289.686,135.5308,298.2579,148.8534 M,0,157559,157593,298.2579,148.8534,310.1984,159.8755 M,0,157593,157626,310.1984,159.8755,322.139,170.8975 M,0,157626,157659,322.139,170.8975,334.0795,181.9196
Sprite,Foreground,Centre,"sb/glow.png",345,266 S,19,157793,158093,1.2,0.9 F,2,157793,158093,1,0
Sprite,Foreground,Centre,"sb/glow.png",277,420 S,19,158059,158359,1.2,0.9 F,2,158059,158359,1,0
Sprite,Foreground,Centre,"sb/glow.png",0,0 S,19,158186,158744,1.2,0.9 F,2,158444,158744,1,0 M,0,158186,158218,209,371,193.5457,376.0226 M,0,158218,158250,193.5457,376.0226,178.0914,381.0453 M,0,158250,158282,178.0914,381.0453,164.5734,389.0168 M,0,158282,158315,164.5734,389.0168,154,401 M,0,158315,158347,154,401,164.5734,389.0168 M,0,158347,158379,164.5734,389.0168,178.0914,381.0453 M,0,158379,158412,178.0914,381.0453,193.5457,376.0226 M,0,158412,158444,193.5457,376.0226,209,371
Sprite,Foreground,Centre,"sb/glow.png",225,288 S,19,158573,158873,1.2,0.9 F,2,158573,158873,1,0
Sprite,Foreground,Centre,"sb/glow.png",0,0 S,19,158703,159132,1.2,0.9 F,2,158832,159132,1,0 M,0,158703,158735,225,288,208.7684,287.2271 M,0,158735,158767,208.7684,287.2271,192.5368,286.4541 M,0,158767,158799,192.5368,286.4541,176.764,283.5434 M,0,158799,158832,176.764,283.5434,161.6449,277.5874
Sprite,Foreground,Centre,"sb/w.png",528,377 S,2,182986,183186,1,0.2 F,2,182986,183186,1,0 P,0,182986,183186,A C,0,182986,,245,134,101
Sprite,Foreground,Centre,"sb/w.png",515,373 S,2,183074,183274,1,0.2 F,2,183074,183274,1,0 P,0,183074,183274,A C,0,183074,,245,134,101
Sprite,Foreground,Centre,"sb/w.png",502,369 S,2,183163,183363,1,0.2 F,2,183163,183363,1,0 P,0,183163,183363,A C,0,183163,,245,134,101
Sprite,Foreground,Centre,"sb/w.png",0,0 S,2,183252,183629,1,0.2 F,2,183252,183629,1,0 P,0,183252,183629,A C,0,183252,,245,134,101 M,0,183252,183285,489,365,481.1278,350.8434 M,0,183285,183318,481.1278,350.8434,475.3622,335.7435 M,0,183318,183352,475.3622,335.7435,473.8687,330.5531 M,0,183352,183385,473.8687,330.5531,478.8315,345.9644 M,0,183385,183418,478.8315,345.9644,486.2918,360.3178 M,0,183418,183429,486.2918,360.3178,489,365
Sprite,Foreground,Centre,"sb/w.png",448,405 S,2,183519,183719,1,0.2 F,2,183519,183719,1,0 P,0,183519,183719,A C,0,183519,,245,134,101
Sprite,Foreground,Centre,"sb/w.png",319,352 S,2,183786,183986,1,0.2 F,2,183786,183986,1,0 P,0,183786,183986,A C,0,183786,,228,234,116
Sprite,Foreground,Centre,"sb/w.png",306,356 S,2,183874,184074,1,0.2 F,2,183874,184074,1,0 P,0,183874,184074,A C,0,183874,,228,234,116
Sprite,Foreground,Centre,"sb/w.png",293,360 S,2,183963,184163,1,0.2 F,2,183963,184163,1,0 P,0,183963,184163,A C,0,183963,,228,234,116
Sprite,Foreground,Centre,"sb/w.png",0,0 S,2,184052,184429,1,0.2 F,2,184052,184429,1,0 P,0,184052,184429,A C,0,184052,,228,234,116 M,0,184052,184085,280,364,272.1278,378.1566 M,0,184085,184118,272.1278,378.1566,266.3622,393.2565 M,0,184118,184152,266.3622,393.2565,264.8687,398.4469 M,0,184152,184185,264.8687,398.4469,269.8315,383.0356 M,0,184185,184218,269.8315,383.0356,277.2918,368.6822 M,0,184218,184229,277.2918,368.6822,280,364
Sprite,Foreground,Centre,"sb/w.png",0,0 S,2,184319,184696,1,0.2 F,2,184319,184696,1,0 P,0,184319,184696,A C,0,184319,,228,234,116 M,0,184319,184352,239,324,231.1278,309.8434 M,0,184352,184385,231.1278,309.8434,225.3622,294.7435 M,0,184385,184419,225.3622,294.7435,223.8687,289.5531 M,0,184419,184452,223.8687,289.5531,228.8315,304.9644 M,0,184452,184485,228.8315,304.9644,236.2918,319.3178 M,0,184485,184496,236.2918,319.3178,239,324
Sprite,Foreground,Centre,"sb/w.png",191,355 S,2,184586,184786,1,0.2 F,2,184586,184786,1,0 P,0,184586,184786,A C,0,184586,,245,134,101
Sprite,Foreground,Centre,"sb/glow.png",0,0 S,19,112060,112560,1.2,0.9 F,2,112260,112560,1,0 M,0,112060,112093,473,122,456.8925,119.8523 M,0,112093,112126,456.8925,119.8523,440.7851,117.7047 M,0,112126,112159,440.7851,117.7047,456.8925,119.8523 M,0,112159,112193,456.8925,119.8523,473,122 M,0,112193,112226,473,122,456.8925,119.8523 M,0,112226,112260,456.8925,119.8523,440.7851,117.7047
Sprite,Foreground,Centre,"sb/glow.png",0,0 S,19,112326,112759,1.2,0.9 F,2,112459,112759,1,0 M,0,112326,112359,415,151,398.8853,153.0928 M,0,112359,112392,398.8853,153.0928,382.7707,155.1856 M,0,112392,112425,382.7707,155.1856,366.656,157.2784 M,0,112425,112459,366.656,157.2784,350.5413,159.3713
Sprite,Foreground,Centre,"sb/glow.png",0,0 S,19,112593,113026,1.2,0.9 F,2,112726,113026,1,0 M,0,112593,112626,303,88,286.8853,85.90718 M,0,112626,112659,286.8853,85.90718,270.7707,83.81437 M,0,112659,112692,270.7707,83.81437,254.656,81.72156 M,0,112692,112726,254.656,81.72156,238.5413,79.62874
Sprite,Foreground,Centre,"sb/glow.png",0,0 S,19,112860,113293,1.2,0.9 F,2,112993,113293,1,0 M,0,112860,112893,195,152,181.1901,160.4922 M,0,112893,112926,181.1901,160.4922,166.4481,167.1736 M,0,112926,112959,166.4481,167.1736,150.8849,171.6299 M,0,112959,112993,150.8849,171.6299,134.8325,173.7649
Sprite,Foreground,Centre,"sb/glow.png",133,180 S,19,113060,113360,1.2,0.9 F,2,113060,113360,1,0
Sprite,Foreground,Centre,"sb/glow.png",0,0 S,19,113126,113559,1.2,0.9 F,2,113259,113559,1,0 M,0,113126,113159,131,186,117.4854,194.9333 M,0,113159,113192,117.4854,194.9333,105.432,205.7047 M,0,113192,113225,105.432,205.7047,95.35883,218.352 M,0,113225,113259,95.35883,218.352,87.55276,232.5173
Sprite,Foreground,Centre,"sb/glow.png",0,0 S,19,113393,113826,1.2,0.9 F,2,113526,113826,1,0 M,0,113393,113426,110,314,107.2602,330.0174 M,0,113426,113459,107.2602,330.0174,104.5204,346.0347 M,0,113459,113492,104.5204,346.0347,101.7806,362.0521 M,0,113492,113526,101.7806,362.0521,99.04076,378.0695
Sprite,Foreground,Centre,"sb/glow.png",0,0 S,19,113660,114093,1.2,0.9 F,2,113793,114093,1,0 M,0,113660,113693,174,417,181.1044,402.3853 M,0,113693,113726,181.1044,402.3853,188.2088,387.7705 M,0,113726,113759,188.2088,387.7705,195.3131,373.1558 M,0,113759,113793,195.3131,373.1558,202.4175,358.5411
Sprite,Foreground,Centre,"sb/glow.png",0,0 S,19,113926,114359,1.2,0.9 F,2,114059,114359,1,0 M,0,113926,113959,282,333,284.6064,349.0396 M,0,113959,113992,284.6064,349.0396,287.2129,365.0792 M,0,113992,114025,287.2129,365.0792,289.8193,381.1188 M,0,114025,114059,289.8193,381.1188,292.4258,397.1584
Sprite,Foreground,Centre,"sb/glow.png",298,398 S,19,114126,114426,1.2,0.9 F,2,114126,114426,1,0
Sprite,Foreground,Centre,"sb/glow.png",0,0 S,19,114193,114626,1.2,0.9 F,2,114326,114626,1,0 M,0,114193,114226,304,399,306.9439,414.9811 M,0,114226,114259,306.9439,414.9811,309.8878,430.9622 M,0,114259,114292,309.8878,430.9622,306.9439,414.9811 M,0,114292,114326,306.9439,414.9811,304,399
Sprite,Foreground,Centre,"sb/glow.png",363,348 S,19,114460,114760,1.2,0.9 F,2,114460,114760,1,0
Sprite,Foreground,Centre,"sb/glow.png",0,0 S,19,114593,115026,1.2,0.9 F,2,114726,115026,1,0 M,0,114593,114626,427,305,429.9439,289.0189 M,0,114626,114659,429.9439,289.0189,432.8878,273.0378 M,0,114659,114692,432.8878,273.0378,429.9439,289.0189 M,0,114692,114726,429.9439,289.0189,427,305
Sprite,Foreground,Centre,"sb/glow.png",486,356 S,19,114860,115160,1.2,0.9 F,2,114860,115160,1,0
Sprite,Foreground,Centre,"sb/glow.png",0,0 S,19,114993,115426,1.2,0.9 F,2,115126,115426,1,0 M,0,114993,115026,542,409,551.671,396.052 M,0,115026,115059,551.671,396.052,558.6569,381.548 M,0,115059,115092,558.6569,381.548,562.2391,365.8449 M,0,115092,115126,562.2391,365.8449,562.2342,349.7267
Sprite,Foreground,Centre,"sb/glow.png",0,0 S,19,115260,115760,1.2,0.9 F,2,115460,115760,1,0 M,0,115260,115293,520,283,522.8443,267.0009 M,0,115293,115326,522.8443,267.0009,525.6886,251.0017 M,0,115326,115359,525.6886,251.0017,522.8443,267.0009 M,0,115359,115393,522.8443,267.0009,520,283 M,0,115393,115426,520,283,522.8443,267.0009 M,0,115426,115460,522.8443,267.0009,525.6886,251.0017
Sprite,Foreground,Centre,"sb/glow.png",0,0 S,19,115526,115959,1.2,0.9 F,2,115659,115959,1,0 M,0,115526,115559,564,234,560.3791,218.1586 M,0,115559,115592,560.3791,218.1586,556.7582,202.3171 M,0,115592,115625,556.7582,202.3171,553.1373,186.4756 M,0,115625,115659,553.1373,186.4756,549.5164,170.6342
Sprite,Foreground,Centre,"sb/glow.png",0,0 S,19,115793,116293,1.2,0.9 F,2,115993,116293,1,0 M,0,115793,115826,476,127,473.1557,142.9991 M,0,115826,115859,473.1557,142.9991,470.3114,158.9983 M,0,115859,115892,470.3114,158.9983,473.1557,142.9991 M,0,115892,115926,473.1557,142.9991,476,127 M,0,115926,115959,476,127,473.1557,142.9991 M,0,115959,115993,473.1557,142.9991,470.3114,158.9983
Sprite,Foreground,Centre,"sb/glow.png",0,0 S,19,116059,116492,1.2,0.9 F,2,116192,116492,1,0 M,0,116059,116092,432,176,435.6209,191.8414 M,0,116092,116125,435.6209,191.8414,439.2418,207.6829 M,0,116125,116158,439.2418,207.6829,442.8627,223.5244 M,0,116158,116192,442.8627,223.5244,446.4836,239.3658
Sprite,Foreground,Centre,"sb/glow.png",0,0 S,19,116326,116826,1.2,0.9 F,2,116526,116826,1,0 M,0,116326,116359,388,301,380.1688,286.7615 M,0,116359,116392,380.1688,286.7615,372.3376,272.523 M,0,116392,116425,372.3376,272.523,380.1688,286.7615 M,0,116425,116459,380.1688,286.7615,388,301 M,0,116459,116492,388,301,380.1688,286.7615 M,0,116492,116526,380.1688,286.7615,372.3376,272.523
Sprite,Foreground,Centre,"sb/glow.png",0,0 S,19,116593,117026,1.2,0.9 F,2,116726,117026,1,0 M,0,116593,116626,336,249,332.1046,264.7762 M,0,116626,116659,332.1046,264.7762,328.2093,280.5524 M,0,116659,116692,328.2093,280.5524,324.3139,296.3286 M,0,116692,116726,324.3139,296.3286,320.4185,312.1048
Sprite,Foreground,Centre,"sb/glow.png",0,0 S,19,116860,117293,1.2,0.9 F,2,116993,117293,1,0 M,0,116860,116893,235,305,222.3109,315.1513 M,0,116893,116926,222.3109,315.1513,209.6218,325.3026 M,0,116926,116959,209.6218,325.3026,196.9326,335.4539 M,0,116959,116993,196.9326,335.4539,184.2435,345.6052
Sprite,Foreground,Centre,"sb/glow.png",0,0 S,19,117126,117559,1.2,0.9 F,2,117259,117559,1,0 M,0,117126,117159,127,283,116.2884,270.8799 M,0,117159,117192,116.2884,270.8799,103.5396,261.0138 M,0,117192,117225,103.5396,261.0138,88.97173,254.1105 M,0,117225,117259,88.97173,254.1105,73.26204,250.4912
Sprite,Foreground,Centre,"sb/glow.png",72,243 S,19,117326,117626,1.2,0.9 F,2,117326,117626,1,0
Sprite,Foreground,Centre,"sb/glow.png",0,0 S,19,117393,117826,1.2,0.9 F,2,117526,117826,1,0 M,0,117393,117426,71,236,72.25264,219.8308 M,0,117426,117459,72.25264,219.8308,76.95889,204.3115 M,0,117459,117492,76.95889,204.3115,84.89754,190.1708 M,0,117492,117526,84.89754,190.1708,95.69565,178.0727
Sprite,Foreground,Centre,"sb/glow.png",0,0 S,19,117660,118093,1.2,0.9 F,2,117793,118093,1,0 M,0,117660,117693,170,137,175.2097,152.3923 M,0,117693,117726,175.2097,152.3923,180.4194,167.7845 M,0,117726,117759,180.4194,167.7845,185.6291,183.1768 M,0,117759,117793,185.6291,183.1768,190.8387,198.569
Sprite,Foreground,Centre,"sb/glow.png",0,0 S,19,117926,118359,1.2,0.9 F,2,118059,118359,1,0 M,0,117926,117959,274,193,274.8322,176.7713 M,0,117959,117992,274.8322,176.7713,275.6645,160.5426 M,0,117992,118025,275.6645,160.5426,276.4967,144.314 M,0,118025,118059,276.4967,144.314,277.329,128.0853
Sprite,Foreground,Centre,"sb/w.png",0,0 S,2,68326,68726,1,0.2 F,2,68326,68726,1,0 P,0,68326,68726,A C,0,68326,,245,134,101 M,0,68326,68359,418,341,422.2757,325.3226 M,0,68359,68392,422.2757,325.3226,426.5513,309.6452 M,0,68392,68425,426.5513,309.6452,422.2757,325.3226 M,0,68425,68459,422.2757,325.3226,418,341 M,0,68459,68492,418,341,422.2757,325.3226 M,0,68492,68526,422.2757,325.3226,426.5513,309.6452
Sprite,Foreground,Centre,"sb/w.png",0,0 S,2,68593,68926,1,0.2 F,2,68593,68926,1,0 P,0,68593,68926,A C,0,68593,,245,134,101 M,0,68593,68626,394,286,398.8934,270.5043 M,0,68626,68659,398.8934,270.5043,403.7868,255.0086 M,0,68659,68692,403.7868,255.0086,408.6801,239.5128 M,0,68692,68726,408.6801,239.5128,413.5735,224.0171
Sprite,Foreground,Centre,"sb/w.png",385,151 S,2,68860,69060,1,0.2 F,2,68860,69060,1,0 P,0,68860,69060,A C,0,68860,,245,134,101
Sprite,Foreground,Centre,"sb/w.png",385,151 S,2,68926,69126,1,0.2 F,2,68926,69126,1,0 P,0,68926,69126,A C,0,68926,,245,134,101
Sprite,Foreground,Centre,"sb/w.png",0,0 S,2,68993,69526,1,0.2 F,2,68993,69526,1,0 P,0,68993,69526,A C,0,68993,,245,134,101 M,0,68993,69026,385,151,388.9412,135.2352 M,0,69026,69059,388.9412,135.2352,392.8824,119.4704 M,0,69059,69092,392.8824,119.4704,388.9412,135.2352 M,0,69092,69126,388.9412,135.2352,385,151 M,0,69126,69159,385,151,388.9412,135.2352 M,0,69159,69192,388.9412,135.2352,392.8824,119.4704 M,0,69192,69226,392.8824,119.4704,388.9412,135.2352 M,0,69226,69259,388.9412,135.2352,385,151 M,0,69259,69292,385,151,388.9412,135.2352 M,0,69292,69326,388.9412,135.2352,392.8824,119.4704
Sprite,Foreground,Centre,"sb/a.png",0,0 S,0,100860,,3.5 C,0,100860,,0,0,0 F,2,100660,100860,0,0.65 M,7,100660,100860,77,219 M,0,100860,100893,77,219,74.93358,202.8819 M,0,100893,100926,74.93358,202.8819,72.86716,186.7638 M,0,100926,100959,72.86716,186.7638,74.93358,202.8819 M,0,100959,100993,74.93358,202.8819,77,219 M,0,100993,101026,77,219,74.93358,202.8819 M,0,101026,101060,74.93358,202.8819,72.86716,186.7638 M,7,101060,101126,72.86716,186.7638,113,174 M,0,101126,101159,113,174,116.5922,158.152 M,0,101159,101192,116.5922,158.152,120.1844,142.304 M,0,101192,101225,120.1844,142.304,123.7766,126.4561 M,0,101225,101259,123.7766,126.4561,127.3688,110.6081 M,7,101259,101393,127.3688,110.6081,211,88 M,7,101393,101460,211,88 M,7,101460,101526,211,88 M,0,101526,101559,211,88,213.8566,103.9969 M,0,101559,101592,213.8566,103.9969,216.7132,119.9939 M,0,101592,101625,216.7132,119.9939,213.8566,103.9969 M,0,101625,101659,213.8566,103.9969,211,88 M,0,101659,101692,211,88,213.8566,103.9969 M,0,101692,101725,213.8566,103.9969,216.7132,119.9939 M,0,101725,101759,216.7132,119.9939,213.8566,103.9969 M,0,101759,101792,213.8566,103.9969,211,88 M,0,101792,101825,211,88,213.8566,103.9969 M,0,101825,101859,213.8566,103.9969,216.7132,119.9939 M,7,101859,101926,216.7132,119.9939,258,153 M,7,101926,101993,258,153 M,7,101993,102059,258,153 M,0,102059,102092,258,153,255.1434,168.9969 M,0,102092,102125,255.1434,168.9969,252.2868,184.9939 M,0,102125,102158,252.2868,184.9939,255.1434,168.9969 M,0,102158,102192,255.1434,168.9969,258,153 M,0,102192,102225,258,153,255.1434,168.9969 M,0,102225,102258,255.1434,168.9969,252.2868,184.9939 M,0,102258,102292,252.2868,184.9939,255.1434,168.9969 M,0,102292,102325,255.1434,168.9969,258,153 M,0,102325,102358,258,153,255.1434,168.9969 M,0,102358,102392,255.1434,168.9969,252.2868,184.9939 M,7,102392,102460,252.2868,184.9939,218,211 M,0,102460,102493,218,211,217.6223,227.2249 M,0,102493,102526,217.6223,227.2249,214.5551,243.1596 M,0,102526,102559,214.5551,243.1596,208.8844,258.3614 M,0,102559,102593,208.8844,258.3614,200.7684,272.4082 M,7,102593,102726,200.7684,272.4082,192,369 M,0,102726,102759,192,369,204.9995,359.3209 M,0,102759,102792,204.9995,359.3209,219.1962,351.5672 M,0,102792,102825,219.1962,351.5672,234.4547,346.1951 M,0,102825,102859,234.4547,346.1951,250.3792,343.3444 M,7,102859,102993,250.3792,343.3444,331,375 M,7,102993,103126,331,375,320,291 M,0,103126,103159,320,291,323.2283,275.0739 M,0,103159,103192,323.2283,275.0739,326.4565,259.1478 M,0,103192,103225,326.4565,259.1478,329.6848,243.2217 M,0,103225,103259,329.6848,243.2217,332.9131,227.2956 M,0,103259,103292,332.9131,227.2956,329.6848,243.2217 M,0,103292,103325,329.6848,243.2217,326.4565,259.1478 M,0,103325,103359,326.4565,259.1478,323.2283,275.0739 M,0,103359,103392,323.2283,275.0739,320,291 S,19,103526,103726,3.5,17.5 F,0,103526,104026,0.65,0
Sprite,Foreground,Centre,"sb/w.png",0,0 S,2,118193,118526,1,0.2 F,2,118193,118526,1,0 P,0,118193,118526,A C,0,118193,,193,193,193 M,0,118193,118226,357,100,362.1471,115.3602 M,0,118226,118259,362.1471,115.3602,369.4767,129.7663 M,0,118259,118292,369.4767,129.7663,379.153,142.7171 M,0,118292,118326,379.153,142.7171,390.8955,153.8349
Sprite,Foreground,Centre,"sb/w.png",482,168 S,2,118460,118660,1,0.2 F,2,118460,118660,1,0 P,0,118460,118660,A C,0,118460,,221,66,70
Sprite,Foreground,Centre,"sb/w.png",482,168 S,2,118526,118726,1,0.2 F,2,118526,118726,1,0 P,0,118526,118726,A C,0,118526,,221,66,70
Sprite,Foreground,Centre,"sb/w.png",0,0 S,2,118593,119059,1,0.2 F,2,118593,119059,1,0 P,0,118593,119059,A C,0,118593,,221,66,70 M,0,118593,118626,482,168,486.6247,152.422 M,0,118626,118659,486.6247,152.422,491.2495,136.844 M,0,118659,118692,491.2495,136.844,495.8742,121.266 M,0,118692,118726,495.8742,121.266,500.4989,105.688 M,0,118726,118759,500.4989,105.688,495.8742,121.266 M,0,118759,118792,495.8742,121.266,491.2495,136.844 M,0,118792,118826,491.2495,136.844,486.6247,152.422 M,0,118826,118859,486.6247,152.422,482,168
Sprite,Foreground,Centre,"sb/w.png",536,246 S,2,118993,119193,1,0.2 F,2,118993,119193,1,0 P,0,118993,119193,A C,0,118993,,138,138,138
Sprite,Foreground,Centre,"sb/w.png",536,246 S,2,119059,119259,1,0.2 F,2,119059,119259,1,0 P,0,119059,119259,A C,0,119059,,138,138,138
Sprite,Foreground,Centre,"sb/w.png",0,0 S,2,119126,119592,1,0.2 F,2,119126,119592,1,0 P,0,119126,119592,A C,0,119126,,138,138,138 M,0,119126,119159,536,246,540.6248,261.578 M,0,119159,119192,540.6248,261.578,545.2495,277.156 M,0,119192,119225,545.2495,277.156,549.8741,292.734 M,0,119225,119259,549.8741,292.734,554.4989,308.312 M,0,119259,119292,554.4989,308.312,549.8741,292.734 M,0,119292,119325,549.8741,292.734,545.2495,277.156 M,0,119325,119359,545.2495,277.156,540.6248,261.578 M,0,119359,119392,540.6248,261.578,536,246
Sprite,Foreground,Centre,"sb/w.png",0,0 S,2,119526,119859,1,0.2 F,2,119526,119859,1,0 P,0,119526,119859,A C,0,119526,,245,134,101 M,0,119526,119559,451,249,436.5708,256.3729 M,0,119559,119592,436.5708,256.3729,421.2911,261.6684 M,0,119592,119625,421.2911,261.6684,405.3538,264.4339 M,0,119625,119659,405.3538,264.4339,389.173,264.5958
Sprite,Foreground,Centre,"sb/w.png",382,262 S,2,119726,119926,1,0.2 F,2,119726,119926,1,0 P,0,119726,119926,A C,0,119726,,245,134,101
Sprite,Foreground,Centre,"sb/w.png",0,0 S,2,119793,120126,1,0.2 F,2,119793,120126,1,0 P,0,119793,120126,A C,0,119793,,245,134,101 M,0,119793,119826,375,260,358.8019,259.8223 M,0,119826,119859,358.8019,259.8223,342.8127,262.179 M,0,119859,119892,342.8127,262.179,327.5032,267.3586 M,0,119892,119926,327.5032,267.3586,313.1656,274.8978
Sprite,Foreground,Centre,"sb/w.png",0,0 S,2,120060,120393,1,0.2 F,2,120060,120393,1,0 P,0,120060,120393,A C,0,120060,,245,134,101 M,0,120060,120093,291,357,275.7284,351.4467 M,0,120093,120126,275.7284,351.4467,260.4567,345.8933 M,0,120126,120159,260.4567,345.8933,245.1851,340.34 M,0,120159,120193,245.1851,340.34,229.9134,334.7867
Sprite,Foreground,Centre,"sb/w.png",0,0 S,2,120326,120659,1,0.2 F,2,120326,120659,1,0 P,0,120326,120659,A C,0,120326,,245,134,101 M,0,120326,120359,166,390,156.8173,376.5933 M,0,120359,120392,156.8173,376.5933,147.6346,363.1865 M,0,120392,120425,147.6346,363.1865,138.4519,349.7798 M,0,120425,120459,138.4519,349.7798,129.2692,336.373
Sprite,Foreground,Centre,"sb/glow.png",0,0 S,2,36326,37059,1,0.2 F,2,36326,37059,1,0 P,0,36326,37059,A C,0,36326,,221,66,70 M,0,36326,36359,361,216,366.8557,221.6191 M,0,36359,36392,366.8557,221.6191,372.4883,227.4319 M,0,36392,36426,372.4883,227.4319,377.6406,233.6747 M,0,36426,36459,377.6406,233.6747,382.28,240.3079 M,0,36459,36492,382.28,240.3079,386.377,247.2895 M,0,36492,36526,386.377,247.2895,389.9056,254.5755 M,0,36526,36559,389.9056,254.5755,392.8435,262.1198 M,0,36559,36592,392.8435,262.1198,395.1719,269.8745 M,0,36592,36626,395.1719,269.8745,396.8759,277.7907 M,0,36626,36659,396.8759,277.7907,397.9448,285.8183 M,0,36659,36692,397.9448,285.8183,398.3714,293.9065 M,0,36692,36726,398.3714,293.9065,398.153,302.004 M,0,36726,36759,398.153,302.004,397.2907,310.0596 M,0,36759,36792,397.2907,310.0596,395.7899,318.0223 M,0,36792,36826,395.7899,318.0223,393.6598,325.8416 M,0,36826,36859,393.6598,325.8416,390.9136,333.4679
Sprite,Foreground,Centre,"sb/glow.png",323,394 S,2,37126,37326,1,0.2 F,2,37126,37326,1,0 P,0,37126,37326,A C,0,37126,,221,66,70
Sprite,Foreground,Centre,"sb/glow.png",0,0 S,2,37393,37859,1,0.2 F,2,37393,37859,1,0 P,0,37393,37859,A C,0,37393,,221,66,70 M,0,37393,37426,230,406,223.4423,401.2112 M,0,37426,37459,223.4423,401.2112,217.0233,396.2567 M,0,37459,37493,217.0233,396.2567,210.902,390.9385 M,0,37493,37526,210.902,390.9385,205.099,385.2745 M,0,37526,37559,205.099,385.2745,199.6337,379.2838 M,0,37559,37593,199.6337,379.2838,194.5246,372.9862 M,0,37593,37626,194.5246,372.9862,189.7886,366.4031 M,0,37626,37659,189.7886,366.4031,185.4419,359.5564
Sprite,Foreground,Centre,"sb/glow.png",180,268 S,2,37926,38126,1,0.2 F,2,37926,38126,1,0 P,0,37926,38126,A C,0,37926,,221,66,70
Sprite,Foreground,Centre,"sb/glow.png",0,0 S,2,38460,39193,1,0.2 F,2,38460,39193,1,0 P,0,38460,39193,A C,0,38460,,221,66,70 M,0,38460,38493,102,104,107.6217,109.8578 M,0,38493,38526,107.6217,109.8578,113.4008,115.5406 M,0,38526,38560,113.4008,115.5406,119.5306,120.8436 M,0,38560,38593,119.5306,120.8436,125.9861,125.7451 M,0,38593,38626,125.9861,125.7451,132.7411,130.2253 M,0,38626,38660,132.7411,130.2253,139.7683,134.2659 M,0,38660,38693,139.7683,134.2659,147.0392,137.8504 M,0,38693,38726,147.0392,137.8504,154.5243,140.9644 M,0,38726,38760,154.5243,140.9644,162.1932,143.595 M,0,38760,38793,162.1932,143.595,170.0148,145.7316 M,0,38793,38826,170.0148,145.7316,177.9574,147.3652 M,0,38826,38860,177.9574,147.3652,185.9888,148.4894 M,0,38860,38893,185.9888,148.4894,194.0763,149.0992 M,0,38893,38926,194.0763,149.0992,202.1871,149.1923 M,0,38926,38960,202.1871,149.1923,210.2884,148.768 M,0,38960,38993,210.2884,148.768,218.3651,147.9186
Sprite,Foreground,Centre,"sb/glow.png",0,0 S,2,39526,40259,1,0.2 F,2,39526,40259,1,0 P,0,39526,40259,A C,0,39526,,138,138,138 M,0,39526,39559,384,70,392.0568,70.98441 M,0,39559,39592,392.0568,70.98441,400.0529,72.26343 M,0,39592,39626,400.0529,72.26343,407.9271,74.15328 M,0,39626,39659,407.9271,74.15328,415.6328,76.64281 M,0,39659,39692,415.6328,76.64281,423.1244,79.7173 M,0,39692,39726,423.1244,79.7173,430.3575,83.35857 M,0,39726,39759,430.3575,83.35857,437.2895,87.54509 M,0,39759,39792,437.2895,87.54509,443.8792,92.25214 M,0,39792,39826,443.8792,92.25214,450.0878,97.45185 M,0,39826,39859,450.0878,97.45185,455.8784,103.1135 M,0,39859,39892,455.8784,103.1135,461.2169,109.2037 M,0,39892,39926,461.2169,109.2037,466.0715,115.6863 M,0,39926,39959,466.0715,115.6863,470.4136,122.523 M,0,39959,39992,470.4136,122.523,474.2174,129.6735 M,0,39992,40026,474.2174,129.6735,477.4605,137.0954 M,0,40026,40059,477.4605,137.0954,480.1235,144.7449
Sprite,Foreground,Centre,"sb/glow.png",481,236 S,2,40326,40526,1,0.2 F,2,40326,40526,1,0 P,0,40326,40526,A C,0,40326,,138,138,138
Sprite,Foreground,Centre,"sb/glow.png",0,0 S,2,40593,41326,1,0.2 F,2,40593,41326,1,0 P,0,40593,41326,A C,0,40593,,138,138,138 M,0,40593,40626,420,304,411.9432,303.0156 M,0,40626,40659,411.9432,303.0156,403.9471,301.7366 M,0,40659,40693,403.9471,301.7366,396.0729,299.8467 M,0,40693,40726,396.0729,299.8467,388.3672,297.3572 M,0,40726,40759,388.3672,297.3572,380.8756,294.2827 M,0,40759,40793,380.8756,294.2827,373.6425,290.6414 M,0,40793,40826,373.6425,290.6414,366.7105,286.4549 M,0,40826,40859,366.7105,286.4549,360.1207,281.7479 M,0,40859,40893,360.1207,281.7479,353.9122,276.5482 M,0,40893,40926,353.9122,276.5482,348.1215,270.8865 M,0,40926,40959,348.1215,270.8865,342.7831,264.7963 M,0,40959,40993,342.7831,264.7963,337.9285,258.3137 M,0,40993,41026,337.9285,258.3137,333.5864,251.477 M,0,41026,41059,333.5864,251.477,329.7826,244.3265 M,0,41059,41093,329.7826,244.3265,326.5395,236.9046 M,0,41093,41126,326.5395,236.9046,323.8765,229.2551
Sprite,Foreground,Centre,"sb/glow.png",286,146 S,2,41393,41593,1,0.2 F,2,41393,41593,1,0 P,0,41393,41593,A C,0,41393,,138,138,138
Sprite,Foreground,Centre,"sb/glow.png",0,0 S,2,41660,42393,1,0.2 F,2,41660,42393,1,0 P,0,41660,42393,A C,0,41660,,245,134,101 M,0,41660,41693,206,103,198.0231,104.4886 M,0,41693,41726,198.0231,104.4886,190.1411,106.3168 M,0,41726,41760,190.1411,106.3168,182.4487,108.8258 M,0,41760,41793,182.4487,108.8258,175.0046,111.9963 M,0,41793,41826,175.0046,111.9963,167.8654,115.8042 M,0,41826,41860,167.8654,115.8042,161.0857,120.2204 M,0,41860,41893,161.0857,120.2204,154.7171,125.2113 M,0,41893,41926,154.7171,125.2113,148.8082,130.7388 M,0,41926,41960,148.8082,130.7388,143.4041,136.7607 M,0,41960,41993,143.4041,136.7607,138.546,143.2312 M,0,41993,42026,138.546,143.2312,134.2709,150.1008 M,0,42026,42060,134.2709,150.1008,130.6115,157.3172 M,0,42060,42093,130.6115,157.3172,127.5956,164.8254 M,0,42093,42126,127.5956,164.8254,125.2463,172.5681 M,0,42126,42160,125.2463,172.5681,123.5815,180.4862 M,0,42160,42193,123.5815,180.4862,122.6138,188.5194
Sprite,Foreground,Centre,"sb/glow.png",134,279 S,2,42460,42660,1,0.2 F,2,42460,42660,1,0 P,0,42460,42660,A C,0,42460,,245,134,101
Sprite,Foreground,Centre,"sb/glow.png",145,369 S,2,42726,42926,1,0.2 F,2,42726,42926,1,0 P,0,42726,42926,A C,0,42726,,193,193,193
Sprite,Foreground,Centre,"sb/a2.png",0,0 S,0,77393,,2.8 C,0,77393,,0,0,0 F,2,77826,77926,0,0.7 M,7,77293,77926,212,318 M,0,77926,77959,212,318,218.5905,307.7481 M,0,77959,77992,218.5905,307.7481,225.181,297.4963 M,0,77992,78025,225.181,297.4963,231.7715,287.2444 M,0,78025,78059,231.7715,287.2444,238.3619,276.9926 M,0,78059,78092,238.3619,276.9926,244.9524,266.7407 M,0,78092,78125,244.9524,266.7407,251.5429,256.4888 M,0,78125,78159,251.5429,256.4888,258.7439,246.8374 M,0,78159,78192,258.7439,246.8374,268.8845,240.077 M,0,78192,78225,268.8845,240.077,279.0251,233.3166 M,0,78225,78259,279.0251,233.3166,289.1657,226.5562 M,0,78259,78292,289.1657,226.5562,299.3064,219.7958 M,0,78292,78326,299.3064,219.7958,309.447,213.0354 M,7,78326,78393,309.447,213.0354,313,219 M,7,78393,78460,313,219,317,224 M,0,78460,78493,317,224,326.9568,216.9717 M,0,78493,78526,326.9568,216.9717,336.9136,209.9433 M,0,78526,78559,336.9136,209.9433,346.8704,202.915 M,0,78559,78593,346.8704,202.915,356.8272,195.8867 M,0,78593,78626,356.8272,195.8867,366.784,188.8584 M,0,78626,78659,366.784,188.8584,372.5801,178.3309 M,0,78659,78693,372.5801,178.3309,377.7974,167.3166 M,0,78693,78726,377.7974,167.3166,383.0147,156.3022 M,7,78726,78993,383.0147,156.3022,509,148 M,0,78993,79026,509,148,504.6004,159.3657 M,0,79026,79059,504.6004,159.3657,500.2008,170.7314 M,0,79059,79092,500.2008,170.7314,495.8011,182.097 M,0,79092,79126,495.8011,182.097,491.4016,193.4627 M,0,79126,79159,491.4016,193.4627,487.0019,204.8284 M,0,79159,79192,487.0019,204.8284,486.8434,216.381 M,0,79192,79226,486.8434,216.381,490.2259,228.0897 M,0,79226,79259,490.2259,228.0897,493.6084,239.7984 M,7,79259,79393,493.6084,239.7984,464,296 M,7,79393,79526,464,296,434,352 M,0,79526,79559,434,352,421.8348,351.2627 M,0,79559,79592,421.8348,351.2627,409.6696,350.5254 M,0,79592,79625,409.6696,350.5254,397.5045,349.7881 M,0,79625,79659,397.5045,349.7881,385.3393,349.0509 M,0,79659,79692,385.3393,349.0509,373.1741,348.3136 M,0,79692,79725,373.1741,348.3136,361.6453,350.9449 M,0,79725,79759,361.6453,350.9449,350.5874,356.0692 M,0,79759,79792,350.5874,356.0692,339.5296,361.1936 M,7,79792,80060,339.5296,361.1936,222,411 M,0,80060,80093,222,411,225.519,399.3316 M,0,80093,80126,225.519,399.3316,229.0381,387.6632 M,0,80126,80159,229.0381,387.6632,232.5571,375.9948 M,0,80159,80193,232.5571,375.9948,236.0762,364.3264 M,0,80193,80226,236.0762,364.3264,239.5952,352.658 M,0,80226,80259,239.5952,352.658,240.4082,340.7017 M,0,80259,80293,240.4082,340.7017,239.4233,328.554 M,0,80293,80326,239.4233,328.554,238.4384,316.4064 M,7,80326,80593,238.4384,316.4064,119,273 M,0,80593,80626,119,273,121.7405,261.1246 M,0,80626,80659,121.7405,261.1246,124.4809,249.2492 M,0,80659,80692,124.4809,249.2492,127.2214,237.3738 M,0,80692,80726,127.2214,237.3738,129.9619,225.4984 M,0,80726,80759,129.9619,225.4984,132.7024,213.623 M,0,80759,80792,132.7024,213.623,137.6797,202.7433 M,0,80792,80826,137.6797,202.7433,144.6688,192.7589 M,0,80826,80859,144.6688,192.7589,151.6579,182.7745 M,7,80859,81126,151.6579,182.7745,264,123 M,0,81126,81159,264,123,272.1982,132.018 M,0,81159,81192,272.1982,132.018,280.3964,141.036 M,0,81192,81225,280.3964,141.036,288.5946,150.0541 M,0,81225,81259,288.5946,150.0541,296.7928,159.0721 M,0,81259,81292,296.7928,159.0721,304.991,168.0901 M,0,81292,81325,304.991,168.0901,313.1892,177.1081 M,0,81325,81359,313.1892,177.1081,321.3874,186.1261 M,0,81359,81392,321.3874,186.1261,332.0885,190.8777 M,0,81392,81425,332.0885,190.8777,343.9603,193.6336 M,0,81425,81459,343.9603,193.6336,355.8321,196.3896 M,0,81459,81492,355.8321,196.3896,367.7039,199.1456 M,0,81492,81526,367.7039,199.1456,379.5757,201.9015 M,7,81526,81593,379.5757,201.9015,386,199 M,7,81593,81660,386,199,392,196 M,7,81660,81926,392,196,496,267 M,7,81926,82193,496,267,496,140 M,0,82193,82226,496,140,485.7569,133.3959 M,0,82226,82259,485.7569,133.3959,475.5138,126.7918 M,0,82259,82292,475.5138,126.7918,465.2707,120.1877 M,0,82292,82326,465.2707,120.1877,455.0276,113.5836 M,0,82326,82359,455.0276,113.5836,444.7845,106.9795 M,0,82359,82392,444.7845,106.9795,434.5414,100.3754 M,0,82392,82426,434.5414,100.3754,424.2983,93.77129 M,0,82426,82459,424.2983,93.77129,412.9311,91.24803 M,0,82459,82492,412.9311,91.24803,400.7511,91.6754 M,0,82492,82526,400.7511,91.6754,388.5711,92.10277 M,0,82526,82559,388.5711,92.10277,376.3911,92.53014 M,0,82559,82593,376.3911,92.53014,364.2111,92.9575 M,7,82593,82660,364.2111,92.9575,358,98 M,7,82660,82726,358,98,353,102 M,0,82726,82759,353,102,340.8125,102 M,0,82759,82792,340.8125,102,328.625,102 M,0,82792,82825,328.625,102,316.4375,102 M,0,82825,82859,316.4375,102,304.25,102 M,0,82859,82892,304.25,102,292.3851,100.439 M,0,82892,82925,292.3851,100.439,281.1962,95.60747 M,0,82925,82959,281.1962,95.60747,270.0074,90.77591 M,0,82959,82992,270.0074,90.77591,258.8185,85.94434 M,7,82992,83260,258.8185,85.94434,135,118 M,0,83260,83293,135,118,139.8009,129.2021 M,0,83293,83326,139.8009,129.2021,144.6018,140.4042 M,0,83326,83359,144.6018,140.4042,149.4027,151.6062 M,0,83359,83393,149.4027,151.6062,154.2036,162.8083 M,0,83393,83426,154.2036,162.8083,159.0095,174.0061 M,0,83426,83459,159.0095,174.0061,169.2614,180.5966 M,0,83459,83493,169.2614,180.5966,179.5132,187.1871 M,0,83493,83526,179.5132,187.1871,189.7651,193.7776 M,7,83526,83660,189.7651,193.7776,194,257 M,7,83660,83793,194,257,198,320 M,0,83793,83826,198,320,208.9008,325.4504 M,0,83826,83859,208.9008,325.4504,219.8017,330.9008 M,0,83859,83892,219.8017,330.9008,230.7025,336.3513 M,0,83892,83926,230.7025,336.3513,241.6033,341.8017 M,0,83926,83959,241.6033,341.8017,252.5042,347.2521 M,0,83959,83992,252.5042,347.2521,259.887,356.7127 M,0,83992,84026,259.887,356.7127,266.7102,366.8111 M,0,84026,84059,266.7102,366.8111,273.5335,376.9095 M,7,84059,84326,273.5335,376.9095,365,289 M,0,84326,84359,365,289,364.2627,276.8348 M,0,84359,84392,364.2627,276.8348,363.5254,264.6696 M,0,84392,84425,363.5254,264.6696,364.2627,276.8348 M,0,84425,84459,364.2627,276.8348,365,289 M,0,84459,84492,365,289,364.2627,276.8348 M,0,84492,84526,364.2627,276.8348,363.5254,264.6696 M,7,84526,84593,363.5254,264.6696,395,262 M,0,84593,84626,395,262,394.4294,249.8259 M,0,84626,84659,394.4294,249.8259,393.8587,237.6517 M,0,84659,84692,393.8587,237.6517,393.288,225.4776 M,0,84692,84726,393.288,225.4776,392.7173,213.3035 M,7,84726,84860,392.7173,213.3035,466,175 M,7,84860,84926,466,175 M,7,84926,84993,466,175 M,0,84993,85026,466,175,464.6541,162.887 M,0,85026,85059,464.6541,162.887,463.3082,150.7741 M,0,85059,85092,463.3082,150.7741,464.6541,162.887 M,0,85092,85126,464.6541,162.887,466,175 M,0,85126,85159,466,175,464.6541,162.8871 M,0,85159,85192,464.6541,162.8871,463.3082,150.7741 M,0,85192,85226,463.3082,150.7741,464.6541,162.887 M,0,85226,85259,464.6541,162.887,466,175 M,0,85259,85292,466,175,464.6541,162.8871 M,0,85292,85326,464.6541,162.8871,463.3082,150.7741 M,7,85326,85393,463.3082,150.7741,492,120 S,19,86326,86426,2.8,14 F,0,86326,86826,0.7,0
Sprite,Foreground,Centre,"sb/glow.png",0,0 S,19,88593,89026,1.2,0.9 F,2,88726,89026,1,0 M,0,88593,88626,506,222,495.4819,234.3198 M,0,88626,88659,495.4819,234.3198,486.9579,248.0513 M,0,88659,88692,486.9579,248.0513,480.9479,263.0559 M,0,88692,88726,480.9479,263.0559,477.6349,278.8784
Sprite,Foreground,Centre,"sb/glow.png",488,364 S,19,88860,89160,1.2,0.9 F,2,88860,89160,1,0
Sprite,Foreground,Centre,"sb/glow.png",488,364 S,19,88926,89226,1.2,0.9 F,2,88926,89226,1,0
Sprite,Foreground,Centre,"sb/glow.png",0,0 S,19,88993,89626,1.2,0.9 F,2,89326,89626,1,0 M,0,88993,89026,488,364,493.6177,379.2481 M,0,89026,89059,493.6177,379.2481,499.2354,394.4962 M,0,89059,89092,499.2354,394.4962,493.6177,379.2481 M,0,89092,89126,493.6177,379.2481,488,364 M,0,89126,89159,488,364,493.6177,379.2481 M,0,89159,89192,493.6177,379.2481,499.2354,394.4962 M,0,89192,89226,499.2354,394.4962,493.6177,379.2481 M,0,89226,89259,493.6177,379.2481,488,364 M,0,89259,89292,488,364,493.6177,379.2481 M,0,89292,89326,493.6177,379.2481,499.2354,394.4962
Sprite,Foreground,Centre,"sb/glow.png",0,0 S,19,89393,89826,1.2,0.9 F,2,89526,89826,1,0 M,0,89393,89426,487,432,472.1121,425.599 M,0,89426,89459,472.1121,425.599,456.5358,421.2372 M,0,89459,89492,456.5358,421.2372,440.4648,419.3474 M,0,89492,89526,440.4648,419.3474,424.2859,419.9779
Sprite,Foreground,Centre,"sb/glow.png",0,0 S,19,89660,90160,1.2,0.9 F,2,89860,90160,1,0 M,0,89660,89693,347,435,331.257,430.9727 M,0,89693,89726,331.257,430.9727,315.5139,426.9454 M,0,89726,89759,315.5139,426.9454,331.257,430.9727 M,0,89759,89793,331.257,430.9727,347,435 M,0,89793,89826,347,435,331.257,430.9727 M,0,89826,89860,331.257,430.9727,315.5139,426.9454
Sprite,Foreground,Centre,"sb/glow.png",0,0 S,19,89926,90359,1.2,0.9 F,2,90059,90359,1,0 M,0,89926,89959,309,388,293.5629,382.9248 M,0,89959,89992,293.5629,382.9248,278.1258,377.8496 M,0,89992,90025,278.1258,377.8496,262.6886,372.7744 M,0,90025,90059,262.6886,372.7744,247.2515,367.6991
Sprite,Foreground,Centre,"sb/glow.png",0,0 S,19,90193,90693,1.2,0.9 F,2,90393,90693,1,0 M,0,90193,90226,227,291,242.743,286.9727 M,0,90226,90259,242.743,286.9727,258.4861,282.9454 M,0,90259,90292,258.4861,282.9454,242.743,286.9727 M,0,90292,90326,242.743,286.9727,227,291 M,0,90326,90359,227,291,242.743,286.9727 M,0,90359,90393,242.743,286.9727,258.4861,282.9454
Sprite,Foreground,Centre,"sb/glow.png",0,0 S,19,90459,90892,1.2,0.9 F,2,90592,90892,1,0 M,0,90459,90492,265,244,280.4371,238.9248 M,0,90492,90525,280.4371,238.9248,295.8742,233.8496 M,0,90525,90558,295.8742,233.8496,311.3114,228.7744 M,0,90558,90592,311.3114,228.7744,326.7485,223.6991
Sprite,Foreground,Centre,"sb/a2.png",0,0 S,0,43793,,2.8 C,0,43793,,0,0,0 F,2,43693,43793,0,0.7 M,7,43693,43793,218,211 M,0,43793,43826,218,211,224.886,200.9442 M,0,43826,43859,224.886,200.9442,231.772,190.8885 M,0,43859,43893,231.772,190.8885,238.658,180.8327 M,0,43893,43926,238.658,180.8327,245.544,170.777 M,0,43926,43959,245.544,170.777,252.43,160.7213 M,0,43959,43993,252.43,160.7213,259.316,150.6655 M,0,43993,44026,259.316,150.6655,266.202,140.6097 M,0,44026,44059,266.202,140.6097,273.088,130.554 M,7,44059,44193,273.088,130.554,355,117 M,7,44193,44260,355,117 M,7,44260,44326,355,117 M,0,44326,44359,355,117,360.2584,127.9948 M,0,44359,44392,360.2584,127.9948,365.5167,138.9895 M,0,44392,44426,365.5167,138.9895,370.7751,149.9843 M,0,44426,44459,370.7751,149.9843,376.0334,160.979 M,0,44459,44492,376.0334,160.979,381.2918,171.9738 M,0,44492,44526,381.2918,171.9738,386.5502,182.9686 M,0,44526,44559,386.5502,182.9686,391.8085,193.9633 M,0,44559,44592,391.8085,193.9633,397.0669,204.9581 M,7,44592,44860,397.0669,204.9581,486,165 M,0,44860,44893,486,165,497.7763,168.0235 M,0,44893,44926,497.7763,168.0235,509.2583,172.0583 M,0,44926,44960,509.2583,172.0583,519.89,177.9553 M,0,44960,44993,519.89,177.9553,529.9712,184.7686 M,0,44993,45026,529.9712,184.7686,538.7704,193.1571 M,0,45026,45060,538.7704,193.1571,546.7925,202.3024 M,0,45060,45093,546.7925,202.3024,553.1899,212.6393 M,0,45093,45126,553.1899,212.6393,558.6294,223.5179 M,0,45126,45160,558.6294,223.5179,562.2112,235.134 M,0,45160,45193,562.2112,235.134,564.7135,247.0342 M,0,45193,45226,564.7135,247.0342,565.2482,259.1776 M,0,45226,45260,565.2482,259.1776,564.6508,271.3211 M,0,45260,45293,564.6508,271.3211,562.1041,283.2059 M,0,45293,45326,562.1041,283.2059,558.4471,294.7989 M,0,45326,45360,558.4471,294.7989,552.9841,305.656 M,0,45360,45393,552.9841,305.656,546.5078,315.9407 M,7,45393,45660,546.5078,315.9407,471,378 M,7,45660,45926,471,378,374,389 M,0,45926,45959,374,389,363.0635,383.6214 M,0,45959,45992,363.0635,383.6214,352.1271,378.2428 M,0,45992,46026,352.1271,378.2428,341.1906,372.8643 M,0,46026,46059,341.1906,372.8643,330.2542,367.4857 M,7,46059,46193,330.2542,367.4857,326,318 M,0,46193,46226,326,318,315.0463,312.6567 M,0,46226,46259,315.0463,312.6567,304.0925,307.3134 M,0,46259,46293,304.0925,307.3134,315.0463,312.6567 M,0,46293,46326,315.0463,312.6567,326,318 M,0,46326,46359,326,318,315.0463,312.6567 M,0,46359,46393,315.0463,312.6567,304.0925,307.3134 M,7,46393,46460,304.0925,307.3134,319,288 M,0,46460,46493,319,288,308.4183,281.9533 M,0,46493,46526,308.4183,281.9533,297.8366,275.9066 M,0,46526,46560,297.8366,275.9066,287.2549,269.8599 M,0,46560,46593,287.2549,269.8599,276.6732,263.8132 M,0,46593,46626,276.6732,263.8132,266.0914,257.7665 M,0,46626,46660,266.0914,257.7665,254.4532,254.8269 M,0,46660,46693,254.4532,254.8269,242.3789,253.1696 M,0,46693,46726,242.3789,253.1696,230.3046,251.5124 M,7,46726,46993,230.3046,251.5124,139,287 M,0,46993,47026,139,287,127.9345,281.9757 M,0,47026,47059,127.9345,281.9757,117.3691,275.9369 M,0,47059,47093,117.3691,275.9369,108.1057,268.0709 M,0,47093,47126,108.1057,268.0709,99.60463,259.3641 M,0,47126,47159,99.60463,259.3641,92.8535,249.2595 M,0,47159,47193,92.8535,249.2595,87.06963,238.554 M,0,47193,47226,87.06963,238.554,83.34827,226.9856 M,0,47226,47259,83.34827,226.9856,80.72575,215.1043 M,0,47259,47293,80.72575,215.1043,80.31938,202.9591 M,0,47293,47326,80.31938,202.9591,81.05935,190.8151 M,0,47326,47359,81.05935,190.8151,83.99903,179.0241 M,0,47359,47393,83.99903,179.0241,88.04425,167.5505 M,0,47393,47426,88.04425,167.5505,94.10451,157.0178 M,0,47426,47459,94.10451,157.0178,101.1438,147.0961 M,0,47459,47493,101.1438,147.0961,109.8599,138.6292 M,0,47493,47526,109.8599,138.6292,119.3445,131.0078 M,7,47526,47793,119.3445,131.0078,212,102 M,7,47793,48060,212,102,308,119 M,0,48060,48093,308,119,319.8389,121.894 M,0,48093,48126,319.8389,121.894,331.6779,124.7879 M,0,48126,48160,331.6779,124.7879,319.8389,121.894 M,0,48160,48193,319.8389,121.894,308,119 M,0,48193,48226,308,119,319.8389,121.894 M,0,48226,48260,319.8389,121.894,331.6779,124.7879 M,7,48260,48326,331.6779,124.7879,342,103 M,0,48326,48359,342,103,353.8713,105.758 M,0,48359,48392,353.8713,105.758,365.7427,108.516 M,0,48392,48426,365.7427,108.516,377.614,111.274 M,0,48426,48459,377.614,111.274,389.4854,114.032 M,0,48459,48492,389.4854,114.032,401.3567,116.7899 M,0,48492,48526,401.3567,116.7899,413.228,119.5479 M,0,48526,48559,413.228,119.5479,425.0994,122.3059 M,0,48559,48592,425.0994,122.3059,436.9707,125.0639 M,0,48592,48626,436.9707,125.0639,447.2658,131.0554 M,0,48626,48659,447.2658,131.0554,456.751,138.7082 M,0,48659,48692,456.751,138.7082,466.2362,146.361 M,0,48692,48726,466.2362,146.361,475.7214,154.0139 M,0,48726,48759,475.7214,154.0139,485.2066,161.6667 M,0,48759,48792,485.2066,161.6667,494.6918,169.3195 M,0,48792,48826,494.6918,169.3195,504.1771,176.9724 M,0,48826,48859,504.1771,176.9724,513.6622,184.6252 M,7,48859,49126,513.6622,184.6252,519,282 M,0,49126,49159,519,282,508.2693,287.7781 M,0,49159,49192,508.2693,287.7781,497.5385,293.5562 M,0,49192,49226,497.5385,293.5562,486.8078,299.3343 M,0,49226,49259,486.8078,299.3343,476.077,305.1124 M,0,49259,49292,476.077,305.1124,465.3463,310.8904 M,0,49292,49326,465.3463,310.8904,454.6155,316.6685 M,0,49326,49359,454.6155,316.6685,443.8848,322.4467 M,0,49359,49392,443.8848,322.4467,435.9681,331.3544 M,0,49392,49426,435.9681,331.3544,429.086,341.4128 M,0,49426,49459,429.086,341.4128,422.2039,351.4712 M,0,49459,49492,422.2039,351.4712,415.3218,361.5297 M,0,49492,49526,415.3218,361.5297,408.4397,371.5881 M,0,49526,49559,408.4397,371.5881,401.5576,381.6465 M,0,49559,49592,401.5576,381.6465,394.6755,391.705 M,0,49592,49626,394.6755,391.705,387.7935,401.7634 M,0,49626,49659,387.7935,401.7634,380.9114,411.8218 M,7,49659,49926,380.9114,411.8218,284,425 M,7,49926,50193,284,425,186,432 M,0,50193,50226,186,432,181.4148,416.4103 M,0,50226,50259,181.4148,416.4103,176.8296,400.8206 M,0,50259,50293,176.8296,400.8206,181.4148,416.4103 M,0,50293,50326,181.4148,416.4103,186,432 M,0,50326,50359,186,432,181.4148,416.4103 M,0,50359,50393,181.4148,416.4103,176.8296,400.8206 M,7,50393,50460,176.8296,400.8206,145,408 M,0,50460,50493,145,408,141.0588,392.2352 M,0,50493,50526,141.0588,392.2352,137.1176,376.4704 M,0,50526,50560,137.1176,376.4704,133.1764,360.7056 M,0,50560,50593,133.1764,360.7056,129.2352,344.9407 M,7,50593,50726,129.2352,344.9407,206,319 M,0,50726,50759,206,319,210.5852,303.4103 M,0,50759,50792,210.5852,303.4103,215.1704,287.8206 M,0,50792,50826,215.1704,287.8206,210.5852,303.4103 M,0,50826,50859,210.5852,303.4103,206,319 M,0,50859,50892,206,319,210.5852,303.4103 M,0,50892,50926,210.5852,303.4103,215.1704,287.8206 M,7,50926,50993,215.1704,287.8206,247,295 M,0,50993,51026,247,295,250.9412,279.2352 M,0,51026,51059,250.9412,279.2352,254.8824,263.4704 M,0,51059,51093,254.8824,263.4704,258.8236,247.7056 M,0,51093,51126,258.8236,247.7056,262.7648,231.9407 M,7,51126,51260,262.7648,231.9407,219,165 S,19,52060,52160,2.8,14 F,0,52060,52560,0.7,0
Sprite,Foreground,Centre,"sb/glow.png",0,0 S,19,60,560,1.2,0.9 F,2,260,560,1,0 M,0,60,93,408,310,412.248,294.3151 M,0,93,126,412.248,294.3151,416.496,278.6301 M,0,126,160,416.496,278.6301,412.248,294.3151 M,0,160,193,412.248,294.3151,408,310 M,0,193,226,408,310,412.248,294.3151 M,0,226,260,412.248,294.3151,416.496,278.6301
Sprite,Foreground,Centre,"sb/glow.png",0,0 S,19,326,759,1.2,0.9 F,2,459,759,1,0 M,0,326,359,450,285,454.5739,269.407 M,0,359,392,454.5739,269.407,459.1479,253.814 M,0,392,426,459.1479,253.814,463.7218,238.221 M,0,426,459,463.7218,238.221,468.2958,222.628
Sprite,Foreground,Centre,"sb/glow.png",0,0 S,19,593,1093,1.2,0.9 F,2,793,1093,1,0 M,0,593,626,392,184,387.752,168.3151 M,0,626,659,387.752,168.3151,383.504,152.6301 M,0,659,693,383.504,152.6301,387.752,168.3151 M,0,693,726,387.752,168.3151,392,184 M,0,726,759,392,184,387.752,168.3151 M,0,759,793,387.752,168.3151,383.504,152.6301
Sprite,Foreground,Centre,"sb/glow.png",0,0 S,19,859,1292,1.2,0.9 F,2,992,1292,1,0 M,0,859,892,350,159,345.4261,143.407 M,0,892,925,345.4261,143.407,340.8521,127.814 M,0,925,959,340.8521,127.814,336.2782,112.221 M,0,959,992,336.2782,112.221,331.7042,96.62802
Sprite,Foreground,Centre,"sb/a2.png",0,0 S,0,25660,,2.8 C,0,25660,,0,0,0 F,2,25560,25660,0,0.7 M,7,25560,25660,152,207 M,0,25660,25693,152,207,155.1202,222.9476 M,0,25693,25726,155.1202,222.9476,158.2404,238.8953 M,0,25726,25759,158.2404,238.8953,161.3606,254.8429 M,0,25759,25793,161.3606,254.8429,164.4807,270.7905 M,7,25793,25926,164.4807,270.7905,228,326 M,0,25926,25959,228,326,231.6013,341.8459 M,0,25959,25992,231.6013,341.8459,235.2027,357.6918 M,0,25992,26025,235.2027,357.6918,231.6013,341.8459 M,0,26025,26059,231.6013,341.8459,228,326 M,0,26059,26092,228,326,231.6013,341.8459 M,0,26092,26126,231.6013,341.8459,235.2027,357.6918 M,7,26126,26193,235.2027,357.6918,261,337 M,0,26193,26226,261,337,264.6013,352.8459 M,0,26226,26259,264.6013,352.8459,268.2027,368.6918 M,0,26259,26292,268.2027,368.6918,264.6013,352.8459 M,0,26292,26326,264.6013,352.8459,261,337 M,0,26326,26359,261,337,264.6013,352.8459 M,0,26359,26393,264.6013,352.8459,268.2027,368.6918 M,7,26393,26460,268.2027,368.6918,293,348 M,0,26460,26493,293,348,296.6013,363.8459 M,0,26493,26526,296.6013,363.8459,300.2027,379.6918 M,0,26526,26559,300.2027,379.6918,296.6013,363.8459 M,0,26559,26593,296.6013,363.8459,293,348 M,0,26593,26626,293,348,296.6013,363.8459 M,0,26626,26660,296.6013,363.8459,300.2027,379.6918 S,19,26726,26826,2.8,14 F,0,26726,27226,0.7,0
Sprite,Foreground,Centre,"sb/a.png",0,0 S,0,92260,,3.5 C,0,92260,,0,0,0 F,2,92126,92326,0,0.65 M,7,92060,92326,120,214 M,0,92326,92359,120,214,121.6836,230.1626 M,0,92359,92392,121.6836,230.1626,123.3672,246.3251 M,0,92392,92425,123.3672,246.3251,121.6836,230.1626 M,0,92425,92459,121.6836,230.1626,120,214 M,0,92459,92492,120,214,121.6836,230.1626 M,0,92492,92526,121.6836,230.1626,123.3672,246.3251 M,7,92526,92593,123.3672,246.3251,158,269 M,0,92593,92626,158,269,159.6836,285.1625 M,0,92626,92659,159.6836,285.1625,161.3672,301.3251 M,0,92659,92692,161.3672,301.3251,159.6836,285.1625 M,0,92692,92726,159.6836,285.1625,158,269 M,0,92726,92759,158,269,159.6836,285.1625 M,0,92759,92793,159.6836,285.1625,161.3672,301.3251 M,7,92793,92860,161.3672,301.3251,136,335 M,0,92860,92893,136,335,138.5134,351.0108 M,0,92893,92926,138.5134,351.0108,143.2676,366.4718 M,0,92926,92959,143.2676,366.4718,150.4776,380.9516 M,0,92959,92993,150.4776,380.9516,159.9508,394.0634 M,0,92993,93026,159.9508,394.0634,171.4342,405.4566 M,0,93026,93059,171.4342,405.4566,184.621,414.8268 M,0,93059,93093,184.621,414.8268,199.159,421.9232 M,0,93093,93126,199.159,421.9232,214.6596,426.5561 M,0,93126,93159,214.6596,426.5561,230.7088,428.6015 M,0,93159,93193,230.7088,428.6015,246.8778,428.0044 M,0,93193,93226,246.8778,428.0044,262.7344,424.7803 M,0,93226,93260,262.7344,424.7803,277.8547,419.0153 M,7,93260,93326,277.8547,419.0153,282,414 M,7,93326,93393,282,414,286,409 M,0,93393,93426,286,409,295.8585,396.082 M,0,93426,93459,295.8585,396.082,305.7169,383.1641 M,0,93459,93492,305.7169,383.1641,295.8585,396.082 M,0,93492,93526,295.8585,396.082,286,409 M,0,93526,93559,286,409,295.8585,396.082 M,0,93559,93593,295.8585,396.082,305.7169,383.1641 M,7,93593,93660,305.7169,383.1641,301,340 M,0,93660,93693,301,340,310.8585,327.082 M,0,93693,93726,310.8585,327.082,320.7169,314.1641 M,0,93726,93759,320.7169,314.1641,310.8585,327.082 M,0,93759,93793,310.8585,327.082,301,340 M,0,93793,93826,301,340,310.8585,327.082 M,0,93826,93860,310.8585,327.082,320.7169,314.1641 M,7,93860,93926,320.7169,314.1641,362,309 M,0,93926,93959,362,309,372.9211,297.0037 M,0,93959,93992,372.9211,297.0037,385.9471,287.3369 M,0,93992,94025,385.9471,287.3369,400.5893,280.3611 M,0,94025,94059,400.5893,280.3611,416.2993,276.337 M,7,94059,94193,416.2993,276.337,497,302 M,0,94193,94226,497,302,502.1387,286.5839 M,0,94226,94259,502.1387,286.5839,507.2774,271.1678 M,0,94259,94292,507.2774,271.1678,502.1387,286.5839 M,0,94292,94326,502.1387,286.5839,497,302 M,0,94326,94359,497,302,502.1387,286.5839 M,0,94359,94393,502.1387,286.5839,507.2774,271.1678 M,7,94393,94460,507.2774,271.1678,548,261 M,0,94460,94493,548,261,543.7754,245.3087 M,0,94493,94526,543.7754,245.3087,539.5509,229.6175 M,0,94526,94559,539.5509,229.6175,535.3263,213.9262 M,0,94559,94593,535.3263,213.9262,531.1017,198.235 M,7,94593,94726,531.1017,198.235,446,195 M,0,94726,94759,446,195,441.7754,179.3087 M,0,94759,94792,441.7754,179.3087,437.5509,163.6175 M,0,94792,94825,437.5509,163.6175,433.3263,147.9262 M,0,94825,94859,433.3263,147.9262,429.1017,132.235 S,19,94993,95193,3.5,17.5 F,0,94993,95493,0.65,0
Sprite,Foreground,Centre,"sb\black.jpg",0,0 M,0,1126,,320,175 F,0,1026,1126,0.5 V,0,1126,,0.6,0.8 F,0,9500,9659,0.5,0
Sprite,Foreground,Centre,"sb/white.jpg",0,0 M,0,69260,71526,320,240 F,0,69260,69393,0,1 F,0,69393,71526,1,0
Sprite,Foreground,Centre,"sb\Fog5.png",0,0 F,0,69393,,0.8156799 M,0,69393,76860,213.5041,364.0502,453.9977,370.4868 S,0,76860,,1.842606
Sprite,Foreground,Centre,"sb\Fog4.png",0,0 M,0,69393,76860,-24.064,386.2857,191.2686,383.36 V,0,75578,,2.5,1.3
Sprite,Foreground,Centre,"sb\Fog4.png",0,0 M,0,69393,76860,461.0194,376.3383,697.4171,373.9977 S,0,76860,,1.544183
Sprite,Foreground,Centre,"sb\Smoke5.png",0,0 F,0,133393,133593,0,1 V,0,133593,,3.5,1.2 M,0,133593,146193,264,50,368,50 F,0,146192,146392,1,0
Sprite,Foreground,Centre,"sb\Smoke6b.png",0,0 F,0,133393,133793,0,1 M,0,133393,146054,540,90,700,90 F,0,146192,146392,1,0 V,0,146054,,2,2.5
Sprite,Foreground,Centre,"sb/f\0057.png",252.3787,145.1287 S,0,1220,,0.5 F,0,1020,1220,0,1 F,0,5190,5390,1,0
Sprite,Foreground,Centre,"sb/f\0068.png",277.6287,145.3787 S,0,1220,,0.5 F,0,1020,1220,0,1 F,0,5190,5390,1,0
Sprite,Foreground,Centre,"sb/f\0069.png",292.6287,144.6287 S,0,1220,,0.5 F,0,1020,1220,0,1 F,0,5190,5390,1,0
Sprite,Foreground,Centre,"sb/f\0073.png",306.3787,148.6287 S,0,1220,,0.5 F,0,1020,1220,0,1 F,0,5190,5390,1,0
Sprite,Foreground,Centre,"sb/f\0070.png",323.1287,153.1287 S,0,1220,,0.5 F,0,1020,1220,0,1 F,0,5190,5390,1,0
Sprite,Foreground,Centre,"sb/f\0065.png",340.1287,148.6287 S,0,1220,,0.5 F,0,1020,1220,0,1 F,0,5190,5390,1,0
Sprite,Foreground,Centre,"sb/f\0072.png",357.3787,148.6287 S,0,1220,,0.5 F,0,1020,1220,0,1 F,0,5190,5390,1,0
Sprite,Foreground,Centre,"sb/f\0065.png",373.6287,148.6287 S,0,1220,,0.5 F,0,1020,1220,0,1 F,0,5190,5390,1,0
Sprite,Foreground,Centre,"sb/f\0064.png",392.3787,144.8787 S,0,1220,,0.5 F,0,1020,1220,0,1 F,0,5190,5390,1,0
Sprite,Foreground,Centre,"sb/f\0045.png",110.1287,191.8787 S,0,1220,,0.5 F,0,1020,1220,0,1 F,0,5190,5390,1,0
Sprite,Foreground,Centre,"sb/f\0078.png",129.1287,195.6287 S,0,1220,,0.5 F,0,1020,1220,0,1 F,0,5190,5390,1,0
Sprite,Foreground,Centre,"sb/f\0069.png",144.8787,191.6287 S,0,1220,,0.5 F,0,1020,1220,0,1 F,0,5190,5390,1,0
Sprite,Foreground,Centre,"sb/f\006c.png",155.3787,191.6287 S,0,1220,,0.5 F,0,1020,1220,0,1 F,0,5190,5390,1,0
Sprite,Foreground,Centre,"sb/f\0065.png",168.3787,195.6287 S,0,1220,,0.5 F,0,1020,1220,0,1 F,0,5190,5390,1,0
Sprite,Foreground,Centre,"sb/f\006f.png",199.1287,195.3787 S,0,1220,,0.5 F,0,1020,1220,0,1 F,0,5190,5390,1,0
Sprite,Foreground,Centre,"sb/f\0066.png",215.3787,193.6287 S,0,1220,,0.5 F,0,1020,1220,0,1 F,0,5190,5390,1,0
Sprite,Foreground,Centre,"sb/f\0054.png",244.1287,192.1287 S,0,1220,,0.5 F,0,1020,1220,0,1 F,0,5190,5390,1,0
Sprite,Foreground,Centre,"sb/f\0068.png",262.8787,192.3787 S,0,1220,,0.5 F,0,1020,1220,0,1 F,0,5190,5390,1,0
Sprite,Foreground,Centre,"sb/f\0065.png",280.3787,195.6287 S,0,1220,,0.5 F,0,1020,1220,0,1 F,0,5190,5390,1,0
Sprite,Foreground,Centre,"sb/f\0046.png",313.3787,194.3787 S,0,1220,,0.5 F,0,1020,1220,0,1 F,0,5190,5390,1,0
Sprite,Foreground,Centre,"sb/f\006c.png",325.8787,191.6287 S,0,1220,,0.5 F,0,1020,1220,0,1 F,0,5190,5390,1,0
Sprite,Foreground,Centre,"sb/f\006f.png",339.1287,195.3787 S,0,1220,,0.5 F,0,1020,1220,0,1 F,0,5190,5390,1,0
Sprite,Foreground,Centre,"sb/f\0061.png",357.8787,195.6287 S,0,1220,,0.5 F,0,1020,1220,0,1 F,0,5190,5390,1,0
Sprite,Foreground,Centre,"sb/f\0074.png",374.8787,192.3787 S,0,1220,,0.5 F,0,1020,1220,0,1 F,0,5190,5390,1,0
Sprite,Foreground,Centre,"sb/f\0069.png",387.8787,191.6287 S,0,1220,,0.5 F,0,1020,1220,0,1 F,0,5190,5390,1,0
Sprite,Foreground,Centre,"sb/f\006e.png",403.1287,196.3787 S,0,1220,,0.5 F,0,1020,1220,0,1 F,0,5190,5390,1,0
Sprite,Foreground,Centre,"sb/f\0067.png",421.8787,201.3787 S,0,1220,,0.5 F,0,1020,1220,0,1 F,0,5190,5390,1,0
Sprite,Foreground,Centre,"sb/f\0057.png",461.1287,192.1287 S,0,1220,,0.5 F,0,1020,1220,0,1 F,0,5190,5390,1,0
Sprite,Foreground,Centre,"sb/f\006f.png",485.1287,195.3787 S,0,1220,,0.5 F,0,1020,1220,0,1 F,0,5190,5390,1,0
Sprite,Foreground,Centre,"sb/f\0072.png",502.1287,195.6287 S,0,1220,,0.5 F,0,1020,1220,0,1 F,0,5190,5390,1,0
Sprite,Foreground,Centre,"sb/f\006c.png",515.3787,191.6287 S,0,1220,,0.5 F,0,1020,1220,0,1 F,0,5190,5390,1,0
Sprite,Foreground,Centre,"sb/f\0064.png",529.6287,191.8787 S,0,1220,,0.5 F,0,1020,1220,0,1 F,0,5190,5390,1,0
Sprite,Foreground,Centre,"sb/f\004d.png",276.1287,144.8787 S,0,5390,,0.5 F,0,5190,5390,0,1 F,0,9460,9660,1,0
Sprite,Foreground,Centre,"sb/f\0061.png",302.6287,148.6287 S,0,5390,,0.5 F,0,5190,5390,0,1 F,0,9460,9660,1,0
Sprite,Foreground,Centre,"sb/f\0070.png",321.6287,153.1287 S,0,5390,,0.5 F,0,5190,5390,0,1 F,0,9460,9660,1,0
Sprite,Foreground,Centre,"sb/f\0062.png",352.3787,143.8787 S,0,5390,,0.5 F,0,5190,5390,0,1 F,0,9460,9660,1,0
Sprite,Foreground,Centre,"sb/f\0079.png",370.1287,152.3787 S,0,5390,,0.5 F,0,5190,5390,0,1 F,0,9460,9660,1,0
Sprite,Foreground,Centre,"sb/f\0054.png",215.3787,192.1287 S,0,5390,,0.5 F,0,5190,5390,0,1 F,0,9460,9660,1,0
Sprite,Foreground,Centre,"sb/f\0068.png",234.1287,192.3787 S,0,5390,,0.5 F,0,5190,5390,0,1 F,0,9460,9660,1,0
Sprite,Foreground,Centre,"sb/f\0065.png",251.6287,195.6287 S,0,5390,,0.5 F,0,5190,5390,0,1 F,0,9460,9660,1,0
Sprite,Foreground,Centre,"sb/f\004b.png",274.8787,192.3787 S,0,5390,,0.5 F,0,5190,5390,0,1 F,0,9460,9660,1,0
Sprite,Foreground,Centre,"sb/f\0069.png",292.6287,191.6287 S,0,5390,,0.5 F,0,5190,5390,0,1 F,0,9460,9660,1,0
Sprite,Foreground,Centre,"sb/f\006e.png",307.8787,196.3787 S,0,5390,,0.5 F,0,5190,5390,0,1 F,0,9460,9660,1,0
Sprite,Foreground,Centre,"sb/f\0067.png",326.6287,201.3787 S,0,5390,,0.5 F,0,5190,5390,0,1 F,0,9460,9660,1,0
Sprite,Foreground,Centre,"sb/f\0048.png",349.8787,192.3787 S,0,5390,,0.5 F,0,5190,5390,0,1 F,0,9460,9660,1,0
Sprite,Foreground,Centre,"sb/f\0065.png",371.6287,195.6287 S,0,5390,,0.5 F,0,5190,5390,0,1 F,0,9460,9660,1,0
Sprite,Foreground,Centre,"sb/f\006e.png",390.8787,196.3787 S,0,5390,,0.5 F,0,5190,5390,0,1 F,0,9460,9660,1,0
Sprite,Foreground,Centre,"sb/f\0072.png",408.8787,195.6287 S,0,5390,,0.5 F,0,5190,5390,0,1 F,0,9460,9660,1,0
Sprite,Foreground,Centre,"sb/f\0079.png",425.6287,199.3787 S,0,5390,,0.5 F,0,5190,5390,0,1 F,0,9460,9660,1,0
Sprite,Foreground,Centre,"sb/w.png",0,0 S,2,1126,1559,0.8,0.16 F,2,1126,1559,1,0 P,0,1126,1559,A C,0,1126,,221,66,70 M,0,1126,1159,250,121,248.5201,137.1541 M,0,1159,1192,248.5201,137.1541,245.2113,153.0138 M,0,1192,1226,245.2113,153.0138,239.8512,168.303 M,0,1226,1259,239.8512,168.303,232.5323,182.7576
Sprite,Foreground,Centre,"sb/w.png",156,214 S,2,1393,1693,0.8,0.16 F,2,1393,1693,1,0 P,0,1393,1693,A C,0,1393,,221,66,70
Sprite,Foreground,Centre,"sb/w.png",156,214 S,2,1526,1826,0.8,0.16 F,2,1526,1826,1,0 P,0,1526,1826,A C,0,1526,,221,66,70
Sprite,Foreground,Centre,"sb/w.png",0,0 S,2,1660,2093,0.8,0.16 F,2,1660,2093,1,0 P,0,1660,2093,A C,0,1660,,221,66,70 M,0,1660,1693,222,266,238.1839,265.1172 M,0,1693,1726,238.1839,265.1172,254.0774,262.0949 M,0,1726,1760,254.0774,262.0949,269.3154,256.6511 M,0,1760,1793,269.3154,256.6511,283.5326,248.915
Sprite,Foreground,Centre,"sb/w.png",329,179 S,2,1926,2226,0.8,0.16 F,2,1926,2226,1,0 P,0,1926,2226,A C,0,1926,,221,66,70
Sprite,Foreground,Centre,"sb/w.png",329,179 S,2,2060,2360,0.8,0.16 F,2,2060,2360,1,0 P,0,2060,2360,A C,0,2060,,221,66,70
Sprite,Foreground,Centre,"sb/w.png",0,0 S,2,2193,2759,0.8,0.16 F,2,2193,2759,1,0 P,0,2193,2759,A C,0,2193,,138,138,138 M,0,2193,2226,369,253,383.5837,260.0703 M,0,2226,2259,383.5837,260.0703,398.9744,265.0495 M,0,2259,2293,398.9744,265.0495,414.963,267.5132 M,0,2293,2326,414.963,267.5132,431.1416,267.3979 M,0,2326,2359,431.1416,267.3979,447.0975,264.7061 M,0,2359,2393,447.0975,264.7061,462.4235,259.5055 M,0,2393,2426,462.4235,259.5055,476.7281,251.9278 M,0,2426,2459,476.7281,251.9278,489.6458,242.1652
Sprite,Foreground,Centre,"sb/w.png",520,165 S,2,2593,2893,0.8,0.16 F,2,2593,2893,1,0 P,0,2593,2893,A C,0,2593,,138,138,138
Sprite,Foreground,Centre,"sb/w.png",0,0 S,2,2726,3159,0.8,0.16 F,2,2726,3159,1,0 P,0,2726,3159,A C,0,2726,,138,138,138 M,0,2726,2759,520,165,503.8808,163.3239 M,0,2759,2792,503.8808,163.3239,488.193,159.3876 M,0,2792,2826,488.193,159.3876,473.3558,152.9472 M,0,2826,2859,473.3558,152.9472,459.766,144.1744
Sprite,Foreground,Centre,"sb/w.png",389,96 S,2,2993,3293,0.8,0.16 F,2,2993,3293,1,0 P,0,2993,3293,A C,0,2993,,245,134,101
Sprite,Foreground,Centre,"sb/w.png",380,175 S,2,3126,3426,0.8,0.16 F,2,3126,3426,1,0 P,0,3126,3426,A C,0,3126,,245,134,101
Sprite,Foreground,Centre,"sb/w.png",0,0 S,2,3260,3693,0.8,0.16 F,2,3260,3693,1,0 P,0,3260,3693,A C,0,3260,,193,193,193 M,0,3260,3293,369,253,355.2274,261.5507 M,0,3293,3326,355.2274,261.5507,340.4416,268.1277 M,0,3326,3360,340.4416,268.1277,324.8097,272.3138 M,0,3360,3393,324.8097,272.3138,308.7157,274.0062
Sprite,Foreground,Centre,"sb/w.png",238,238 S,2,3526,3826,0.8,0.16 F,2,3526,3826,1,0 P,0,3526,3826,A C,0,3526,,193,193,193
Sprite,Foreground,Centre,"sb/w.png",238,238 S,2,3660,3960,0.8,0.16 F,2,3660,3960,1,0 P,0,3660,3960,A C,0,3660,,193,193,193
Sprite,Foreground,Centre,"sb/w.png",0,0 S,2,3793,4226,0.8,0.16 F,2,3793,4226,1,0 P,0,3793,4226,A C,0,3793,,193,193,193 M,0,3793,3826,235,322,245.9886,333.9247 M,0,3826,3859,245.9886,333.9247,258.3411,344.3919 M,0,3859,3893,258.3411,344.3919,272.0566,352.9983 M,0,3893,3926,272.0566,352.9983,286.8574,359.5692
Sprite,Foreground,Centre,"sb/w.png",375,363 S,2,4060,4360,0.8,0.16 F,2,4060,4360,1,0 P,0,4060,4360,A C,0,4060,,193,193,193
Sprite,Foreground,Centre,"sb/w.png",375,363 S,2,4193,4493,0.8,0.16 F,2,4193,4493,1,0 P,0,4193,4493,A C,0,4193,,193,193,193
Sprite,Foreground,Centre,"sb/w.png",0,0 S,2,4326,4759,0.8,0.16 F,2,4326,4759,1,0 P,0,4326,4759,A C,0,4326,,221,66,70 M,0,4326,4359,451,399,466.9415,402.1512 M,0,4359,4392,466.9415,402.1512,482.8831,405.3025 M,0,4392,4425,482.8831,405.3025,498.8246,408.4537 M,0,4425,4459,498.8246,408.4537,514.7661,411.6049
Sprite,Foreground,Centre,"sb/w.png",0,0 S,2,4593,5026,0.8,0.16 F,2,4593,5026,1,0 P,0,4593,5026,A C,0,4593,,221,66,70 M,0,4593,4626,511,326,495.0752,322.7653 M,0,4626,4659,495.0752,322.7653,479.1504,319.5305 M,0,4659,4692,479.1504,319.5305,463.2256,316.2958 M,0,4692,4726,463.2256,316.2958,447.3008,313.0611
Sprite,Foreground,Centre,"sb/w.png",0,0 S,2,4860,5293,0.8,0.16 F,2,4860,5293,1,0 P,0,4860,5293,A C,0,4860,,138,138,138 M,0,4860,4893,374,269,358.0585,272.1512 M,0,4893,4926,358.0585,272.1512,342.1169,275.3025 M,0,4926,4959,342.1169,275.3025,326.1754,278.4537 M,0,4959,4993,326.1754,278.4537,310.2339,281.6049
Sprite,Foreground,Centre,"sb/w.png",0,0 S,2,5127,5560,0.8,0.16 F,2,5127,5560,1,0 P,0,5127,5560,A C,0,5127,,138,138,138 M,0,5127,5160,312,196,327.9147,192.716 M,0,5160,5193,327.9147,192.716,343.8294,189.432 M,0,5193,5226,343.8294,189.432,359.7441,186.148 M,0,5226,5260,359.7441,186.148,375,183
Sprite,Foreground,Centre,"sb/w.png",0,0 S,2,5393,5826,0.8,0.16 F,2,5393,5826,1,0 P,0,5393,5826,A C,0,5393,,245,134,101 M,0,5393,5426,427,116,412.5068,108.7488 M,0,5426,5459,412.5068,108.7488,397.206,103.5011 M,0,5459,5492,397.206,103.5011,381.2697,100.6973 M,0,5492,5526,381.2697,100.6973,365.0832,100.4076
Sprite,Foreground,Centre,"sb/w.png",285,118 S,2,5660,5960,0.8,0.16 F,2,5660,5960,1,0 P,0,5660,5960,A C,0,5660,,245,134,101
Sprite,Foreground,Centre,"sb/w.png",285,118 S,2,5793,6093,0.8,0.16 F,2,5793,6093,1,0 P,0,5793,6093,A C,0,5793,,245,134,101
Sprite,Foreground,Centre,"sb/w.png",0,0 S,2,5926,6359,0.8,0.16 F,2,5926,6359,1,0 P,0,5926,6359,A C,0,5926,,245,134,101 M,0,5926,5959,312,196,297.7348,203.7319 M,0,5959,5992,297.7348,203.7319,282.7395,209.8837 M,0,5992,6025,282.7395,209.8837,267.1023,214.148 M,0,6025,6059,267.1023,214.148,251.0598,216.4603
Sprite,Foreground,Centre,"sb/w.png",177,186 S,2,6193,6493,0.8,0.16 F,2,6193,6493,1,0 P,0,6193,6493,A C,0,6193,,245,134,101
Sprite,Foreground,Centre,"sb/w.png",177,186 S,2,6326,6626,0.8,0.16 F,2,6326,6626,1,0 P,0,6326,6626,A C,0,6326,,245,134,101
Sprite,Foreground,Centre,"sb/w.png",0,0 S,2,6460,7026,0.8,0.16 F,2,6460,7026,1,0 P,0,6460,7026,A C,0,6460,,193,193,193 M,0,6460,6493,126,117,114.6286,128.5309 M,0,6493,6526,114.6286,128.5309,105.2963,141.7171 M,0,6526,6559,105.2963,141.7171,98.56676,156.4033 M,0,6559,6593,98.56676,156.4033,94.67275,172.0816 M,0,6593,6626,94.67275,172.0816,93.74899,188.2102 M,0,6626,6659,93.74899,188.2102,95.82748,204.2311 M,0,6659,6693,95.82748,204.2311,100.8365,219.5905 M,0,6693,6726,100.8365,219.5905,108.335,233.9441
Sprite,Foreground,Centre,"sb/w.png",188,274 S,2,6860,7160,0.8,0.16 F,2,6860,7160,1,0 P,0,6860,7160,A C,0,6860,,193,193,193
Sprite,Foreground,Centre,"sb/w.png",0,0 S,2,6993,7426,0.8,0.16 F,2,6993,7426,1,0 P,0,6993,7426,A C,0,6993,,193,193,193 M,0,6993,7026,188,274,189.3451,290.1789 M,0,7026,7059,189.3451,290.1789,188.3105,306.3799 M,0,7059,7092,188.3105,306.3799,184.9185,322.2547 M,0,7092,7126,184.9185,322.2547,179.2422,337.4623
Sprite,Foreground,Centre,"sb/w.png",131,407 S,2,7260,7560,0.8,0.16 F,2,7260,7560,1,0 P,0,7260,7560,A C,0,7260,,221,66,70
Sprite,Foreground,Centre,"sb/w.png",208,417 S,2,7393,7693,0.8,0.16 F,2,7393,7693,1,0 P,0,7393,7693,A C,0,7393,,221,66,70
Sprite,Foreground,Centre,"sb/w.png",0,0 S,2,7526,7959,0.8,0.16 F,2,7526,7959,1,0 P,0,7526,7959,A C,0,7526,,138,138,138 M,0,7526,7559,285,423,294.8406,410.1248 M,0,7559,7592,294.8406,410.1248,302.8048,396.0483 M,0,7592,7625,302.8048,396.0483,308.422,380.8782 M,0,7625,7659,308.422,380.8782,311.5474,365.0013
Sprite,Foreground,Centre,"sb/w.png",280,291 S,2,7793,8093,0.8,0.16 F,2,7793,8093,1,0 P,0,7793,8093,A C,0,7793,,138,138,138
Sprite,Foreground,Centre,"sb/w.png",280,291 S,2,7926,8226,0.8,0.16 F,2,7926,8226,1,0 P,0,7926,8226,A C,0,7926,,138,138,138
Sprite,Foreground,Centre,"sb/w.png",0,0 S,2,8060,8493,0.8,0.16 F,2,8060,8493,1,0 P,0,8060,8493,A C,0,8060,,138,138,138 M,0,8060,8093,364,293,362.3532,276.8682 M,0,8093,8126,362.3532,276.8682,358.6891,261.0977 M,0,8126,8159,358.6891,261.0977,352.7778,246.0245 M,0,8159,8193,352.7778,246.0245,344.7439,231.967
Sprite,Foreground,Centre,"sb/w.png",268,210 S,2,8326,8626,0.8,0.16 F,2,8326,8626,1,0 P,0,8326,8626,A C,0,8326,,138,138,138
Sprite,Foreground,Centre,"sb/w.png",268,210 S,2,8460,8760,0.8,0.16 F,2,8460,8760,1,0 P,0,8460,8760,A C,0,8460,,138,138,138
Sprite,Foreground,Centre,"sb/w.png",0,0 S,2,8593,9026,0.8,0.16 F,2,8593,9026,1,0 P,0,8593,9026,A C,0,8593,,245,134,101 M,0,8593,8626,325,148,341.0941,150.2457 M,0,8626,8659,341.0941,150.2457,357.1882,152.4914 M,0,8659,8693,357.1882,152.4914,373.2822,154.7371 M,0,8693,8726,373.2822,154.7371,389.3763,156.9827
Sprite,Foreground,Centre,"sb/w.png",0,0 S,2,8860,9360,0.8,0.16 F,2,8860,9360,1,0 P,0,8860,9360,A C,0,8860,,245,134,101 M,0,8860,8893,427,232,443.1506,233.7945 M,0,8893,8926,443.1506,233.7945,459.3012,235.589 M,0,8926,8960,459.3012,235.589,443.1506,233.7945 M,0,8960,8993,443.1506,233.7945,427,232 M,0,8993,9026,427,232,443.1506,233.7945 M,0,9026,9060,443.1506,233.7945,459.3012,235.589
Sprite,Foreground,Centre,"sb/w.png",0,0 S,2,9126,9559,0.8,0.16 F,2,9126,9559,1,0 P,0,9126,9559,A C,0,9126,,245,134,101 M,0,9126,9159,452,263,468.0941,265.2457 M,0,9159,9192,468.0941,265.2457,484.1882,267.4914 M,0,9192,9226,484.1882,267.4914,500.2822,269.7371 M,0,9226,9259,500.2822,269.7371,516.3763,271.9827
Sprite,Foreground,Centre,"sb/w.png",0,0 S,2,9393,9826,0.8,0.16 F,2,9393,9826,1,0 P,0,9393,9826,A C,0,9393,,245,134,101 M,0,9393,9426,551,349,567.2297,349.8115 M,0,9426,9459,567.2297,349.8115,583.4595,350.623 M,0,9459,9493,583.4595,350.623,567.2297,349.8115 M,0,9493,9526,567.2297,349.8115,551,349
Sprite,Foreground,Centre,"sb/w.png",0,0 S,2,9660,10093,0.8,0.16 F,2,9660,10093,1,0 P,0,9660,10093,A C,0,9660,,193,193,193 M,0,9660,9693,534,432,518.4399,436.4806 M,0,9693,9726,518.4399,436.4806,502.4177,438.5285 M,0,9726,9760,502.4177,438.5285,486.2805,437.6875 M,0,9760,9793,486.2805,437.6875,470.542,433.9812
Sprite,Foreground,Centre,"sb/w.png",428,367 S,2,9926,10226,0.8,0.16 F,2,9926,10226,1,0 P,0,9926,10226,A C,0,9926,,193,193,193
Sprite,Foreground,Centre,"sb/w.png",428,367 S,2,10060,10360,0.8,0.16 F,2,10060,10360,1,0 P,0,10060,10360,A C,0,10060,,193,193,193
Sprite,Foreground,Centre,"sb/w.png",0,0 S,2,10193,10626,0.8,0.16 F,2,10193,10626,1,0 P,0,10193,10626,A C,0,10193,,193,193,193 M,0,10193,10226,378,298,362.1977,294.3944 M,0,10226,10259,362.1977,294.3944,346.083,292.9598 M,0,10259,10293,346.083,292.9598,329.9406,294.06 M,0,10293,10326,329.9406,294.06,314.1658,297.6685
Sprite,Foreground,Centre,"sb/w.png",265,367 S,2,10460,10760,0.8,0.16 F,2,10460,10760,1,0 P,0,10460,10760,A C,0,10460,,193,193,193
Sprite,Foreground,Centre,"sb/w.png",265,367 S,2,10593,10893,0.8,0.16 F,2,10593,10893,1,0 P,0,10593,10893,A C,0,10593,,193,193,193
Sprite,Foreground,Centre,"sb/w.png",0,0 S,2,10726,11292,0.8,0.16 F,2,10726,11292,1,0 P,0,10726,11292,A C,0,10726,,221,66,70 M,0,10726,10759,214,434,198.3526,438.2947 M,0,10759,10792,198.3526,438.2947,182.1829,439.634 M,0,10792,10826,182.1829,439.634,166.0439,437.9722 M,0,10826,10859,166.0439,437.9722,150.488,433.3665 M,0,10859,10892,150.488,433.3665,136.0473,425.9749 M,0,10892,10926,136.0473,425.9749,123.2157,416.0505 M,0,10926,10959,123.2157,416.0505,112.4321,403.9332 M,0,10959,10992,112.4321,403.9332,104.0472,390.0446
Sprite,Foreground,Centre,"sb/w.png",100,305 S,2,11126,11426,0.8,0.16 F,2,11126,11426,1,0 P,0,11126,11426,A C,0,11126,,221,66,70
Sprite,Foreground,Centre,"sb/w.png",0,0 S,2,11260,11693,0.8,0.16 F,2,11260,11693,1,0 P,0,11260,11693,A C,0,11260,,221,66,70 M,0,11260,11293,100,305,116.2065,305.6111 M,0,11293,11326,116.2065,305.6111,132.3463,304.2787 M,0,11326,11360,132.3463,304.2787,148.1481,300.7293 M,0,11360,11393,148.1481,300.7293,163.3092,295.0307
Sprite,Foreground,Centre,"sb/w.png",209,224 S,2,11526,11826,0.8,0.16 F,2,11526,11826,1,0 P,0,11526,11826,A C,0,11526,,138,138,138
Sprite,Foreground,Centre,"sb/w.png",176,153 S,2,11660,11960,0.8,0.16 F,2,11660,11960,1,0 P,0,11660,11960,A C,0,11660,,138,138,138
Sprite,Foreground,Centre,"sb/w.png",0,0 S,2,11793,12226,0.8,0.16 F,2,11793,12226,1,0 P,0,11793,12226,A C,0,11793,,245,134,101 M,0,11793,11826,140,83,152.2018,72.39595 M,0,11826,11859,152.2018,72.39595,166.1244,64.29869 M,0,11859,11893,166.1244,64.29869,181.4828,59.42698 M,0,11893,11926,181.4828,59.42698,197.5432,58.01743
Sprite,Foreground,Centre,"sb/w.png",272,98 S,2,12060,12360,0.8,0.16 F,2,12060,12360,1,0 P,0,12060,12360,A C,0,12060,,245,134,101
Sprite,Foreground,Centre,"sb/w.png",272,98 S,2,12193,12493,0.8,0.16 F,2,12193,12493,1,0 P,0,12193,12493,A C,0,12193,,245,134,101
Sprite,Foreground,Centre,"sb/w.png",0,0 S,2,12326,12759,0.8,0.16 F,2,12326,12759,1,0 P,0,12326,12759,A C,0,12326,,245,134,101 M,0,12326,12359,346,137,358.2018,126.396 M,0,12359,12392,358.2018,126.396,372.1244,118.2987 M,0,12392,12426,372.1244,118.2987,387.4828,113.427 M,0,12426,12459,387.4828,113.427,403.5432,112.0174
Sprite,Foreground,Centre,"sb/w.png",483,154 S,2,12593,12893,0.8,0.16 F,2,12593,12893,1,0 P,0,12593,12893,A C,0,12593,,245,134,101
Sprite,Foreground,Centre,"sb/w.png",483,154 S,2,12726,13026,0.8,0.16 F,2,12726,13026,1,0 P,0,12726,13026,A C,0,12726,,245,134,101
Sprite,Foreground,Centre,"sb/w.png",0,0 S,2,12860,13293,0.8,0.16 F,2,12860,13293,1,0 P,0,12860,13293,A C,0,12860,,193,193,193 M,0,12860,12893,563,180,565.611,196.0389 M,0,12893,12926,565.611,196.0389,568.2219,212.0777 M,0,12926,12960,568.2219,212.0777,570.8329,228.1166 M,0,12960,12993,570.8329,228.1166,573.4439,244.1555
Sprite,Foreground,Centre,"sb/w.png",0,0 S,2,13126,13559,0.8,0.16 F,2,13126,13559,1,0 P,0,13126,13559,A C,0,13126,,193,193,193 M,0,13126,13159,489,239,485.8131,254.9344 M,0,13159,13192,485.8131,254.9344,482.6262,270.8689 M,0,13192,13226,482.6262,270.8689,479.4393,286.8033 M,0,13226,13259,479.4393,286.8033,476.2524,302.7377
Sprite,Foreground,Centre,"sb/w.png",0,0 S,2,13393,13826,0.8,0.16 F,2,13393,13826,1,0 P,0,13393,13826,A C,0,13393,,193,193,193 M,0,13393,13426,400,269,391.5568,282.8843 M,0,13426,13459,391.5568,282.8843,383.1136,296.7687 M,0,13459,13493,383.1136,296.7687,374.6704,310.653 M,0,13493,13526,374.6704,310.653,366.2273,324.5374
Sprite,Foreground,Centre,"sb/w.png",0,0 S,2,13660,14093,0.8,0.16 F,2,13660,14093,1,0 P,0,13660,14093,A C,0,13660,,193,193,193 M,0,13660,13693,306,266,293.3654,276.2191 M,0,13693,13726,293.3654,276.2191,280.7309,286.4382 M,0,13726,13760,280.7309,286.4382,268.0963,296.6574 M,0,13760,13793,268.0963,296.6574,255.4618,306.8765
Sprite,Foreground,Centre,"sb/w.png",0,0 S,2,13926,14359,0.8,0.16 F,2,13926,14359,1,0 P,0,13926,14359,A C,0,13926,,221,66,70 M,0,13926,13959,179,270,163.5784,265.0892 M,0,13959,13992,163.5784,265.0892,149.3023,257.5665 M,0,13992,14026,149.3023,257.5665,136.8306,247.3264 M,0,14026,14059,136.8306,247.3264,126.673,234.7871
Sprite,Foreground,Centre,"sb/w.png",119,150 S,2,14193,14493,0.8,0.16 F,2,14193,14493,1,0 P,0,14193,14493,A C,0,14193,,221,66,70
Sprite,Foreground,Centre,"sb/w.png",119,150 S,2,14326,14626,0.8,0.16 F,2,14326,14626,1,0 P,0,14326,14626,A C,0,14326,,221,66,70
Sprite,Foreground,Centre,"sb/w.png",0,0 S,2,14460,14893,0.8,0.16 F,2,14460,14893,1,0 P,0,14460,14893,A C,0,14460,,221,66,70 M,0,14460,14493,196,183,212.09,185.0914 M,0,14493,14526,212.09,185.0914,228.2919,185.525 M,0,14526,14560,228.2919,185.525,244.4321,184.0288 M,0,14560,14593,244.4321,184.0288,260.2823,180.6236
Sprite,Foreground,Centre,"sb/w.png",315,116 S,2,14726,15026,0.8,0.16 F,2,14726,15026,1,0 P,0,14726,15026,A C,0,14726,,221,66,70
Sprite,Foreground,Centre,"sb/w.png",315,116 S,2,14860,15160,0.8,0.16 F,2,14860,15160,1,0 P,0,14860,15160,A C,0,14860,,221,66,70
Sprite,Foreground,Centre,"sb/w.png",0,0 S,2,14993,15559,0.8,0.16 F,2,14993,15559,1,0 P,0,14993,15559,A C,0,14993,,138,138,138 M,0,14993,15026,399,114,411.4809,124.3833 M,0,15026,15059,411.4809,124.3833,422.4049,136.3911 M,0,15059,15093,422.4049,136.3911,431.5627,149.7925 M,0,15093,15126,431.5627,149.7925,438.7786,164.3298 M,0,15126,15159,438.7786,164.3298,443.9146,179.7235 M,0,15159,15193,443.9146,179.7235,446.8724,195.6778 M,0,15193,15226,446.8724,195.6778,447.5958,211.8862 M,0,15226,15259,447.5958,211.8862,446.0711,228.0373
Sprite,Foreground,Centre,"sb/w.png",408,304 S,2,15393,15693,0.8,0.16 F,2,15393,15693,1,0 P,0,15393,15693,A C,0,15393,,138,138,138
Sprite,Foreground,Centre,"sb/w.png",0,0 S,2,15526,15959,0.8,0.16 F,2,15526,15959,1,0 P,0,15526,15959,A C,0,15526,,138,138,138 M,0,15526,15559,408,304,392.9305,298.1288 M,0,15559,15592,392.9305,298.1288,377.0918,295.1466 M,0,15592,15626,377.0918,295.1466,360.9788,295.6014 M,0,15626,15659,360.9788,295.6014,345.3276,299.4738
Sprite,Foreground,Centre,"sb/w.png",302,372 S,2,15793,16093,0.8,0.16 F,2,15793,16093,1,0 P,0,15793,16093,A C,0,15793,,245,134,101
Sprite,Foreground,Centre,"sb/w.png",227,349 S,2,15926,16226,0.8,0.16 F,2,15926,16226,1,0 P,0,15926,16226,A C,0,15926,,245,134,101
Sprite,Foreground,Centre,"sb/w.png",0,0 S,2,16060,16493,0.8,0.16 F,2,16060,16493,1,0 P,0,16060,16493,A C,0,16060,,193,193,193 M,0,16060,16093,152,324,147.9328,308.305 M,0,16093,16126,147.9328,308.305,145.8444,292.2527 M,0,16126,16160,145.8444,292.2527,146.0905,276.0643 M,0,16160,16193,146.0905,276.0643,148.6671,260.076
Sprite,Foreground,Centre,"sb/w.png",206,198 S,2,16326,16626,0.8,0.16 F,2,16326,16626,1,0 P,0,16326,16626,A C,0,16326,,193,193,193
Sprite,Foreground,Centre,"sb/w.png",206,198 S,2,16460,16760,0.8,0.16 F,2,16460,16760,1,0 P,0,16460,16760,A C,0,16460,,193,193,193
Sprite,Foreground,Centre,"sb/w.png",0,0 S,2,16593,17026,0.8,0.16 F,2,16593,17026,1,0 P,0,16593,17026,A C,0,16593,,193,193,193 M,0,16593,16626,289,186,296.4272,171.5699 M,0,16626,16659,296.4272,171.5699,301.4008,156.1244 M,0,16659,16692,301.4008,156.1244,303.7882,140.0774 M,0,16692,16726,303.7882,140.0774,303.5267,123.8585
Sprite,Foreground,Centre,"sb/w.png",246,60 S,2,16860,17160,0.8,0.16 F,2,16860,17160,1,0 P,0,16860,17160,A C,0,16860,,193,193,193
Sprite,Foreground,Centre,"sb/w.png",246,60 S,2,16993,17293,0.8,0.16 F,2,16993,17293,1,0 P,0,16993,17293,A C,0,16993,,193,193,193
Sprite,Foreground,Centre,"sb/w.png",0,0 S,2,17126,17559,0.8,0.16 F,2,17126,17559,1,0 P,0,17126,17559,A C,0,17126,,221,66,70 M,0,17126,17159,161,60,156.5613,75.63203 M,0,17159,17192,156.5613,75.63203,152.1226,91.26405 M,0,17192,17225,152.1226,91.26405,147.6838,106.8961 M,0,17225,17259,147.6838,106.8961,143.2451,122.5281
Sprite,Foreground,Centre,"sb/w.png",0,0 S,2,17393,17893,0.8,0.16 F,2,17393,17893,1,0 P,0,17393,17893,A C,0,17393,,221,66,70 M,0,17393,17426,73,170,68.07294,185.485 M,0,17426,17459,68.07294,185.485,63.14588,200.9701 M,0,17459,17492,63.14588,200.9701,68.07294,185.485 M,0,17492,17526,68.07294,185.485,73,170 M,0,17526,17559,73,170,68.07294,185.485 M,0,17559,17593,68.07294,185.485,63.14588,200.9701
Sprite,Foreground,Centre,"sb/w.png",87,223 S,2,17660,17960,0.8,0.16 F,2,17660,17960,1,0 P,0,17660,17960,A C,0,17660,,138,138,138
Sprite,Foreground,Centre,"sb/w.png",198,289 S,2,17926,18226,0.8,0.16 F,2,17926,18226,1,0 P,0,17926,18226,A C,0,17926,,138,138,138
//Storyboard Sound Samples

[TimingPoints]
60,266.666666666667,4,3,2,100,1,0
593,-100,4,3,3,100,0,0
1060,-100,4,3,2,5,0,0
1126,-100,4,3,4,100,0,0
1326,-100,4,3,2,5,0,0
1393,-100,4,3,2,100,0,0
1460,-100,4,3,3,100,0,0
1660,-100,4,3,2,100,0,0
1726,-100,4,3,3,100,0,0
1926,-100,4,3,2,100,0,0
1993,-100,4,3,3,100,0,0
2193,-100,4,3,2,100,0,0
2260,-100,4,3,3,100,0,0
2460,-100,4,3,2,100,0,0
2526,-100,4,3,3,100,0,0
2726,-100,4,3,2,100,0,0
2793,-100,4,3,3,100,0,0
2993,-100,4,3,2,100,0,0
3060,-100,4,3,3,100,0,0
3260,-100,4,3,2,100,0,0
3326,-100,4,3,3,100,0,0
3526,-100,4,3,2,100,0,0
3593,-100,4,3,3,100,0,0
3793,-100,4,3,2,100,0,0
3860,-100,4,3,3,100,0,0
4060,-100,4,3,2,100,0,0
4126,-100,4,3,3,100,0,0
4326,-100,4,3,2,100,0,0
4393,-100,4,3,3,100,0,0
4593,-100,4,3,2,100,0,0
4660,-100,4,3,3,100,0,0
4860,-100,4,3,2,100,0,0
4926,-100,4,3,3,100,0,0
5126,-100,4,3,4,100,0,0
5193,-100,4,3,3,100,0,0
5393,-100,4,3,2,100,0,0
5460,-100,4,3,3,100,0,0
5660,-100,4,3,2,100,0,0
5726,-100,4,3,3,100,0,0
5926,-100,4,3,7,100,0,0
5993,-100,4,3,3,100,0,0
6193,-100,4,3,2,100,0,0
6260,-100,4,3,3,100,0,0
6460,-100,4,3,4,100,0,0
6526,-100,4,3,3,100,0,0
6726,-100,4,3,2,100,0,0
6793,-100,4,3,3,100,0,0
6993,-100,4,3,2,100,0,0
7060,-100,4,3,3,100,0,0
7260,-100,4,3,2,100,0,0
7326,-100,4,3,3,100,0,0
7526,-100,4,3,7,100,0,0
7593,-100,4,3,3,100,0,0
7793,-100,4,3,2,100,0,0
7860,-100,4,3,3,100,0,0
7926,-100,4,3,2,100,0,0
7993,-100,4,3,3,100,0,0
8060,-100,4,3,4,100,0,0
8126,-100,4,3,3,100,0,0
8326,-100,4,3,7,100,0,0
8393,-100,4,3,3,100,0,0
8593,-100,4,3,6,100,0,0
8660,-100,4,3,3,100,0,0
8860,-100,4,3,2,100,0,0
9393,-100,4,3,3,100,0,0
9660,-100,4,3,2,100,0,0
9993,-100,4,3,3,100,0,0
10193,-100,4,3,2,100,0,0
10260,-100,4,3,3,100,0,0
10460,-100,4,3,2,100,0,0
10526,-100,4,3,3,100,0,0
10726,-100,4,3,2,100,0,0
10793,-100,4,3,3,100,0,0
10993,-100,4,3,2,100,0,0
11060,-100,4,3,3,100,0,0
11260,-100,4,3,2,100,0,0
11326,-100,4,3,3,100,0,0
11526,-100,4,3,2,100,0,0
11593,-100,4,3,3,100,0,0
11793,-100,4,3,7,100,0,0
11860,-100,4,3,3,100,0,0
12060,-100,4,3,2,100,0,0
12126,-100,4,3,3,100,0,0
12326,-100,4,3,4,100,0,0
12393,-100,4,3,3,100,0,0
12593,-100,4,3,2,100,0,0
12660,-100,4,3,3,100,0,0
12860,-100,4,3,7,100,0,0
12926,-100,4,3,3,100,0,0
13126,-100,4,3,4,100,0,0
13193,-100,4,3,3,100,0,0
13393,-100,4,3,7,100,0,0
13460,-100,4,3,3,100,0,0
13660,-100,4,3,2,100,0,0
13726,-100,4,3,3,100,0,0
13926,-100,4,3,4,100,0,0
13993,-100,4,3,3,100,0,0
14193,-100,4,3,2,100,0,0
14260,-100,4,3,3,100,0,0
14460,-100,4,3,7,100,0,0
14526,-100,4,3,3,100,0,0
14726,-100,4,3,2,100,0,0
14793,-100,4,3,3,100,0,0
14993,-100,4,3,4,100,0,0
15060,-100,4,3,3,100,0,0
15260,-100,4,3,2,100,0,0
15326,-100,4,3,3,100,0,0
15526,-100,4,3,2,100,0,0
15593,-100,4,3,3,100,0,0
15793,-100,4,3,2,100,0,0
15860,-100,4,3,3,100,0,0
16060,-100,4,3,7,100,0,0
16126,-100,4,3,3,100,0,0
16326,-100,4,3,2,100,0,0
16393,-100,4,3,3,100,0,0
16593,-100,4,3,4,100,0,0
16660,-100,4,3,3,100,0,0
16860,-100,4,3,7,100,0,0
16926,-100,4,3,3,100,0,0
16993,-100,4,3,4,100,0,0
17060,-100,4,3,3,100,0,0
17126,-100,4,3,6,100,0,0
17193,-100,4,3,3,100,0,0
17393,-100,4,3,2,100,0,0
17926,-100,4,3,3,100,0,0
18193,-100,4,3,2,100,0,0
22193,-100,4,3,4,100,0,0
22460,-100,4,3,5,100,0,0
22593,-100,4,3,2,100,0,0
25926,-100,4,3,3,100,0,0
25993,-100,4,3,2,100,0,0
26326,-100,4,3,3,100,0,0
26393,-100,4,3,2,100,0,0
26593,-100,4,3,3,100,0,0
26726,-100,4,3,2,100,0,0
26860,-100,4,3,3,100,0,0
26993,-100,4,3,4,100,0,0
27126,-100,4,3,2,100,0,0
30726,-100,4,3,3,100,0,0
30860,-100,4,3,2,100,0,0
31260,-100,4,3,4,100,0,0
31393,-100,4,3,2,100,0,0
34060,-100,4,3,7,100,0,0
34193,-100,4,3,3,100,0,0
34393,-100,4,3,2,5,0,0
34460,-100,4,3,2,100,0,0
35126,-100,4,3,3,100,0,0
35260,-200,4,3,4,100,0,0
35393,-200,4,3,2,100,0,0
36260,-200,4,3,2,5,0,0
36326,-200,4,3,2,100,0,0
36793,-200,4,3,2,5,0,0
36860,-200,4,3,2,100,0,0
37060,-200,4,3,2,5,0,0
37126,-200,4,3,2,100,0,0
37326,-200,4,3,2,5,0,0
37393,-200,4,3,2,100,0,0
37593,-200,4,3,2,5,0,0
37660,-200,4,3,2,100,0,0
37860,-200,4,3,2,5,0,0
37926,-200,4,3,2,100,0,0
38393,-200,4,3,2,5,0,0
38460,-200,4,3,2,100,0,0
39460,-200,4,3,2,5,0,0
39526,-200,4,3,3,100,0,0
39660,-200,4,3,2,100,0,0
39993,-200,4,3,2,5,0,0
40060,-200,4,3,2,100,0,0
40260,-200,4,3,2,5,0,0
40326,-200,4,3,2,100,0,0
40526,-200,4,3,2,5,0,0
40593,-200,4,3,2,100,0,0
41060,-200,4,3,2,5,0,0
41126,-200,4,3,2,100,0,0
41326,-200,4,3,2,5,0,0
41393,-200,4,3,2,100,0,0
41593,-200,4,3,2,5,0,0
41660,-200,4,3,2,100,0,0
42126,-200,4,3,2,5,0,0
42193,-200,4,3,2,100,0,0
42726,-200,4,3,4,100,0,0
42860,-200,4,3,2,100,0,0
43193,-200,4,3,2,5,0,0
43260,-133.333333333333,4,3,2,100,0,0
43793,-133.333333333333,4,3,3,100,0,0
43860,-133.333333333333,4,3,2,100,0,0
44860,-133.333333333333,4,3,4,100,0,0
44926,-133.333333333333,4,3,2,100,0,0
45926,-133.333333333333,4,3,4,100,0,0
45993,-133.333333333333,4,3,2,100,0,0
46993,-133.333333333333,4,3,4,100,0,0
47060,-133.333333333333,4,3,2,100,0,0
48060,-133.333333333333,4,3,5,100,0,0
48126,-133.333333333333,4,3,2,100,0,0
49126,-133.333333333333,4,3,4,100,0,0
49193,-133.333333333333,4,3,2,100,0,0
49926,-133.333333333333,4,3,3,100,0,0
50193,-100,4,3,2,100,0,0
50726,-100,4,3,3,100,0,0
51260,-100,4,3,2,100,0,0
52260,-100,4,3,2,5,0,0
52326,-100,4,3,2,100,0,0
52593,-100,4,3,4,100,0,0
52726,-100,4,3,2,100,0,0
56860,-100,4,3,4,100,0,0
56993,-100,4,3,2,100,0,0
57460,-100,4,3,2,5,0,0
57526,-100,4,3,2,100,0,0
57593,-100,4,3,2,5,0,0
57660,-100,4,3,2,100,0,0
58660,-100,4,3,2,5,0,0
58726,-100,4,3,2,100,0,0
59660,-100,4,3,7,100,0,0
59793,-100,4,3,2,100,0,0
60326,-100,4,3,3,100,0,0
60593,-100,4,3,2,100,0,0
60860,-100,4,3,5,100,0,0
60993,-100,4,3,2,100,0,0
64593,-100,4,3,7,100,0,0
65126,-100,4,3,2,100,0,0
65260,-100,4,3,9,100,0,0
65660,-100,4,3,8,100,0,0
65793,-100,4,3,9,100,0,0
66193,-100,4,3,8,100,0,0
66326,-100,4,3,9,100,0,0
66726,-100,4,3,8,100,0,0
66860,-100,4,3,9,100,0,0
67260,-100,4,3,8,100,0,0
67393,-100,4,3,9,100,0,0
67793,-100,4,3,8,100,0,0
67926,-100,4,3,9,100,0,0
68326,-100,4,3,2,100,0,0
68993,-100,4,3,3,100,0,0
69126,-100,4,3,2,100,0,0
69393,-100,4,3,7,100,0,0
69526,-100,4,3,2,50,0,0
72504,-100,4,3,2,5,0,0
72593,-100,4,3,2,50,0,0
76771,-100,4,3,2,5,0,0
76860,-100,4,3,2,100,0,0
77926,-133.333333333333,4,3,3,100,0,0
77993,-133.333333333333,4,3,2,100,0,0
78993,-133.333333333333,4,3,4,100,0,0
79060,-133.333333333333,4,3,2,100,0,0
80060,-133.333333333333,4,3,4,100,0,0
80126,-133.333333333333,4,3,2,100,0,0
81126,-133.333333333333,4,3,4,100,0,0
81193,-133.333333333333,4,3,2,100,0,0
82193,-133.333333333333,4,3,3,100,0,0
82260,-133.333333333333,4,3,2,100,0,0
83260,-133.333333333333,4,3,4,100,0,0
83326,-133.333333333333,4,3,2,100,0,0
84593,-133.333333333333,4,3,3,100,0,0
85393,-133.333333333333,4,3,2,100,0,0
86393,-133.333333333333,4,3,2,5,0,0
86460,-500,4,3,4,100,0,0
86593,-500,4,3,2,100,0,0
87526,-100,4,3,2,100,0,0
87993,-100,4,3,2,5,0,0
88060,-100,4,3,2,100,0,0
88526,-100,4,3,2,5,0,0
88593,-100,4,3,2,100,0,0
88860,-100,4,3,3,100,0,0
89126,-100,4,3,2,100,0,0
90193,-100,4,3,3,100,0,0
90460,-100,4,3,2,100,0,0
90726,-100,4,3,2,100,0,1
90926,-100,4,3,2,5,0,1
90993,-100,4,3,4,100,0,1
91060,-100,4,3,3,100,0,1
91260,-100,4,3,2,100,0,1
91326,-100,4,3,3,100,0,1
91526,-100,4,3,2,100,0,1
91593,-100,4,3,3,100,0,1
91793,-100,4,3,2,100,0,1
91860,-100,4,3,3,100,0,1
92060,-100,4,3,2,100,0,1
92126,-100,4,3,3,100,0,1
92326,-100,4,3,2,100,0,1
92393,-100,4,3,3,100,0,1
92593,-100,4,3,2,100,0,1
92660,-100,4,3,3,100,0,1
92860,-100,4,3,2,100,0,1
92926,-100,4,3,3,100,0,1
93126,-100,4,3,2,100,0,1
93193,-100,4,3,3,100,0,1
93393,-100,4,3,2,100,0,1
93460,-100,4,3,3,100,0,1
93660,-100,4,3,4,100,0,1
93926,-100,4,3,2,100,0,1
94793,-100,4,3,3,100,0,1
94993,-100,4,3,4,100,0,1
95193,-100,4,3,2,5,0,1
95260,-100,4,3,2,100,0,1
95326,-100,4,3,3,100,0,1
95526,-100,4,3,2,100,0,1
95593,-100,4,3,3,100,0,1
95793,-100,4,3,2,100,0,1
95860,-100,4,3,3,100,0,1
96060,-100,4,3,2,100,0,1
96126,-100,4,3,3,100,0,1
96326,-100,4,3,2,100,0,1
96393,-100,4,3,3,100,0,1
96593,-100,4,3,2,100,0,1
96660,-100,4,3,3,100,0,1
96860,-100,4,3,2,100,0,1
96926,-100,4,3,3,100,0,1
97126,-100,4,3,2,100,0,1
97193,-100,4,3,3,100,0,1
97393,-100,4,3,2,100,0,1
97460,-100,4,3,3,100,0,1
97660,-100,4,3,2,100,0,1
97726,-100,4,3,3,100,0,1
97926,-100,4,3,2,100,0,1
97993,-100,4,3,3,100,0,1
98193,-100,4,3,2,100,0,1
98260,-100,4,3,3,100,0,1
98460,-100,4,3,2,100,0,1
98526,-100,4,3,3,100,0,1
98726,-100,4,3,4,100,0,1
98793,-100,4,3,3,100,0,1
98993,-100,4,3,4,100,0,1
99060,-100,4,3,3,100,0,1
99260,-100,4,3,2,100,0,1
99326,-100,4,3,3,100,0,1
99526,-100,4,3,6,100,0,1
99593,-100,4,3,3,100,0,1
99793,-100,4,3,2,100,0,1
99860,-100,4,3,3,100,0,1
100060,-100,4,3,2,100,0,1
100126,-100,4,3,3,100,0,1
100326,-100,4,3,2,100,0,1
100393,-100,4,3,3,100,0,1
100593,-100,4,3,2,100,0,1
100660,-100,4,3,3,100,0,1
100860,-100,4,3,2,100,0,1
100926,-100,4,3,3,100,0,1
101126,-100,4,3,2,100,0,1
101193,-100,4,3,3,100,0,1
101393,-100,4,3,2,100,0,1
102193,-100,4,3,3,100,0,1
102593,-100,4,3,2,100,0,1
103526,-100,4,3,2,100,0,0
103793,-100,4,3,4,100,0,0
103926,-100,4,3,2,100,0,0
107660,-100,4,3,4,100,0,0
107793,-100,4,3,7,100,0,0
107926,-100,4,3,2,100,0,0
116060,-100,4,3,3,100,0,0
116326,-100,4,3,7,100,0,0
116393,-100,4,3,2,100,0,0
118460,-100,4,3,7,100,0,0
118593,-100,4,3,2,100,0,0
118726,-100,4,3,3,100,0,0
118993,-100,4,3,6,100,0,0
119126,-100,4,3,2,100,0,0
119260,-100,4,3,3,100,0,0
119526,-100,4,3,6,100,0,0
119660,-100,4,3,2,100,0,0
120326,-100,4,3,3,100,0,0
120593,266.666666666667,3,3,2,100,1,1
120859,-100,3,3,4,100,0,1
120993,-100,3,3,2,100,0,1
122393,-100,3,3,2,5,0,1
122459,-100,3,3,2,100,0,1
122593,-100,3,3,6,100,0,1
122793,-100,3,3,2,5,0,1
122859,-100,3,3,2,100,0,1
122993,-100,3,3,4,100,0,1
123126,-100,3,3,2,100,0,1
123259,-100,3,3,3,100,0,1
123393,-100,3,3,2,100,0,1
123793,-100,3,3,4,100,0,1
124059,-100,3,3,2,100,0,1
125593,-100,3,3,2,5,0,1
125659,-100,3,3,2,100,0,1
125793,-100,3,3,6,100,0,1
125993,-100,3,3,2,5,0,1
126059,-100,3,3,2,100,0,1
126193,-100,3,3,4,100,0,1
126259,-100,3,3,3,100,0,1
126459,-100,3,3,2,100,0,1
126526,-100,3,3,3,100,0,1
126726,-100,3,3,2,100,0,1
126793,-100,3,3,3,100,0,1
126993,-100,3,3,4,100,0,1
127126,-100,3,3,2,100,0,1
128793,-100,3,3,2,5,0,1
128859,-100,3,3,2,100,0,1
128993,-100,3,3,6,100,0,1
129193,-100,3,3,2,5,0,1
129259,-100,3,3,2,100,0,1
129393,-100,3,3,4,100,0,1
129526,-100,3,3,2,100,0,1
129659,-100,3,3,3,100,0,1
129793,-100,3,3,2,100,0,1
130193,-100,3,3,4,100,0,1
130459,-100,3,3,2,100,0,1
132193,-100,3,3,6,100,0,1
132393,-100,3,3,2,100,0,1
132459,-100,3,3,3,100,0,1
132593,-100,3,3,2,100,0,1
132659,-100,3,3,3,100,0,1
132859,-100,3,3,2,100,0,1
132926,-100,3,3,3,100,0,1
133126,-100,3,3,2,100,0,1
133193,-100,3,3,3,100,0,1
133393,-76.9230769230769,3,3,4,100,0,1
133526,-76.9230769230769,3,3,2,100,0,1
134393,-76.9230769230769,3,3,2,5,0,1
134459,-76.9230769230769,3,3,2,100,0,1
134926,-76.9230769230769,3,3,2,5,0,1
134993,-76.9230769230769,3,3,7,100,0,1
135193,-76.9230769230769,3,3,2,5,0,1
135259,-76.9230769230769,3,3,2,100,0,1
135593,-76.9230769230769,3,3,2,5,0,1
135659,-76.9230769230769,3,3,2,100,0,1
136593,-76.9230769230769,3,3,3,100,0,1
136726,-76.9230769230769,3,3,2,100,0,1
137593,-76.9230769230769,3,3,2,5,0,1
137659,-76.9230769230769,3,3,2,100,0,1
138126,-76.9230769230769,3,3,2,5,0,1
138193,-76.9230769230769,3,3,7,100,0,1
138393,-76.9230769230769,3,3,2,5,0,1
138459,-76.9230769230769,3,3,2,100,0,1
138793,-76.9230769230769,3,3,2,5,0,1
138859,-76.9230769230769,3,3,2,100,0,1
139526,-76.9230769230769,3,3,3,100,0,1
139659,-76.9230769230769,3,3,2,100,0,1
139793,-76.9230769230769,3,3,4,100,0,1
139926,-76.9230769230769,3,3,2,100,0,1
140059,-76.9230769230769,3,3,5,100,0,1
140193,-76.9230769230769,3,3,2,100,0,1
140793,-76.9230769230769,3,3,2,5,0,1
140859,-76.9230769230769,3,3,2,100,0,1
141326,-76.9230769230769,3,3,2,5,0,1
141393,-76.9230769230769,3,3,7,100,0,1
141593,-76.9230769230769,3,3,2,5,0,1
141659,-76.9230769230769,3,3,2,100,0,1
141993,-76.9230769230769,3,3,2,5,0,1
142059,-76.9230769230769,3,3,2,100,0,1
142193,-76.9230769230769,3,3,3,100,0,1
142459,-76.9230769230769,3,3,2,100,0,1
142593,-76.9230769230769,3,3,3,100,0,1
142726,-76.9230769230769,3,3,2,100,0,1
142993,-76.9230769230769,3,3,6,100,0,1
143126,-76.9230769230769,3,3,2,100,0,1
143793,-76.9230769230769,3,3,5,100,0,1
143993,-76.9230769230769,3,3,2,5,0,1
144059,-76.9230769230769,3,3,2,100,0,1
144593,-76.9230769230769,3,3,3,100,0,1
144859,-76.9230769230769,3,3,2,100,0,1
144993,-76.9230769230769,3,3,3,100,0,1
145259,-76.9230769230769,3,3,2,100,0,1
145393,-76.9230769230769,3,3,5,100,0,1
145526,-76.9230769230769,3,3,2,100,0,1
145659,-76.9230769230769,3,3,3,100,0,1
145926,-76.9230769230769,3,3,2,100,0,1
146193,-76.9230769230769,3,3,2,100,0,0
146459,-76.9230769230769,3,3,3,100,0,0
146993,-76.9230769230769,3,3,2,100,0,0
148326,-76.9230769230769,3,3,3,100,0,0
148593,-76.9230769230769,3,3,2,100,0,0
148793,-76.9230769230769,3,3,2,5,0,0
148859,-76.9230769230769,3,3,2,100,0,0
149059,-76.9230769230769,3,3,2,5,0,0
149126,-76.9230769230769,3,3,2,100,0,0
149326,-76.9230769230769,3,3,2,5,0,0
149393,-76.9230769230769,3,3,2,100,0,0
149593,-76.9230769230769,3,3,2,5,0,0
149659,-76.9230769230769,3,3,2,100,0,0
150393,-76.9230769230769,3,3,2,5,0,0
150459,-76.9230769230769,3,3,2,100,0,0
150659,-76.9230769230769,3,3,2,5,0,0
150726,-76.9230769230769,3,3,2,100,0,0
150859,-76.9230769230769,3,3,3,100,0,0
150993,-76.9230769230769,3,3,2,100,0,0
152326,-76.9230769230769,3,3,3,100,0,0
152593,-100,3,3,4,100,0,0
152793,-100,3,3,2,5,0,0
152859,-100,3,3,2,100,0,0
155793,-100,3,3,3,100,0,0
155993,-100,3,3,2,5,0,0
156059,-100,3,3,2,100,0,0
156526,-100,3,3,2,5,0,0
156593,-100,3,3,2,100,0,0
156793,-100,3,3,2,5,0,0
156859,-100,3,3,2,100,0,0
157059,-100,3,3,2,5,0,0
157126,-100,3,3,2,100,0,0
157393,-100,3,3,4,100,0,0
157459,-100,3,3,3,100,0,0
157593,-100,3,3,2,100,0,0
157926,-100,3,3,3,100,0,0
157993,-100,3,3,2,100,0,0
158186,258.620689655172,3,3,2,100,1,0
158444,-100,3,3,3,100,0,0
158573,-100,3,3,2,100,0,0
158986,266.666666666667,3,3,3,100,1,1
159186,-100,3,3,2,5,0,1
159252,-100,3,3,2,100,0,1
159986,-100,3,3,2,5,0,1
160052,-100,3,3,2,100,0,1
160586,-100,3,3,3,100,0,1
160719,-100,3,3,2,100,0,1
161652,-100,3,3,6,100,0,1
162186,-100,3,3,4,100,0,1
162319,-100,3,3,2,100,0,1
163786,-100,3,3,4,100,0,1
163919,-100,3,3,2,100,0,1
165119,-100,3,3,3,100,0,1
165386,-100,3,3,2,100,0,1
166452,-100,3,3,5,100,0,1
166986,-100,3,3,3,100,0,1
167186,-100,3,3,2,5,0,1
167252,-100,3,3,2,100,0,1
167452,-100,3,3,2,5,0,1
167519,-100,3,3,2,100,0,1
167786,-100,3,3,4,100,0,1
168586,-100,3,3,3,100,0,1
168674,-100,3,3,2,100,0,1
172586,-100,3,3,4,100,0,1
173386,-100,3,3,3,100,0,1
174186,-100,3,3,7,100,0,1
174986,-100,3,3,2,100,0,1
177386,-100,3,3,4,100,0,1
177474,-100,3,3,2,100,0,1
178452,-100,3,3,3,100,0,1
178652,-100,3,3,3,5,0,1
178719,-100,3,3,3,100,0,1
178986,-100,3,3,6,100,0,1
179119,-100,3,3,2,100,0,1
179719,-100,3,3,2,5,0,1
179786,-100,3,3,3,100,0,1
179919,-100,3,3,2,100,0,1
180586,-100,3,3,7,100,0,1
181386,-100,3,3,2,100,0,1
184052,-100,3,3,3,100,0,1
184319,-100,3,3,2,100,0,1
184586,266.666666666667,4,3,3,100,1,0
184674,-100,4,3,2,100,0,0
192586,-133.333333333333,4,3,2,100,0,0
193119,-200,4,3,4,100,0,0
193186,-200,4,3,2,100,0,0
193586,-200,4,3,2,5,0,0
193652,-200,4,3,2,100,0,0
197386,-200,4,3,3,100,0,0
197452,-200,4,3,2,100,0,0
197852,-200,4,3,2,5,0,0
197919,-200,4,3,2,100,0,0
200586,-200,4,3,4,100,0,0
200652,-200,4,3,2,100,0,0
201052,-200,4,3,2,5,0,0
201119,-133.333333333333,4,3,2,100,0,0
201652,-200,4,3,3,100,0,0
201719,-200,4,3,2,100,0,0
202119,-200,4,3,2,5,0,0
202186,-200,4,3,4,100,0,0
203852,-200,4,3,2,100,0,0
204252,-200,4,3,2,5,0,0
204319,-200,4,3,3,100,0,0
205919,-133.333333333333,4,3,3,100,0,0
205986,-133.333333333333,4,3,2,100,0,0
206452,-133.333333333333,4,3,6,100,0,0
206519,-133.333333333333,4,3,2,100,0,0
206986,-133.333333333333,4,3,4,100,0,0
207052,-133.333333333333,4,3,2,100,0,0
207519,-133.333333333333,4,3,6,100,0,0
207586,-133.333333333333,4,3,2,100,0,0
209119,-100,4,3,2,100,0,0
209652,-100,4,3,3,100,0,0
209919,-100,4,3,2,100,0,0
210186,-500,4,3,2,100,0,0
211252,-100,4,3,2,100,0,0
211786,-100,4,3,3,100,0,0
212319,-100,4,3,2,100,0,0
213519,-100,4,3,3,100,0,0
213652,-100,4,3,2,100,0,0
214186,-100,4,3,5,100,0,0
214386,-100,4,3,2,5,0,0
214452,-100,4,3,2,100,0,1
214652,-100,4,3,2,5,0,1
214719,-100,4,3,2,100,0,1
214786,-100,4,3,3,100,0,1
214986,-100,4,3,2,100,0,1
215052,-100,4,3,3,100,0,1
215252,-100,4,3,2,100,0,1
215319,-100,4,3,3,100,0,1
215519,-100,4,3,2,100,0,1
215586,-100,4,3,3,100,0,1
215786,-100,4,3,2,100,0,1
215852,-100,4,3,3,100,0,1
216052,-100,4,3,2,100,0,1
216119,-100,4,3,3,100,0,1
216319,-100,4,3,2,100,0,1
216386,-100,4,3,3,100,0,1
216586,-100,4,3,2,100,0,1
216652,-100,4,3,3,100,0,1
216852,-100,4,3,2,100,0,1
216919,-100,4,3,3,100,0,1
217119,-100,4,3,2,100,0,1
217186,-100,4,3,3,100,0,1
217386,-100,4,3,2,100,0,1
217452,-100,4,3,3,100,0,1
217519,-100,4,3,4,100,0,1
217652,-100,4,3,7,100,0,1
217719,-100,4,3,2,100,0,1
218919,-100,4,3,2,5,0,1
218986,-100,4,3,7,100,0,1
219052,-100,4,3,3,100,0,1
219252,-100,4,3,7,100,0,1
219319,-100,4,3,3,100,0,1
219652,-100,4,3,7,100,0,1
219719,-100,4,3,3,100,0,1
219919,-100,4,3,7,100,0,1
219986,-100,4,3,3,100,0,1
220319,-100,4,3,6,100,0,1
220386,-100,4,3,3,100,0,1
220719,-100,4,3,4,100,0,1
220786,-100,4,3,3,100,0,1
221119,-100,4,3,6,100,0,1
221186,-100,4,3,3,100,0,1
221386,-100,4,3,4,100,0,1
221452,-100,4,3,3,100,0,1
221652,-100,4,3,6,100,0,1
221719,-100,4,3,3,100,0,1
221919,-100,4,3,2,100,0,1
222186,-100,4,3,3,100,0,1
222452,-100,4,3,2,100,0,1
223186,-100,4,3,2,5,0,1
223252,-100,4,3,2,100,0,1
223319,-100,4,3,3,100,0,1
223519,-100,4,3,2,100,0,1
223586,-100,4,3,3,100,0,1
223786,-100,4,3,2,100,0,1
223852,-100,4,3,3,100,0,1
224052,-100,4,3,2,100,0,1
224119,-100,4,3,3,100,0,1
224319,-100,4,3,2,100,0,1
224386,-100,4,3,3,100,0,1
224586,-100,4,3,2,100,0,1
224652,-100,4,3,3,100,0,1
224852,-100,4,3,2,100,0,1
224919,-100,4,3,3,100,0,1
225119,-100,4,3,6,100,0,1
225252,-100,4,3,2,100,0,1
225652,-100,4,3,3,100,0,1
225786,-100,4,3,2,100,0,1
227119,-100,4,3,3,100,0,1
227252,-100,4,3,2,100,0,0
231386,-100,4,3,4,100,0,0
231519,-100,4,3,3,100,0,0
231652,-100,4,3,2,100,0,0
234852,-100,4,3,3,100,0,0
234986,-100,4,3,2,100,0,0
235119,-100,4,3,3,100,0,0
235252,-100,4,3,2,100,0,0
235386,-100,4,3,3,100,0,0
235519,-100,4,3,2,100,0,0
235652,-100,4,3,3,100,0,0
235786,-100,4,3,2,100,0,0
236052,-100,4,3,4,100,0,0
236119,-100,4,3,8,100,0,0
238986,-100,4,3,2,100,0,0
239786,-100,4,3,3,100,0,0
240119,-100,4,3,2,100,0,0
242719,-100,4,3,5,100,0,0
243252,-100,4,3,2,100,0,0
244052,-100,4,3,3,100,0,0
244319,-133.333333333333,4,3,3,100,0,0
244386,-133.333333333333,4,3,2,100,0,0
244786,-133.333333333333,4,3,2,5,0,0
244852,-133.333333333333,4,3,3,100,0,0
245452,-133.333333333333,4,3,2,100,0,0
245852,-133.333333333333,4,3,2,5,0,0
245919,-133.333333333333,4,3,3,100,0,0
246630,-133.333333333333,4,3,3,5,0,0
246719,-133.333333333333,4,3,3,100,0,0
246986,-133.333333333333,4,3,2,100,0,0
247163,-133.333333333333,4,3,3,5,0,0
247252,-133.333333333333,4,3,2,100,0,0
247519,-133.333333333333,4,3,3,100,0,0
247719,-133.333333333333,4,3,2,5,0,0
247786,-133.333333333333,4,3,2,100,0,0
248319,-133.333333333333,4,3,2,5,0,0

[Colours]
Combo1 : 193,193,193
Combo2 : 221,66,70
Combo3 : 138,138,138
Combo4 : 245,134,101
Combo5 : 60,173,205
Combo6 : 152,7,7
Combo7 : 228,234,116

[HitObjects]
344,254,60,102,0,L|357:206,3,32.5,8|8|8|8,0:2|2:2|2:2|2:2,0:0:0:0:
386,229,326,2,0,L|408:154,1,65,12|8,0:3|2:3,0:0:0:0:
328,128,593,2,0,L|315:80,3,32.5,12|8|8|8,0:3|2:3|2:3|2:3,0:0:0:0:
286,103,859,2,0,L|264:28,1,65,4|0,0:2|0:0,0:0:0:0:
186,65,1126,6,0,P|180:102|153:148,1,65,4|0,0:2|0:0,0:0:0:0:
92,158,1393,1,2,0:2:0:0:
92,158,1526,1,2,0:2:0:0:
158,210,1660,2,0,P|203:202|236:180,1,65,2|2,0:2|0:2,0:0:0:0:
265,123,1926,1,2,0:2:0:0:
265,123,2060,1,2,0:2:0:0:
305,197,2193,6,0,P|363:212|435:177,1,130,2|2,0:2|0:2,0:0:0:0:
456,109,2593,1,2,0:2:0:0:
456,109,2726,2,0,P|417:101|388:82,1,65,2|2,0:2|0:2,0:0:0:0:
325,40,2993,5,2,0:2:0:0:
316,119,3126,1,2,0:2:0:0:
305,197,3260,54,0,P|264:216|220:216,1,65,2|2,0:2|0:2,0:0:0:0:
174,182,3526,1,2,0:2:0:0:
174,182,3660,1,2,0:2:0:0:
171,266,3793,2,0,P|218:302|250:310,1,65,2|2,0:2|0:2,0:0:0:0:
311,307,4060,1,2,0:2:0:0:
311,307,4193,1,2,0:2:0:0:
387,343,4326,6,0,L|473:360,1,65,2|2,0:2|0:2,0:0:0:0:
447,270,4593,2,0,L|383:257,1,65,2|2,0:2|0:2,0:0:0:0:
310,213,4860,6,0,L|224:230,1,65,2|2,0:2|0:2,0:0:0:0:
248,140,5127,2,0,L|311:127,1,65,4|0,0:2|0:0,0:0:0:0:
363,60,5393,6,0,P|311:44|279:48,1,65,4|2,0:2|0:2,0:0:0:0:
221,62,5660,1,2,0:2:0:0:
221,62,5793,1,2,0:2:0:0:
248,140,5926,2,0,P|205:158|170:161,1,65,4|2,0:2|0:2,0:0:0:0:
113,130,6193,1,2,0:2:0:0:
113,130,6326,1,2,0:2:0:0:
62,61,6460,54,0,P|31:112|45:179,1,130,4|2,0:2|0:2,0:0:0:0:
124,218,6860,1,2,0:2:0:0:
124,218,6993,2,0,P|123:258|103:302,1,65,2|2,0:2|0:2,0:0:0:0:
67,351,7260,5,2,0:2:0:0:
144,361,7393,1,2,0:2:0:0:
221,367,7526,6,0,P|245:324|248:288,1,65,4|2,0:2|0:2,0:0:0:0:
216,235,7793,1,2,0:3:0:0:
216,235,7926,1,2,0:3:0:0:
300,237,8060,2,0,P|294:202|264:156,1,65,4|0,0:2|0:0,0:0:0:0:
204,154,8326,1,4,0:2:0:0:
204,154,8460,1,0,0:0:0:0:
261,92,8593,6,0,L|347:104,1,65,4|0,0:2|0:0,0:0:0:0:
363,176,8860,2,0,L|417:182,3,32.5,8|8|8|8,0:2|2:2|2:2|2:2,0:0:0:0:
388,207,9126,2,0,L|474:219,1,65,8|8,0:3|2:3,0:0:0:0:
487,293,9393,2,0,L|527:295,2,32.5,8|8|8,0:3|2:3|2:3,0:0:0:0:
470,376,9660,54,0,P|422:382|394:373,1,65,4|0,0:2|0:0,0:0:0:0:
364,311,9926,1,2,0:3:0:0:
364,311,10060,1,2,0:3:0:0:
314,242,10193,2,0,P|259:239|232:249,1,65,2|2,0:3|0:3,0:0:0:0:
201,311,10460,1,2,0:3:0:0:
201,311,10593,1,2,0:3:0:0:
150,378,10726,6,0,P|94:380|37:327,1,130,2|2,0:3|0:3,0:0:0:0:
36,249,11126,1,2,0:3:0:0:
36,249,11260,2,0,P|93:242|116:230,1,65,2|2,0:3|0:3,0:0:0:0:
145,168,11526,5,2,0:3:0:0:
112,97,11660,1,2,0:3:0:0:
76,27,11793,6,0,P|113:4|146:3,1,65,4|2,0:2|0:3,0:0:0:0:
208,42,12060,1,2,0:3:0:0:
208,42,12193,1,2,0:3:0:0:
282,81,12326,2,0,P|319:58|352:57,1,65,4|2,0:2|0:3,0:0:0:0:
419,98,12593,1,2,0:3:0:0:
419,98,12726,1,2,0:3:0:0:
499,124,12860,54,0,L|513:210,1,65,4|0,0:2|0:0,0:0:0:0:
425,183,13126,2,0,L|408:268,1,65,4|0,0:2|0:0,0:0:0:0:
336,213,13393,2,0,L|291:287,1,65,4|0,0:2|0:0,0:0:0:0:
242,210,13660,2,0,L|174:265,1,65,4|0,0:2|0:0,0:0:0:0:
115,214,13926,6,0,P|75:194|52:156,1,65,4|2,0:2|0:3,0:0:0:0:
55,94,14193,1,2,0:3:0:0:
55,94,14326,1,2,0:3:0:0:
132,127,14460,2,0,P|175:129|208:121,1,65,4|2,0:2|0:3,0:0:0:0:
251,60,14726,1,2,0:3:0:0:
251,60,14860,1,2,0:3:0:0:
335,58,14993,6,0,P|372:102|379:186,1,130,4|2,0:2|0:3,0:0:0:0:
344,248,15393,1,2,0:3:0:0:
344,248,15526,2,0,P|292:240|264:252,1,65,2|2,0:3|0:3,0:0:0:0:
238,316,15793,5,2,0:3:0:0:
163,293,15926,1,2,0:3:0:0:
88,268,16060,54,0,P|82:218|88:192,1,65,4|2,0:2|0:3,0:0:0:0:
142,142,16326,1,2,0:3:0:0:
142,142,16460,1,2,0:3:0:0:
225,130,16593,2,0,P|240:81|237:53,1,65,4|0,0:2|0:0,0:0:0:0:
182,4,16860,1,4,0:2:0:0:
182,4,16993,1,4,0:2:0:0:
97,4,17126,6,0,L|74:85,1,65,4|0,0:2|0:0,0:0:0:0:
9,114,17393,2,0,L|-5:158,3,32.5,8|8|8|8,0:2|2:2|2:2|2:2,0:0:0:0:
23,167,17660,5,8,0:3:0:0:
134,233,17926,1,8,0:3:0:0:
247,297,18193,6,0,B|291:249|291:249|321:180,1,130,4|10,0:2|0:2,0:0:0:0:
292,61,18726,1,10,0:2:0:0:
170,13,18993,1,10,0:2:0:0:
46,53,19260,54,0,B|26:124|26:124|29:203,1,130,10|10,0:2|0:2,0:0:0:0:
102,286,19793,1,10,0:2:0:0:
232,288,20060,1,10,0:2:0:0:
312,186,20326,6,0,L|391:164,2,65,10|0|10,0:2|2:0|0:2,0:0:0:0:
183,160,20860,2,0,B|204:93|204:93|246:40,1,130,10|10,0:2|0:2,0:0:0:0:
368,18,21393,6,0,B|431:49|431:49|487:121,1,130,10|10,0:2|0:2,0:0:0:0:
466,226,21926,2,0,L|517:259,2,43.3333333333333,12|0|0,0:2|2:0|2:0,0:0:0:0:
423,237,22193,1,12,0:2:0:0:
328,326,22460,6,0,B|260:337|260:337|196:328,1,130,12|10,0:2|0:2,0:0:0:0:
178,200,22993,1,10,0:2:0:0:
51,170,23260,2,0,L|26:103,1,65,10|0,0:2|0:0,0:0:0:0:
46,46,23526,54,0,B|115:60|115:60|189:43,1,130,10|10,0:2|0:2,0:0:0:0:
299,13,24060,1,10,0:2:0:0:
413,74,24326,1,10,0:2:0:0:
434,202,24593,6,0,B|407:269|407:269|349:326,1,130,10|10,0:2|0:2,0:0:0:0:
271,220,25126,2,0,B|249:146|249:146|196:93,1,130,10|10,0:2|0:2,0:0:0:0:
88,151,25660,6,0,L|106:243,1,65,8|8,0:3|2:2,0:0:0:0:
164,270,25926,2,0,L|174:314,3,32.5,8|8|8|8,0:3|2:2|2:2|2:2,0:0:0:0:
197,281,26193,2,0,L|207:325,3,32.5,8|8|8|8,0:3|2:2|2:3|2:2,0:0:0:0:
229,292,26460,2,0,L|239:336,3,32.5,8|8|8|8,0:3|2:3|2:3|2:3,0:0:0:0:
257,299,26726,6,0,P|267:248|329:197,1,130,4|4,0:2|0:2,0:0:0:0:
389,195,27126,1,10,0:2:0:0:
454,192,27260,2,0,P|480:134|454:55,1,130
410,36,27660,1,10,0:2:0:0:
355,0,27793,53,0,0:0:0:0:
271,100,28060,2,0,L|260:150,3,32.5,0|0|10|0,0:0|0:0|0:2|0:0,0:0:0:0:
234,119,28326,2,0,L|214:209,1,65,0|10,0:0|0:2,0:0:0:0:
150,222,28593,5,0,0:0:0:0:
174,296,28726,1,10,0:2:0:0:
198,370,28860,6,0,P|150:383|60:353,1,130
41,306,29260,1,10,0:2:0:0:
10,248,29393,2,0,P|46:203|37:116,1,130
29,69,29793,1,10,0:2:0:0:
11,6,29926,5,0,0:0:0:0:
134,45,30193,2,0,L|226:24,1,65,0|10,0:0|0:2,0:0:0:0:
274,47,30460,2,0,L|260:116,2,43.3333333333333,0|0|0,0:0|2:0|2:0,0:0:0:0:
315,34,30726,1,4,0:3:0:0:
416,115,30993,54,0,P|406:166|344:217,1,130,4|4,0:2|0:2,0:0:0:0:
284,207,31393,1,10,0:2:0:0:
219,197,31527,2,0,P|141:217|111:283,1,130
106,319,31927,1,10,0:2:0:0:
96,383,32060,5,0,0:0:0:0:
221,348,32327,2,0,L|258:312,3,32.5,0|0|10|0,0:0|0:0|0:2|0:0,0:0:0:0:
268,346,32593,2,0,L|328:279,1,65,0|10,0:0|0:2,0:0:0:0:
390,289,32860,5,0,0:0:0:0:
377,212,32993,1,10,0:2:0:0:
364,134,33127,6,0,P|315:139|231:111,1,130
202,61,33527,1,10,0:2:0:0:
168,5,33660,2,0,P|94:23|46:69,1,130,0|4,0:0|0:2,0:0:0:0:
56,122,34060,1,12,0:2:0:0:
57,186,34193,53,4,0:3:0:0:
155,270,34460,2,0,L|165:318,3,32.5,8|8|8|8,0:2|2:2|2:2|2:2,0:0:0:0:
191,314,34726,1,0,0:0:0:0:
261,204,34993,2,0,L|271:156,3,32.5,8|8|8|8,0:3|2:3|2:3|2:3,0:0:0:0:
297,160,35259,5,4,0:2:0:0:
297,160,36326,2,0,P|331:212|321:290,1,130,12|4,0:2|2:2,0:0:0:0:
259,338,37126,1,0,0:0:0:0:
166,350,37393,2,0,P|131:318|116:294,1,65,4|0,0:2|2:0,0:0:0:0:
116,212,37926,1,4,0:2:0:0:
38,48,38460,2,0,P|85:83|160:91,1,130,12|0,0:2|0:0,0:0:0:0:
320,14,39526,6,0,P|376:33|419:99,1,130,4|4,0:2|2:2,0:0:0:0:
417,180,40326,1,0,2:0:0:0:
356,248,40593,2,0,P|300:229|257:163,1,130,12|4,0:2|0:2,0:0:0:0:
222,90,41393,1,0,0:0:0:0:
142,47,41660,6,0,P|117:53|58:141,1,130,4|4,0:2|0:2,0:0:0:0:
70,223,42460,1,0,0:0:0:0:
81,313,42726,53,12,0:2:0:0:
318,307,43260,1,8,2:1:0:0:
236,231,43526,1,8,2:1:0:0:
154,155,43793,6,0,L|217:63,1,97.50000371933,4|0,0:2|0:0,0:0:0:0:
291,61,44193,1,0,0:0:0:0:
291,61,44260,1,0,0:0:0:0:
291,61,44326,2,0,L|335:153,1,97.50000371933,4|0,0:2|0:0,0:0:0:0:
422,109,44860,6,0,P|475:137|473:271,1,195.00000743866,12|4,0:2|0:2,0:0:0:0:
407,322,45660,1,0,0:0:0:0:
310,333,45926,6,0,L|249:303,1,48.750001859665,4|0,0:2|0:0,0:0:0:0:
262,262,46193,2,0,L|221:242,3,24.3750009298325
255,232,46460,2,0,B|199:200|199:200|148:193,1,97.50000371933,4|0,0:2|0:0,0:0:0:0:
75,231,46993,54,0,P|33:200|62:71,1,195.00000743866,12|4,0:2|0:2,0:0:0:0:
148,46,47793,1,0,0:0:0:0:
244,63,48060,6,0,L|289:74,3,24.3750009298325,4|0|0|0,0:2|0:0|0:0|0:0,0:0:0:0:
278,47,48326,2,0,B|377:70|377:70|465:141,1,195.00000743866
455,226,49126,2,0,B|377:268|377:268|312:363,1,195.00000743866,12|0,0:2|0:0,0:0:0:0:
220,369,49926,1,4,0:3:0:0:
122,376,50193,6,0,L|107:325,3,32.5,8|8|8|8,0:2|2:2|2:2|2:2,0:0:0:0:
81,352,50460,2,0,L|60:268,1,65,8|8,2:3|2:3,0:0:0:0:
142,263,50726,2,0,L|157:212,3,32.5,8|8|8|8,0:3|2:3|2:3|2:3,0:0:0:0:
183,239,50993,2,0,L|204:155,1,65,8|8,0:3|0:3,0:0:0:0:
155,109,51260,5,4,0:2:0:0:
155,109,52326,54,0,B|113:164|113:164|99:240,1,130,4|4,0:2|0:2,0:0:0:0:
207,300,52860,2,0,B|278:317|278:317|346:372,1,130
387,355,53260,1,10,0:2:0:0:
451,354,53393,6,0,L|477:275,2,65,0|10|0,0:0|0:2|0:0,0:0:0:0:
365,255,53926,2,0,B|398:200|398:200|461:161,1,130
450,100,54326,1,10,0:2:0:0:
444,34,54460,6,0,B|373:14|373:14|310:21,1,130
231,118,54993,1,0,0:0:0:0:
137,26,55260,2,0,L|61:47,1,65,0|10,0:0|0:2,0:0:0:0:
12,24,55526,6,0,B|22:100|22:100|9:165,1,130
82,262,56060,2,0,L|114:221,3,32.5,2|0|0|0,0:3|0:0|0:0|0:0,0:0:0:0:
134,235,56326,1,4,0:3:0:0:
153,106,56593,54,0,B|219:89|219:89|283:97,1,130,4|4,0:2|0:2,0:0:0:0:
378,182,57126,2,0,B|312:222|312:222|274:286,1,130
250,322,57526,1,10,0:2:0:0:
214,376,57660,6,0,B|139:357|139:357|82:314,1,130
68,198,58193,1,0,0:0:0:0:
190,153,58460,2,0,L|198:80,1,65
166,31,58726,6,0,B|241:12|241:12|315:15,1,130
389,102,59260,2,0,B|423:155|423:155|479:197,1,130,0|4,0:0|0:2,0:0:0:0:
503,322,59793,6,0,L|509:358,3,32.5,8|0|0|12,0:2|2:0|0:0|0:3,0:0:0:0:
473,315,60060,1,12,0:3:0:0:
385,236,60326,2,0,L|390:193,3,32.5,12|0|0|12,0:3|2:0|0:0|0:3,0:0:0:0:
353,248,60593,1,4,0:2:0:0:
321,369,60860,54,0,P|278:343|238:331,1,65,12|8,0:2|0:2,0:0:0:0:
187,346,61126,2,0,P|136:333|112:319,1,65,12|8,0:2|0:2,0:0:0:0:
100,253,61393,2,0,P|77:215|54:190,1,65,12|8,0:2|0:2,0:0:0:0:
4,147,61660,1,12,0:2:0:0:
4,147,61793,1,8,0:2:0:0:
4,69,61926,6,0,P|45:24|127:19,1,130,12|12,0:2|0:2,0:0:0:0:
242,99,62460,2,0,L|329:78,1,65,12|8,0:2|0:2,0:0:0:0:
371,34,62726,1,12,0:2:0:0:
371,34,62860,1,8,0:2:0:0:
382,110,62993,6,0,P|398:148|429:191,1,65,12|8,0:2|0:2,0:0:0:0:
472,230,63260,1,12,0:2:0:0:
472,230,63393,2,0,P|486:284|486:303,2,65,8|12|8,0:2|0:2|0:2,0:0:0:0:
395,247,63793,2,0,P|360:282|333:293,1,65,12|8,0:2|0:2,0:0:0:0:
273,260,64060,6,0,P|195:256|137:285,1,130,12|12,0:2|0:2,0:0:0:0:
83,134,64593,2,0,L|96:82,2,43.3333333333333,12|0|0,0:2|0:0|0:0,0:0:0:0:
31,143,64860,1,12,0:2:0:0:
34,298,65126,54,0,P|84:334|112:342,1,65,12|10,0:2|0:2,0:0:0:0:
161,357,65393,2,0,P|212:345|249:350,1,65,10|8,0:2|0:2,0:0:0:0:
301,356,65660,2,0,P|354:346|385:333,1,65,10|8,0:2|0:2,0:0:0:0:
409,279,65926,1,10,0:2:0:0:
409,279,66060,1,8,0:2:0:0:
398,201,66193,6,0,P|391:142|446:69,1,130,10|10,0:2|0:2,0:0:0:0:
285,11,66726,2,0,L|231:69,1,65,10|8,0:2|0:2,0:0:0:0:
240,139,66993,1,10,0:2:0:0:
240,139,67126,1,8,0:2:0:0:
172,99,67260,6,0,P|121:111|95:125,1,65,10|8,0:2|0:2,0:0:0:0:
77,187,67526,2,0,P|68:232|51:270,1,65,10|8,0:2|0:2,0:0:0:0:
100,317,67793,2,0,P|139:353|165:362,1,65,10|8,0:2|0:2,0:0:0:0:
222,330,68060,2,0,P|284:322|307:328,1,65,10|8,0:2|0:2,0:0:0:0:
354,285,68326,6,0,L|366:241,3,32.5,8|8|8|8,0:2|0:2|0:2|0:2,0:0:0:0:
330,230,68593,2,0,L|354:154,1,65,4|0,0:3|0:0,0:0:0:0:
321,95,68860,1,8,0:3:0:0:
321,95,68926,1,0,0:0:0:0:
321,95,68993,2,0,L|332:51,5,32.5,8|0|0|0|0|0,0:3|0:0|0:0|0:0|0:0|0:0,0:0:0:0:
316,26,69393,53,4,0:2:0:0:
148,262,76860,53,8,2:1:0:0:
148,262,77926,2,0,B|193:192|193:192|250:154,1,146.250005578995,4|0,0:2|0:0,0:0:0:0:
249,163,78393,1,0,0:0:0:0:
253,168,78460,2,0,B|304:132|304:132|322:94,1,97.50000371933,4|0,0:2|0:0,0:0:0:0:
445,92,78993,38,0,B|421:154|421:154|434:199,1,97.50000371933,12|0,0:2|0:0,0:0:0:0:
400,240,79393,1,0,0:0:0:0:
370,296,79526,2,0,B|304:292|304:292|263:311,1,97.50000371933,4|0,0:2|0:0,0:0:0:0:
158,355,80060,6,0,B|177:292|177:292|174:255,1,97.50000371933,4|0,0:2|0:0,0:0:0:0:
55,217,80593,2,0,B|70:152|70:152|91:122,1,97.50000371933,4|0,0:2|0:0,0:0:0:0:
200,67,81126,6,0,B|260:133|260:133|316:146,1,146.250005578995,12|0,0:2|0:0,0:0:0:0:
322,143,81593,1,0,0:0:0:0:
328,140,81660,1,4,0:2:0:0:
432,211,81926,1,0,0:0:0:0:
432,84,82193,6,0,B|356:35|356:35|299:37,1,146.250005578995,4|0,0:2|0:0,0:0:0:0:
294,42,82660,1,0,0:0:0:0:
289,46,82726,2,0,B|232:46|232:46|188:27,1,97.50000371933,4|0,0:2|0:0,0:0:0:0:
71,62,83260,54,0,B|95:118|95:118|137:145,1,97.50000371933,12|0,0:2|0:0,0:0:0:0:
130,201,83660,1,0,0:0:0:0:
134,264,83793,2,0,B|190:292|190:292|215:329,1,97.50000371933,4|0,0:2|0:0,0:0:0:0:
301,233,84326,6,0,L|299:200,3,24.3750009298325,12|8|12|8,0:3|2:3|0:3|2:3,0:0:0:0:
331,206,84593,2,0,L|328:142,1,48.750001859665,12|8,0:3|2:3,0:0:0:0:
402,119,84860,1,0,0:0:0:0:
402,119,84926,1,0,0:0:0:0:
402,119,84993,2,0,L|398:83,5,24.3750009298325
428,64,85393,5,4,0:2:0:0:
428,64,86460,2,0,L|443:170,1,104,4|0,0:2|0:0,0:0:0:0:
442,166,88593,70,0,P|419:200|413:242,1,65,8|8,0:3|2:3,0:0:0:0:
424,308,88860,1,8,0:3:0:0:
424,308,88926,1,8,2:3:0:0:
424,308,88993,2,0,L|438:346,5,32.5,8|8|8|8|8|8,2:3|2:3|0:1|2:1|2:1|2:1,0:0:0:0:
423,376,89393,2,0,P|371:363|338:369,1,65
283,379,89660,22,0,L|240:368,3,32.5,12|8|8|8,0:3|2:3|2:3|2:3,0:0:0:0:
245,332,89926,2,0,L|172:308,1,65,12|8,0:3|2:3,0:0:0:0:
163,235,90193,2,0,L|206:224,3,32.5
201,188,90459,2,0,L|274:164,1,65,8|8,0:1|2:1,0:0:0:0:
330,207,90726,86,0,P|391:203|441:152,1,130,4|4,0:2|0:2,0:0:0:0:
440,72,91126,1,2,0:3:0:0:
440,72,91260,2,0,P|390:75|360:70,1,65,2|2,0:3|0:3,0:0:0:0:
304,28,91526,1,2,0:3:0:0:
304,28,91660,1,2,0:3:0:0:
224,56,91793,54,0,P|181:44|143:45,1,65,2|2,0:3|0:3,0:0:0:0:
84,79,92060,1,2,0:3:0:0:
84,79,92193,1,2,0:3:0:0:
56,158,92326,2,0,L|61:206,3,32.5,2|8|2|8,0:3|1:2|0:3|1:2,0:0:0:0:
94,213,92593,2,0,L|99:261,3,32.5,2|8|2|8,0:3|1:2|0:3|1:2,0:0:0:0:
72,279,92860,38,0,P|100:343|237:348,1,195,2|2,0:3|0:3,0:0:0:0:
218,358,93326,1,8,1:2:0:0:
222,353,93393,2,0,L|251:315,3,32.5,2|8|0|8,0:3|1:2|0:0|1:2,0:0:0:0:
237,284,93660,2,0,L|266:246,3,32.5,4|0|0|0,0:2|0:0|0:0|0:0,0:0:0:0:
298,253,93926,54,0,P|328:228|376:220,1,65
433,246,94193,2,0,L|445:210,3,32.5,8|8|8|8,0:2|0:2|0:2|0:2,0:0:0:0:
484,205,94460,2,0,L|463:127,1,65,8|8,0:3|0:3,0:0:0:0:
382,139,94726,2,0,L|361:61,1,65,4|8,0:2|0:3,0:0:0:0:
280,67,94993,38,0,P|268:135|206:183,1,130,4|2,0:2|0:3,0:0:0:0:
214,259,95393,1,2,0:3:0:0:
214,259,95526,2,0,P|262:258|291:271,1,65,2|2,0:3|0:3,0:0:0:0:
324,340,95793,1,2,0:3:0:0:
324,340,95926,1,2,0:3:0:0:
239,347,96060,54,0,P|196:360|175:381,1,65,2|2,0:3|0:3,0:0:0:0:
99,352,96326,1,2,0:3:0:0:
99,352,96460,1,2,0:3:0:0:
48,284,96593,2,0,P|53:226|19:158,1,130,2|2,0:3|0:3,0:0:0:0:
57,92,96993,1,2,0:3:0:0:
89,21,97126,38,0,L|139:13,3,32.5,2|8|2|8,0:3|1:2|0:3|1:2,0:0:0:0:
150,46,97393,2,0,P|208:51|258:121,1,130,2|2,0:3|0:3,0:0:0:0:
243,189,97793,1,2,0:3:0:0:
243,189,97926,2,0,P|291:188|319:199,1,65,2|2,0:3|0:3,0:0:0:0:
350,265,98193,54,0,L|397:242,3,32.5,2|8|2|8,0:3|1:2|0:3|1:2,0:0:0:0:
416,271,98460,2,0,P|430:216|501:173,1,130,2|4,0:3|0:2,0:0:0:0:
492,90,98860,1,0,0:0:0:0:
492,90,98993,2,0,P|439:91|414:83,1,65,4|0,0:2|0:0,0:0:0:0:
367,29,99260,38,0,P|334:32|304:46,1,65,4|0,0:2|0:0,0:0:0:0:
282,129,99526,1,4,0:2:0:0:
282,129,99660,1,2,0:3:0:0:
298,211,99793,2,0,P|301:266|284:298,1,65,2|2,0:3|0:3,0:0:0:0:
229,324,100060,1,2,0:3:0:0:
229,324,100193,1,2,0:3:0:0:
145,332,100326,54,0,P|105:314|72:315,1,65,2|2,0:3|0:3,0:0:0:0:
30,247,100593,1,2,0:3:0:0:
30,247,100726,1,2,0:3:0:0:
13,163,100860,2,0,L|8:124,3,32.5,2|8|2|8,0:3|1:2|0:3|1:2,0:0:0:0:
49,118,101126,2,0,L|66:43,1,65,2|2,0:3|0:3,0:0:0:0:
147,32,101393,37,8,0:2:0:0:
147,32,101460,1,8,0:2:0:0:
147,32,101526,2,0,L|157:88,5,32.5,8|8|0|0|8|8,0:2|0:2|0:0|0:0|0:3|0:3,0:0:0:0:
194,97,101926,53,8,0:3:0:0:
194,97,101993,1,8,0:3:0:0:
194,97,102059,2,0,L|184:153,5,32.5,0|0|8|8|0|0,0:0|0:0|0:3|0:3|0:0|0:0,0:0:0:0:
154,155,102460,38,0,P|146:200|115:239,1,65,0|8,0:0|0:2,0:0:0:0:
128,313,102726,2,0,P|158:294|213:288,1,65,8|8,0:2|0:3,0:0:0:0:
267,319,102993,1,8,0:1:0:0:
256,235,103126,2,0,L|271:161,2,65,8|8|8,0:2|0:2|0:2,0:0:0:0:
335,263,103526,86,0,L|399:226,1,65,4|0,0:2|0:0,0:0:0:0:
356,153,103793,2,0,L|392:88,1,65,12|0,0:2|0:0,0:0:0:0:
310,62,104060,2,0,L|325:-6,1,65,2|0,0:2|0:0,0:0:0:0:
221,3,104326,5,10,0:2:0:0:
214,81,104460,1,0,0:0:0:0:
205,158,104593,6,0,L|129:174,1,65,2|0,0:2|0:0,0:0:0:0:
98,244,104860,2,0,L|174:260,1,65,10|0,0:2|0:0,0:0:0:0:
201,331,105126,2,0,L|125:347,1,65,2|0,0:2|0:0,0:0:0:0:
28,371,105393,1,10,0:2:0:0:
18,293,105526,1,0,0:0:0:0:
9,215,105660,6,0,L|66:163,1,65,2|0,0:2|0:0,0:0:0:0:
53,86,105926,1,10,0:2:0:0:
127,127,106060,2,0,L|184:179,1,65,0|2,0:0|0:2,0:0:0:0:
171,256,106326,1,0,0:0:0:0:
247,218,106460,2,0,L|304:166,1,65,10|0,0:2|0:0,0:0:0:0:
271,93,106726,54,0,L|261:23,1,65,2|0,0:2|0:0,0:0:0:0:
357,89,106993,2,0,L|347:19,1,65,10|0,0:2|0:0,0:0:0:0:
442,88,107260,2,0,L|451:152,1,65,2|0,0:2|0:0,0:0:0:0:
391,202,107526,1,10,0:2:0:0:
463,232,107660,1,4,0:2:0:0:
403,282,107793,6,0,L|412:346,1,65,4|0,0:2|0:0,0:0:0:0:
327,341,108060,2,0,L|269:392,1,65,10|0,0:2|0:0,0:0:0:0:
217,325,108326,2,0,L|143:319,1,65,2|0,0:2|0:0,0:0:0:0:
145,235,108593,5,10,0:2:0:0:
220,214,108726,1,0,0:0:0:0:
296,196,108860,6,0,L|312:125,1,65,2|0,0:2|0:0,0:0:0:0:
253,70,109126,2,0,L|218:134,1,65,10|0,0:2|0:0,0:0:0:0:
137,139,109393,2,0,L|153:68,1,65,2|0,0:2|0:0,0:0:0:0:
53,47,109660,53,10,0:2:0:0:
49,124,109793,1,0,0:0:0:0:
43,201,109926,6,0,L|6:144,2,65,2|0|10,0:2|0:0|0:2,0:0:0:0:
37,279,110326,1,0,0:0:0:0:
30,357,110460,2,0,L|84:303,1,65,2|0,0:2|0:0,0:0:0:0:
153,321,110726,2,0,L|165:254,1,65,10|0,0:2|0:0,0:0:0:0:
229,175,110993,5,2,0:2:0:0:
264,244,111126,1,0,0:0:0:0:
301,312,111260,2,0,L|381:330,1,65,10|0,0:2|0:0,0:0:0:0:
374,249,111526,2,0,L|437:263,1,65,2|8,0:2|0:2,0:0:0:0:
500,195,111793,1,10,0:2:0:0:
455,131,111926,1,8,0:2:0:0:
409,66,112060,6,0,L|364:60,3,32.5,12|0|0|0,0:2|0:0|0:0|0:0,0:0:0:0:
351,95,112326,2,0,L|274:105,1,65,10|0,0:2|0:0,0:0:0:0:
239,32,112593,2,0,L|162:22,1,65,10|0,0:2|0:0,0:0:0:0:
131,96,112860,2,0,P|91:115|58:118,1,65,10|0,0:2|0:0,0:0:0:0:
69,124,113060,1,0,0:0:0:0:
67,130,113126,54,0,P|34:158|19:188,1,65,10|0,0:2|0:0,0:0:0:0:
46,258,113393,2,0,L|33:334,1,65,10|0,0:2|0:0,0:0:0:0:
110,361,113660,2,0,L|145:289,1,65,10|0,0:2|0:0,0:0:0:0:
218,277,113926,2,0,L|231:357,1,65,10|0,0:2|0:0,0:0:0:0:
234,342,114126,1,0,0:0:0:0:
240,343,114193,6,0,L|247:381,2,32.5,10|0|0,0:2|0:0|0:0,0:0:0:0:
299,292,114460,1,10,0:2:0:0:
363,249,114593,2,0,L|370:211,2,32.5,0|0|10,0:0|0:0|0:2,0:0:0:0:
422,300,114860,1,0,0:0:0:0:
478,353,114993,2,0,P|496:323|493:273,1,65,10|0,0:2|0:0,0:0:0:0:
456,227,115260,6,0,L|464:182,3,32.5,8|8|8|0,0:2|0:2|0:2|0:0,0:0:0:0:
500,178,115526,2,0,L|484:108,1,65,8|8,0:3|0:3,0:0:0:0:
412,71,115793,2,0,L|404:116,3,32.5,8|8|8|0,0:2|0:2|0:2|0:0,0:0:0:0:
368,120,116059,2,0,L|384:190,1,65,8|8,0:3|0:3,0:0:0:0:
324,245,116326,6,0,L|302:205,3,32.5,12|0|0|0,0:2|0:0|0:0|0:0,0:0:0:0:
272,193,116593,2,0,L|252:274,1,65,10|0,0:2|0:0,0:0:0:0:
171,249,116860,2,0,L|111:297,1,65,10|0,0:2|0:0,0:0:0:0:
63,227,117126,2,0,P|26:198|-8:194,1,65,10|0,0:2|0:0,0:0:0:0:
8,187,117326,1,0,0:0:0:0:
7,180,117393,54,0,P|16:142|52:109,1,65,10|0,0:2|0:0,0:0:0:0:
106,81,117660,2,0,L|128:146,1,65,10|0,0:2|0:0,0:0:0:0:
210,137,117926,2,0,L|214:59,1,65,10|0,0:2|0:0,0:0:0:0:
293,44,118193,2,0,P|310:81|344:109,1,65,10|0,0:2|0:0,0:0:0:0:
418,112,118460,5,12,0:2:0:0:
418,112,118526,1,0,0:0:0:0:
418,112,118593,2,0,L|437:48,2,65,8|10|8,0:2|0:2|0:2,0:0:0:0:
472,190,118993,5,12,0:2:0:0:
472,190,119059,1,0,0:0:0:0:
472,190,119126,2,0,L|491:254,2,65,8|10|8,0:2|0:2|0:2,0:0:0:0:
387,193,119526,6,0,P|338:209|304:205,1,65,12|8,0:2|0:2,0:0:0:0:
318,206,119726,1,8,0:2:0:0:
311,204,119793,2,0,P|278:206|249:219,1,65,8|8,0:2|0:2,0:0:0:0:
227,301,120060,2,0,L|161:277,1,65,8|8,0:3|0:3,0:0:0:0:
102,334,120326,2,0,L|52:261,1,65,8|10,0:3|0:3,0:0:0:0:
0,225,120593,54,0,B|25:187|25:187|27:146,1,65,4|0,0:2|0:0,0:0:0:0:
71,96,120859,2,0,B|102:129|102:129|107:159,1,65,12|0,0:2|0:0,0:0:0:0:
175,196,121126,2,0,B|194:158|194:158|189:125,1,65,2|0,0:2|0:0,0:0:0:0:
203,51,121393,6,0,B|263:83|263:83|326:73,1,130,2|10,0:2|0:2,0:0:0:0:
486,23,121926,2,0,L|462:98,1,65,2|0,0:2|0:0,0:0:0:0:
466,91,122126,1,0,0:0:0:0:
466,97,122193,6,0,B|443:165|443:165|463:237,1,130,4|8,2:2|0:2,0:0:0:0:
373,217,122593,2,0,B|393:290|393:290|370:358,1,130,4|8,0:2|0:0,0:0:0:0:
291,350,122993,6,0,B|287:304|287:304|272:276,1,65,4|8,0:2|0:3,0:0:0:0:
195,270,123259,2,0,B|199:224|199:224|214:196,1,65,8|8,0:3|0:1,0:0:0:0:
277,158,123526,53,8,0:2:0:0:
232,94,123659,1,8,0:2:0:0:
187,29,123793,6,0,B|135:42|135:42|105:37,1,65,4|0,0:2|0:0,0:0:0:0:
42,63,124059,2,0,B|67:101|67:101|110:122,1,65,12|0,0:2|0:0,0:0:0:0:
162,142,124326,2,0,B|131:177|131:177|101:192,1,65,2|0,0:2|0:0,0:0:0:0:
108,187,124526,1,0,0:0:0:0:
102,189,124593,6,0,B|96:270|96:270|63:312,1,130,2|10,0:2|0:2,0:0:0:0:
225,364,125126,2,0,L|235:285,1,65,2|0,0:2|0:0,0:0:0:0:
232,293,125326,1,0,0:0:0:0:
231,287,125393,6,0,B|240:215|240:215|292:165,1,130,4|8,0:2|0:2,0:0:0:0:
225,111,125793,2,0,B|276:66|276:66|286:-3,1,130,4|8,0:2|0:2,0:0:0:0:
369,3,126193,53,4,0:2:0:0:
369,3,126326,1,2,0:3:0:0:
427,63,126459,2,0,P|426:105|449:146,1,65,2|2,0:3|0:3,0:0:0:0:
376,188,126726,1,2,0:3:0:0:
376,188,126859,1,2,0:3:0:0:
431,252,126993,6,0,B|428:304|428:304|420:323,1,65,4|0,0:2|0:0,0:0:0:0:
355,366,127259,2,0,B|340:321|340:321|345:283,1,65,10|0,0:2|0:0,0:0:0:0:
295,233,127526,2,0,B|264:271|264:271|257:314,1,65,2|0,0:2|0:0,0:0:0:0:
256,291,127726,1,0,0:0:0:0:
251,295,127793,6,0,B|181:298|181:298|121:335,1,130,2|10,0:2|0:2,0:0:0:0:
28,194,128326,2,0,L|113:187,1,65,2|0,0:2|0:0,0:0:0:0:
98,185,128526,1,0,0:0:0:0:
103,181,128593,6,0,B|172:176|172:176|241:128,1,130,4|8,0:2|0:2,0:0:0:0:
268,212,128993,2,0,B|317:177|317:177|386:172,1,130,4|8,0:2|0:2,0:0:0:0:
458,126,129393,54,0,B|435:83|435:83|429:50,1,65,4|8,0:2|0:3,0:0:0:0:
353,36,129659,2,0,B|339:78|339:78|344:116,1,65,8|8,0:3|0:1,0:0:0:0:
386,172,129926,5,8,0:2:0:0:
363,246,130059,1,8,0:2:0:0:
340,320,130193,6,0,B|297:311|297:311|270:313,1,65,4|0,0:2|0:0,0:0:0:0:
197,343,130459,2,0,B|192:293|192:293|209:253,1,65,12|0,0:2|0:0,0:0:0:0:
265,228,130726,2,0,B|228:202|228:202|188:191,1,65,2|0,0:2|0:0,0:0:0:0:
202,197,130926,1,0,0:0:0:0:
195,197,130993,6,0,B|149:155|149:155|138:77,1,130,2|10,0:2|0:2,0:0:0:0:
293,18,131526,2,0,L|341:80,1,65,2|0,0:2|0:0,0:0:0:0:
335,75,131726,1,0,0:0:0:0:
337,80,131793,54,0,B|381:136|381:136|387:210,1,130,4|8,0:2|0:2,0:0:0:0:
465,161,132193,2,0,B|471:236|471:236|516:292,1,130,4|2,0:2|0:3,0:0:0:0:
458,349,132593,5,2,0:3:0:0:
458,349,132726,1,2,0:3:0:0:
394,293,132859,2,0,P|336:288|307:303,1,65,2|2,0:3|0:3,0:0:0:0:
274,352,133126,1,2,0:3:0:0:
274,352,133259,1,2,0:3:0:0:
189,353,133393,6,0,L|111:293,2,84.4999961318971,4|0|10,0:2|0:0|0:2,0:0:0:0:
233,261,133793,2,0,L|221:137,2,84.4999961318971,0|2|0,0:0|0:2|0:0,0:0:0:0:
330,289,134193,6,0,L|466:178,1,168.999992263794,10|4,0:2|0:3,0:0:0:0:
338,20,134726,2,0,L|304:103,1,84.4999961318971,8|0,0:2|0:0,0:0:0:0:
204,100,134993,54,0,B|130:13|130:13|55:1,1,168.999992263794,4|10,0:2|0:2,0:0:0:0:
26,93,135393,2,0,B|76:99|76:99|161:197,1,168.999992263794
147,290,135793,6,0,L|242:277,1,84.4999961318971,10|0,0:2|0:0,0:0:0:0:
316,332,136059,2,0,L|380:260,1,84.4999961318971,2|0,0:2|0:0,0:0:0:0:
473,257,136326,2,0,L|476:161,1,84.4999961318971,12|0,0:2|0:0,0:0:0:0:
497,72,136593,6,0,L|423:12,2,84.4999961318971,4|0|10,0:2|0:0|0:2,0:0:0:0:
401,106,136993,2,0,L|376:205,2,84.4999961318971,0|2|0,0:0|0:2|0:0,0:0:0:0:
332,30,137393,6,0,L|233:181,1,168.999992263794,10|4,0:2|0:3,0:0:0:0:
362,332,137926,2,0,L|273:370,1,84.4999961318971,8|0,0:2|0:0,0:0:0:0:
184,343,138193,54,0,B|131:240|131:240|137:184,1,168.999992263794,4|10,0:2|0:2,0:0:0:0:
39,217,138593,2,0,B|49:150|49:150|121:53,1,168.999992263794,0|8,0:0|0:2,0:0:0:0:
206,38,138993,5,8,0:2:0:0:
206,38,139126,2,0,L|213:139,1,84.4999961318971,8|8,0:2|0:3,0:0:0:0:
311,160,139393,1,8,0:2:0:0:
311,160,139526,2,0,L|318:59,1,84.4999961318971,8|8,0:3|0:2,0:0:0:0:
416,97,139793,6,0,L|465:15,2,84.4999961318971,4|0|12,0:2|0:0|0:2,0:0:0:0:
489,167,140193,2,0,L|513:252,2,84.4999961318971,0|2|0,0:0|0:2|0:0,0:0:0:0:
407,227,140593,6,0,L|297:369,1,168.999992263794,10|4,0:2|0:3,0:0:0:0:
100,347,141126,2,0,L|176:268,1,84.4999961318971,8|0,0:2|0:0,0:0:0:0:
125,189,141393,54,0,B|246:209|246:209|308:187,1,168.999992263794,4|10,0:2|0:2,0:0:0:0:
235,106,141793,2,0,B|278:90|278:90|399:110,1,168.999992263794,0|8,0:0|0:2,0:0:0:0:
419,210,142193,6,0,L|507:170,1,84.4999961318971,8|8,0:2|0:2,0:0:0:0:
486,83,142459,2,0,L|475:-6,1,84.4999961318971,10|8,0:2|0:2,0:0:0:0:
383,12,142726,2,0,L|291:-2,1,84.4999961318971,10|8,0:2|0:3,0:0:0:0:
229,73,142993,5,4,0:2:0:0:
253,144,143126,1,8,0:2:0:0:
277,215,143259,6,0,L|204:270,1,84.4999961318971,8|8,0:3|0:3,0:0:0:0:
186,365,143526,2,0,L|105:323,1,84.4999961318971,8|8,0:3|0:3,0:0:0:0:
12,352,143793,54,0,L|0:167,1,168.999992263794,12|10,0:2|0:2,0:0:0:0:
146,41,144326,2,0,L|157:-8,2,42.2499980659486,2|0|0,0:2|0:0|0:0,0:0:0:0:
166,140,144593,6,0,L|247:205,1,84.4999961318971,8|8,0:2|0:2,0:0:0:0:
309,128,144859,2,0,L|341:215,1,84.4999961318971,8|8,0:2|0:2,0:0:0:0:
438,187,145126,2,0,L|421:293,1,84.4999961318971,8|8,0:2|0:2,0:0:0:0:
367,355,145393,6,0,P|343:308|306:286,1,84.4999961318971,4|8,0:2|0:3,0:0:0:0:
309,289,145593,1,0,0:0:0:0:
300,288,145659,2,0,P|267:261|250:223,1,84.4999961318971,8|8,0:3|0:3,0:0:0:0:
275,124,145926,2,0,P|256:47|242:27,1,84.4999961318971,8|8,0:1|0:1,0:0:0:0:
156,13,146193,5,4,0:2:0:0:
296,310,152593,54,0,B|296:230|367:217|371:217|376:217|450:204|449:114,1,260,4|0,0:2|0:0,0:0:0:0:
311,23,153393,2,0,P|321:69|316:106,1,65,12|0,0:2|2:0,0:0:0:0:
238,65,153659,2,0,P|227:110|207:142,1,65,2|0,0:2|2:0,0:0:0:0:
153,72,153926,2,0,P|115:100|79:111,1,65,2|0,0:2|2:0,0:0:0:0:
49,176,154193,6,0,P|25:168|-1:172,2,43.3333333333333,0|0|0,0:0|2:0|2:0,0:0:0:0:
64,230,154459,2,0,P|39:235|18:251,2,43.3333333333333,0|0|0,2:0|2:0|2:0,0:0:0:0:
93,278,154726,2,0,P|74:294|64:319,2,43.3333333333333,0|0|0,2:0|2:0|2:0,0:0:0:0:
146,298,154993,6,0,P|183:245|261:221,2,130,8|0|0,0:2|2:0|2:0,0:0:0:0:
305,355,155793,6,0,P|324:293|499:301,1,260,4|0,0:2|0:0,0:0:0:0:
507,120,156593,2,0,P|416:137|380:-9,1,260,8|0,0:2|0:0,0:0:0:0:
202,19,157393,54,0,B|229:88|229:88|281:136,1,130,4|8,0:2|0:2,0:0:0:0:
281,210,157793,1,8,0:2:0:0:
213,364,158059,1,8,0:1:0:0:
145,315,158186,6,0,B|105:328|105:328|90:345,2,65,8|8|8,0:2|0:3|0:3,0:0:0:0:
161,232,158573,1,8,0:2:0:0:
161,232,158703,2,0,B|119:230|119:230|86:217,1,65,8|8,0:2|0:2,0:0:0:0:
62,130,158986,22,0,P|122:134|193:96,1,130,4|2,0:2|0:2,0:0:0:0:
238,39,159386,1,0,0:0:0:0:
321,27,159519,2,0,L|371:39,3,32.5,2|0|0|0,0:2|0:0|0:0|0:0,0:0:0:0:
365,74,159786,38,0,P|417:109|434:174,1,130,10|2,0:2|0:2,0:0:0:0:
349,160,160186,2,0,P|297:195|280:260,1,130
364,246,160586,54,0,P|403:274|415:313,1,65,4|0,0:2|0:0,0:0:0:0:
333,323,160852,2,0,P|331:358|318:387,1,65,2|0,0:2|0:0,0:0:0:0:
247,334,161119,2,0,L|209:371,3,32.5,2|0|0|0,0:2|0:0|0:0|0:0,0:0:0:0:
180,358,161386,38,0,L|106:310,1,65,10|0,0:2|0:0,0:0:0:0:
66,240,161652,2,0,L|144:223,1,65,12|0,0:2|0:0,0:0:0:0:
204,159,161919,2,0,L|130:111,1,65,12|0,0:2|0:0,0:0:0:0:
64,124,162186,53,4,0:2:0:0:
64,124,162319,1,0,0:0:0:0:
105,50,162452,2,0,P|149:38|192:47,1,65,2|0,0:2|0:0,0:0:0:0:
249,62,162719,2,0,L|291:35,3,32.5,2|0|0|0,0:2|0:0|0:0|0:0,0:0:0:0:
303,11,162986,38,0,P|315:50|335:81,1,65,10|0,0:2|0:0,0:0:0:0:
278,139,163252,2,0,P|314:177|351:192,1,65,2|0,0:2|0:0,0:0:0:0:
303,265,163519,2,0,P|347:289|383:291,1,65,2|0,0:2|0:0,0:0:0:0:
442,267,163786,54,0,L|462:343,2,65,12|0|0,0:2|0:0|0:0,0:0:0:0:
478,190,164186,1,8,0:2:0:0:
478,190,164319,2,0,B|490:142|490:142|491:113,1,65,8|8,0:2|0:2,0:0:0:0:
464,45,164586,37,8,0:2:0:0:
464,45,164719,1,8,0:2:0:0:
408,108,164852,2,0,L|338:88,1,65,8|8,0:3|0:3,0:0:0:0:
309,13,165119,2,0,L|224:38,1,65,12|8,0:3|0:3,0:0:0:0:
225,113,165386,54,0,P|168:124|89:73,1,130,4|2,0:2|0:3,0:0:0:0:
17,239,165919,2,0,L|71:229,3,32.5,2|0|0|0,0:3|0:0|0:0|0:0,0:0:0:0:
81,205,166186,38,0,P|127:233|136:314,2,130,8|2|2,0:2|0:2|0:2,0:0:0:0:
225,113,166986,2,0,P|225:168|280:222,1,130,4|0,0:2|0:0,0:0:0:0:
432,279,167519,2,0,L|441:234,3,32.5
478,230,167786,54,0,L|409:184,1,65,12|0,0:2|0:0,0:0:0:0:
421,93,168052,2,0,L|340:104,1,65,12|0,0:2|0:0,0:0:0:0:
293,20,168319,2,0,L|244:83,1,65,12|0,0:2|0:0,0:0:0:0:
265,155,168586,38,0,P|286:190|287:203,2,43.3333333333333,4|0|0,0:2|2:0|2:0,0:0:0:0:
241,206,168852,2,0,P|248:246|245:258,2,43.3333333333333,0|0|0,0:0|2:0|2:0,0:0:0:0:
201,245,169119,2,0,P|194:285|186:295,2,43.3333333333333,0|0|0,0:0|2:0|2:0,0:0:0:0:
145,252,169386,53,12,0:2:0:0:
137,240,169474,2,0,P|137:201|143:185,1,43.3333333333333,0|0,2:0|2:0,0:0:0:0:
81,197,169652,1,0,0:0:0:0:
77,182,169741,2,0,P|90:145|101:132,1,43.3333333333333,0|0,2:0|2:0,0:0:0:0:
39,123,169920,1,0,0:0:0:0:
41,107,170008,2,0,P|66:77|80:68,1,43.3333333333333,0|0,2:0|2:0,0:0:0:0:
45,23,170186,38,0,P|102:38|182:12,1,130,8|0,0:2|0:0,0:0:0:0:
246,55,170586,2,0,L|284:-8,2,65,8|8|8,0:2|0:2|0:2,0:0:0:0:
275,134,170986,54,0,P|255:191|234:207,2,65,0|8|8,0:0|0:3|0:3,0:0:0:0:
358,118,171386,1,8,0:2:0:0:
358,118,171519,2,0,B|405:142|405:142|422:164,1,65,8|8,0:2|0:2,0:0:0:0:
436,233,171786,38,0,P|479:224|513:228,2,65,4|0|2,0:2|0:0|0:2,0:0:0:0:
387,302,172186,1,0,0:0:0:0:
387,302,172319,2,0,L|335:294,3,32.5,2|0|0|0,0:2|0:0|0:0|0:0,0:0:0:0:
320,271,172586,54,0,L|259:335,1,65,12|0,0:2|0:0,0:0:0:0:
176,282,172852,2,0,L|165:355,2,65,12|0|12,0:2|0:0|0:2,0:0:0:0:
113,224,173252,1,0,0:0:0:0:
113,224,173386,38,0,P|144:173|235:171,1,130,4|2,0:2|0:2,0:0:0:0:
288,190,173786,2,0,P|340:154|354:71,1,130
298,19,174186,54,0,L|266:88,1,65,12|0,0:2|0:0,0:0:0:0:
209,159,174452,2,0,L|177:90,1,65,12|0,0:2|0:0,0:0:0:0:
90,52,174719,2,0,L|78:138,1,65,12|0,0:2|0:0,0:0:0:0:
31,185,174986,37,4,0:2:0:0:
44,186,175074,2,0,P|71:202|79:215,1,43.3333333333333,0|0,2:0|2:0,0:0:0:0:
133,217,175252,1,0,0:0:0:0:
143,225,175341,2,0,P|158:252|158:267,1,43.3333333333333,0|0,2:0|2:0,0:0:0:0:
205,295,175519,1,0,0:0:0:0:
209,307,175608,2,0,P|208:338|201:351,1,43.3333333333333,0|0,2:0|2:0,0:0:0:0:
260,351,175786,54,0,P|286:380|306:389,2,43.3333333333333,8|0|0,0:2|2:0|2:0,0:0:0:0:
300,311,176052,2,0,P|337:323|358:320,2,43.3333333333333,0|0|0,0:0|2:0|2:0,0:0:0:0:
315,257,176319,2,0,P|353:248|370:236,2,43.3333333333333,0|0|0,0:0|2:0|2:0,0:0:0:0:
288,206,176586,38,0,P|278:153|323:86,1,130
391,52,176986,2,0,L|442:104,2,65
318,8,177386,53,8,0:2:0:0:
378,165,177652,2,0,L|364:236,1,65,8|0,0:2|0:0,0:0:0:0:
429,284,177919,2,0,L|361:328,1,65,8|0,0:3|0:0,0:0:0:0:
316,381,178186,38,0,B|259:331|188:351|188:351|210:331|221:297,1,195,4|0,0:2|0:0,0:0:0:0:
137,280,178719,2,0,P|150:231|140:197,1,65
83,162,178986,2,0,B|67:88|119:49|162:59|165:59|168:59|236:91|282:9,1,260,12|0,0:2|0:0,0:0:0:0:
431,8,179786,53,4,0:2:0:0:
393,83,179919,2,0,P|410:126|438:155,1,65,0|2,0:0|0:2,0:0:0:0:
497,179,180186,1,0,0:0:0:0:
497,179,180319,2,0,L|486:230,3,32.5,2|0|0|0,0:2|0:0|0:0|0:0,0:0:0:0:
510,248,180586,38,0,L|441:275,1,65,12|0,0:2|0:0,0:0:0:0:
389,195,180852,2,0,L|320:168,1,65,12|0,0:2|0:0,0:0:0:0:
285,262,181119,2,0,L|216:289,1,65,12|0,0:2|0:0,0:0:0:0:
168,221,181386,54,0,P|130:222|112:232,2,43.3333333333333,8|0|0,0:2|2:0|2:0,0:0:0:0:
181,166,181652,2,0,P|144:153|124:157,2,43.3333333333333,0|0|0,0:0|2:0|2:0,0:0:0:0:
212,118,181919,2,0,P|182:94|162:90,2,43.3333333333333,0|0|0,0:0|2:0|2:0,0:0:0:0:
264,95,182186,37,8,0:2:0:0:
272,107,182274,2,0,P|299:132|325:142,1,43.3333333333333,0|0,2:0|2:0,0:0:0:0:
353,105,182452,1,0,0:0:0:0:
354,120,182541,2,0,P|364:155|382:176,1,43.3333333333333,0|0,2:0|2:0,0:0:0:0:
425,157,182719,1,0,0:0:0:0:
464,321,182986,53,8,0:2:0:0:
451,317,183074,1,8,0:2:0:0:
438,313,183163,1,8,0:2:0:0:
425,309,183252,2,0,P|410:276|408:242,2,43.3333333333333,8|8|8,0:2|0:2|0:2,0:0:0:0:
384,349,183519,1,8,0:2:0:0:
255,296,183786,37,8,0:3:0:0:
242,300,183874,1,8,0:3:0:0:
229,304,183963,1,8,0:3:0:0:
216,308,184052,2,0,P|201:341|199:375,2,43.3333333333333,8|8|8,0:3|0:3|0:3,0:0:0:0:
175,268,184319,2,0,P|160:235|158:201,2,43.3333333333333,8|8|8,0:1|0:1|0:1,0:0:0:0:
127,299,184586,53,4,0:2:0:0:
76,117,192586,54,0,B|68:77|68:77|45:46,2,65.0000024795533,8|8|8,0:3|0:3|0:3,0:0:0:0:
48,200,193119,22,0,B|117:201|117:201|179:230,1,130,4|4,0:2|0:2,0:0:0:0:
214,300,193919,1,0,0:0:0:0:
254,374,194186,70,0,B|289:370|289:370|332:353,1,65,12|0,0:2|0:0,0:0:0:0:
341,278,194719,2,0,B|376:282|376:282|419:299,1,65,4|0,0:2|0:0,0:0:0:0:
454,360,195252,21,4,0:2:0:0:
480,192,195786,2,0,B|458:159|458:159|451:117,1,65,4|0,0:2|0:0,0:0:0:0:
372,111,196319,70,0,B|371:63|371:63|361:37,2,65,12|0|4,0:2|0:0|0:2,0:0:0:0:
301,158,197119,1,0,0:0:0:0:
230,205,197386,21,4,0:2:0:0:
176,139,197652,2,0,B|115:131|115:131|46:152,1,130
40,66,198452,70,0,L|-2:10,2,65,12|0|4,0:2|0:0|0:2,0:0:0:0:
111,20,199252,1,0,0:0:0:0:
187,56,199519,22,0,B|254:76|254:76|329:68,1,130,4|4,0:2|0:2,0:0:0:0:
384,116,200319,1,0,0:0:0:0:
454,162,200586,69,12,0:2:0:0:
454,162,201119,2,0,B|475:128|475:128|479:96,2,65.0000024795533,8|8|8,0:1|0:1|0:1,0:0:0:0:
380,200,201652,21,4,0:2:0:0:
380,200,202186,2,0,B|341:194|341:194|313:197,1,65
230,244,202719,1,12,0:2:0:0:
230,244,203252,2,0,B|191:250|191:250|163:247,1,65
91,183,203786,86,0,B|76:135|76:135|61:119,2,65,4|0|0,0:2|0:0|0:0,0:0:0:0:
53,273,204586,1,0,0:0:0:0:
14,362,204852,85,12,0:2:0:0:
14,362,205386,2,0,B|60:350|60:350|99:353,1,65
222,372,205919,5,4,0:2:0:0:
222,372,206452,2,0,B|274:340|274:340|296:300,1,97.50000371933,4|0,0:2|0:0,0:0:0:0:
395,203,206986,86,0,B|427:261|427:261|429:326,1,97.50000371933,12|0,0:2|0:0,0:0:0:0:
300,220,207519,2,0,B|305:152|305:152|332:103,1,97.50000371933,4|0,0:2|0:0,0:0:0:0:
415,15,208052,5,12,0:2:0:0:
269,30,208319,2,0,B|208:42|208:42|158:26,2,97.50000371933
398,97,209119,85,4,0:2:0:0:
447,245,209386,2,0,L|399:237,3,32.5,8|8|8|8,0:3|0:3|0:3|0:3,0:0:0:0:
425,277,209652,2,0,L|377:269,3,32.5,8|8|8|8,0:3|0:3|0:3|0:3,0:0:0:0:
403,309,209919,2,0,L|355:301,3,32.5,8|8|8|8,0:1|0:1|0:1|0:1,0:0:0:0:
381,341,210186,6,0,L|303:330,1,78,4|8,0:2|0:2,0:0:0:0:
198,374,211252,54,0,P|187:330|153:300,1,86.6666666666667,8|0,0:2|0:0,0:0:0:0:
107,285,211519,2,0,P|101:236|107:213,2,43.3333333333333,8|0|0,0:3|0:0|0:0,0:0:0:0:
62,313,211786,37,4,0:3:0:0:
11,165,212052,2,0,L|16:129,3,32.5,8|8|8|8,0:3|0:3|0:3|0:3,0:0:0:0:
46,108,212319,53,4,0:2:0:0:
181,185,212586,2,0,L|186:221,3,32.5,8|8|8|8,0:3|2:3|0:3|2:3,0:0:0:0:
216,242,212853,1,8,0:3:0:0:
351,165,213119,2,0,L|359:91,1,65
285,57,213386,37,8,0:3:0:0:
285,57,213452,1,8,0:3:0:0:
285,57,213519,2,0,L|275:96,5,32.5,8|8|0|0|8|8,0:3|0:3|0:0|0:0|0:3|0:3,0:0:0:0:
249,116,213919,54,0,B|212:92|212:92|175:89,1,65
114,106,214186,1,10,0:2:0:0:
103,261,214452,38,0,P|164:257|214:206,1,130,4|4,0:2|0:2,0:0:0:0:
291,196,214852,1,2,0:3:0:0:
291,196,214986,2,0,P|341:193|371:198,1,65,2|2,0:3|0:3,0:0:0:0:
411,256,215252,1,2,0:3:0:0:
411,256,215386,1,2,0:3:0:0:
373,324,215519,54,0,P|330:336|292:335,1,65,2|2,0:3|0:3,0:0:0:0:
237,320,215786,1,2,0:3:0:0:
237,320,215919,1,0,0:0:0:0:
183,255,216052,2,0,L|171:208,3,32.5,2|8|2|8,0:3|1:2|0:3|1:2,0:0:0:0:
198,187,216319,2,0,L|186:140,3,32.5,2|8|2|8,0:3|1:2|0:3|1:2,0:0:0:0:
153,133,216586,38,0,P|163:63|294:23,1,195,2|2,0:3|0:3,0:0:0:0:
272,17,217052,1,8,1:2:0:0:
277,20,217119,2,0,L|314:49,3,32.5,2|8|2|8,0:3|1:2|0:3|1:2,0:0:0:0:
347,39,217386,2,0,L|384:68,3,32.5,2|10|4|0,0:3|1:2|0:2|0:0,0:0:0:0:
379,100,217652,54,0,P|403:121|425:172,1,65,4|0,0:2|0:0,0:0:0:0:
398,231,217919,2,0,L|396:271,3,32.5,8|8|8|0,0:2|0:2|0:2|0:0,0:0:0:0:
414,302,218186,2,0,L|356:359,1,65,8|8,0:3|0:3,0:0:0:0:
293,308,218452,2,0,L|235:365,1,65,8|8,0:2|0:2,0:0:0:0:
164,334,218719,38,0,P|94:333|36:281,1,130,4|4,0:2|0:2,0:0:0:0:
36,219,219119,1,0,0:0:0:0:
36,219,219252,2,0,P|78:195|96:170,1,65,4|0,0:2|0:0,0:0:0:0:
101,102,219519,1,0,0:0:0:0:
101,102,219652,1,4,0:2:0:0:
169,152,219786,54,0,P|212:146|240:134,1,65,0|4,0:0|0:2,0:0:0:0:
313,173,220052,1,0,0:0:0:0:
313,173,220186,1,0,0:0:0:0:
360,242,220319,2,0,P|407:208|483:204,1,130,4|0,0:2|0:0,0:0:0:0:
491,119,220719,1,4,0:2:0:0:
503,35,220852,38,0,L|453:27,3,32.5,0|8|0|8,0:0|1:2|0:0|1:2,0:0:0:0:
435,53,221119,2,0,P|379:57|316:23,1,130,4|4,0:2|0:2,0:0:0:0:
241,59,221519,1,0,0:0:0:0:
241,59,221652,2,0,P|265:100|270:129,1,65,4|0,0:2|0:0,0:0:0:0:
240,196,221919,54,0,L|190:204,3,32.5,0|8|8|8,0:0|0:3|0:3|0:3,0:0:0:0:
172,178,222186,2,0,P|116:174|53:208,1,130,8|8,0:3|0:1,0:0:0:0:
40,292,222586,1,8,0:1:0:0:
40,292,222652,1,8,0:1:0:0:
40,292,222719,1,0,0:0:0:0:
188,372,222986,38,0,P|216:355|248:347,1,65,4|0,0:2|0:0,0:0:0:0:
335,347,223252,1,2,0:3:0:0:
335,347,223386,1,2,0:3:0:0:
419,349,223519,2,0,P|440:324|450:293,1,65,2|2,0:3|0:3,0:0:0:0:
430,216,223786,1,2,0:3:0:0:
430,216,223919,1,2,0:3:0:0:
347,199,224052,54,0,P|307:217|274:216,1,65,2|2,0:3|0:3,0:0:0:0:
233,158,224319,1,2,0:3:0:0:
233,158,224452,1,2,0:3:0:0:
164,107,224586,2,0,L|118:104,3,32.5,2|8|2|8,0:3|1:2|0:3|1:2,0:0:0:0:
113,142,224852,2,0,L|37:169,1,65,2|2,0:3|0:3,0:0:0:0:
40,254,225119,37,4,0:2:0:0:
40,254,225186,1,0,0:0:0:0:
40,254,225252,2,0,L|50:310,5,32.5,8|8|8|0|8|0,0:2|0:2|0:3|0:0|0:3|0:0,0:0:0:0:
84,323,225652,54,0,L|80:369,2,32.5,8|0|8,3:0|0:0|1:0,0:0:0:0:
165,343,225919,2,0,L|174:379,2,32.5,4|0|0,0:2|0:0|0:0,0:0:0:0:
142,261,226186,38,0,P|151:207|171:180,1,65,8|8,0:2|0:2,0:0:0:0:
160,195,226386,1,8,0:2:0:0:
165,190,226452,2,0,P|177:160|178:128,1,65,8|8,0:2|0:2,0:0:0:0:
114,71,226719,2,0,P|160:49|181:27,1,65,4|8,0:2|0:2,0:0:0:0:
247,74,226986,1,0,0:0:0:0:
410,32,227252,54,0,L|474:69,1,65,4|0,0:2|0:0,0:0:0:0:
431,142,227519,2,0,L|467:207,1,65,12|0,0:2|0:0,0:0:0:0:
385,233,227786,2,0,L|400:301,1,65,4|0,0:2|0:0,0:0:0:0:
311,342,228052,37,10,0:2:0:0:
304,264,228186,1,0,0:0:0:0:
295,187,228319,54,0,L|219:171,1,65,2|0,0:2|0:0,0:0:0:0:
158,217,228586,2,0,L|214:263,1,65,10|0,0:2|0:0,0:0:0:0:
232,339,228852,2,0,L|157:334,1,65,2|0,0:2|0:0,0:0:0:0:
82,351,229119,1,10,0:2:0:0:
79,273,229252,1,0,0:0:0:0:
78,192,229386,38,0,L|19:150,1,65,2|0,0:2|0:0,0:0:0:0:
21,70,229652,1,10,0:2:0:0:
98,104,229786,2,0,L|120:32,1,65,0|2,0:0|0:2,0:0:0:0:
193,6,230052,1,0,0:0:0:0:
188,90,230186,2,0,L|246:124,1,65,10|0,0:2|0:0,0:0:0:0:
224,204,230452,54,0,L|154:194,1,65,2|0,0:2|0:0,0:0:0:0:
220,290,230719,2,0,L|150:280,1,65,10|0,0:2|0:0,0:0:0:0:
219,375,230986,2,0,L|283:384,1,65,2|0,0:2|0:0,0:0:0:0:
313,312,231252,1,10,0:2:0:0:
364,371,231386,1,4,0:2:0:0:
391,298,231519,38,0,L|455:307,1,65,4|0,0:2|0:0,0:0:0:0:
474,224,231786,2,0,L|517:164,1,65,10|0,0:2|0:0,0:0:0:0:
456,107,232052,2,0,L|431:41,1,65,2|0,0:2|0:0,0:0:0:0:
345,36,232319,53,10,0:2:0:0:
344,113,232452,1,0,0:0:0:0:
337,191,232586,38,0,L|268:203,1,65,2|0,0:2|0:0,0:0:0:0:
228,130,232852,2,0,L|177:182,1,65,10|0,0:2|0:0,0:0:0:0:
104,143,233119,2,0,L|94:212,1,65,2|0,0:2|0:0,0:0:0:0:
117,289,233386,53,10,0:2:0:0:
194,293,233519,1,0,0:0:0:0:
271,299,233652,38,0,L|214:336,2,65,2|0|10,0:2|0:0|0:2,0:0:0:0:
349,305,234052,1,0,0:0:0:0:
427,312,234186,2,0,L|373:258,1,65,2|0,0:2|0:0,0:0:0:0:
391,189,234452,2,0,L|324:177,1,65,10|0,0:2|0:0,0:0:0:0:
247,147,234719,53,10,0:2:0:0:
282,78,234852,1,8,0:2:0:0:
319,10,234986,2,0,L|403:-3,1,65,10|8,0:2|0:2,0:0:0:0:
424,73,235252,2,0,L|489:111,1,65,10|8,0:2|0:2,0:0:0:0:
504,187,235519,1,10,0:2:0:0:
480,261,235652,1,8,0:2:0:0:
454,335,235786,38,0,L|409:341,3,32.5,14|0|0|0,0:2|0:0|0:0|0:0,0:0:0:0:
396,306,236052,2,0,L|319:296,1,65,12|0,0:2|0:0,0:0:0:0:
284,369,236319,2,0,L|207:379,1,65,10|0,0:2|0:0,0:0:0:0:
176,305,236586,2,0,P|136:286|103:283,1,65,10|0,0:2|0:0,0:0:0:0:
114,277,236786,1,0,0:0:0:0:
112,271,236852,54,0,P|79:243|64:213,1,65,10|0,0:2|0:0,0:0:0:0:
46,142,237119,2,0,L|53:63,1,65,10|0,0:2|0:0,0:0:0:0:
127,39,237386,2,0,L|149:118,1,65,10|0,0:2|0:0,0:0:0:0:
226,120,237652,2,0,L|239:40,1,65,10|0,0:2|0:0,0:0:0:0:
242,55,237852,1,0,0:0:0:0:
248,54,237919,38,0,L|254:15,2,32.5,10|0|0,0:2|0:0|0:0,0:0:0:0:
307,105,238186,1,10,0:2:0:0:
371,148,238319,2,0,L|378:186,2,32.5,0|0|10,0:0|0:0|0:2,0:0:0:0:
430,97,238586,1,0,0:0:0:0:
486,44,238719,2,0,P|504:74|501:124,1,65,10|0,0:2|0:0,0:0:0:0:
464,177,238986,54,0,L|472:222,3,32.5,8|8|8|8,0:2|0:2|0:2|0:2,0:0:0:0:
508,226,239252,2,0,L|492:296,1,65,8|8,0:3|0:3,0:0:0:0:
436,352,239519,2,0,L|413:316,3,32.5,8|8|8|8,0:2|0:2|0:2|0:2,0:0:0:0:
414,282,239785,2,0,L|350:253,1,65,8|8,0:3|0:3,0:0:0:0:
312,328,240052,38,0,L|263:340,3,32.5,4|0|0|0,0:2|0:0|0:0|0:0,0:0:0:0:
251,304,240319,2,0,L|177:285,1,65,10|0,0:2|0:0,0:0:0:0:
151,211,240586,2,0,L|222:191,1,65,10|0,0:2|0:0,0:0:0:0:
297,188,240852,2,0,P|313:146|345:117,1,65,10|0,0:2|0:0,0:0:0:0:
331,129,241052,1,0,0:0:0:0:
337,128,241119,54,0,P|328:90|292:57,1,65,10|0,0:2|0:0,0:0:0:0:
231,44,241386,2,0,L|220:111,1,65,10|0,0:2|0:0,0:0:0:0:
138,128,241652,2,0,L|127:52,1,65,10|0,0:2|0:0,0:0:0:0:
43,58,241919,2,0,B|27:90|27:90|18:135,1,65,10|0,0:2|0:0,0:0:0:0:
46,209,242186,37,12,0:2:0:0:
46,209,242252,1,0,0:0:0:0:
46,209,242319,2,0,L|27:273,2,65,8|0|0,0:2|0:0|0:0,0:0:0:0:
131,252,242719,53,12,0:2:0:0:
131,252,242785,1,0,0:0:0:0:
131,252,242852,2,0,L|150:316,2,65,8|0|0,0:2|0:0|0:0,0:0:0:0:
199,202,243252,38,0,P|248:218|282:214,1,65,8|8,0:2|0:2,0:0:0:0:
268,215,243452,1,0,0:0:0:0:
275,213,243519,2,0,P|308:215|337:228,1,65,8|8,0:2|0:2,0:0:0:0:
414,194,243786,2,0,L|398:102,1,65,8|8,0:3|0:3,0:0:0:0:
416,28,244052,53,8,0:3:0:0:
334,52,244186,1,8,0:3:0:0:
253,76,244319,22,0,B|202:55|202:55|140:58,1,97.50000371933,4|0,0:2|0:0,0:0:0:0:
66,85,244852,1,2,2:3:0:0:
28,175,245119,1,2,2:3:0:0:
78,258,245386,22,0,B|129:247|129:247|193:258,1,97.50000371933,2|0,2:3|0:0,0:0:0:0:
263,292,245919,1,2,2:3:0:0:
355,324,246186,2,0,B|363:289|363:289|382:263,1,48.750001859665,2|0,2:3|2:0,0:0:0:0:
415,261,246452,70,0,B|423:205|423:205|398:152,1,97.50000371933,2|2,2:3|2:3,0:0:0:0:
319,121,246986,2,0,B|307:176|307:176|265:217,1,97.50000371933,4|4,2:3|2:3,0:0:0:0:
180,203,247519,22,0,B|188:147|188:147|163:94,1,97.50000371933,4|8,0:2|0:2,0:0:0:0:
163,108,247852,1,8,0:2:0:0:
155,106,247919,1,8,0:2:0:0:
147,104,247986,1,8,0:2:0:0:
139,102,248052,37,4,0:2:0:0:
