osu file format v14

[General]
AudioFilename: audio.mp3
AudioLeadIn: 0
PreviewTime: 86460
Countdown: 0
SampleSet: Drum
StackLeniency: 0.2
Mode: 0
LetterboxInBreaks: 0
WidescreenStoryboard: 1

[Editor]
Bookmarks: 1126,18193,26726,35260,43793,60860,69393,86460,90726,112060,116326,120593,133393,146193,171786,193119,205919,210186,214452,227252,235786,242186,244319
DistanceSpacing: 0.75
BeatDivisor: 4
GridSize: 16
TimelineZoom: 1.899999

[Metadata]
Title:Exile of the Floating World
TitleUnicode:Exile of the Floating World
Artist:Whispered
ArtistUnicode:Whispered
Creator:MrKosiej
Version:Gabdu09's Extra
Source:
Tags:metal japanese metsutan songs of the void english Blood9 SaltyLucario TheKingHenry -Kemsyt Gabdu09 Saltking Salty melodic death melodeath folk oriental japanese
BeatmapID:2249015
BeatmapSetID:769346

[Difficulty]
HPDrainRate:5
CircleSize:3.5
OverallDifficulty:9
ApproachRate:9.6
SliderMultiplier:1.8
SliderTickRate:1

[Events]
//Background and Video events
0,0,"landscape-1524086395332-3775.jpg",0,0
//Break Periods
2,69593,76306
2,184786,192077
2,244519,247010
//Storyboard Layer 0 (Background)
//Storyboard Layer 1 (Fail)
//Storyboard Layer 2 (Pass)
//Storyboard Layer 3 (Foreground)
Sprite,Foreground,Centre,"sb\a2.png",0,0 M,7,59693,59793,389,165 F,2,59693,59793,0,0.7 S,0,59793,,2.8 C,0,59793,,0,0,0 M,0,59793,59826,389,165,366.5643,166.6997 M,0,59826,59859,366.5643,166.6997,344.1286,168.3994 M,7,59859,59926,344.1286,168.3994,266,185 M,7,59926,59992,266,185,260,194 M,7,59992,60060,260,194,255,204 M,0,60060,60093,255,204,232.5643,205.6997 M,0,60093,60126,232.5643,205.6997,210.1286,207.3994 M,7,60126,60193,210.1286,207.3994,138,158 M,7,60193,60259,138,158,143,148 M,7,60259,60327,143,148,149,139 M,0,60327,60360,149,139,171.4048,136.9319 M,0,60360,60393,171.4048,136.9319,193.8095,134.8637 M,0,60393,60427,193.8095,134.8637,171.4048,136.9319 M,0,60427,60460,171.4048,136.9319,149,139 M,7,60460,60593,149,139,117,320 S,19,60860,60960,2.8,14 F,0,60860,61360,0.7,0
Sprite,Foreground,Centre,"sb\w.png",0,0 C,0,235786,,221,66,70 M,0,235786,235819,285,385,268.7159,400.5267 F,2,235786,236186,1,0 S,2,235786,236186,1,0.2 P,0,235786,236186,A M,0,235819,235852,268.7159,400.5267,252.4318,416.0534 M,0,235852,235886,252.4318,416.0534,268.7159,400.5267 M,0,235886,235919,268.7159,400.5267,285,385 M,0,235919,235952,285,385,268.7159,400.5267 M,0,235952,235986,268.7159,400.5267,252.4318,416.0534
Sprite,Foreground,Centre,"sb\w.png",0,0 C,0,236052,,221,66,70 M,0,236052,236085,285,251,268.7159,266.5267 F,2,236052,236452,1,0 S,2,236052,236452,1,0.2 P,0,236052,236452,A M,0,236085,236118,268.7159,266.5267,252.4318,282.0534 M,0,236118,236152,252.4318,282.0534,268.7159,266.5267 M,0,236152,236185,268.7159,266.5267,285,251 M,0,236185,236218,285,251,268.7159,266.5267 M,0,236218,236252,268.7159,266.5267,252.4318,282.0534
Sprite,Foreground,Centre,"sb\w.png",204,134 C,0,236319,,221,66,70 F,2,236319,236519,1,0 S,2,236319,236519,1,0.2 P,0,236319,236519,A
Sprite,Foreground,Centre,"sb\w.png",208,144 C,0,236385,,221,66,70 F,2,236385,236585,1,0 S,2,236385,236585,1,0.2 P,0,236385,236585,A
Sprite,Foreground,Centre,"sb\w.png",210,155 C,0,236452,,221,66,70 F,2,236452,236652,1,0 S,2,236452,236652,1,0.2 P,0,236452,236652,A
Sprite,Foreground,Centre,"sb\w.png",209,166 C,0,236518,,221,66,70 F,2,236518,236718,1,0 S,2,236518,236718,1,0.2 P,0,236518,236718,A
Sprite,Foreground,Centre,"sb\w.png",206,177 C,0,236586,,152,7,7 F,2,236586,236786,1,0 S,2,236586,236786,1,0.2 P,0,236586,236786,A
Sprite,Foreground,Centre,"sb\w.png",180,155 C,0,236652,,152,7,7 F,2,236652,236852,1,0 S,2,236652,236852,1,0.2 P,0,236652,236852,A
Sprite,Foreground,Centre,"sb\w.png",148,144 C,0,236719,,152,7,7 F,2,236719,236919,1,0 S,2,236719,236919,1,0.2 P,0,236719,236919,A
Sprite,Foreground,Centre,"sb\w.png",114,144 C,0,236785,,152,7,7 F,2,236785,236985,1,0 S,2,236785,236985,1,0.2 P,0,236785,236985,A
Sprite,Foreground,Centre,"sb\w.png",0,0 C,0,236852,,221,66,70 M,0,236852,236885,83,156,99.2841,171.5267 F,2,236852,237252,1,0 S,2,236852,237252,1,0.2 P,0,236852,237252,A M,0,236885,236918,99.2841,171.5267,115.5682,187.0534 M,0,236918,236952,115.5682,187.0534,99.2841,171.5267 M,0,236952,236985,99.2841,171.5267,83,156 M,0,236985,237018,83,156,99.2841,171.5267 M,0,237018,237052,99.2841,171.5267,115.5682,187.0534
Sprite,Foreground,Centre,"sb\w.png",0,0 C,0,237119,,221,66,70 M,0,237119,237152,109,279,125.2841,294.5267 F,2,237119,237519,1,0 S,2,237119,237519,1,0.2 P,0,237119,237519,A M,0,237152,237185,125.2841,294.5267,141.5682,310.0534 M,0,237185,237219,141.5682,310.0534,125.2841,294.5267 M,0,237219,237252,125.2841,294.5267,109,279 M,0,237252,237285,109,279,125.2841,294.5267 M,0,237285,237319,125.2841,294.5267,141.5682,310.0534
Sprite,Foreground,Centre,"sb\w.png",232,298 C,0,237386,,221,66,70 F,2,237386,237586,1,0 S,2,237386,237586,1,0.2 P,0,237386,237586,A
Sprite,Foreground,Centre,"sb\w.png",240,305 C,0,237452,,221,66,70 F,2,237452,237652,1,0 S,2,237452,237652,1,0.2 P,0,237452,237652,A
Sprite,Foreground,Centre,"sb\w.png",248,313 C,0,237519,,221,66,70 F,2,237519,237719,1,0 S,2,237519,237719,1,0.2 P,0,237519,237719,A
Sprite,Foreground,Centre,"sb\w.png",256,321 C,0,237585,,221,66,70 F,2,237585,237785,1,0 S,2,237585,237785,1,0.2 P,0,237585,237785,A
Sprite,Foreground,Centre,"sb\w.png",264,328 C,0,237652,,152,7,7 F,2,237652,237852,1,0 S,2,237652,237852,1,0.2 P,0,237652,237852,A
Sprite,Foreground,Centre,"sb\w.png",266,294 C,0,237718,,152,7,7 F,2,237718,237918,1,0 S,2,237718,237918,1,0.2 P,0,237718,237918,A
Sprite,Foreground,Centre,"sb\w.png",269,260 C,0,237785,,152,7,7 F,2,237785,237985,1,0 S,2,237785,237985,1,0.2 P,0,237785,237985,A
Sprite,Foreground,Centre,"sb\w.png",272,227 C,0,237851,,152,7,7 F,2,237851,238051,1,0 S,2,237851,238051,1,0.2 P,0,237851,238051,A
Sprite,Foreground,Centre,"sb\w.png",0,0 C,0,237919,,221,66,70 M,0,237919,237952,275,193,291.5592,177.9295 F,2,237919,238319,1,0 S,2,237919,238319,1,0.2 P,0,237919,238319,A M,0,237952,237985,291.5592,177.9295,311.0679,166.9522 M,0,237985,238019,311.0679,166.9522,291.5592,177.9295 M,0,238019,238052,291.5592,177.9295,275,193 M,0,238052,238085,275,193,291.5592,177.9295 M,0,238085,238119,291.5592,177.9295,311.0679,166.9522
Sprite,Foreground,Centre,"sb\w.png",368,92 C,0,238186,,221,66,70 F,2,238186,238386,1,0 S,2,238186,238386,1,0.2 P,0,238186,238386,A
Sprite,Foreground,Centre,"sb\w.png",368,92 C,0,238252,,221,66,70 F,2,238252,238452,1,0 S,2,238252,238452,1,0.2 P,0,238252,238452,A
Sprite,Foreground,Centre,"sb\w.png",0,0 C,0,238319,,221,66,70 M,0,238319,238352,368,92,389.3386,98.78031 F,2,238319,238719,1,0 S,2,238319,238719,1,0.2 P,0,238319,238719,A M,0,238352,238385,389.3386,98.78031,408.5644,110.2231 M,0,238385,238419,408.5644,110.2231,389.3386,98.78031 M,0,238419,238452,389.3386,98.78031,368,92 M,0,238452,238485,368,92,389.3386,98.78031 M,0,238485,238519,389.3386,98.78031,408.5644,110.2231
Sprite,Foreground,Centre,"sb\w.png",508,119 C,0,238586,,221,66,70 F,2,238586,238786,1,0 S,2,238586,238786,1,0.2 P,0,238586,238786,A
Sprite,Foreground,Centre,"sb\w.png",508,119 C,0,238652,,221,66,70 F,2,238652,238852,1,0 S,2,238652,238852,1,0.2 P,0,238652,238852,A
Sprite,Foreground,Centre,"sb\w.png",0,0 C,0,238719,,221,66,70 M,0,238719,238752,508,119,512.4028,140.9538 F,2,238719,239119,1,0 S,2,238719,239119,1,0.2 P,0,238719,239119,A M,0,238752,238785,512.4028,140.9538,511.7376,163.3201 M,0,238785,238819,511.7376,163.3201,512.4028,140.9538 M,0,238819,238852,512.4028,140.9538,508,119 M,0,238852,238885,508,119,512.4028,140.9538 M,0,238885,238919,512.4028,140.9538,511.7376,163.3201
Sprite,Foreground,Centre,"sb\w.png",572,265 C,0,238986,,152,7,7 F,2,238986,239186,1,0 S,2,238986,239186,1,0.2 P,0,238986,239186,A
Sprite,Foreground,Centre,"sb\w.png",538,270 C,0,239052,,152,7,7 F,2,239052,239252,1,0 S,2,239052,239252,1,0.2 P,0,239052,239252,A
Sprite,Foreground,Centre,"sb\w.png",505,275 C,0,239119,,152,7,7 F,2,239119,239319,1,0 S,2,239119,239319,1,0.2 P,0,239119,239319,A
Sprite,Foreground,Centre,"sb\w.png",471,280 C,0,239185,,152,7,7 F,2,239185,239385,1,0 S,2,239185,239385,1,0.2 P,0,239185,239385,A
Sprite,Foreground,Centre,"sb\w.png",439,286 C,0,239252,,152,7,7 F,2,239252,239452,1,0 S,2,239252,239452,1,0.2 P,0,239252,239452,A
Sprite,Foreground,Centre,"sb\w.png",440,274 C,0,239318,,152,7,7 F,2,239318,239518,1,0 S,2,239318,239518,1,0.2 P,0,239318,239518,A
Sprite,Foreground,Centre,"sb\w.png",442,263 C,0,239385,,152,7,7 F,2,239385,239585,1,0 S,2,239385,239585,1,0.2 P,0,239385,239585,A
Sprite,Foreground,Centre,"sb\w.png",444,252 C,0,239451,,152,7,7 F,2,239451,239651,1,0 S,2,239451,239651,1,0.2 P,0,239451,239651,A
Sprite,Foreground,Centre,"sb\w.png",445,241 C,0,239519,,221,66,70 F,2,239519,239719,1,0 S,2,239519,239719,1,0.2 P,0,239519,239719,A
Sprite,Foreground,Centre,"sb\w.png",400,247 C,0,239585,,221,66,70 F,2,239585,239785,1,0 S,2,239585,239785,1,0.2 P,0,239585,239785,A
Sprite,Foreground,Centre,"sb\w.png",356,254 C,0,239652,,221,66,70 F,2,239652,239852,1,0 S,2,239652,239852,1,0.2 P,0,239652,239852,A
Sprite,Foreground,Centre,"sb\w.png",311,261 C,0,239718,,221,66,70 F,2,239718,239918,1,0 S,2,239718,239918,1,0.2 P,0,239718,239918,A
Sprite,Foreground,Centre,"sb\w.png",0,0 C,0,239786,,221,66,70 M,0,239786,239819,267,268,273.84,285.86 F,2,239786,240186,1,0 S,2,239786,240186,1,0.2 P,0,239786,240186,A M,0,239819,239852,273.84,285.86,280.68,303.72 M,0,239852,239886,280.68,303.72,273.84,285.86 M,0,239886,239919,273.84,285.86,267,268 M,0,239919,239952,267,268,273.84,285.86 M,0,239952,239986,273.84,285.86,280.68,303.72
Sprite,Foreground,Centre,"sb\w.png",207,393 C,0,240052,,152,7,7 F,2,240052,240252,1,0 S,2,240052,240252,1,0.2 P,0,240052,240252,A
Sprite,Foreground,Centre,"sb\w.png",215,361 C,0,240118,,152,7,7 F,2,240118,240318,1,0 S,2,240118,240318,1,0.2 P,0,240118,240318,A
Sprite,Foreground,Centre,"sb\w.png",203,330 C,0,240185,,152,7,7 F,2,240185,240385,1,0 S,2,240185,240385,1,0.2 P,0,240185,240385,A
Sprite,Foreground,Centre,"sb\w.png",175,312 C,0,240251,,152,7,7 F,2,240251,240451,1,0 S,2,240251,240451,1,0.2 P,0,240251,240451,A
Sprite,Foreground,Centre,"sb\w.png",142,315 C,0,240318,,152,7,7 F,2,240318,240518,1,0 S,2,240318,240518,1,0.2 P,0,240318,240518,A
Sprite,Foreground,Centre,"sb\w.png",111,330 C,0,240386,,152,7,7 F,2,240386,240586,1,0 S,2,240386,240586,1,0.2 P,0,240386,240586,A
Sprite,Foreground,Centre,"sb\w.png",79,319 C,0,240452,,152,7,7 F,2,240452,240652,1,0 S,2,240452,240652,1,0.2 P,0,240452,240652,A
Sprite,Foreground,Centre,"sb\w.png",64,290 C,0,240519,,152,7,7 F,2,240519,240719,1,0 S,2,240519,240719,1,0.2 P,0,240519,240719,A
Sprite,Foreground,Centre,"sb\w.png",72,259 C,0,240585,,152,7,7 F,2,240585,240785,1,0 S,2,240585,240785,1,0.2 P,0,240585,240785,A
Sprite,Foreground,Centre,"sb\w.png",100,241 C,0,240652,,152,7,7 F,2,240652,240852,1,0 S,2,240652,240852,1,0.2 P,0,240652,240852,A
Sprite,Foreground,Centre,"sb\w.png",132,247 C,0,240719,,152,7,7 F,2,240719,240919,1,0 S,2,240719,240919,1,0.2 P,0,240719,240919,A
Sprite,Foreground,Centre,"sb\w.png",152,274 C,0,240786,,152,7,7 F,2,240786,240986,1,0 S,2,240786,240986,1,0.2 P,0,240786,240986,A
Sprite,Foreground,Centre,"sb\w.png",0,0 C,0,240852,,152,7,7 M,0,240852,240885,141,305,119.9674,297.0076 F,2,240852,241252,1,0 S,2,240852,241252,1,0.2 P,0,240852,241252,A M,0,240885,240918,119.9674,297.0076,98.93474,289.0152 M,0,240918,240952,98.93474,289.0152,119.9674,297.0076 M,0,240952,240985,119.9674,297.0076,141,305 M,0,240985,241018,141,305,119.9674,297.0076 M,0,241018,241052,119.9674,297.0076,98.93474,289.0152
Sprite,Foreground,Centre,"sb\w.png",144,198 C,0,241119,,221,66,70 F,2,241119,241319,1,0 S,2,241119,241319,1,0.2 P,0,241119,241319,A
Sprite,Foreground,Centre,"sb\w.png",166,222 C,0,241185,,221,66,70 F,2,241185,241385,1,0 S,2,241185,241385,1,0.2 P,0,241185,241385,A
Sprite,Foreground,Centre,"sb\w.png",199,228 C,0,241252,,221,66,70 F,2,241252,241452,1,0 S,2,241252,241452,1,0.2 P,0,241252,241452,A
Sprite,Foreground,Centre,"sb\w.png",229,213 C,0,241318,,221,66,70 F,2,241318,241518,1,0 S,2,241318,241518,1,0.2 P,0,241318,241518,A
Sprite,Foreground,Centre,"sb\w.png",244,184 C,0,241385,,221,66,70 F,2,241385,241585,1,0 S,2,241385,241585,1,0.2 P,0,241385,241585,A
Sprite,Foreground,Centre,"sb\w.png",239,151 C,0,241452,,221,66,70 F,2,241452,241652,1,0 S,2,241452,241652,1,0.2 P,0,241452,241652,A
Sprite,Foreground,Centre,"sb\w.png",246,119 C,0,241518,,221,66,70 F,2,241518,241718,1,0 S,2,241518,241718,1,0.2 P,0,241518,241718,A
Sprite,Foreground,Centre,"sb\w.png",272,99 C,0,241585,,221,66,70 F,2,241585,241785,1,0 S,2,241585,241785,1,0.2 P,0,241585,241785,A
Sprite,Foreground,Centre,"sb\w.png",305,100 C,0,241651,,221,66,70 F,2,241651,241851,1,0 S,2,241651,241851,1,0.2 P,0,241651,241851,A
Sprite,Foreground,Centre,"sb\w.png",329,123 C,0,241718,,221,66,70 F,2,241718,241918,1,0 S,2,241718,241918,1,0.2 P,0,241718,241918,A
Sprite,Foreground,Centre,"sb\w.png",334,156 C,0,241785,,221,66,70 F,2,241785,241985,1,0 S,2,241785,241985,1,0.2 P,0,241785,241985,A
Sprite,Foreground,Centre,"sb\w.png",315,183 C,0,241851,,221,66,70 F,2,241851,242051,1,0 S,2,241851,242051,1,0.2 P,0,241851,242051,A
Sprite,Foreground,Centre,"sb\w.png",0,0 C,0,241919,,221,66,70 M,0,241919,241952,282,193,286.4789,215.0497 F,2,241919,242319,1,0 S,2,241919,242319,1,0.2 P,0,241919,242319,A M,0,241952,241985,286.4789,215.0497,290.9577,237.0994 M,0,241985,242019,290.9577,237.0994,286.4789,215.0497 M,0,242019,242052,286.4789,215.0497,282,193 M,0,242052,242085,282,193,286.4789,215.0497 M,0,242085,242119,286.4789,215.0497,290.9577,237.0994
Sprite,Foreground,Centre,"sb\w.png",0,0 C,0,242186,,152,7,7 M,0,242186,242219,310,314,332.4602,315.3369 F,2,242186,242452,1,0 S,2,242186,242452,1,0.2 P,0,242186,242452,A M,0,242219,242252,332.4602,315.3369,354.9205,316.6738
Sprite,Foreground,Centre,"sb\w.png",0,0 C,0,242319,,152,7,7 M,0,242319,242352,513,257,490.5398,255.6631 F,2,242319,242719,1,0 S,2,242319,242719,1,0.2 P,0,242319,242719,A M,0,242352,242385,490.5398,255.6631,468.0795,254.3262 M,0,242385,242419,468.0795,254.3262,490.5398,255.6631 M,0,242419,242452,490.5398,255.6631,513,257 M,0,242452,242485,513,257,490.5398,255.6631 M,0,242485,242519,490.5398,255.6631,468.0795,254.3262
Sprite,Foreground,Centre,"sb\w.png",423,131 C,0,242586,,152,7,7 F,2,242586,242786,1,0 S,2,242586,242786,1,0.2 P,0,242586,242786,A
Sprite,Foreground,Centre,"sb\w.png",423,131 C,0,242652,,152,7,7 F,2,242652,242852,1,0 S,2,242652,242852,1,0.2 P,0,242652,242852,A
Sprite,Foreground,Centre,"sb\w.png",0,0 C,0,242719,,221,66,70 M,0,242719,242752,423,131,421.6631,153.4602 F,2,242719,242985,1,0 S,2,242719,242985,1,0.2 P,0,242719,242985,A M,0,242752,242785,421.6631,153.4602,420.3262,175.9205
Sprite,Foreground,Centre,"sb\w.png",0,0 C,0,242852,,221,66,70 M,0,242852,242885,354,316,355.3369,293.5397 F,2,242852,243252,1,0 S,2,242852,243252,1,0.2 P,0,242852,243252,A M,0,242885,242918,355.3369,293.5397,356.6738,271.0795 M,0,242918,242952,356.6738,271.0795,355.3369,293.5397 M,0,242952,242985,355.3369,293.5397,354,316 M,0,242985,243018,354,316,355.3369,293.5397 M,0,243018,243052,355.3369,293.5397,356.6738,271.0795
Sprite,Foreground,Centre,"sb\w.png",282,193 C,0,243119,,221,66,70 F,2,243119,243319,1,0 S,2,243119,243319,1,0.2 P,0,243119,243319,A
Sprite,Foreground,Centre,"sb\w.png",282,193 C,0,243186,,221,66,70 F,2,243186,243386,1,0 S,2,243186,243386,1,0.2 P,0,243186,243386,A
Sprite,Foreground,Centre,"sb\w.png",282,193 C,0,243252,,152,7,7 F,2,243252,243452,1,0 S,2,243252,243452,1,0.2 P,0,243252,243452,A
Sprite,Foreground,Centre,"sb\w.png",0,0 C,0,243386,,152,7,7 M,0,243386,243419,180,151,158.3009,156.9498 F,2,243386,243652,1,0 S,2,243386,243652,1,0.2 P,0,243386,243652,A M,0,243419,243452,158.3009,156.9498,136.6018,162.8995
Sprite,Foreground,Centre,"sb\w.png",252,103 C,0,243519,,152,7,7 F,2,243519,243719,1,0 S,2,243519,243719,1,0.2 P,0,243519,243719,A
Sprite,Foreground,Centre,"sb\w.png",184,286 C,0,243652,,152,7,7 F,2,243652,243852,1,0 S,2,243652,243852,1,0.2 P,0,243652,243852,A
Sprite,Foreground,Centre,"sb\w.png",189,170 C,0,243786,,221,66,70 F,2,243786,243986,1,0 S,2,243786,243986,1,0.2 P,0,243786,243986,A
Sprite,Foreground,Centre,"sb\w.png",211,292 C,0,243919,,221,66,70 F,2,243919,244119,1,0 S,2,243919,244119,1,0.2 P,0,243919,244119,A
Sprite,Foreground,Centre,"sb\w.png",374,225 C,0,244052,,221,66,70 F,2,244052,244252,1,0 S,2,244052,244252,1,0.2 P,0,244052,244252,A
Sprite,Foreground,Centre,"sb\w.png",296,368 C,0,244186,,221,66,70 F,2,244186,244386,1,0 S,2,244186,244386,1,0.2 P,0,244186,244386,A
Sprite,Foreground,Centre,"sb\glow.png",0,0 C,0,192586,,193,193,193 M,0,192586,192619,126,185,127.9023,207.4194 F,2,192586,193141,1,0 S,2,192586,193141,1,0.2 P,0,192586,193141,A M,0,192619,192652,127.9023,207.4194,129.8045,229.8389 M,0,192652,192686,129.8045,229.8389,131.7068,252.2583 M,0,192686,192719,131.7068,252.2583,133.609,274.6778 M,0,192719,192752,133.609,274.6778,135.5113,297.0972 M,0,192752,192786,135.5113,297.0972,134.8772,289.6241 M,0,192786,192819,134.8772,289.6241,132.9749,267.2046 M,0,192819,192852,132.9749,267.2046,131.0727,244.7852 M,0,192852,192886,131.0727,244.7852,129.1704,222.3657 M,0,192886,192919,129.1704,222.3657,127.2682,199.9463 M,0,192919,192941,127.2682,199.9463,126,185
Sprite,Foreground,Centre,"sb\glow.png",0,0 C,0,193119,,138,138,138 M,0,193119,193152,426,141,418.691,149.5072 F,2,193119,193585,1,0 S,2,193119,193585,1,0.2 P,0,193119,193585,A M,0,193152,193185,418.691,149.5072,410.363,156.9986 M,0,193185,193219,410.363,156.9986,401.3035,163.5995 M,0,193219,193252,401.3035,163.5995,391.1998,168.4536 M,0,193252,193285,391.1998,168.4536,380.5675,171.9698 M,0,193285,193319,380.5675,171.9698,369.6108,174.256 M,0,193319,193352,369.6108,174.256,358.4135,174.6447 M,0,193352,193385,358.4135,174.6447,347.2142,173.9485
Sprite,Foreground,Centre,"sb\glow.png",261,135 C,0,193652,,138,138,138 F,2,193652,193852,1,0 S,2,193652,193852,1,0.2 P,0,193652,193852,A
Sprite,Foreground,Centre,"sb\glow.png",261,135 C,0,193919,,138,138,138 F,2,193919,194119,1,0 S,2,193919,194119,1,0.2 P,0,193919,194119,A
Sprite,Foreground,Centre,"sb\glow.png",0,0 C,0,194186,,193,193,193 M,0,194186,194219,161,262,171.826,258.9405 F,2,194186,194652,1,0 S,2,194186,194652,1,0.2 P,0,194186,194652,A M,0,194219,194252,171.826,258.9405,182.652,255.881 M,0,194252,194286,182.652,255.881,193.4779,252.8215 M,0,194286,194319,193.4779,252.8215,204.3039,249.7619 M,0,194319,194352,204.3039,249.7619,215.1299,246.7024 M,0,194352,194386,215.1299,246.7024,225.9559,243.6429 M,0,194386,194419,225.9559,243.6429,236.7819,240.5834 M,0,194419,194452,236.7819,240.5834,247.6078,237.5239
Sprite,Foreground,Centre,"sb\glow.png",0,0 C,0,194719,,193,193,193 M,0,194719,194752,420,285,409.1551,287.9917 F,2,194719,195185,1,0 S,2,194719,195185,1,0.2 P,0,194719,195185,A M,0,194752,194785,409.1551,287.9917,398.3102,290.9834 M,0,194785,194819,398.3102,290.9834,387.4652,293.9751 M,0,194819,194852,387.4652,293.9751,376.6203,296.9668 M,0,194852,194885,376.6203,296.9668,365.7754,299.9585 M,0,194885,194919,365.7754,299.9585,354.9305,302.9502 M,0,194919,194952,354.9305,302.9502,344.0856,305.9419 M,0,194952,194985,344.0856,305.9419,333.2407,308.9336
Sprite,Foreground,Centre,"sb\glow.png",281,406 C,0,195252,,193,193,193 F,2,195252,195452,1,0 S,2,195252,195452,1,0.2 P,0,195252,195452,A
Sprite,Foreground,Centre,"sb\glow.png",0,0 C,0,195786,,193,193,193 M,0,195786,195819,94,295,98.97536,284.9212 F,2,195786,196252,1,0 S,2,195786,196252,1,0.2 P,0,195786,196252,A M,0,195819,195852,98.97536,284.9212,103.2379,274.5252 M,0,195852,195886,103.2379,274.5252,106.9104,263.9046 M,0,195886,195919,106.9104,263.9046,109.5282,252.9758 M,0,195919,195952,109.5282,252.9758,111.3809,241.8947 M,0,195952,195986,111.3809,241.8947,112.5374,230.7218 M,0,195986,196019,112.5374,230.7218,112.6683,219.4862 M,0,196019,196052,112.6683,219.4862,112.1956,208.256
Sprite,Foreground,Centre,"sb\glow.png",85,112 C,0,196319,,138,138,138 F,2,196319,196519,1,0 S,2,196319,196519,1,0.2 P,0,196319,196519,A
Sprite,Foreground,Centre,"sb\glow.png",85,112 C,0,196586,,138,138,138 F,2,196586,196786,1,0 S,2,196586,196786,1,0.2 P,0,196586,196786,A
Sprite,Foreground,Centre,"sb\glow.png",215,168 C,0,196852,,138,138,138 F,2,196852,197052,1,0 S,2,196852,197052,1,0.2 P,0,196852,197052,A
Sprite,Foreground,Centre,"sb\glow.png",215,168 C,0,197119,,138,138,138 F,2,197119,197319,1,0 S,2,197119,197319,1,0.2 P,0,197119,197319,A
Sprite,Foreground,Centre,"sb\glow.png",291,94 C,0,197386,,193,193,193 F,2,197386,197586,1,0 S,2,197386,197586,1,0.2 P,0,197386,197586,A
Sprite,Foreground,Centre,"sb\glow.png",0,0 C,0,197919,,193,193,193 M,0,197919,197952,501,99,496.1252,109.1299 F,2,197919,198385,1,0 S,2,197919,198385,1,0.2 P,0,197919,198385,A M,0,197952,197985,496.1252,109.1299,491.8962,119.5423 M,0,197985,198019,491.8962,119.5423,488.1819,130.1521 M,0,198019,198052,488.1819,130.1521,485.434,141.0515 M,0,198052,198085,485.434,141.0515,483.375,152.0991 M,0,198085,198119,483.375,152.0991,481.9081,163.2405 M,0,198119,198152,481.9081,163.2405,481.3976,174.4684 M,0,198152,198185,481.3976,174.4684,481.5919,185.704
Sprite,Foreground,Centre,"sb\glow.png",0,0 C,0,198452,,138,138,138 M,0,198452,198485,524,309,513.3273,305.4424 F,2,198452,198918,1,0 S,2,198452,198918,1,0.2 P,0,198452,198918,A M,0,198485,198518,513.3273,305.4424,502.6546,301.8849 M,0,198518,198552,502.6546,301.8849,491.9819,298.3273 M,0,198552,198585,491.9819,298.3273,481.3093,294.7697 M,0,198585,198618,481.3093,294.7697,470.6366,291.2122 M,0,198618,198652,470.6366,291.2122,459.9639,287.6546 M,0,198652,198685,459.9639,287.6546,449.2912,284.097 M,0,198685,198718,449.2912,284.097,438.6185,280.5395
Sprite,Foreground,Centre,"sb\glow.png",0,0 C,0,198986,,138,138,138 M,0,198986,199019,304,168,314.6852,171.5198 F,2,198986,199452,1,0 S,2,198986,199452,1,0.2 P,0,198986,199452,A M,0,199019,199052,314.6852,171.5198,325.3704,175.0397 M,0,199052,199086,325.3704,175.0397,336.0556,178.5595 M,0,199086,199119,336.0556,178.5595,346.7408,182.0793 M,0,199119,199152,346.7408,182.0793,357.426,185.5991 M,0,199152,199186,357.426,185.5991,368.1111,189.119 M,0,199186,199219,368.1111,189.119,378.7963,192.6388 M,0,199219,199252,378.7963,192.6388,389,196
Sprite,Foreground,Centre,"sb\glow.png",0,0 C,0,199519,,193,193,193 M,0,199519,199552,351,419,339.9267,417.3015 F,2,199519,200252,1,0 S,2,199519,200252,1,0.2 P,0,199519,200252,A M,0,199552,199585,339.9267,417.3015,329.254,413.9617 M,0,199585,199619,329.254,413.9617,319.0343,409.3825 M,0,199619,199652,319.0343,409.3825,310.0385,402.7183 M,0,199652,199685,310.0385,402.7183,302.1597,394.7873 M,0,199685,199719,302.1597,394.7873,295.3592,385.9153 M,0,199719,199752,295.3592,385.9153,290.5146,375.8295 M,0,199752,199785,290.5146,375.8295,287.2474,365.1411 M,0,199785,199819,287.2474,365.1411,285.4869,354.1178 M,0,199819,199852,285.4869,354.1178,285.9076,342.9419 M,0,199852,199885,285.9076,342.9419,287.6263,331.8722 M,0,199885,199919,287.6263,331.8722,291.6955,321.4415 M,0,199919,199952,291.6955,321.4415,297.2801,311.7564 M,0,199952,199985,297.2801,311.7564,304.0432,302.8522 M,0,199985,200019,304.0432,302.8522,312.504,295.5292 M,0,200019,200052,312.504,295.5292,321.7422,289.1555
Sprite,Foreground,Centre,"sb\glow.png",321,289 C,0,200319,,193,193,193 F,2,200319,200519,1,0 S,2,200319,200519,1,0.2 P,0,200319,200519,A
Sprite,Foreground,Centre,"sb\glow.png",502,364 C,0,200586,,193,193,193 F,2,200586,200786,1,0 S,2,200586,200786,1,0.2 P,0,200586,200786,A
Sprite,Foreground,Centre,"sb\glow.png",0,0 C,0,201119,,138,138,138 M,0,201119,201152,526,361,524.7167,344.1739 F,2,201119,201674,1,0 S,2,201119,201674,1,0.2 P,0,201119,201674,A M,0,201152,201185,524.7167,344.1739,523.4333,327.3477 M,0,201185,201219,523.4333,327.3477,522.15,310.5216 M,0,201219,201252,522.15,310.5216,520.8666,293.6955 M,0,201252,201285,520.8666,293.6955,519.5833,276.8694 M,0,201285,201319,519.5833,276.8694,520.011,282.4781 M,0,201319,201352,520.011,282.4781,521.2944,299.3042 M,0,201352,201385,521.2944,299.3042,522.5778,316.1303 M,0,201385,201419,522.5778,316.1303,523.8611,332.9565 M,0,201419,201452,523.8611,332.9565,525.1444,349.7826 M,0,201452,201474,525.1444,349.7826,526,361
Sprite,Foreground,Centre,"sb\glow.png",0,0 C,0,201652,,193,193,193 M,0,201652,201685,378,164,361.6515,168.1822 F,2,201652,202252,1,0 S,2,201652,202252,1,0.2 P,0,201652,202252,A M,0,201685,201718,361.6515,168.1822,345.3029,172.3644 M,0,201718,201752,345.3029,172.3644,328.9543,176.5466 M,0,201752,201785,328.9543,176.5466,312.6058,180.7287 M,0,201785,201818,312.6058,180.7287,296.2573,184.9109 M,0,201818,201852,296.2573,184.9109,280.2822,181.7035 M,0,201852,201885,280.2822,181.7035,264.4387,175.8942 M,0,201885,201918,264.4387,175.8942,248.0624,178.0972 M,0,201918,201952,248.0624,178.0972,231.5893,181.7579 M,0,201952,201985,231.5893,181.7579,215.1161,185.4186 M,0,201985,202018,215.1161,185.4186,198.643,189.0793 M,0,202018,202052,198.643,189.0793,182.1698,192.74
Sprite,Foreground,Centre,"sb\glow.png",0,0 C,0,202186,,193,193,193 M,0,202186,202219,149,201,145.0753,217.4123 F,2,202186,202519,1,0 S,2,202186,202519,1,0.2 P,0,202186,202519,A M,0,202219,202252,145.0753,217.4123,141.1507,233.8245 M,0,202252,202286,141.1507,233.8245,137.226,250.2368 M,0,202286,202319,137.226,250.2368,133.3013,266.6491
Sprite,Foreground,Centre,"sb\glow.png",0,0 C,0,202452,,193,193,193 M,0,202452,202485,110,281,106.0753,297.4123 F,2,202452,202785,1,0 S,2,202452,202785,1,0.2 P,0,202452,202785,A M,0,202485,202518,106.0753,297.4123,102.1507,313.8245 M,0,202518,202552,102.1507,313.8245,98.22598,330.2368 M,0,202552,202585,98.22598,330.2368,94.30131,346.6491
Sprite,Foreground,Centre,"sb\glow.png",0,0 C,0,202719,,221,66,70 M,0,202719,202752,324,354,321.8267,337.2655 F,2,202719,203452,1,0 S,2,202719,203452,1,0.2 P,0,202719,203452,A M,0,202752,202785,321.8267,337.2655,319.6534,320.5311 M,0,202785,202819,319.6534,320.5311,317.4801,303.7966 M,0,202819,202852,317.4801,303.7966,315.3068,287.0621 M,0,202852,202885,315.3068,287.0621,307.351,275.9698 M,0,202885,202919,307.351,275.9698,290.6749,273.3863 M,0,202919,202952,290.6749,273.3863,273.9989,270.8026 M,0,202952,202985,273.9989,270.8026,257.3228,268.219 M,0,202985,203019,257.3228,268.219,273.9988,270.8026 M,0,203019,203052,273.9988,270.8026,290.6749,273.3862 M,0,203052,203085,290.6749,273.3862,307.351,275.9698 M,0,203085,203119,307.351,275.9698,315.3068,287.0621 M,0,203119,203152,315.3068,287.0621,317.4801,303.7966 M,0,203152,203185,317.4801,303.7966,319.6534,320.5311 M,0,203185,203219,319.6534,320.5311,321.8267,337.2655 M,0,203219,203252,321.8267,337.2655,324,354
Sprite,Foreground,Centre,"sb\glow.png",324,354 C,0,203519,,221,66,70 F,2,203519,203719,1,0 S,2,203519,203719,1,0.2 P,0,203519,203719,A
Sprite,Foreground,Centre,"sb\glow.png",0,0 C,0,203786,,193,193,193 M,0,203786,203819,476,440,478.1555,423.2632 F,2,203786,204386,1,0 S,2,203786,204386,1,0.2 P,0,203786,204386,A M,0,203819,203852,478.1555,423.2632,480.311,406.5265 M,0,203852,203886,480.311,406.5265,482.4665,389.7897 M,0,203886,203919,482.4665,389.7897,484.622,373.0529 M,0,203919,203952,484.622,373.0529,486.7775,356.3162 M,0,203952,203986,486.7775,356.3162,488.933,339.5794 M,0,203986,204019,488.933,339.5794,491.0884,322.8426 M,0,204019,204052,491.0884,322.8426,494.8874,307.7081 M,0,204052,204086,494.8874,307.7081,511.5641,305.1293 M,0,204086,204119,511.5641,305.1293,528.241,302.5504 M,0,204119,204152,528.241,302.5504,544.9177,299.9715 M,0,204152,204186,544.9177,299.9715,561.5945,297.3926
Sprite,Foreground,Centre,"sb\glow.png",0,0 C,0,204319,,193,193,193 M,0,204319,204352,576,276,559.3099,278.4911 F,2,204319,204652,1,0 S,2,204319,204652,1,0.2 P,0,204319,204652,A M,0,204352,204385,559.3099,278.4911,542.6198,280.9821 M,0,204385,204419,542.6198,280.9821,525.9296,283.4732 M,0,204419,204452,525.9296,283.4732,509.2395,285.9642
Sprite,Foreground,Centre,"sb\glow.png",0,0 C,0,204586,,193,193,193 M,0,204586,204619,490,273,473.3099,275.4911 F,2,204586,204919,1,0 S,2,204586,204919,1,0.2 P,0,204586,204919,A M,0,204619,204652,473.3099,275.4911,456.6198,277.9821 M,0,204652,204686,456.6198,277.9821,439.9296,280.4732 M,0,204686,204719,439.9296,280.4732,423.2395,282.9642
Sprite,Foreground,Centre,"sb\glow.png",0,0 C,0,204852,,221,66,70 M,0,204852,204885,404,80,406.1733,96.73447 F,2,204852,205585,1,0 S,2,204852,205585,1,0.2 P,0,204852,205585,A M,0,204885,204918,406.1733,96.73447,408.3466,113.4689 M,0,204918,204952,408.3466,113.4689,410.5199,130.2034 M,0,204952,204985,410.5199,130.2034,412.6932,146.9379 M,0,204985,205018,412.6932,146.9379,420.649,158.0301 M,0,205018,205052,420.649,158.0301,437.3251,160.6137 M,0,205052,205085,437.3251,160.6137,454.0011,163.1974 M,0,205085,205118,454.0011,163.1974,470.6772,165.781 M,0,205118,205152,470.6772,165.781,454.0012,163.1974 M,0,205152,205185,454.0012,163.1974,437.3251,160.6137 M,0,205185,205218,437.3251,160.6137,420.649,158.0301 M,0,205218,205252,420.649,158.0301,412.6932,146.9379 M,0,205252,205285,412.6932,146.9379,410.5199,130.2034 M,0,205285,205318,410.5199,130.2034,408.3466,113.4689 M,0,205318,205352,408.3466,113.4689,406.1733,96.73447 M,0,205352,205385,406.1733,96.73447,404,80
Sprite,Foreground,Centre,"sb\glow.png",404,80 C,0,205652,,221,66,70 F,2,205652,205852,1,0 S,2,205652,205852,1,0.2 P,0,205652,205852,A
Sprite,Foreground,Centre,"sb\glow.png",204,99 C,0,205919,,193,193,193 F,2,205919,206119,1,0 S,2,205919,206119,1,0.2 P,0,205919,206119,A
Sprite,Foreground,Centre,"sb\glow.png",199,101 C,0,205986,,193,193,193 F,2,205986,206186,1,0 S,2,205986,206186,1,0.2 P,0,205986,206186,A
Sprite,Foreground,Centre,"sb\glow.png",196,106 C,0,206052,,193,193,193 F,2,206052,206252,1,0 S,2,206052,206252,1,0.2 P,0,206052,206252,A
Sprite,Foreground,Centre,"sb\glow.png",195,110 C,0,206119,,193,193,193 F,2,206119,206319,1,0 S,2,206119,206319,1,0.2 P,0,206119,206319,A
Sprite,Foreground,Centre,"sb\glow.png",196,115 C,0,206186,,193,193,193 F,2,206186,206386,1,0 S,2,206186,206386,1,0.2 P,0,206186,206386,A
Sprite,Foreground,Centre,"sb\glow.png",199,120 C,0,206252,,193,193,193 F,2,206252,206452,1,0 S,2,206252,206452,1,0.2 P,0,206252,206452,A
Sprite,Foreground,Centre,"sb\glow.png",203,122 C,0,206319,,193,193,193 F,2,206319,206519,1,0 S,2,206319,206519,1,0.2 P,0,206319,206519,A
Sprite,Foreground,Centre,"sb\glow.png",208,123 C,0,206386,,193,193,193 F,2,206386,206586,1,0 S,2,206386,206586,1,0.2 P,0,206386,206586,A
Sprite,Foreground,Centre,"sb\glow.png",213,122 C,0,206452,,193,193,193 F,2,206452,206652,1,0 S,2,206452,206652,1,0.2 P,0,206452,206652,A
Sprite,Foreground,Centre,"sb\glow.png",218,120 C,0,206519,,193,193,193 F,2,206519,206719,1,0 S,2,206519,206719,1,0.2 P,0,206519,206719,A
Sprite,Foreground,Centre,"sb\glow.png",220,115 C,0,206586,,193,193,193 F,2,206586,206786,1,0 S,2,206586,206786,1,0.2 P,0,206586,206786,A
Sprite,Foreground,Centre,"sb\glow.png",221,110 C,0,206652,,193,193,193 F,2,206652,206852,1,0 S,2,206652,206852,1,0.2 P,0,206652,206852,A
Sprite,Foreground,Centre,"sb\glow.png",220,106 C,0,206719,,193,193,193 F,2,206719,206919,1,0 S,2,206719,206919,1,0.2 P,0,206719,206919,A
Sprite,Foreground,Centre,"sb\glow.png",218,101 C,0,206786,,193,193,193 F,2,206786,206986,1,0 S,2,206786,206986,1,0.2 P,0,206786,206986,A
Sprite,Foreground,Centre,"sb\glow.png",213,99 C,0,206852,,193,193,193 F,2,206852,207052,1,0 S,2,206852,207052,1,0.2 P,0,206852,207052,A
Sprite,Foreground,Centre,"sb\glow.png",208,98 C,0,206919,,193,193,193 F,2,206919,207119,1,0 S,2,206919,207119,1,0.2 P,0,206919,207119,A
Sprite,Foreground,Centre,"sb\glow.png",0,0 C,0,206986,,221,66,70 M,0,206986,207019,204,99,199.4046,115.2372 F,2,206986,208186,1,0 S,2,206986,208186,1,0.2 P,0,206986,208186,A M,0,207019,207052,199.4046,115.2372,194.8091,131.4745 M,0,207052,207086,194.8091,131.4745,199.4046,115.2372 M,0,207086,207119,199.4046,115.2372,204,99 M,0,207119,207152,204,99,199.4046,115.2372 M,0,207152,207186,199.4046,115.2372,194.8091,131.4745 M,0,207186,207219,194.8091,131.4745,199.4046,115.2372 M,0,207219,207252,199.4046,115.2372,204,99 M,0,207252,207286,204,99,199.4046,115.2372 M,0,207286,207319,199.4046,115.2372,194.8091,131.4745 M,0,207319,207352,194.8091,131.4745,199.4046,115.2372 M,0,207352,207386,199.4046,115.2372,204,99.00001 M,0,207386,207419,204,99.00001,199.4046,115.2372 M,0,207419,207452,199.4046,115.2372,194.8091,131.4745 M,0,207452,207486,194.8091,131.4745,199.4046,115.2372 M,0,207486,207519,199.4046,115.2372,204,99.00002 M,0,207519,207552,204,99.00002,199.4046,115.2372 M,0,207552,207586,199.4046,115.2372,194.8091,131.4744 M,0,207586,207619,194.8091,131.4744,199.4046,115.2372 M,0,207619,207652,199.4046,115.2372,204,99.00002 M,0,207652,207686,204,99.00002,199.4046,115.2372 M,0,207686,207719,199.4046,115.2372,194.8091,131.4744 M,0,207719,207752,194.8091,131.4744,199.4046,115.2372 M,0,207752,207786,199.4046,115.2372,204,99.00002 M,0,207786,207819,204,99.00002,199.4046,115.2372 M,0,207819,207852,199.4046,115.2372,194.8091,131.4744 M,0,207852,207886,194.8091,131.4744,199.4046,115.2372 M,0,207886,207919,199.4046,115.2372,204,99.00002 M,0,207919,207952,204,99.00002,199.4046,115.2372 M,0,207952,207986,199.4046,115.2372,194.8091,131.4745
Sprite,Foreground,Centre,"sb\glow.png",0,0 C,0,208052,,193,193,193 M,0,208052,208085,253,203,248.4046,219.2372 F,2,208052,208452,1,0 S,2,208052,208452,1,0.2 P,0,208052,208452,A M,0,208085,208118,248.4046,219.2372,243.8091,235.4745 M,0,208118,208152,243.8091,235.4745,248.4046,219.2372 M,0,208152,208185,248.4046,219.2372,253,203 M,0,208185,208218,253,203,248.4046,219.2372 M,0,208218,208252,248.4046,219.2372,243.8091,235.4745
Sprite,Foreground,Centre,"sb\glow.png",0,0 C,0,208319,,193,193,193 M,0,208319,208352,149,267,144.4046,283.2372 F,2,208319,209252,1,0 S,2,208319,209252,1,0.2 P,0,208319,209252,A M,0,208352,208385,144.4046,283.2372,139.8091,299.4745 M,0,208385,208419,139.8091,299.4745,144.4046,283.2372 M,0,208419,208452,144.4046,283.2372,149,267 M,0,208452,208485,149,267,144.4046,283.2372 M,0,208485,208519,144.4046,283.2372,139.8091,299.4745 M,0,208519,208552,139.8091,299.4745,144.4046,283.2372 M,0,208552,208585,144.4046,283.2372,149,267 M,0,208585,208619,149,267,144.4046,283.2372 M,0,208619,208652,144.4046,283.2372,139.8091,299.4745 M,0,208652,208685,139.8091,299.4745,144.4046,283.2372 M,0,208685,208719,144.4046,283.2372,149,267 M,0,208719,208752,149,267,144.4046,283.2372 M,0,208752,208785,144.4046,283.2372,139.8091,299.4745 M,0,208785,208819,139.8091,299.4745,144.4046,283.2372 M,0,208819,208852,144.4046,283.2372,149,267 M,0,208852,208885,149,267,144.4046,283.2372 M,0,208885,208919,144.4046,283.2372,139.8091,299.4744 M,0,208919,208952,139.8091,299.4744,144.4046,283.2372 M,0,208952,208985,144.4046,283.2372,149,267 M,0,208985,209019,149,267,144.4046,283.2372 M,0,209019,209052,144.4046,283.2372,139.8091,299.4745
Sprite,Foreground,Centre,"sb\glow.png",198,371 C,0,209119,,221,66,70 F,2,209119,209319,1,0 S,2,209119,209319,1,0.2 P,0,209119,209319,A
Sprite,Foreground,Centre,"sb\glow.png",198,371 C,0,209386,,193,193,193 F,2,209386,209586,1,0 S,2,209386,209586,1,0.2 P,0,209386,209586,A
Sprite,Foreground,Centre,"sb\glow.png",219,345 C,0,209452,,193,193,193 F,2,209452,209652,1,0 S,2,209452,209652,1,0.2 P,0,209452,209652,A
Sprite,Foreground,Centre,"sb\glow.png",250,334 C,0,209519,,193,193,193 F,2,209519,209719,1,0 S,2,209519,209719,1,0.2 P,0,209519,209719,A
Sprite,Foreground,Centre,"sb\glow.png",283,340 C,0,209585,,193,193,193 F,2,209585,209785,1,0 S,2,209585,209785,1,0.2 P,0,209585,209785,A
Sprite,Foreground,Centre,"sb\glow.png",308,362 C,0,209652,,193,193,193 F,2,209652,209852,1,0 S,2,209652,209852,1,0.2 P,0,209652,209852,A
Sprite,Foreground,Centre,"sb\glow.png",326,374 C,0,209718,,193,193,193 F,2,209718,209918,1,0 S,2,209718,209918,1,0.2 P,0,209718,209918,A
Sprite,Foreground,Centre,"sb\glow.png",348,377 C,0,209785,,193,193,193 F,2,209785,209985,1,0 S,2,209785,209985,1,0.2 P,0,209785,209985,A
Sprite,Foreground,Centre,"sb\glow.png",370,372 C,0,209851,,193,193,193 F,2,209851,210051,1,0 S,2,209851,210051,1,0.2 P,0,209851,210051,A
Sprite,Foreground,Centre,"sb\glow.png",0,0 C,0,209919,,193,193,193 M,0,209919,209952,388,358,385.0188,341.3904 F,2,209919,210319,1,0 S,2,209919,210319,1,0.2 P,0,209919,210319,A M,0,209952,209985,385.0188,341.3904,382.0376,324.7809 M,0,209985,210019,382.0376,324.7809,385.0188,341.3904 M,0,210019,210052,385.0188,341.3904,388,358 M,0,210052,210085,388,358,385.0188,341.3904 M,0,210085,210119,385.0188,341.3904,382.0376,324.7809
Sprite,Foreground,Centre,"sb\b.png",133,114 S,0,247985,,0.6 F,2,247985,248985,1,0
Sprite,Foreground,Centre,"sb\glow.png",101,105 F,2,247519,247819,1,0 S,19,247519,247819,1.2,0.9
Sprite,Foreground,Centre,"sb\glow.png",101,105 F,2,247786,248086,1,0 S,19,247786,248086,1.2,0.9
Sprite,Foreground,Centre,"sb\glow.png",111,108 F,2,247852,248152,1,0 S,19,247852,248152,1.2,0.9
Sprite,Foreground,Centre,"sb\glow.png",122,111 F,2,247919,248219,1,0 S,19,247919,248219,1.2,0.9
Sprite,Foreground,Centre,"sb\glow.png",133,114 F,2,247985,248285,1,0 S,19,247985,248285,1.2,0.9
Sprite,Foreground,Centre,"sb\a.png",0,0 M,7,215852,216052,228,230 F,2,215852,216052,0,0.65 S,0,216052,,3.5 C,0,216052,,0,0,0 M,0,216052,216085,228,230,230.5651,207.6467 M,0,216085,216118,230.5651,207.6467,233.1303,185.2934 M,0,216118,216152,233.1303,185.2934,230.5651,207.6467 M,0,216152,216185,230.5651,207.6467,228,230 M,0,216185,216218,228,230,230.5651,207.6467 M,0,216218,216252,230.5651,207.6467,233.1303,185.2934 M,7,216252,216319,233.1303,185.2934,152,139 M,0,216319,216352,152,139,148.96,161.2937 M,0,216352,216385,148.96,161.2937,146,183 M,0,216385,216419,146,183,148.96,161.2937 M,0,216419,216452,148.96,161.2937,152,139 M,0,216452,216485,152,139,148.96,161.2937 M,0,216485,216519,148.96,161.2937,146,183 M,7,216519,216586,146,183,89,250 M,7,216586,216652,89,250,82,282 M,7,216652,216719,82,282,93,314 M,7,216719,216785,93,314,117,337 M,7,216785,216852,117,337,150,345 M,7,216852,216919,150,345,182,337 M,7,216919,216986,182,337,212,321 M,7,216986,217052,212,321,245,321 M,7,217052,217119,245,321,275,334 M,0,217119,217152,275,334,271.8727,356.2816 M,0,217152,217185,271.8727,356.2816,268.7455,378.5632 M,0,217185,217219,268.7455,378.5632,271.8727,356.2816 M,0,217219,217252,271.8727,356.2816,275,334 M,0,217252,217285,275,334,271.8727,356.2816 M,0,217285,217319,271.8727,356.2816,268.7455,378.5632 M,7,217319,217386,268.7455,378.5632,346,370 M,0,217386,217419,346,370,342.8727,392.2816 M,0,217419,217452,342.8727,392.2816,339.7455,414.5632 M,0,217452,217486,339.7455,414.5632,342.8727,392.2816 M,0,217486,217519,342.8727,392.2816,346,370 M,0,217519,217552,346,370,342.8727,392.2816 M,0,217552,217586,342.8727,392.2816,339.7455,414.5632 M,7,217586,217652,339.7455,414.5632,450,362 M,0,217652,217685,450,362,472.4154,360.0508 M,0,217685,217718,472.4154,360.0508,494.8308,358.1017 M,0,217718,217752,494.8308,358.1017,472.4154,360.0508 M,0,217752,217785,472.4154,360.0508,450,362 M,0,217785,217818,450,362,472.4154,360.0508 M,0,217818,217852,472.4154,360.0508,494.8308,358.1017 M,7,217852,217919,494.8308,358.1017,549,269 M,7,217919,217985,549,269,504,272 M,7,217985,218052,504,272,459,276 M,7,218052,218118,459,276,414,280 M,7,218118,218186,414,280,369,284 M,0,218186,218219,369,284,371.6151,300.6711 M,0,218219,218252,371.6151,300.6711,374.2302,317.3423 M,0,218252,218286,374.2302,317.3423,371.6151,300.6711 M,0,218286,218319,371.6151,300.6711,369,284 M,0,218319,218352,369,284,371.6151,300.6711 M,0,218352,218386,371.6151,300.6711,374.2302,317.3423 M,7,218386,218452,374.2302,317.3423,275,334 M,7,218452,218518,275,334,281,289 M,7,218518,218585,281,289,288,245 M,7,218585,218651,288,245,295,200 S,19,218719,218919,3.5,17.5 F,0,218719,219219,0.65,0
Sprite,Foreground,Centre,"sb\a.png",0,0 M,7,224385,224586,256,147 F,2,224386,224586,0,0.65 S,0,224585,,3.5 C,0,224585,,0,0,0 M,0,224586,224619,256,147,234.4702,140.4642 M,0,224619,224652,234.4702,140.4642,212.9404,133.9283 M,0,224652,224686,212.9404,133.9283,234.4702,140.4642 M,0,224686,224719,234.4702,140.4642,256,147 M,0,224719,224752,256,147,234.4702,140.4642 M,0,224752,224786,234.4702,140.4642,212.9404,133.9283 M,7,224786,224852,212.9404,133.9283,159,79 M,0,224852,224885,159,79,137.5444,72.22455 M,0,224885,224918,137.5444,72.22455,116.0888,65.44909 M,0,224918,224952,116.0888,65.44909,137.5444,72.22455 M,0,224952,224985,137.5444,72.22455,159,79 M,0,224985,225018,159,79,137.5444,72.22455 M,0,225018,225052,137.5444,72.22455,116.0888,65.44909 M,7,225052,225119,116.0888,65.44909,64,131 M,7,225119,225186,64,131 M,7,225186,225252,64,131 M,7,225252,225318,64,131,71,175 M,7,225318,225386,71,175,78,219 M,0,225386,225419,78,219,98.41649,209.5439 M,0,225419,225452,98.41649,209.5439,118.833,200.0879 M,0,225452,225486,118.833,200.0879,139.2495,190.6318 M,0,225486,225519,139.2495,190.6318,159.666,181.1758 M,7,225519,225652,159.666,181.1758,295,215 M,7,225652,225786,295,215 M,7,225786,225919,295,215,234,341 M,7,225919,226052,234,341,153,303 M,7,226052,226186,153,303,295,215 M,7,226186,226319,295,215,376,253 M,0,226319,226352,376,253,396.378,262.5386 M,0,226352,226385,396.378,262.5386,416.756,272.0773 M,7,226385,226452,416.756,272.0773,514,159 M,7,226452,226586,514,159,431,159 M,7,226586,226719,431,159,389,87 M,7,226719,226852,389,87,376,253 M,7,226852,226985,376,253,376,64 M,7,226985,227118,376,64,540,158 S,19,227252,227452,3.5,17.5 F,0,227252,227752,0.65,0
Sprite,Foreground,Centre,"sb\glow.png",354,166 C,0,210186,,212,0,0 F,2,210186,210486,1,0 S,19,210186,210486,1.2,0.9
Sprite,Foreground,Centre,"sb\glow.png",354,166 C,0,210452,,212,0,0 F,2,210452,210752,1,0 S,19,210452,210752,1.2,0.9
Sprite,Foreground,Centre,"sb\glow.png",276,224 C,0,210586,,212,0,0 F,2,210586,210886,1,0 S,19,210586,210886,1.2,0.9
Sprite,Foreground,Centre,"sb\glow.png",256,102 C,0,210719,,212,0,0 F,2,210719,211019,1,0 S,19,210719,211019,1.2,0.9
Sprite,Foreground,Centre,"sb\glow.png",276,224 C,0,210852,,212,0,0 F,2,210852,211152,1,0 S,19,210852,211152,1.2,0.9
Sprite,Foreground,Centre,"sb\glow.png",142,83 C,0,210986,,212,0,0 F,2,210986,211286,1,0 S,19,210986,211286,1.2,0.9
Sprite,Foreground,Centre,"sb\glow.png",276,224 C,0,211119,,212,0,0 F,2,211119,211419,1,0 S,19,211119,211419,1.2,0.9
Sprite,Foreground,Centre,"sb\glow.png",0,0 C,0,211252,,212,0,0 M,0,211252,211285,114,244,107.9723,231.2581 S,19,211252,211685,1.2,0.9 M,0,211285,211318,107.9723,231.2581,129.5723,224.9581 M,0,211318,211352,129.5723,224.9581,151.1723,218.6581 M,0,211352,211385,151.1723,218.6581,172.7723,212.3581 F,2,211385,211685,1,0
Sprite,Foreground,Centre,"sb\glow.png",229,381 C,0,211519,,212,0,0 F,2,211519,211819,1,0 S,19,211519,211819,1.2,0.9
Sprite,Foreground,Centre,"sb\glow.png",196,372 C,0,211585,,212,0,0 F,2,211585,211885,1,0 S,19,211585,211885,1.2,0.9
Sprite,Foreground,Centre,"sb\glow.png",177,345 C,0,211652,,212,0,0 F,2,211652,211952,1,0 S,19,211652,211952,1.2,0.9
Sprite,Foreground,Centre,"sb\glow.png",180,312 C,0,211718,,212,0,0 F,2,211718,212018,1,0 S,19,211718,212018,1.2,0.9
Sprite,Foreground,Centre,"sb\glow.png",203,289 C,0,211785,,212,0,0 F,2,211785,212085,1,0 S,19,211785,212085,1.2,0.9
Sprite,Foreground,Centre,"sb\glow.png",396,308 C,0,212052,,212,0,0 F,2,212052,212352,1,0 S,19,212052,212352,1.2,0.9
Sprite,Foreground,Centre,"sb\glow.png",420,301 C,0,212118,,212,0,0 F,2,212118,212418,1,0 S,19,212118,212418,1.2,0.9
Sprite,Foreground,Centre,"sb\glow.png",435,281 C,0,212185,,212,0,0 F,2,212185,212485,1,0 S,19,212185,212485,1.2,0.9
Sprite,Foreground,Centre,"sb\glow.png",432,256 C,0,212251,,212,0,0 F,2,212251,212551,1,0 S,19,212251,212551,1.2,0.9
Sprite,Foreground,Centre,"sb\glow.png",415,239 C,0,212318,,212,0,0 F,2,212318,212618,1,0 S,19,212318,212618,1.2,0.9
Sprite,Foreground,Centre,"sb\glow.png",307,165 C,0,212586,,212,0,0 F,2,212586,212886,1,0 S,19,212586,212886,1.2,0.9
Sprite,Foreground,Centre,"sb\glow.png",303,175 C,0,212652,,212,0,0 F,2,212652,212952,1,0 S,19,212652,212952,1.2,0.9
Sprite,Foreground,Centre,"sb\glow.png",0,0 C,0,212719,,212,0,0 M,0,212719,212752,300,185,321.8739,179.7292 S,19,212719,213085,1.2,0.9 M,0,212752,212785,321.8739,179.7292,343.7478,174.4583 F,2,212785,213085,1,0
Sprite,Foreground,Centre,"sb\glow.png",425,154 C,0,212852,,212,0,0 F,2,212852,213152,1,0 S,19,212852,213152,1.2,0.9
Sprite,Foreground,Centre,"sb\glow.png",432,151 C,0,212918,,212,0,0 F,2,212918,213218,1,0 S,19,212918,213218,1.2,0.9
Sprite,Foreground,Centre,"sb\glow.png",0,0 C,0,212985,,212,0,0 M,0,212985,213018,440,149,428.535,136.6178 S,19,212985,213351,1.2,0.9 M,0,213018,213051,428.535,136.6178,417.07,124.2356 F,2,213051,213351,1,0
Sprite,Foreground,Centre,"sb\glow.png",366,72 C,0,213120,,212,0,0 F,2,213120,213420,1,0 S,19,213120,213420,1.2,0.9
Sprite,Foreground,Centre,"sb\glow.png",361,67 C,0,213186,,212,0,0 F,2,213186,213486,1,0 S,19,213186,213486,1.2,0.9
Sprite,Foreground,Centre,"sb\glow.png",0,0 C,0,213253,,212,0,0 M,0,213253,213286,356,62,352.0927,72.54967 S,19,213253,213619,1.2,0.9 M,0,213286,213319,352.0927,72.54967,348.1854,83.09935 F,2,213319,213619,1,0
Sprite,Foreground,Centre,"sb\glow.png",415,239 C,0,213386,,212,0,0 F,2,213386,213686,1,0 S,19,213386,213686,1.2,0.9
Sprite,Foreground,Centre,"sb\glow.png",442,258 C,0,213452,,212,0,0 F,2,213452,213752,1,0 S,19,213452,213752,1.2,0.9
Sprite,Foreground,Centre,"sb\glow.png",475,260 C,0,213519,,212,0,0 F,2,213519,213819,1,0 S,19,213519,213819,1.2,0.9
Sprite,Foreground,Centre,"sb\glow.png",504,245 C,0,213585,,212,0,0 F,2,213585,213885,1,0 S,19,213585,213885,1.2,0.9
Sprite,Foreground,Centre,"sb\glow.png",0,0 C,0,213652,,212,0,0 M,0,213652,213685,521,216,505.8177,199.3943 S,19,213652,214018,1.2,0.9 M,0,213685,213718,505.8177,199.3943,490.6354,182.7887 F,2,213718,214018,1,0
Sprite,Foreground,Centre,"sb\glow.png",357,307 C,0,213786,,212,0,0 F,2,213786,214086,1,0 S,19,213786,214086,1.2,0.9
Sprite,Foreground,Centre,"sb\glow.png",331,308 C,0,213852,,212,0,0 F,2,213852,214152,1,0 S,19,213852,214152,1.2,0.9
Sprite,Foreground,Centre,"sb\glow.png",309,296 C,0,213919,,212,0,0 F,2,213919,214219,1,0 S,19,213919,214219,1.2,0.9
Sprite,Foreground,Centre,"sb\glow.png",296,276 C,0,213985,,212,0,0 F,2,213985,214285,1,0 S,19,213985,214285,1.2,0.9
Sprite,Foreground,Centre,"sb\glow.png",0,0 C,0,214052,,212,0,0 M,0,214052,214085,296,251,312.009,245.6637 S,19,214052,214418,1.2,0.9 M,0,214085,214118,312.009,245.6637,328.0181,240.3273 F,2,214118,214418,1,0
Sprite,Foreground,Centre,"sb\glow.png",440,355 C,0,214186,,212,0,0 F,2,214186,214486,1,0 S,19,214186,214486,1.2,0.9
Sprite,Foreground,Centre,"sb\w.png",0,0 C,0,125393,,193,193,193 M,0,125393,125426,326,171,311.9594,156.648 F,2,125393,125792,1,0 S,2,125393,125792,1,0.2 P,0,125393,125792,A M,0,125426,125459,311.9594,156.648,303.1864,138.6566 M,0,125459,125492,303.1864,138.6566,300.3478,118.8557 M,0,125492,125526,300.3478,118.8557,304.5651,99.27752 M,0,125526,125559,304.5651,99.27752,314.4715,81.86737 M,0,125559,125592,314.4715,81.86737,329.8931,69.06776
Sprite,Foreground,Centre,"sb\w.png",369,56 C,0,125659,,193,193,193 F,2,125659,125859,1,0 S,2,125659,125859,1,0.2 P,0,125659,125859,A
Sprite,Foreground,Centre,"sb\w.png",0,0 C,0,125793,,193,193,193 M,0,125793,125826,403,248,382.9855,251.0792 F,2,125793,126192,1,0 S,2,125793,126192,1,0.2 P,0,125793,126192,A M,0,125826,125859,382.9855,251.0792,362.9709,254.1583 M,0,125859,125892,362.9709,254.1583,342.9564,257.2375 M,0,125892,125926,342.9564,257.2375,322.9419,260.3167 M,0,125926,125959,322.9419,260.3167,302.9274,263.3958 M,0,125959,125992,302.9274,263.3958,282.9128,266.4749
Sprite,Foreground,Centre,"sb\w.png",240,274 C,0,126059,,193,193,193 F,2,126059,126259,1,0 S,2,126059,126259,1,0.2 P,0,126059,126259,A
Sprite,Foreground,Centre,"sb\w.png",264,157 C,0,126193,,221,66,70 F,2,126193,126393,1,0 S,2,126193,126393,1,0.2 P,0,126193,126393,A
Sprite,Foreground,Centre,"sb\w.png",258,148 C,0,126259,,221,66,70 F,2,126259,126459,1,0 S,2,126259,126459,1,0.2 P,0,126259,126459,A
Sprite,Foreground,Centre,"sb\w.png",252,140 C,0,126326,,221,66,70 F,2,126326,126526,1,0 S,2,126326,126526,1,0.2 P,0,126326,126526,A
Sprite,Foreground,Centre,"sb\w.png",244,133 C,0,126393,,221,66,70 F,2,126393,126593,1,0 S,2,126393,126593,1,0.2 P,0,126393,126593,A
Sprite,Foreground,Centre,"sb\w.png",236,128 C,0,126459,,221,66,70 F,2,126459,126659,1,0 S,2,126459,126659,1,0.2 P,0,126459,126659,A
Sprite,Foreground,Centre,"sb\w.png",226,125 C,0,126526,,221,66,70 F,2,126526,126726,1,0 S,2,126526,126726,1,0.2 P,0,126526,126726,A
Sprite,Foreground,Centre,"sb\w.png",216,123 C,0,126593,,221,66,70 F,2,126593,126793,1,0 S,2,126593,126793,1,0.2 P,0,126593,126793,A
Sprite,Foreground,Centre,"sb\w.png",206,123 C,0,126659,,221,66,70 F,2,126659,126859,1,0 S,2,126659,126859,1,0.2 P,0,126659,126859,A
Sprite,Foreground,Centre,"sb\w.png",196,124 C,0,126726,,138,138,138 F,2,126726,126926,1,0 S,2,126726,126926,1,0.2 P,0,126726,126926,A
Sprite,Foreground,Centre,"sb\w.png",183,151 C,0,126792,,138,138,138 F,2,126792,126992,1,0 S,2,126792,126992,1,0.2 P,0,126792,126992,A
Sprite,Foreground,Centre,"sb\w.png",159,169 C,0,126859,,138,138,138 F,2,126859,127059,1,0 S,2,126859,127059,1,0.2 P,0,126859,127059,A
Sprite,Foreground,Centre,"sb\w.png",129,172 C,0,126926,,138,138,138 F,2,126926,127126,1,0 S,2,126926,127126,1,0.2 P,0,126926,127126,A
Sprite,Foreground,Centre,"sb\w.png",0,0 C,0,128593,,193,193,193 M,0,128593,128626,460,403,478.7744,410.1213 F,2,128593,128992,1,0 S,2,128593,128992,1,0.2 P,0,128593,128992,A M,0,128626,128659,478.7744,410.1213,498.7735,410.9388 M,0,128659,128692,498.7735,410.9388,518.1073,405.7116 M,0,128692,128726,518.1073,405.7116,534.3555,393.9789 M,0,128726,128759,534.3555,393.9789,546.5405,377.9977 M,0,128759,128792,546.5405,377.9977,552.0713,358.6972
Sprite,Foreground,Centre,"sb\w.png",558,321 C,0,128859,,193,193,193 F,2,128859,129059,1,0 S,2,128859,129059,1,0.2 P,0,128859,129059,A
Sprite,Foreground,Centre,"sb\w.png",0,0 C,0,128993,,193,193,193 M,0,128993,129026,484,153,480.1473,172.8801 F,2,128993,129392,1,0 S,2,128993,129392,1,0.2 P,0,128993,129392,A M,0,129026,129059,480.1473,172.8801,476.2945,192.7602 M,0,129059,129092,476.2945,192.7602,472.4418,212.6404 M,0,129092,129126,472.4418,212.6404,468.5891,232.5205 M,0,129126,129159,468.5891,232.5205,464.7363,252.4006 M,0,129159,129192,464.7363,252.4006,460.8836,272.2807
Sprite,Foreground,Centre,"sb\w.png",451,315 C,0,129259,,193,193,193 F,2,129259,129459,1,0 S,2,129259,129459,1,0.2 P,0,129259,129459,A
Sprite,Foreground,Centre,"sb\w.png",294,222 C,0,129393,,221,66,70 F,2,129393,129593,1,0 S,2,129393,129593,1,0.2 P,0,129393,129593,A
Sprite,Foreground,Centre,"sb\w.png",385,199 C,0,129526,,221,66,70 F,2,129526,129726,1,0 S,2,129526,129726,1,0.2 P,0,129526,129726,A
Sprite,Foreground,Centre,"sb\w.png",368,343 C,0,129659,,138,138,138 F,2,129659,129859,1,0 S,2,129659,129859,1,0.2 P,0,129659,129859,A
Sprite,Foreground,Centre,"sb\w.png",277,366 C,0,129793,,138,138,138 F,2,129793,129993,1,0 S,2,129793,129993,1,0.2 P,0,129793,129993,A
Sprite,Foreground,Centre,"sb\w.png",392,187 C,0,129926,,245,134,101 F,2,129926,130126,1,0 S,2,129926,130126,1,0.2 P,0,129926,130126,A
Sprite,Foreground,Centre,"sb\w.png",269,377 C,0,130059,,245,134,101 F,2,130059,130259,1,0 S,2,130059,130259,1,0.2 P,0,130059,130259,A
Sprite,Foreground,Centre,"sb\w.png",0,0 C,0,131793,,138,138,138 M,0,131793,131826,355,113,367.1318,97.05534 F,2,131793,132192,1,0 S,2,131793,132192,1,0.2 P,0,131793,132192,A M,0,131826,131859,367.1318,97.05534,384.0193,86.41747 M,0,131859,131893,384.0193,86.41747,403.5058,82.18539 M,0,131893,131926,403.5058,82.18539,423.1487,85.79314 M,0,131926,131959,423.1487,85.79314,440.4471,95.77686 M,0,131959,131992,440.4471,95.77686,452.4692,111.7445
Sprite,Foreground,Centre,"sb\w.png",464,150 C,0,132059,,138,138,138 F,2,132059,132259,1,0 S,2,132059,132259,1,0.2 P,0,132059,132259,A
Sprite,Foreground,Centre,"sb\w.png",0,0 C,0,132193,,138,138,138 M,0,132193,132226,349,357,353.8053,337.3284 F,2,132193,132592,1,0 S,2,132193,132592,1,0.2 P,0,132193,132592,A M,0,132226,132259,353.8053,337.3284,358.6106,317.6568 M,0,132259,132293,358.6106,317.6568,363.4158,297.9852 M,0,132293,132326,363.4158,297.9852,368.2211,278.3136 M,0,132326,132359,368.2211,278.3136,373.0264,258.642 M,0,132359,132392,373.0264,258.642,377.8317,238.9704
Sprite,Foreground,Centre,"sb\w.png",392,195 C,0,132459,,138,138,138 F,2,132459,132659,1,0 S,2,132459,132659,1,0.2 P,0,132459,132659,A
Sprite,Foreground,Centre,"sb\w.png",553,200 C,0,132593,,245,134,101 F,2,132593,132793,1,0 S,2,132593,132793,1,0.2 P,0,132593,132793,A
Sprite,Foreground,Centre,"sb\w.png",554,215 C,0,132659,,245,134,101 F,2,132659,132859,1,0 S,2,132659,132859,1,0.2 P,0,132659,132859,A
Sprite,Foreground,Centre,"sb\w.png",550,230 C,0,132726,,245,134,101 F,2,132726,132926,1,0 S,2,132726,132926,1,0.2 P,0,132726,132926,A
Sprite,Foreground,Centre,"sb\w.png",542,244 C,0,132792,,245,134,101 F,2,132792,132992,1,0 S,2,132792,132992,1,0.2 P,0,132792,132992,A
Sprite,Foreground,Centre,"sb\w.png",531,255 C,0,132859,,245,134,101 F,2,132859,133059,1,0 S,2,132859,133059,1,0.2 P,0,132859,133059,A
Sprite,Foreground,Centre,"sb\w.png",517,261 C,0,132926,,245,134,101 F,2,132926,133126,1,0 S,2,132926,133126,1,0.2 P,0,132926,133126,A
Sprite,Foreground,Centre,"sb\w.png",501,264 C,0,132992,,245,134,101 F,2,132992,133192,1,0 S,2,132992,133192,1,0.2 P,0,132992,133192,A
Sprite,Foreground,Centre,"sb\w.png",486,261 C,0,133059,,245,134,101 F,2,133059,133259,1,0 S,2,133059,133259,1,0.2 P,0,133059,133259,A
Sprite,Foreground,Centre,"sb\w.png",472,254 C,0,133126,,193,193,193 F,2,133126,133326,1,0 S,2,133126,133326,1,0.2 P,0,133126,133326,A
Sprite,Foreground,Centre,"sb\w.png",440,242 C,0,133192,,193,193,193 F,2,133192,133392,1,0 S,2,133192,133392,1,0.2 P,0,133192,133392,A
Sprite,Foreground,Centre,"sb\w.png",407,246 C,0,133259,,193,193,193 F,2,133259,133459,1,0 S,2,133259,133459,1,0.2 P,0,133259,133459,A
Sprite,Foreground,Centre,"sb\w.png",379,265 C,0,133325,,193,193,193 F,2,133325,133525,1,0 S,2,133325,133525,1,0.2 P,0,133325,133525,A
Sprite,Foreground,Centre,"sb\w.png",0,0 C,0,122193,,245,134,101 M,0,122193,122226,386,86,366.3528,90.2787 F,2,122193,122592,1,0 S,2,122193,122592,1,0.2 P,0,122193,122592,A M,0,122226,122259,366.3528,90.2787,348.8134,100.0063 M,0,122259,122292,348.8134,100.0063,334.6752,114.2229 M,0,122292,122326,334.6752,114.2229,325.7908,132.2169 M,0,122326,122359,325.7908,132.2169,322.1268,151.9597 M,0,122359,122392,322.1268,151.9597,325.0718,171.8256
Sprite,Foreground,Centre,"sb\w.png",337,210 C,0,122459,,245,134,101 F,2,122459,122659,1,0 S,2,122459,122659,1,0.2 P,0,122459,122659,A
Sprite,Foreground,Centre,"sb\w.png",0,0 C,0,122593,,245,134,101 M,0,122593,122626,238,58,234.9961,78.02596 F,2,122593,122992,1,0 S,2,122593,122992,1,0.2 P,0,122593,122992,A M,0,122626,122659,234.9961,78.02596,231.9922,98.05193 M,0,122659,122692,231.9922,98.05193,228.9883,118.0779 M,0,122692,122726,228.9883,118.0779,225.9844,138.1039 M,0,122726,122759,225.9844,138.1039,222.9805,158.1298 M,0,122759,122792,222.9805,158.1298,219.9766,178.1558
Sprite,Foreground,Centre,"sb\w.png",209,227 C,0,122859,,245,134,101 F,2,122859,123059,1,0 S,2,122859,123059,1,0.2 P,0,122859,123059,A
Sprite,Foreground,Centre,"sb\w.png",64,141 C,0,122993,,193,193,193 F,2,122993,123193,1,0 S,2,122993,123193,1,0.2 P,0,122993,123193,A
Sprite,Foreground,Centre,"sb\w.png",144,105 C,0,123126,,193,193,193 F,2,123126,123326,1,0 S,2,123126,123326,1,0.2 P,0,123126,123326,A
Sprite,Foreground,Centre,"sb\w.png",209,227 C,0,123259,,221,66,70 F,2,123259,123459,1,0 S,2,123259,123459,1,0.2 P,0,123259,123459,A
Sprite,Foreground,Centre,"sb\w.png",129,263 C,0,123392,,221,66,70 F,2,123392,123592,1,0 S,2,123392,123592,1,0.2 P,0,123392,123592,A
Sprite,Foreground,Centre,"sb\w.png",145,84 C,0,123526,,138,138,138 F,2,123526,123726,1,0 S,2,123526,123726,1,0.2 P,0,123526,123726,A
Sprite,Foreground,Centre,"sb\w.png",127,283 C,0,123659,,138,138,138 F,2,123659,123859,1,0 S,2,123659,123859,1,0.2 P,0,123659,123859,A
Sprite,Foreground,Centre,"sb\glow.png",512,374 F,2,146193,146493,1,0 S,19,146193,146493,1.2,0.9
Sprite,Foreground,Centre,"sb\glow.png",343,171 F,2,146726,147026,1,0 S,19,146726,147026,1.2,0.9
Sprite,Foreground,Centre,"sb\glow.png",367,246 F,2,146859,147159,1,0 S,19,146859,147159,1.2,0.9
Sprite,Foreground,Centre,"sb\glow.png",391,321 F,2,146993,147293,1,0 S,19,146993,147293,1.2,0.9
Sprite,Foreground,Centre,"sb\glow.png",161,199 F,2,147526,147826,1,0 S,19,147526,147826,1.2,0.9
Sprite,Foreground,Centre,"sb\glow.png",132,248 F,2,147615,147915,1,0 S,19,147615,147915,1.2,0.9
Sprite,Foreground,Centre,"sb\glow.png",189,248 F,2,147704,148004,1,0 S,19,147704,148004,1.2,0.9
Sprite,Foreground,Centre,"sb\glow.png",161,232 F,2,147793,148093,1,0 S,19,147793,148093,1.2,0.9
Sprite,Foreground,Centre,"sb\glow.png",391,321 F,2,148326,148626,1,0 S,19,148326,148626,1.2,0.9
Sprite,Foreground,Centre,"sb\glow.png",367,246 F,2,148460,148760,1,0 S,19,148460,148760,1.2,0.9
Sprite,Foreground,Centre,"sb\glow.png",343,171 F,2,148593,148893,1,0 S,19,148593,148893,1.2,0.9
Sprite,Foreground,Centre,"sb\glow.png",281,371 F,2,148859,149159,1,0 S,19,148859,149159,1.2,0.9
Sprite,Foreground,Centre,"sb\glow.png",480,190 F,2,149126,149426,1,0 S,19,149126,149426,1.2,0.9
Sprite,Foreground,Centre,"sb\glow.png",223,109 F,2,149392,149692,1,0 S,19,149392,149692,1.2,0.9
Sprite,Foreground,Centre,"sb\glow.png",281,371 F,2,150193,150493,1,0 S,19,150193,150493,1.2,0.9
Sprite,Foreground,Centre,"sb\glow.png",65,236 F,2,150726,151026,1,0 S,19,150726,151026,1.2,0.9
Sprite,Foreground,Centre,"sb\glow.png",141,192 F,2,150859,151159,1,0 S,19,150859,151159,1.2,0.9
Sprite,Foreground,Centre,"sb\glow.png",218,236 F,2,150993,151293,1,0 S,19,150993,151293,1.2,0.9
Sprite,Foreground,Centre,"sb\glow.png",0,0 M,0,152593,152626,465,163,477.9456,169.699 S,19,152593,153292,1.2,0.9 M,0,152626,152659,477.9456,169.699,489.7891,178.143 M,0,152659,152693,489.7891,178.143,500.0624,188.4575 M,0,152693,152726,500.0624,188.4575,508.4765,200.3602 M,0,152726,152759,508.4765,200.3602,514.791,213.5254 M,0,152759,152793,514.791,213.5254,518.3059,227.6711 M,0,152793,152826,518.3059,227.6711,519.7711,242.1418 M,0,152826,152859,519.7711,242.1418,518.795,256.6657 M,0,152859,152893,518.795,256.6657,515.3991,270.8393 M,0,152893,152926,515.3991,270.8393,509.6699,284.2673 M,0,152926,152959,509.6699,284.2673,501.3658,296.2459 M,0,152959,152992,501.3658,296.2459,491.4563,306.8915 F,2,152992,153292,1,0
Sprite,Foreground,Centre,"sb\glow.png",416,338 F,2,153126,153426,1,0 S,19,153126,153426,1.2,0.9
Sprite,Foreground,Centre,"sb\glow.png",416,338 F,2,153259,153559,1,0 S,19,153259,153559,1.2,0.9
Sprite,Foreground,Centre,"sb\glow.png",0,0 M,0,153393,153426,416,338,406.6198,326.8625 S,19,153393,153826,1.2,0.9 M,0,153426,153459,406.6198,326.8625,395.6542,317.336 M,0,153459,153493,395.6542,317.336,383.0892,309.9944 M,0,153493,153526,383.0892,309.9944,369.3424,305.0984 F,2,153526,153826,1,0
Sprite,Foreground,Centre,"sb\glow.png",0,0 M,0,153659,153692,287,395,292.1844,381.4023 S,19,153659,154092,1.2,0.9 M,0,153692,153725,292.1844,381.4023,295.1167,367.1844 M,0,153725,153759,295.1167,367.1844,295.2425,352.6267 M,0,153759,153792,295.2425,352.6267,291.961,338.4552 F,2,153792,154092,1,0
Sprite,Foreground,Centre,"sb\glow.png",0,0 M,0,153926,153959,173,311,187.3405,308.5192 S,19,153926,154359,1.2,0.9 M,0,153959,153992,187.3405,308.5192,201.0452,303.7399 M,0,153992,154026,201.0452,303.7399,213.5753,296.3532 M,0,154026,154059,213.5753,296.3532,224.4491,286.6224 F,2,154059,154359,1,0
Sprite,Foreground,Centre,"sb\glow.png",0,0 M,0,154193,154226,310,219,308.8244,204.4223 S,19,154193,154670,1.2,0.9 M,0,154226,154259,308.8244,204.4223,307.6487,189.8447 M,0,154259,154293,307.6487,189.8447,307.2569,184.9854 M,0,154293,154326,307.2569,184.9854,308.4325,199.5631 M,0,154326,154359,308.4325,199.5631,309.6081,214.1408 M,0,154359,154370,309.6081,214.1408,310,219 F,2,154370,154670,1,0
Sprite,Foreground,Centre,"sb\glow.png",0,0 M,0,154459,154492,200,133,198.8244,118.4223 S,19,154459,154936,1.2,0.9 M,0,154492,154525,198.8244,118.4223,197.6488,103.8447 M,0,154525,154559,197.6488,103.8447,197.2569,98.98544 M,0,154559,154592,197.2569,98.98544,198.4325,113.5631 M,0,154592,154625,198.4325,113.5631,199.6081,128.1408 M,0,154625,154636,199.6081,128.1408,200,133 F,2,154636,154936,1,0
Sprite,Foreground,Centre,"sb\glow.png",0,0 M,0,154726,154759,381,141,379.8244,126.4223 S,19,154726,155203,1.2,0.9 M,0,154759,154792,379.8244,126.4223,378.6488,111.8447 M,0,154792,154826,378.6488,111.8447,378.2569,106.9854 M,0,154826,154859,378.2569,106.9854,379.4325,121.5631 M,0,154859,154892,379.4325,121.5631,380.6081,136.1408 M,0,154892,154903,380.6081,136.1408,381,141 F,2,154903,155203,1,0
Sprite,Foreground,Centre,"sb\glow.png",0,0 M,0,154993,155026,508,113,498.8919,124.4224 S,19,154993,155492,1.2,0.9 M,0,155026,155059,498.8919,124.4224,492.4878,137.5104 M,0,155059,155093,492.4878,137.5104,490.5156,151.9459 M,0,155093,155126,490.5156,151.9459,489.9648,166.5484 M,0,155126,155159,489.9648,166.5484,485.7457,180.4856 M,0,155159,155192,485.7457,180.4856,478.0132,192.8686 F,2,155192,155492,1,0
Sprite,Foreground,Centre,"sb\glow.png",0,0 M,0,155259,155292,439,218,453.3558,220.0644 S,19,155259,155758,1.2,0.9 M,0,155292,155325,453.3558,220.0644,466.8877,225.0982 M,0,155325,155359,466.8877,225.0982,478.7455,233.4314 M,0,155359,155392,478.7455,233.4314,487.6003,244.9014 M,0,155392,155425,487.6003,244.9014,493.5211,258.0399 M,0,155425,155458,493.5211,258.0399,495.9242,272.2787 F,2,155458,155758,1,0
Sprite,Foreground,Centre,"sb\glow.png",0,0 M,0,155526,155559,500,319,483.2668,316.8174 S,19,155526,156026,1.2,0.9 M,0,155559,155592,483.2668,316.8174,466.5335,314.6348 M,0,155592,155626,466.5335,314.6348,449.8002,312.4522 M,0,155626,155659,449.8002,312.4522,433.067,310.2696 M,0,155659,155692,433.067,310.2696,416.3337,308.087 M,0,155692,155726,416.3337,308.087,399.6005,305.9044 F,2,155726,156026,1,0
Sprite,Foreground,Centre,"sb\glow.png",0,0 M,0,155793,155826,334,271,318.5747,264.1887 S,19,155793,156493,1.2,0.9 M,0,155826,155859,318.5747,264.1887,302.4476,259.275 M,0,155859,155893,302.4476,259.275,285.851,256.3287 M,0,155893,155926,285.851,256.3287,269.0236,255.3918 M,0,155926,155959,269.0236,255.3918,252.2076,256.477 M,0,155959,155993,252.2076,256.477,235.6449,259.5682 M,0,155993,156026,235.6449,259.5682,219.5737,264.6205 M,0,156026,156059,219.5737,264.6205,204.2251,271.5605 M,0,156059,156093,204.2251,271.5605,189.8197,280.2883 M,0,156093,156126,189.8197,280.2883,176.5647,290.6779 M,0,156126,156159,176.5647,290.6779,164.6505,302.5794 M,0,156159,156193,164.6505,302.5794,154.2484,315.8215 F,2,156193,156493,1,0
Sprite,Foreground,Centre,"sb\glow.png",130,363 F,2,156326,156626,1,0 S,19,156326,156626,1.2,0.9
Sprite,Foreground,Centre,"sb\glow.png",0,0 M,0,156593,156626,95,86,111.7815,87.16571 S,19,156593,157093,1.2,0.9 M,0,156626,156659,111.7815,87.16571,127.7905,92.28549 M,0,156659,156693,127.7905,92.28549,142.1108,101.0598 M,0,156693,156726,142.1108,101.0598,153.9243,112.9805 M,0,156726,156759,153.9243,112.9805,162.557,127.3601 M,0,156759,156793,162.557,127.3601,167.5177,143.3713 F,2,156793,157093,1,0
Sprite,Foreground,Centre,"sb\glow.png",0,0 M,0,156859,156892,164,167,171.4764,151.9415 S,19,156859,157292,1.2,0.9 M,0,156892,156925,171.4764,151.9415,182.7128,139.4522 M,0,156925,156959,182.7128,139.4522,196.8797,130.4445 M,0,156959,156992,196.8797,130.4445,212.9341,125.5742 F,2,156992,157292,1,0
Sprite,Foreground,Centre,"sb\glow.png",297,135 F,2,157126,157426,1,0 S,19,157126,157426,1.2,0.9
Sprite,Foreground,Centre,"sb\glow.png",297,135 F,2,157259,157559,1,0 S,19,157259,157559,1.2,0.9
Sprite,Foreground,Centre,"sb\glow.png",0,0 M,0,157393,157426,266,288,258.5236,303.0585 S,19,157393,157826,1.2,0.9 M,0,157426,157459,258.5236,303.0585,247.2872,315.5478 M,0,157459,157493,247.2872,315.5478,233.1203,324.5555 M,0,157493,157526,233.1203,324.5555,217.0659,329.4258 F,2,157526,157826,1,0
Sprite,Foreground,Centre,"sb\glow.png",192,336 F,2,157593,157893,1,0 S,19,157593,157893,1.2,0.9
Sprite,Foreground,Centre,"sb\glow.png",192,336 F,2,157659,157959,1,0 S,19,157659,157959,1.2,0.9
Sprite,Foreground,Centre,"sb\glow.png",0,0 M,0,157793,157826,376,281,392.4772,284.6423 S,19,157793,158226,1.2,0.9 M,0,157826,157859,392.4772,284.6423,408.9545,288.2847 M,0,157859,157893,408.9545,288.2847,425.4317,291.927 M,0,157893,157926,425.4317,291.927,441.9089,295.5693 F,2,157926,158226,1,0
Sprite,Foreground,Centre,"sb\glow.png",359,292 F,2,158059,158359,1,0 S,19,158059,158359,1.2,0.9
Sprite,Foreground,Centre,"sb\glow.png",532,400 F,2,158186,158486,1,0 S,19,158186,158486,1.2,0.9
Sprite,Foreground,Centre,"sb\glow.png",506,247 F,2,158315,158615,1,0 S,19,158315,158615,1.2,0.9
Sprite,Foreground,Centre,"sb\glow.png",441,295 F,2,158444,158744,1,0 S,19,158444,158744,1.2,0.9
Sprite,Foreground,Centre,"sb\glow.png",493,127 F,2,158573,158873,1,0 S,19,158573,158873,1.2,0.9
Sprite,Foreground,Centre,"sb\glow.png",357,259 F,2,158703,159003,1,0 S,19,158703,159003,1.2,0.9
Sprite,Foreground,Centre,"sb\glow.png",512,108 F,2,158832,159132,1,0 S,19,158832,159132,1.2,0.9
Sprite,Foreground,Centre,"sb\w.png",225,394 C,0,182986,,228,234,116 F,2,182986,183186,1,0 S,2,182986,183186,1,0.2 P,0,182986,183186,A
Sprite,Foreground,Centre,"sb\w.png",186,415 C,0,183074,,228,234,116 F,2,183074,183274,1,0 S,2,183074,183274,1,0.2 P,0,183074,183274,A
Sprite,Foreground,Centre,"sb\w.png",145,401 C,0,183163,,228,234,116 F,2,183163,183363,1,0 S,2,183163,183363,1,0.2 P,0,183163,183363,A
Sprite,Foreground,Centre,"sb\w.png",126,362 C,0,183252,,245,134,101 F,2,183252,183452,1,0 S,2,183252,183452,1,0.2 P,0,183252,183452,A
Sprite,Foreground,Centre,"sb\w.png",141,321 C,0,183341,,245,134,101 F,2,183341,183541,1,0 S,2,183341,183541,1,0.2 P,0,183341,183541,A
Sprite,Foreground,Centre,"sb\w.png",182,305 C,0,183430,,245,134,101 F,2,183430,183630,1,0 S,2,183430,183630,1,0.2 P,0,183430,183630,A
Sprite,Foreground,Centre,"sb\w.png",0,0 C,0,183519,,245,134,101 M,0,183519,183552,220,328,214.6901,349.8645 F,2,183519,183896,1,0 S,2,183519,183896,1,0.2 P,0,183519,183896,A M,0,183552,183585,214.6901,349.8645,209.3801,371.7289 M,0,183585,183619,209.3801,371.7289,207.6101,379.0171 M,0,183619,183652,207.6101,379.0171,212.9201,357.1526 M,0,183652,183685,212.9201,357.1526,218.23,335.2881 M,0,183685,183696,218.23,335.2881,220,328
Sprite,Foreground,Centre,"sb\w.png",277,244 C,0,183786,,228,234,116 F,2,183786,183986,1,0 S,2,183786,183986,1,0.2 P,0,183786,183986,A
Sprite,Foreground,Centre,"sb\w.png",301,227 C,0,183874,,228,234,116 F,2,183874,184074,1,0 S,2,183874,184074,1,0.2 P,0,183874,184074,A
Sprite,Foreground,Centre,"sb\w.png",331,224 C,0,183963,,228,234,116 F,2,183963,184163,1,0 S,2,183963,184163,1,0.2 P,0,183963,184163,A
Sprite,Foreground,Centre,"sb\w.png",358,236 C,0,184052,,245,134,101 F,2,184052,184252,1,0 S,2,184052,184252,1,0.2 P,0,184052,184252,A
Sprite,Foreground,Centre,"sb\w.png",372,256 C,0,184141,,245,134,101 F,2,184141,184341,1,0 S,2,184141,184341,1,0.2 P,0,184141,184341,A
Sprite,Foreground,Centre,"sb\w.png",373,280 C,0,184230,,245,134,101 F,2,184230,184430,1,0 S,2,184230,184430,1,0.2 P,0,184230,184430,A
Sprite,Foreground,Centre,"sb\w.png",0,0 C,0,184319,,245,134,101 M,0,184319,184352,365,296,348.2025,297.6151 F,2,184319,184696,1,0 S,2,184319,184696,1,0.2 P,0,184319,184696,A M,0,184352,184385,348.2025,297.6151,331.4049,299.2303 M,0,184385,184419,331.4049,299.2303,325.8058,299.7687 M,0,184419,184452,325.8058,299.7687,342.6033,298.1535 M,0,184452,184485,342.6033,298.1535,359.4008,296.5384 M,0,184485,184496,359.4008,296.5384,365,296
Sprite,Foreground,Centre,"sb\w.png",452,289 C,0,184586,,228,234,116 F,2,184586,184786,1,0 S,2,184586,184786,1,0.2 P,0,184586,184786,A
Sprite,Foreground,Centre,"sb\glow.png",0,0 M,0,112060,112093,464,330,473.2038,350.5315 S,19,112060,112560,1.2,0.9 M,0,112093,112126,473.2038,350.5315,482.4075,371.0629 M,0,112126,112159,482.4075,371.0629,473.2038,350.5315 M,0,112159,112193,473.2038,350.5315,464,330 M,0,112193,112226,464,330,473.2038,350.5315 M,0,112226,112260,473.2038,350.5315,482.4075,371.0629 F,2,112260,112560,1,0
Sprite,Foreground,Centre,"sb\glow.png",0,0 M,0,112326,112359,403,227,400.5153,249.3624 S,19,112326,112826,1.2,0.9 M,0,112359,112392,400.5153,249.3624,398.0306,271.7248 M,0,112392,112425,398.0306,271.7248,400.5153,249.3624 M,0,112425,112459,400.5153,249.3624,403,227 M,0,112459,112492,403,227,400.5153,249.3624 M,0,112492,112526,400.5153,249.3624,398.0306,271.7248 F,2,112526,112826,1,0
Sprite,Foreground,Centre,"sb\glow.png",434,138 F,2,112593,112893,1,0 S,19,112593,112893,1.2,0.9
Sprite,Foreground,Centre,"sb\glow.png",436,127 F,2,112659,112959,1,0 S,19,112659,112959,1.2,0.9
Sprite,Foreground,Centre,"sb\glow.png",442,117 F,2,112726,113026,1,0 S,19,112726,113026,1.2,0.9
Sprite,Foreground,Centre,"sb\glow.png",451,110 F,2,112793,113093,1,0 S,19,112793,113093,1.2,0.9
Sprite,Foreground,Centre,"sb\glow.png",461,107 F,2,112859,113159,1,0 S,19,112859,113159,1.2,0.9
Sprite,Foreground,Centre,"sb\glow.png",428,102 F,2,112926,113226,1,0 S,19,112926,113226,1.2,0.9
Sprite,Foreground,Centre,"sb\glow.png",395,97 F,2,112993,113293,1,0 S,19,112993,113293,1.2,0.9
Sprite,Foreground,Centre,"sb\glow.png",361,92 F,2,113060,113360,1,0 S,19,113060,113360,1.2,0.9
Sprite,Foreground,Centre,"sb\glow.png",0,0 M,0,113126,113159,328,87,321.9192,108.6627 S,19,113126,113626,1.2,0.9 M,0,113159,113192,321.9192,108.6627,315.8385,130.3255 M,0,113192,113225,315.8385,130.3255,321.9192,108.6627 M,0,113225,113259,321.9192,108.6627,328,87 M,0,113259,113292,328,87,321.9192,108.6627 M,0,113292,113326,321.9192,108.6627,315.8385,130.3255 F,2,113326,113626,1,0
Sprite,Foreground,Centre,"sb\glow.png",0,0 M,0,113393,113426,238,97,231.9192,118.6627 S,19,113393,113893,1.2,0.9 M,0,113426,113459,231.9192,118.6627,225.8385,140.3255 M,0,113459,113492,225.8385,140.3255,231.9192,118.6627 M,0,113492,113526,231.9192,118.6627,238,97 M,0,113526,113559,238,97,231.9192,118.6627 M,0,113559,113593,231.9192,118.6627,225.8385,140.3255 F,2,113593,113893,1,0
Sprite,Foreground,Centre,"sb\glow.png",148,107 F,2,113660,113960,1,0 S,19,113660,113960,1.2,0.9
Sprite,Foreground,Centre,"sb\glow.png",144,117 F,2,113726,114026,1,0 S,19,113726,114026,1.2,0.9
Sprite,Foreground,Centre,"sb\glow.png",141,128 F,2,113793,114093,1,0 S,19,113793,114093,1.2,0.9
Sprite,Foreground,Centre,"sb\glow.png",138,139 F,2,113860,114160,1,0 S,19,113860,114160,1.2,0.9
Sprite,Foreground,Centre,"sb\glow.png",135,150 F,2,113926,114226,1,0 S,19,113926,114226,1.2,0.9
Sprite,Foreground,Centre,"sb\glow.png",167,145 F,2,113992,114292,1,0 S,19,113992,114292,1.2,0.9
Sprite,Foreground,Centre,"sb\glow.png",193,165 F,2,114059,114359,1,0 S,19,114059,114359,1.2,0.9
Sprite,Foreground,Centre,"sb\glow.png",198,198 F,2,114126,114426,1,0 S,19,114126,114426,1.2,0.9
Sprite,Foreground,Centre,"sb\glow.png",0,0 M,0,114193,114226,178,224,156.1281,229.2794 S,19,114193,114693,1.2,0.9 M,0,114226,114259,156.1281,229.2794,134.2563,234.5588 M,0,114259,114292,134.2563,234.5588,156.1281,229.2794 M,0,114292,114326,156.1281,229.2794,178,224 M,0,114326,114359,178,224,156.1281,229.2794 M,0,114359,114393,156.1281,229.2794,134.2563,234.5588 F,2,114393,114693,1,0
Sprite,Foreground,Centre,"sb\glow.png",227,328 F,2,114460,114760,1,0 S,19,114460,114760,1.2,0.9
Sprite,Foreground,Centre,"sb\glow.png",227,328 F,2,114526,114826,1,0 S,19,114526,114826,1.2,0.9
Sprite,Foreground,Centre,"sb\glow.png",0,0 M,0,114593,114626,227,328,205.3373,321.9192 S,19,114593,115093,1.2,0.9 M,0,114626,114659,205.3373,321.9192,183.6745,315.8385 M,0,114659,114692,183.6745,315.8385,205.3373,321.9192 M,0,114692,114726,205.3373,321.9192,227,328 M,0,114726,114759,227,328,205.3373,321.9192 M,0,114759,114793,205.3373,321.9192,183.6745,315.8385 F,2,114793,115093,1,0
Sprite,Foreground,Centre,"sb\glow.png",131,392 F,2,114860,115160,1,0 S,19,114860,115160,1.2,0.9
Sprite,Foreground,Centre,"sb\glow.png",131,392 F,2,114926,115226,1,0 S,19,114926,115226,1.2,0.9
Sprite,Foreground,Centre,"sb\glow.png",0,0 M,0,114993,115026,131,392,115.2784,375.904 S,19,114993,115493,1.2,0.9 M,0,115026,115059,115.2784,375.904,99.55672,359.8081 M,0,115059,115092,99.55672,359.8081,115.2784,375.904 M,0,115092,115126,115.2784,375.904,131,392 M,0,115126,115159,131,392,115.2784,375.904 M,0,115159,115193,115.2784,375.904,99.55672,359.8081 F,2,115193,115493,1,0
Sprite,Foreground,Centre,"sb\glow.png",227,328 F,2,115260,115560,1,0 S,19,115260,115560,1.2,0.9
Sprite,Foreground,Centre,"sb\glow.png",259,337 F,2,115326,115626,1,0 S,19,115326,115626,1.2,0.9
Sprite,Foreground,Centre,"sb\glow.png",291,346 F,2,115393,115693,1,0 S,19,115393,115693,1.2,0.9
Sprite,Foreground,Centre,"sb\glow.png",324,355 F,2,115460,115760,1,0 S,19,115460,115760,1.2,0.9
Sprite,Foreground,Centre,"sb\glow.png",356,364 F,2,115526,115826,1,0 S,19,115526,115826,1.2,0.9
Sprite,Foreground,Centre,"sb\glow.png",348,372 F,2,115592,115892,1,0 S,19,115592,115892,1.2,0.9
Sprite,Foreground,Centre,"sb\glow.png",340,380 F,2,115659,115959,1,0 S,19,115659,115959,1.2,0.9
Sprite,Foreground,Centre,"sb\glow.png",332,388 F,2,115726,116026,1,0 S,19,115726,116026,1.2,0.9
Sprite,Foreground,Centre,"sb\glow.png",324,396 F,2,115793,116093,1,0 S,19,115793,116093,1.2,0.9
Sprite,Foreground,Centre,"sb\glow.png",320,351 F,2,115859,116159,1,0 S,19,115859,116159,1.2,0.9
Sprite,Foreground,Centre,"sb\glow.png",317,306 F,2,115926,116226,1,0 S,19,115926,116226,1.2,0.9
Sprite,Foreground,Centre,"sb\glow.png",314,261 F,2,115993,116293,1,0 S,19,115993,116293,1.2,0.9
Sprite,Foreground,Centre,"sb\glow.png",0,0 M,0,116060,116093,311,216,328.2317,224.2967 S,19,116060,116560,1.2,0.9 M,0,116093,116126,328.2317,224.2967,345.4633,232.5934 M,0,116126,116159,345.4633,232.5934,328.2317,224.2967 M,0,116159,116193,328.2317,224.2967,311,216 M,0,116193,116226,311,216,328.2317,224.2967 M,0,116226,116260,328.2317,224.2967,345.4633,232.5934 F,2,116260,116560,1,0
Sprite,Foreground,Centre,"sb\glow.png",0,0 M,0,116326,116359,465,355,459.7091,376.8691 S,19,116326,116826,1.2,0.9 M,0,116359,116392,459.7091,376.8691,454.4182,398.7382 M,0,116392,116425,454.4182,398.7382,459.7091,376.8691 M,0,116425,116459,459.7091,376.8691,465,355 M,0,116459,116492,465,355,459.7091,376.8691 M,0,116492,116526,459.7091,376.8691,454.4182,398.7382 F,2,116526,116826,1,0
Sprite,Foreground,Centre,"sb\glow.png",0,0 M,0,116593,116626,522,263,516.7091,241.1309 S,19,116593,117093,1.2,0.9 M,0,116626,116659,516.7091,241.1309,511.4182,219.2619 M,0,116659,116692,511.4182,219.2619,516.7091,241.1309 M,0,116692,116726,516.7091,241.1309,522,263 M,0,116726,116759,522,263,516.7091,241.1309 M,0,116759,116793,516.7091,241.1309,511.4182,219.2619 F,2,116793,117093,1,0
Sprite,Foreground,Centre,"sb\glow.png",439,128 F,2,116860,117160,1,0 S,19,116860,117160,1.2,0.9
Sprite,Foreground,Centre,"sb\glow.png",436,138 F,2,116926,117226,1,0 S,19,116926,117226,1.2,0.9
Sprite,Foreground,Centre,"sb\glow.png",433,149 F,2,116993,117293,1,0 S,19,116993,117293,1.2,0.9
Sprite,Foreground,Centre,"sb\glow.png",431,160 F,2,117060,117360,1,0 S,19,117060,117360,1.2,0.9
Sprite,Foreground,Centre,"sb\glow.png",428,171 F,2,117126,117426,1,0 S,19,117126,117426,1.2,0.9
Sprite,Foreground,Centre,"sb\glow.png",406,145 F,2,117192,117492,1,0 S,19,117192,117492,1.2,0.9
Sprite,Foreground,Centre,"sb\glow.png",376,131 F,2,117259,117559,1,0 S,19,117259,117559,1.2,0.9
Sprite,Foreground,Centre,"sb\glow.png",343,132 F,2,117326,117626,1,0 S,19,117326,117626,1.2,0.9
Sprite,Foreground,Centre,"sb\glow.png",0,0 M,0,117393,117426,313,149,307.7091,170.8691 S,19,117393,117893,1.2,0.9 M,0,117426,117459,307.7091,170.8691,302.4182,192.7381 M,0,117459,117492,302.4182,192.7381,307.7091,170.8691 M,0,117492,117526,307.7091,170.8691,313,149 M,0,117526,117559,313,149,307.7091,170.8691 M,0,117559,117593,307.7091,170.8691,302.4182,192.7381 F,2,117593,117893,1,0
Sprite,Foreground,Centre,"sb\glow.png",0,0 M,0,117660,117693,250,276,233.5745,260.623 S,19,117660,118160,1.2,0.9 M,0,117693,117726,233.5745,260.623,217.149,245.2459 M,0,117726,117759,217.149,245.2459,233.5745,260.623 M,0,117759,117793,233.5745,260.623,250,276 M,0,117793,117826,250,276,233.5745,260.623 M,0,117826,117860,233.5745,260.623,217.149,245.2459 F,2,117860,118160,1,0
Sprite,Foreground,Centre,"sb\glow.png",171,157 F,2,117926,118226,1,0 S,19,117926,118226,1.2,0.9
Sprite,Foreground,Centre,"sb\glow.png",181,153 F,2,117992,118292,1,0 S,19,117992,118292,1.2,0.9
Sprite,Foreground,Centre,"sb\glow.png",192,150 F,2,118059,118359,1,0 S,19,118059,118359,1.2,0.9
Sprite,Foreground,Centre,"sb\glow.png",203,147 F,2,118126,118426,1,0 S,19,118126,118426,1.2,0.9
Sprite,Foreground,Centre,"sb\w.png",239,278 C,0,68326,,221,66,70 F,2,68326,68526,1,0 S,2,68326,68526,1,0.2 P,0,68326,68526,A
Sprite,Foreground,Centre,"sb\w.png",253,308 C,0,68392,,221,66,70 F,2,68392,68592,1,0 S,2,68392,68592,1,0.2 P,0,68392,68592,A
Sprite,Foreground,Centre,"sb\w.png",280,326 C,0,68459,,221,66,70 F,2,68459,68659,1,0 S,2,68459,68659,1,0.2 P,0,68459,68659,A
Sprite,Foreground,Centre,"sb\w.png",314,327 C,0,68526,,221,66,70 F,2,68526,68726,1,0 S,2,68526,68726,1,0.2 P,0,68526,68726,A
Sprite,Foreground,Centre,"sb\w.png",0,0 C,0,68593,,221,66,70 M,0,68593,68626,342,310,337.4276,287.9695 F,2,68593,68993,1,0 S,2,68593,68993,1,0.2 P,0,68593,68993,A M,0,68626,68659,337.4276,287.9695,332.8553,265.939 M,0,68659,68692,332.8553,265.939,337.4276,287.9695 M,0,68692,68726,337.4276,287.9695,342,310 M,0,68726,68759,342,310,337.4276,287.9695 M,0,68759,68793,337.4276,287.9695,332.8553,265.939
Sprite,Foreground,Centre,"sb\w.png",0,0 C,0,68860,,221,66,70 M,0,68860,68893,406,218,410.8809,239.9642 F,2,68860,69126,1,0 S,2,68860,69126,1,0.2 P,0,68860,69126,A M,0,68893,68926,410.8809,239.9642,415.7619,261.9284
Sprite,Foreground,Centre,"sb\w.png",485,309 C,0,68993,,221,66,70 F,2,68993,69193,1,0 S,2,68993,69193,1,0.2 P,0,68993,69193,A
Sprite,Foreground,Centre,"sb\w.png",495,312 C,0,69059,,221,66,70 F,2,69059,69259,1,0 S,2,69059,69259,1,0.2 P,0,69059,69259,A
Sprite,Foreground,Centre,"sb\w.png",0,0 C,0,69126,,221,66,70 M,0,69126,69159,506,316,501.4276,293.9695 F,2,69126,69526,1,0 S,2,69126,69526,1,0.2 P,0,69126,69526,A M,0,69159,69192,501.4276,293.9695,496.8553,271.939 M,0,69192,69225,496.8553,271.939,501.4276,293.9695 M,0,69225,69259,501.4276,293.9695,506,316 M,0,69259,69292,506,316,501.4276,293.9695 M,0,69292,69326,501.4276,293.9695,496.8553,271.939
Sprite,Foreground,Centre,"sb\a.png",0,0 M,7,100660,100860,193,314 F,2,100660,100860,0,0.65 S,0,100860,,3.5 C,0,100860,,0,0,0 M,0,100860,100893,193,314,196.6335,336.2047 M,0,100893,100926,196.6335,336.2047,200.267,358.4094 M,0,100926,100959,200.267,358.4094,196.6335,336.2047 M,0,100959,100993,196.6335,336.2047,193,314 M,0,100993,101026,193,314,196.6335,336.2047 M,0,101026,101060,196.6335,336.2047,200.267,358.4094 M,7,101060,101126,200.267,358.4094,279,383 M,0,101126,101159,279,383,282.6335,405.2047 M,0,101159,101192,282.6335,405.2047,286.267,427.4094 M,0,101192,101225,286.267,427.4094,282.6335,405.2047 M,0,101225,101259,282.6335,405.2047,279,383 M,0,101259,101292,279,383,282.6335,405.2047 M,0,101292,101326,282.6335,405.2047,286.267,427.4094 M,7,101326,101393,286.267,427.4094,354,328 M,7,101393,101459,354,328,398,334 M,7,101459,101526,398,334,443,340 M,7,101526,101593,443,340,487,346 M,7,101593,101660,487,346,532,352 M,0,101660,101693,532,352,528.3665,374.2047 M,0,101693,101726,528.3665,374.2047,524.733,396.4094 M,0,101726,101759,524.733,396.4094,528.3665,374.2047 M,0,101759,101793,528.3665,374.2047,532,352 M,0,101793,101826,532,352,528.3665,374.2047 M,0,101826,101860,528.3665,374.2047,524.733,396.4094 M,7,101860,101926,524.733,396.4094,482,224 M,0,101926,101959,482,224,478.3665,246.2047 M,0,101959,101992,478.3665,246.2047,474.733,268.4094 M,7,101992,102060,474.733,268.4094,375,286 M,7,102060,102126,375,286,384,292 M,7,102126,102193,384,292,393,298 M,0,102193,102226,393,298,395.4552,281.3046 M,0,102226,102259,395.4552,281.3046,397.9104,264.6091 M,7,102259,102326,397.9104,264.6091,345,202 M,7,102326,102393,345,202 M,7,102393,102460,345,202 M,7,102460,102593,345,202,199,301 M,0,102593,102626,199,301,194.6472,278.925 M,0,102626,102659,194.6472,278.925,190.2944,256.8501 M,7,102659,102726,190.2944,256.8501,291,139 M,7,102726,102860,291,139,345,202 M,7,102860,102993,345,202,399,264 M,7,102993,103126,399,264,272,119 M,7,103126,103260,272,119,215,314 M,7,103260,103393,215,314,182,159 S,19,103526,103726,3.5,17.5 F,0,103526,104026,0.65,0
Sprite,Foreground,Centre,"sb\w.png",214,144 C,0,118193,,138,138,138 F,2,118193,118393,1,0 S,2,118193,118393,1,0.2 P,0,118193,118393,A
Sprite,Foreground,Centre,"sb\w.png",210,177 C,0,118259,,138,138,138 F,2,118259,118459,1,0 S,2,118259,118459,1,0.2 P,0,118259,118459,A
Sprite,Foreground,Centre,"sb\w.png",206,211 C,0,118326,,138,138,138 F,2,118326,118526,1,0 S,2,118326,118526,1,0.2 P,0,118326,118526,A
Sprite,Foreground,Centre,"sb\w.png",203,244 C,0,118393,,138,138,138 F,2,118393,118593,1,0 S,2,118393,118593,1,0.2 P,0,118393,118593,A
Sprite,Foreground,Centre,"sb\w.png",0,0 C,0,118460,,245,134,101 M,0,118460,118493,199,278,178.6019,268.5043 F,2,118460,118726,1,0 S,2,118460,118726,1,0.2 P,0,118460,118726,A M,0,118493,118526,178.6019,268.5043,158.2038,259.0087
Sprite,Foreground,Centre,"sb\w.png",0,0 C,0,118593,,245,134,101 M,0,118593,118626,100,365,120.3981,355.5043 F,2,118593,118993,1,0 S,2,118593,118993,1,0.2 P,0,118593,118993,A M,0,118626,118659,120.3981,355.5043,140.7962,346.0087 M,0,118659,118692,140.7962,346.0087,120.3981,355.5043 M,0,118692,118726,120.3981,355.5043,100,365 M,0,118726,118759,100,365,120.3981,355.5043 M,0,118759,118793,120.3981,355.5043,140.7962,346.0087
Sprite,Foreground,Centre,"sb\w.png",268,380 C,0,118860,,245,134,101 F,2,118860,119060,1,0 S,2,118860,119060,1,0.2 P,0,118860,119060,A
Sprite,Foreground,Centre,"sb\w.png",268,380 C,0,118926,,245,134,101 F,2,118926,119126,1,0 S,2,118926,119126,1,0.2 P,0,118926,119126,A
Sprite,Foreground,Centre,"sb\w.png",0,0 C,0,118993,,193,193,193 M,0,118993,119026,268,380,247.6019,370.5043 F,2,118993,119259,1,0 S,2,118993,119259,1,0.2 P,0,118993,119259,A M,0,119026,119059,247.6019,370.5043,227.2038,361.0087
Sprite,Foreground,Centre,"sb\w.png",0,0 C,0,119126,,193,193,193 M,0,119126,119159,75,354,95.39809,344.5043 F,2,119126,119526,1,0 S,2,119126,119526,1,0.2 P,0,119126,119526,A M,0,119159,119192,95.39809,344.5043,115.7962,335.0087 M,0,119192,119225,115.7962,335.0087,95.39809,344.5043 M,0,119225,119259,95.39809,344.5043,75,354 M,0,119259,119292,75,354,95.39809,344.5043 M,0,119292,119326,95.39809,344.5043,115.7962,335.0087
Sprite,Foreground,Centre,"sb\w.png",189,220 C,0,119393,,193,193,193 F,2,119393,119593,1,0 S,2,119393,119593,1,0.2 P,0,119393,119593,A
Sprite,Foreground,Centre,"sb\w.png",189,220 C,0,119460,,193,193,193 F,2,119460,119660,1,0 S,2,119460,119660,1,0.2 P,0,119460,119660,A
Sprite,Foreground,Centre,"sb\w.png",189,220 C,0,119526,,221,66,70 F,2,119526,119726,1,0 S,2,119526,119726,1,0.2 P,0,119526,119726,A
Sprite,Foreground,Centre,"sb\w.png",0,0 C,0,119660,,221,66,70 M,0,119660,119693,276,348,280.2491,325.9048 F,2,119660,119926,1,0 S,2,119660,119926,1,0.2 P,0,119660,119926,A M,0,119693,119726,280.2491,325.9048,284.4981,303.8097
Sprite,Foreground,Centre,"sb\w.png",268,174 C,0,119793,,138,138,138 F,2,119793,119993,1,0 S,2,119793,119993,1,0.2 P,0,119793,119993,A
Sprite,Foreground,Centre,"sb\w.png",376,316 C,0,119926,,138,138,138 F,2,119926,120126,1,0 S,2,119926,120126,1,0.2 P,0,119926,120126,A
Sprite,Foreground,Centre,"sb\w.png",390,170 C,0,120060,,245,134,101 F,2,120060,120260,1,0 S,2,120060,120260,1,0.2 P,0,120060,120260,A
Sprite,Foreground,Centre,"sb\w.png",471,176 C,0,120193,,245,134,101 F,2,120193,120393,1,0 S,2,120193,120393,1,0.2 P,0,120193,120393,A
Sprite,Foreground,Centre,"sb\w.png",425,240 C,0,120326,,193,193,193 F,2,120326,120526,1,0 S,2,120326,120526,1,0.2 P,0,120326,120526,A
Sprite,Foreground,Centre,"sb\w.png",435,105 C,0,120459,,193,193,193 F,2,120459,120659,1,0 S,2,120459,120659,1,0.2 P,0,120459,120659,A
Sprite,Foreground,Centre,"sb\glow.png",401,344 C,0,36860,,221,66,70 F,2,36860,37060,1,0 S,2,36860,37060,1,0.2 P,0,36860,37060,A
Sprite,Foreground,Centre,"sb\glow.png",401,344 C,0,37126,,221,66,70 F,2,37126,37326,1,0 S,2,37126,37326,1,0.2 P,0,37126,37326,A
Sprite,Foreground,Centre,"sb\glow.png",401,344 C,0,37393,,221,66,70 F,2,37393,37593,1,0 S,2,37393,37593,1,0.2 P,0,37393,37593,A
Sprite,Foreground,Centre,"sb\glow.png",401,344 C,0,37659,,221,66,70 F,2,37659,37859,1,0 S,2,37659,37859,1,0.2 P,0,37659,37859,A
Sprite,Foreground,Centre,"sb\glow.png",0,0 C,0,37926,,221,66,70 M,0,37926,37959,460,258,457.5358,247.0232 F,2,37926,38392,1,0 S,2,37926,38392,1,0.2 P,0,37926,38392,A M,0,37959,37992,457.5358,247.0232,455.0716,236.0464 M,0,37992,38026,455.0716,236.0464,452.6075,225.0696 M,0,38026,38059,452.6075,225.0696,450.1433,214.0928 M,0,38059,38092,450.1433,214.0928,447.6791,203.116 M,0,38092,38126,447.6791,203.116,445.2149,192.1392 M,0,38126,38159,445.2149,192.1392,442.7507,181.1623 M,0,38159,38192,442.7507,181.1623,440.2866,170.1855
Sprite,Foreground,Centre,"sb\glow.png",0,0 C,0,38460,,138,138,138 M,0,38460,38493,178,74,169.7272,81.62391 F,2,38460,39726,1,0 S,2,38460,39726,1,0.2 P,0,38460,39726,A M,0,38493,38526,169.7272,81.62391,161.4545,89.24782 M,0,38526,38560,161.4545,89.24782,153.1817,96.87173 M,0,38560,38593,153.1817,96.87173,144.909,104.4956 M,0,38593,38626,144.909,104.4956,136.6362,112.1196 M,0,38626,38660,136.6362,112.1196,128.3635,119.7435 M,0,38660,38693,128.3635,119.7435,136.2839,122.4462 M,0,38693,38726,136.2839,122.4462,147.3998,124.1779 M,0,38726,38760,147.3998,124.1779,158.5157,125.9095 M,0,38760,38793,158.5157,125.9095,169.6317,127.6411 M,0,38793,38826,169.6317,127.6411,180.7476,129.3727 M,0,38826,38860,180.7476,129.3727,191.8635,131.1044 M,0,38860,38893,191.8635,131.1044,202.9795,132.836 M,0,38893,38926,202.9795,132.836,214.0954,134.5676 M,0,38926,38960,214.0954,134.5676,225.2113,136.2993 M,0,38960,38993,225.2113,136.2993,236.3273,138.0309 M,0,38993,39026,236.3273,138.0309,247.4432,139.7625 M,0,39026,39060,247.4432,139.7625,258.5591,141.4941 M,0,39060,39093,258.5591,141.4941,269.675,143.2258 M,0,39093,39126,269.675,143.2258,280.791,144.9574 M,0,39126,39160,280.791,144.9574,291.9069,146.689 M,0,39160,39193,291.9069,146.689,303.0229,148.4207 M,0,39193,39226,303.0229,148.4207,314.1388,150.1523 M,0,39226,39260,314.1388,150.1523,325.2547,151.8839 M,0,39260,39293,325.2547,151.8839,328.3118,162.238 M,0,39293,39326,328.3118,162.238,330.7897,173.2117 M,0,39326,39360,330.7897,173.2117,333.2677,184.1854 M,0,39360,39393,333.2677,184.1854,335.7456,195.1591 M,0,39393,39426,335.7456,195.1591,338.2235,206.1328 M,0,39426,39460,338.2235,206.1328,340.7015,217.1065 M,0,39460,39493,340.7015,217.1065,343.1794,228.0802 M,0,39493,39526,343.1794,228.0802,345.6573,239.054
Sprite,Foreground,Centre,"sb\glow.png",345,239 C,0,40060,,138,138,138 F,2,40060,40260,1,0 S,2,40060,40260,1,0.2 P,0,40060,40260,A
Sprite,Foreground,Centre,"sb\glow.png",345,239 C,0,40326,,138,138,138 F,2,40326,40526,1,0 S,2,40326,40526,1,0.2 P,0,40326,40526,A
Sprite,Foreground,Centre,"sb\glow.png",0,0 C,0,40593,,245,134,101 M,0,40593,40626,301,355,290.7296,350.4085 F,2,40593,41059,1,0 S,2,40593,41059,1,0.2 P,0,40593,41059,A M,0,40626,40659,290.7296,350.4085,280.4592,345.8171 M,0,40659,40693,280.4592,345.8171,270.1888,341.2256 M,0,40693,40726,270.1888,341.2256,259.9185,336.6341 M,0,40726,40759,259.9185,336.6341,249.6481,332.0427 M,0,40759,40793,249.6481,332.0427,239.3777,327.4512 M,0,40793,40826,239.3777,327.4512,229.1073,322.8597 M,0,40826,40859,229.1073,322.8597,218.8369,318.2682
Sprite,Foreground,Centre,"sb\glow.png",345,239 C,0,41126,,245,134,101 F,2,41126,41326,1,0 S,2,41126,41326,1,0.2 P,0,41126,41326,A
Sprite,Foreground,Centre,"sb\glow.png",345,239 C,0,41392,,245,134,101 F,2,41392,41592,1,0 S,2,41392,41592,1,0.2 P,0,41392,41592,A
Sprite,Foreground,Centre,"sb\glow.png",0,0 C,0,41660,,193,193,193 M,0,41660,41693,405,402,415.2704,397.4085 F,2,41660,42126,1,0 S,2,41660,42126,1,0.2 P,0,41660,42126,A M,0,41693,41726,415.2704,397.4085,425.5408,392.8171 M,0,41726,41760,425.5408,392.8171,435.8112,388.2256 M,0,41760,41793,435.8112,388.2256,446.0815,383.6341 M,0,41793,41826,446.0815,383.6341,456.352,379.0427 M,0,41826,41860,456.352,379.0427,466.6223,374.4512 M,0,41860,41893,466.6223,374.4512,476.8927,369.8597 M,0,41893,41926,476.8927,369.8597,487.1631,365.2682
Sprite,Foreground,Centre,"sb\glow.png",345,239 C,0,42193,,193,193,193 F,2,42193,42393,1,0 S,2,42193,42393,1,0.2 P,0,42193,42393,A
Sprite,Foreground,Centre,"sb\glow.png",345,239 C,0,42459,,193,193,193 F,2,42459,42659,1,0 S,2,42459,42659,1,0.2 P,0,42459,42659,A
Sprite,Foreground,Centre,"sb\glow.png",0,0 C,0,42726,,221,66,70 M,0,42726,42759,106,365,116.2753,369.5805 F,2,42726,43192,1,0 S,2,42726,43192,1,0.2 P,0,42726,43192,A M,0,42759,42792,116.2753,369.5805,126.5505,374.1611 M,0,42792,42826,126.5505,374.1611,136.8258,378.7416 M,0,42826,42859,136.8258,378.7416,147.1011,383.3222 M,0,42859,42892,147.1011,383.3222,157.3763,387.9027 M,0,42892,42926,157.3763,387.9027,167.6516,392.4832 M,0,42926,42959,167.6516,392.4832,177.9269,397.0638 M,0,42959,42992,177.9269,397.0638,188.2021,401.6443
Sprite,Foreground,Centre,"sb\a2.png",0,0 M,7,77293,77926,159,376 S,0,77393,,2.8 C,0,77393,,0,0,0 F,2,77826,77926,0,0.7 M,0,77926,77959,159,376,157.3849,359.2025 M,0,77959,77992,157.3849,359.2025,155.7697,342.4049 M,0,77992,78025,155.7697,342.4049,157.3849,359.2025 M,0,78025,78059,157.3849,359.2025,159,376 M,0,78059,78092,159,376,157.3849,359.2025 M,0,78092,78125,157.3849,359.2025,155.7697,342.4049 M,0,78125,78159,155.7697,342.4049,157.3849,359.2025 M,0,78159,78192,157.3849,359.2025,159,376 M,0,78192,78225,159,376,157.3849,359.2025 M,0,78225,78259,157.3849,359.2025,155.7697,342.4049 M,0,78259,78292,155.7697,342.4049,157.3849,359.2025 M,0,78292,78325,157.3849,359.2025,159,376 M,0,78325,78359,159,376,157.3849,359.2025 M,0,78359,78392,157.3849,359.2025,155.7697,342.405 M,0,78392,78425,155.7697,342.405,157.3849,359.2025 M,0,78425,78459,157.3849,359.2025,159,376 M,0,78459,78492,159,376,157.3849,359.2025 M,0,78492,78525,157.3849,359.2025,155.7697,342.405 M,0,78525,78559,155.7697,342.405,157.3849,359.2025 M,0,78559,78592,157.3849,359.2025,159,376 M,0,78592,78625,159,376,157.3849,359.2025 M,0,78625,78659,157.3849,359.2025,155.7697,342.405 M,0,78659,78692,155.7697,342.405,157.3849,359.2025 M,0,78692,78725,157.3849,359.2025,159,376 M,0,78725,78759,159,376,157.3849,359.2025 M,0,78759,78792,157.3849,359.2025,155.7697,342.405 M,0,78792,78825,155.7697,342.405,157.3849,359.2025 M,0,78825,78859,157.3849,359.2025,159,376 M,0,78859,78892,159,376,157.3849,359.2025 M,0,78892,78926,157.3849,359.2025,155.7697,342.4049 M,7,78926,78993,155.7697,342.4049,130,306 M,7,78993,79059,130,306,139,319 M,7,79059,79126,139,319,152,330 M,7,79126,79193,152,330,167,339 M,7,79193,79259,167,339,183,344 M,7,79259,79326,183,344,199,345 M,7,79326,79393,199,345,216,344 M,7,79393,79459,216,344,232,338 M,7,79459,79526,232,338,247,330 M,0,79526,79559,247,330,256.9473,316.3685 M,0,79559,79592,256.9473,316.3685,266.8946,302.7371 M,0,79592,79625,266.8946,302.7371,256.9473,316.3685 M,0,79625,79659,256.9473,316.3685,247,330 M,0,79659,79692,247,330,256.9473,316.3685 M,0,79692,79726,256.9473,316.3685,266.8946,302.7371 M,7,79726,79793,266.8946,302.7371,338,354 M,0,79793,79826,338,354,353.3109,346.9047 M,0,79826,79859,353.3109,346.9047,368.6217,339.8094 M,0,79859,79892,368.6217,339.8094,353.3109,346.9047 M,0,79892,79926,353.3109,346.9047,338,354 M,0,79926,79959,338,354,353.3109,346.9047 M,0,79959,79993,353.3109,346.9047,368.6217,339.8094 M,7,79993,80060,368.6217,339.8094,319,235 M,0,80060,80093,319,235,328.9473,221.3685 M,0,80093,80126,328.9473,221.3685,338.8946,207.7371 M,0,80126,80159,338.8946,207.7371,328.9473,221.3685 M,0,80159,80193,328.9473,221.3685,319,235 M,0,80193,80226,319,235,328.9473,221.3685 M,0,80226,80260,328.9473,221.3685,338.8946,207.7371 M,7,80260,80326,338.8946,207.7371,442,295 M,0,80326,80359,442,295,457.3109,287.9047 M,0,80359,80392,457.3109,287.9047,472.6217,280.8094 M,0,80392,80425,472.6217,280.8094,457.3109,287.9047 M,0,80425,80459,457.3109,287.9047,442,295 M,0,80459,80492,442,295,457.3109,287.9047 M,0,80492,80526,457.3109,287.9047,472.6217,280.8094 M,7,80526,80593,472.6217,280.8094,450,145 M,0,80593,80626,450,145,440.5247,158.9637 M,0,80626,80659,440.5247,158.9637,431.0493,172.9273 M,0,80659,80692,431.0493,172.9273,440.5247,158.9637 M,0,80692,80726,440.5247,158.9637,450,145 M,0,80726,80759,450,145,440.5247,158.9637 M,0,80759,80792,440.5247,158.9637,431.0493,172.9273 M,0,80792,80826,431.0493,172.9273,440.5247,158.9637 M,0,80826,80859,440.5247,158.9637,450,145 M,0,80859,80892,450,145,440.5247,158.9637 M,0,80892,80926,440.5247,158.9637,431.0493,172.9273 M,0,80926,80959,431.0493,172.9273,440.5247,158.9637 M,0,80959,80992,440.5247,158.9637,450,145 M,0,80992,81026,450,145,440.5247,158.9637 M,0,81026,81059,440.5247,158.9637,431.0493,172.9273 M,7,81059,81126,431.0493,172.9273,407,198 M,7,81126,81192,407,198,401,197 M,7,81192,81259,401,197,396,196 M,7,81259,81326,396,196,391,196 M,7,81326,81392,391,196,386,195 M,7,81392,81459,386,195,381,195 M,7,81459,81526,381,195,376,194 M,7,81526,81592,376,194,371,194 M,7,81592,81659,371,194,366,193 M,7,81659,81726,366,193,361,193 M,7,81726,81792,361,193,356,192 M,7,81792,81859,356,192,351,192 M,7,81859,81926,351,192,346,191 M,7,81926,81992,346,191,341,191 M,7,81992,82059,341,191,336,190 M,7,82059,82126,336,190,331,190 M,7,82126,82193,331,190,326,189 M,0,82193,82226,326,189,312.2137,198.7315 M,0,82226,82259,312.2137,198.7315,298.4273,208.4631 M,0,82259,82292,298.4273,208.4631,312.2137,198.7315 M,0,82292,82326,312.2137,198.7315,326,189 M,0,82326,82359,326,189,312.2137,198.7315 M,0,82359,82392,312.2137,198.7315,298.4273,208.4631 M,0,82392,82426,298.4273,208.4631,312.2137,198.7315 M,0,82426,82459,312.2137,198.7315,326,189 M,0,82459,82492,326,189,312.2137,198.7315 M,0,82492,82526,312.2137,198.7315,298.4273,208.4631 M,0,82526,82559,298.4273,208.4631,312.2137,198.7315 M,0,82559,82592,312.2137,198.7315,326,189 M,0,82592,82626,326,189,312.2137,198.7315 M,0,82626,82659,312.2137,198.7315,298.4273,208.4631 M,7,82659,82726,298.4273,208.4631,213,197 M,0,82726,82759,213,197,211.4001,180.201 M,0,82759,82792,211.4001,180.201,209.8002,163.402 M,0,82792,82825,209.8002,163.402,211.4001,180.201 M,0,82825,82859,211.4001,180.201,213,197 M,0,82859,82892,213,197,211.4001,180.201 M,0,82892,82926,211.4001,180.201,209.8002,163.402 M,7,82926,82993,209.8002,163.402,262,95 M,0,82993,83026,262,95,277.3339,102.0453 M,0,83026,83059,277.3339,102.0453,292.6678,109.0906 M,0,83059,83092,292.6678,109.0906,277.3339,102.0453 M,0,83092,83126,277.3339,102.0453,262,95 M,0,83126,83159,262,95,277.3339,102.0453 M,0,83159,83193,277.3339,102.0453,292.6678,109.0906 M,7,83193,83260,292.6678,109.0906,239,91 M,7,83260,83326,239,91,223,85 M,7,83326,83393,223,85,206,83 M,7,83393,83460,206,83,189,85 M,7,83460,83526,189,85,173,90 M,7,83526,83593,173,90,159,99 M,7,83593,83660,159,99,147,111 M,7,83660,83726,147,111,138,125 M,7,83726,83793,138,125,132,141 M,0,83793,83826,132,141,126.1503,156.8287 M,0,83826,83859,126.1503,156.8287,120.3006,172.6573 M,0,83859,83892,120.3006,172.6573,126.1503,156.8287 M,0,83892,83926,126.1503,156.8287,132,141 M,0,83926,83959,132,141,126.1503,156.8287 M,0,83959,83993,126.1503,156.8287,120.3006,172.6573 M,7,83993,84060,120.3006,172.6573,204,220 M,0,84060,84093,204,220,209.8497,235.8287 M,0,84093,84126,209.8497,235.8287,215.6994,251.6573 M,0,84126,84159,215.6994,251.6573,209.8497,235.8287 M,0,84159,84193,209.8497,235.8287,204,220 M,0,84193,84226,204,220,209.8497,235.8287 M,0,84226,84260,209.8497,235.8287,215.6994,251.6573 M,7,84260,84326,215.6994,251.6573,314,202 M,7,84326,84392,314,202,338,200 M,7,84392,84459,338,200,361,209 M,7,84459,84526,361,209,377,229 M,7,84526,84593,377,229,382,254 M,7,84593,84659,382,254,381,270 M,7,84659,84726,381,270,375,286 M,7,84726,84793,375,286,363,298 M,7,84793,84860,363,298,348,305 M,7,84860,84926,348,305,347,296 M,7,84926,84993,347,296,346,288 M,7,84993,85060,346,288,346,279 M,7,85060,85126,346,279,345,271 M,7,85126,85193,345,271,345,262 M,7,85193,85260,345,262,344,254 M,7,85260,85326,344,254,343,246 M,7,85326,85393,343,246,343,237 S,19,86326,86426,2.8,14 F,0,86326,86826,0.7,0
Sprite,Foreground,Centre,"sb\glow.png",114,312 F,2,88593,88893,1,0 S,19,88593,88893,1.2,0.9
Sprite,Foreground,Centre,"sb\glow.png",146,320 F,2,88659,88959,1,0 S,19,88659,88959,1.2,0.9
Sprite,Foreground,Centre,"sb\glow.png",178,310 F,2,88726,89026,1,0 S,19,88726,89026,1.2,0.9
Sprite,Foreground,Centre,"sb\glow.png",200,286 F,2,88793,89093,1,0 S,19,88793,89093,1.2,0.9
Sprite,Foreground,Centre,"sb\glow.png",207,253 F,2,88860,89160,1,0 S,19,88860,89160,1.2,0.9
Sprite,Foreground,Centre,"sb\glow.png",185,246 F,2,88926,89226,1,0 S,19,88926,89226,1.2,0.9
Sprite,Foreground,Centre,"sb\glow.png",164,239 F,2,88993,89293,1,0 S,19,88993,89293,1.2,0.9
Sprite,Foreground,Centre,"sb\glow.png",142,232 F,2,89060,89360,1,0 S,19,89060,89360,1.2,0.9
Sprite,Foreground,Centre,"sb\glow.png",121,225 F,2,89126,89426,1,0 S,19,89126,89426,1.2,0.9
Sprite,Foreground,Centre,"sb\glow.png",131,221 F,2,89192,89492,1,0 S,19,89192,89492,1.2,0.9
Sprite,Foreground,Centre,"sb\glow.png",142,218 F,2,89259,89559,1,0 S,19,89259,89559,1.2,0.9
Sprite,Foreground,Centre,"sb\glow.png",153,215 F,2,89326,89626,1,0 S,19,89326,89626,1.2,0.9
Sprite,Foreground,Centre,"sb\glow.png",0,0 M,0,89393,89426,163,211,160.8631,227.7392 S,19,89393,89893,1.2,0.9 M,0,89426,89459,160.8631,227.7392,158.7262,244.4783 M,0,89459,89492,158.7262,244.4783,160.8631,227.7392 M,0,89492,89526,160.8631,227.7392,163,211 M,0,89526,89559,163,211,160.8631,227.7392 M,0,89559,89593,160.8631,227.7392,158.7262,244.4783 F,2,89593,89893,1,0
Sprite,Foreground,Centre,"sb\glow.png",181,395 F,2,89660,89960,1,0 S,19,89660,89960,1.2,0.9
Sprite,Foreground,Centre,"sb\glow.png",209,428 F,2,89726,90026,1,0 S,19,89726,90026,1.2,0.9
Sprite,Foreground,Centre,"sb\glow.png",251,440 F,2,89793,90093,1,0 S,19,89793,90093,1.2,0.9
Sprite,Foreground,Centre,"sb\glow.png",294,426 F,2,89860,90160,1,0 S,19,89860,90160,1.2,0.9
Sprite,Foreground,Centre,"sb\glow.png",320,392 F,2,89926,90226,1,0 S,19,89926,90226,1.2,0.9
Sprite,Foreground,Centre,"sb\glow.png",305,361 F,2,89992,90292,1,0 S,19,89992,90292,1.2,0.9
Sprite,Foreground,Centre,"sb\glow.png",309,328 F,2,90059,90359,1,0 S,19,90059,90359,1.2,0.9
Sprite,Foreground,Centre,"sb\glow.png",331,302 F,2,90126,90426,1,0 S,19,90126,90426,1.2,0.9
Sprite,Foreground,Centre,"sb\glow.png",363,293 F,2,90193,90493,1,0 S,19,90193,90493,1.2,0.9
Sprite,Foreground,Centre,"sb\glow.png",362,308 F,2,90259,90559,1,0 S,19,90259,90559,1.2,0.9
Sprite,Foreground,Centre,"sb\glow.png",367,323 F,2,90326,90626,1,0 S,19,90326,90626,1.2,0.9
Sprite,Foreground,Centre,"sb\glow.png",376,336 F,2,90393,90693,1,0 S,19,90393,90693,1.2,0.9
Sprite,Foreground,Centre,"sb\glow.png",0,0 M,0,90460,90493,387,346,403.875,346 S,19,90460,90960,1.2,0.9 M,0,90493,90526,403.875,346,420.75,346 M,0,90526,90559,420.75,346,403.875,346 M,0,90559,90593,403.875,346,387,346 M,0,90593,90626,387,346,403.875,346 M,0,90626,90660,403.875,346,420.75,346 F,2,90660,90960,1,0
Sprite,Foreground,Centre,"sb\a2.png",0,0 M,7,43693,43793,244,281 F,2,43693,43793,0,0.7 S,0,43793,,2.8 C,0,43793,,0,0,0 M,0,43793,43826,244,281,245.7073,264.2116 M,0,43826,43859,245.7073,264.2116,247.4146,247.4232 M,0,43859,43893,247.4146,247.4232,245.7073,264.2116 M,0,43893,43926,245.7073,264.2116,244,281 M,0,43926,43959,244,281,245.7073,264.2116 M,0,43959,43993,245.7073,264.2116,247.4146,247.4232 M,0,43993,44026,247.4146,247.4232,245.7073,264.2116 M,0,44026,44059,245.7073,264.2116,244,281 M,0,44059,44093,244,281,245.7073,264.2116 M,0,44093,44126,245.7073,264.2116,247.4146,247.4232 M,0,44126,44159,247.4146,247.4232,245.7073,264.2116 M,0,44159,44193,245.7073,264.2116,244,281 M,0,44193,44226,244,281,245.7073,264.2116 M,0,44226,44259,245.7073,264.2116,247.4146,247.4232 M,0,44259,44293,247.4146,247.4232,245.7073,264.2116 M,0,44293,44326,245.7073,264.2116,244,281 M,0,44326,44359,244,281,245.7073,264.2116 M,0,44359,44393,245.7073,264.2116,247.4146,247.4232 M,0,44393,44426,247.4146,247.4232,245.7073,264.2116 M,0,44426,44459,245.7073,264.2116,244,281 M,0,44459,44493,244,281,245.7073,264.2116 M,0,44493,44526,245.7073,264.2116,247.4146,247.4232 M,0,44526,44559,247.4146,247.4232,245.7073,264.2116 M,0,44559,44593,245.7073,264.2116,244,281 M,0,44593,44626,244,281,245.7073,264.2116 M,0,44626,44659,245.7073,264.2116,247.4146,247.4232 M,0,44659,44693,247.4146,247.4232,245.7073,264.2116 M,0,44693,44726,245.7073,264.2116,244,281 M,0,44726,44759,244,281,245.7073,264.2116 M,0,44759,44793,245.7073,264.2116,247.4146,247.4232 M,7,44793,44860,247.4146,247.4232,224,307 M,7,44860,44926,224,307,236,296 M,7,44926,44993,236,296,251,288 M,7,44993,45059,251,288,268,284 M,7,45059,45126,268,284,285,283 M,7,45126,45193,285,283,301,287 M,7,45193,45259,301,287,317,293 M,7,45259,45326,317,293,330,303 M,7,45326,45393,330,303,341,316 M,0,45393,45426,341,316,334.7328,331.668 M,0,45426,45459,334.7328,331.668,328.4656,347.3361 M,0,45459,45493,328.4656,347.3361,334.7328,331.6681 M,0,45493,45526,334.7328,331.6681,341,316 M,0,45526,45559,341,316,334.7328,331.668 M,0,45559,45593,334.7328,331.668,328.4656,347.3361 M,7,45593,45660,328.4656,347.3361,436,317 M,0,45660,45693,436,317,429.7328,332.668 M,0,45693,45726,429.7328,332.668,423.4656,348.3361 M,0,45726,45760,423.4656,348.3361,429.7328,332.6681 M,0,45760,45793,429.7328,332.6681,436,317 M,0,45793,45826,436,317,429.7328,332.668 M,0,45826,45860,429.7328,332.668,423.4656,348.3361 M,7,45860,45926,423.4656,348.3361,511,238 M,0,45926,45959,511,238,513.3865,254.7054 M,0,45959,45992,513.3865,254.7054,515.7729,271.4108 M,0,45992,46026,515.7729,271.4108,513.3865,254.7054 M,0,46026,46059,513.3865,254.7054,511,238 M,0,46059,46092,511,238,513.3865,254.7054 M,0,46092,46126,513.3865,254.7054,515.7729,271.4108 M,7,46126,46193,515.7729,271.4108,498,121 M,0,46193,46226,498,121,513.668,127.2672 M,0,46226,46259,513.668,127.2672,529.3361,133.5344 M,0,46259,46293,529.3361,133.5344,513.6681,127.2672 M,0,46293,46326,513.6681,127.2672,498,121 M,0,46326,46359,498,121,513.668,127.2672 M,0,46359,46393,513.668,127.2672,529.3361,133.5344 M,7,46393,46460,529.3361,133.5344,392,175 M,0,46460,46493,392,175,407.7371,181.0918 M,0,46493,46526,407.7371,181.0918,423,187 M,0,46526,46560,423,187,407.7371,181.0918 M,0,46560,46593,407.7371,181.0918,392,175 M,0,46593,46626,392,175,407.7371,181.0918 M,0,46626,46660,407.7371,181.0918,423,187 M,0,46660,46693,423,187,407.7371,181.0918 M,0,46693,46726,407.7371,181.0918,392,175 M,0,46726,46760,392,175,407.7371,181.0918 M,0,46760,46793,407.7371,181.0918,423,187 M,0,46793,46826,423,187,407.7371,181.0918 M,0,46826,46860,407.7371,181.0918,392,175 M,0,46860,46893,392,175,407.7371,181.0918 M,0,46893,46926,407.7371,181.0918,423,187 M,7,46926,46993,423,187,376,146 M,7,46993,47059,376,146,370,146 M,7,47059,47126,370,146,365,147 M,7,47126,47192,365,147,360,147 M,7,47192,47259,360,147,355,148 M,7,47259,47326,355,148,350,149 M,7,47326,47392,350,149,345,149 M,7,47392,47459,345,149,340,150 M,7,47459,47526,340,150,335,150 M,7,47526,47592,335,150,330,151 M,7,47592,47659,330,151,325,152 M,7,47659,47726,325,152,320,152 M,7,47726,47792,320,152,315,153 M,7,47792,47859,315,153,310,154 M,7,47859,47926,310,154,305,154 M,7,47926,47992,305,154,300,155 M,7,47992,48060,300,155,295,155 M,0,48060,48093,295,155,300.493,170.9559 M,0,48093,48126,300.493,170.9559,305.9861,186.9119 M,0,48126,48160,305.9861,186.9119,300.493,170.9559 M,0,48160,48193,300.493,170.9559,295,155 M,0,48193,48226,295,155,300.493,170.9559 M,0,48226,48260,300.493,170.9559,305.9861,186.9119 M,7,48260,48326,305.9861,186.9119,227,205 M,0,48326,48359,227,205,232.493,220.9559 M,0,48359,48392,232.493,220.9559,237.9861,236.9119 M,0,48392,48426,237.9861,236.9119,232.493,220.9559 M,0,48426,48459,232.493,220.9559,227,205 M,0,48459,48492,227,205,232.493,220.9559 M,0,48492,48526,232.493,220.9559,237.9861,236.9119 M,0,48526,48559,237.9861,236.9119,232.493,220.9559 M,0,48559,48592,232.493,220.9559,227,205 M,0,48592,48626,227,205,232.493,220.9559 M,0,48626,48659,232.493,220.9559,237.9861,236.9119 M,0,48659,48692,237.9861,236.9119,232.493,220.9559 M,0,48692,48726,232.493,220.9559,227,205 M,0,48726,48759,227,205,232.493,220.9559 M,0,48759,48792,232.493,220.9559,237.9861,236.9119 M,7,48792,48860,237.9861,236.9119,203,130 M,0,48860,48893,203,130,208.6432,114.0965 M,0,48893,48926,208.6432,114.0965,214,99 M,0,48926,48960,214,99,208.6432,114.0965 M,0,48960,48993,208.6432,114.0965,203,130 M,0,48993,49026,203,130,208.6432,114.0965 M,0,49026,49060,208.6432,114.0965,214,99 M,7,49060,49126,214,99,174,130 M,7,49126,49192,174,130,179,146 M,7,49192,49259,179,146,180,162 M,7,49259,49325,180,162,177,179 M,7,49325,49392,177,179,171,194 M,7,49392,49459,171,194,161,208 M,7,49459,49525,161,208,148,219 M,7,49525,49592,148,219,133,226 M,7,49592,49660,133,226,117,230 M,0,49660,49693,117,230,100.7095,225.5972 M,0,49693,49726,100.7095,225.5972,84.41899,221.1943 M,0,49726,49760,84.41899,221.1943,100.7095,225.5972 M,0,49760,49793,100.7095,225.5972,117,230 M,0,49793,49826,117,230,100.7095,225.5972 M,0,49826,49860,100.7095,225.5972,84.41898,221.1943 M,7,49860,49926,84.41898,221.1943,212,282 M,0,49926,49959,212,282,228.2905,277.5972 M,0,49959,49992,228.2905,277.5972,244.581,273.1943 M,0,49992,50026,244.581,273.1943,228.2905,277.5972 M,0,50026,50059,228.2905,277.5972,212,282 M,0,50059,50092,212,282,228.2905,277.5972 M,0,50092,50126,228.2905,277.5972,244.581,273.1943 M,7,50126,50193,244.581,273.1943,110,320 M,7,50193,50259,110,320,96,350 M,7,50259,50326,96,350,101,382 M,7,50326,50392,101,382,125,406 M,7,50392,50460,125,406,158,411 M,7,50460,50526,158,411,180,398 M,7,50526,50593,180,398,204,393 M,7,50593,50659,204,393,229,395 M,7,50659,50726,229,395,253,404 M,7,50726,50792,253,404,252,395 M,7,50792,50859,252,395,251,387 M,7,50859,50925,251,387,251,378 M,7,50925,50992,251,378,250,370 M,7,50992,51059,250,370,249,361 M,7,51059,51125,249,361,249,353 M,7,51125,51192,249,353,248,345 M,7,51192,51260,248,345,248,336 S,19,52060,52160,2.8,14 F,0,52060,52560,0.7,0
Sprite,Foreground,Centre,"sb\glow.png",522,189 F,2,60,360,1,0 S,19,60,360,1.2,0.9
Sprite,Foreground,Centre,"sb\glow.png",496,152 F,2,126,426,1,0 S,19,126,426,1.2,0.9
Sprite,Foreground,Centre,"sb\glow.png",456,131 F,2,193,493,1,0 S,19,193,493,1.2,0.9
Sprite,Foreground,Centre,"sb\glow.png",412,130 F,2,260,560,1,0 S,19,260,560,1.2,0.9
Sprite,Foreground,Centre,"sb\glow.png",372,149 F,2,326,626,1,0 S,19,326,626,1.2,0.9
Sprite,Foreground,Centre,"sb\glow.png",390,161 F,2,392,692,1,0 S,19,392,692,1.2,0.9
Sprite,Foreground,Centre,"sb\glow.png",400,181 F,2,459,759,1,0 S,19,459,759,1.2,0.9
Sprite,Foreground,Centre,"sb\glow.png",397,203 F,2,526,826,1,0 S,19,526,826,1.2,0.9
Sprite,Foreground,Centre,"sb\glow.png",383,220 F,2,593,893,1,0 S,19,593,893,1.2,0.9
Sprite,Foreground,Centre,"sb\glow.png",376,210 F,2,659,959,1,0 S,19,659,959,1.2,0.9
Sprite,Foreground,Centre,"sb\glow.png",368,203 F,2,726,1026,1,0 S,19,726,1026,1.2,0.9
Sprite,Foreground,Centre,"sb\glow.png",358,197 F,2,793,1093,1,0 S,19,793,1093,1.2,0.9
Sprite,Foreground,Centre,"sb\glow.png",347,195 F,2,859,1159,1,0 S,19,859,1159,1.2,0.9
Sprite,Foreground,Centre,"sb\a2.png",0,0 M,7,25560,25660,263,361 F,2,25560,25660,0,0.7 S,0,25660,,2.8 C,0,25660,,0,0,0 M,7,25660,25726,263,361,253,355 M,7,25726,25793,253,355,244,348 M,7,25793,25860,244,348,236,340 M,7,25860,25926,236,340,229,330 M,7,25926,25993,229,330,222,318 M,7,25993,26060,222,318,217,302 M,7,26060,26126,217,302,216,284 M,7,26126,26193,216,284,217,261 M,7,26193,26260,217,261,210,234 M,7,26260,26326,210,234,187,212 M,7,26326,26393,187,212,150,209 M,7,26393,26460,150,209,120,237 M,7,26460,26526,120,237,169,232 M,7,26526,26593,169,232,218,228 M,7,26593,26660,218,228,267,224 S,19,26726,26826,2.8,14 F,0,26726,27226,0.7,0
Sprite,Foreground,Centre,"sb\a.png",0,0 F,2,92059,92259,0,0.65 M,7,92060,92259,368,260 M,7,92259,92326,368,260,336,266 S,0,92260,,3.5 C,0,92260,,0,0,0 M,0,92326,92359,336,266,315.1752,257.4808 M,0,92359,92392,315.1752,257.4808,294.3504,248.9615 M,0,92392,92425,294.3504,248.9615,315.1752,257.4808 M,0,92425,92459,315.1752,257.4808,336,266 M,0,92459,92492,336,266,315.1752,257.4808 M,0,92492,92526,315.1752,257.4808,294.3504,248.9615 M,7,92526,92593,294.3504,248.9615,222,272 M,0,92593,92626,222,272,201.1752,263.4808 M,0,92626,92659,201.1752,263.4808,180.3504,254.9615 M,0,92659,92692,180.3504,254.9615,201.1752,263.4808 M,0,92692,92726,201.1752,263.4808,222,272 M,0,92726,92759,222,272,201.1752,263.4808 M,0,92759,92793,201.1752,263.4808,180.3504,254.9615 M,7,92793,92860,180.3504,254.9615,110,199 M,7,92860,92926,110,199,96,168 M,7,92926,92993,96,168,100,135 M,7,92993,93060,100,135,122,110 M,7,93060,93126,122,110,154,101 M,7,93126,93193,154,101,186,111 M,7,93193,93260,186,111,208,136 M,7,93260,93326,208,136,238,150 M,7,93326,93393,238,150,271,148 M,0,93393,93426,271,148,278.2234,126.691 M,0,93426,93459,278.2234,126.691,285.4468,105.382 M,0,93459,93492,285.4468,105.382,278.2234,126.691 M,0,93492,93526,278.2234,126.691,271,148 M,0,93526,93559,271,148,278.2234,126.691 M,0,93559,93593,278.2234,126.691,285.4468,105.382 M,7,93593,93660,285.4468,105.382,355,139 M,0,93660,93693,355,139,362.2234,117.691 M,0,93693,93726,362.2234,117.691,369.4468,96.38203 M,0,93726,93759,369.4468,96.38203,362.2234,117.691 M,0,93759,93793,362.2234,117.691,355,139 M,0,93793,93826,355,139,362.2234,117.691 M,0,93826,93860,362.2234,117.691,369.4468,96.38203 M,7,93860,93926,369.4468,96.38203,479,165 M,0,93926,93959,479,165,456.7184,168.1272 M,0,93959,93992,456.7184,168.1272,434.4368,171.2545 M,0,93992,94025,434.4368,171.2545,456.7184,168.1272 M,0,94025,94059,456.7184,168.1272,479,165 M,0,94059,94092,479,165,456.7184,168.1272 M,0,94092,94126,456.7184,168.1272,434.4368,171.2545 M,7,94126,94193,434.4368,171.2545,366,225 M,7,94193,94259,366,225,363,269 M,7,94259,94326,363,269,360,314 M,7,94326,94393,360,314,357,359 M,7,94393,94460,357,359,354,404 M,7,94460,94526,354,404,346,382 M,7,94526,94593,346,382,339,361 M,7,94593,94660,339,361,332,340 M,7,94660,94726,332,340,325,318 M,0,94726,94759,325,318,341.5958,321.0571 M,0,94759,94792,341.5958,321.0571,358.1915,324.1142 M,0,94792,94825,358.1915,324.1142,341.5958,321.0571 M,0,94825,94859,341.5958,321.0571,325,318 M,0,94859,94892,325,318,341.5958,321.0571 M,0,94892,94926,341.5958,321.0571,358.1915,324.1142 S,19,94993,95193,3.5,17.5 F,0,94993,95493,0.65,0
Sprite,Foreground,Centre,"sb\black.jpg",0,0 F,0,1026,1126,0.5 M,0,1126,,320,175 V,0,1126,,0.6,0.8 F,0,9500,9659,0.5,0
Sprite,Foreground,Centre,"sb\white.jpg",0,0 F,0,69260,69393,0,1 M,0,69260,71526,320,240 F,0,69393,71526,1,0
Sprite,Foreground,Centre,"sb\Fog5.png",0,0 F,0,69393,,0.8156799 M,0,69393,76860,213.5041,364.0502,453.9977,370.4868 S,0,76860,,1.842606
Sprite,Foreground,Centre,"sb\Fog4.png",0,0 M,0,69393,76860,-24.064,386.2857,191.2686,383.36 V,0,75578,,2.5,1.3
Sprite,Foreground,Centre,"sb\Fog4.png",0,0 M,0,69393,76860,461.0194,376.3383,697.4171,373.9977 S,0,76860,,1.544183
Sprite,Foreground,Centre,"sb\Smoke5.png",0,0 F,0,133393,133593,0,1 V,0,133593,,3.5,1.2 M,0,133593,146193,264,50,368,50 F,0,146192,146392,1,0
Sprite,Foreground,Centre,"sb\Smoke6b.png",0,0 F,0,133393,133793,0,1 M,0,133393,146054,540,90,700,90 V,0,146054,,2,2.5 F,0,146192,146392,1,0
Sprite,Foreground,Centre,"sb\f\0057.png",252.3787,145.1287 F,0,1020,1220,0,1 S,0,1220,,0.5 F,0,5190,5390,1,0
Sprite,Foreground,Centre,"sb\f\0068.png",277.6287,145.3787 F,0,1020,1220,0,1 S,0,1220,,0.5 F,0,5190,5390,1,0
Sprite,Foreground,Centre,"sb\f\0069.png",292.6287,144.6287 F,0,1020,1220,0,1 S,0,1220,,0.5 F,0,5190,5390,1,0
Sprite,Foreground,Centre,"sb\f\0073.png",306.3787,148.6287 F,0,1020,1220,0,1 S,0,1220,,0.5 F,0,5190,5390,1,0
Sprite,Foreground,Centre,"sb\f\0070.png",323.1287,153.1287 F,0,1020,1220,0,1 S,0,1220,,0.5 F,0,5190,5390,1,0
Sprite,Foreground,Centre,"sb\f\0065.png",340.1287,148.6287 F,0,1020,1220,0,1 S,0,1220,,0.5 F,0,5190,5390,1,0
Sprite,Foreground,Centre,"sb\f\0072.png",357.3787,148.6287 F,0,1020,1220,0,1 S,0,1220,,0.5 F,0,5190,5390,1,0
Sprite,Foreground,Centre,"sb\f\0065.png",373.6287,148.6287 F,0,1020,1220,0,1 S,0,1220,,0.5 F,0,5190,5390,1,0
Sprite,Foreground,Centre,"sb\f\0064.png",392.3787,144.8787 F,0,1020,1220,0,1 S,0,1220,,0.5 F,0,5190,5390,1,0
Sprite,Foreground,Centre,"sb\f\0045.png",110.1287,191.8787 F,0,1020,1220,0,1 S,0,1220,,0.5 F,0,5190,5390,1,0
Sprite,Foreground,Centre,"sb\f\0078.png",129.1287,195.6287 F,0,1020,1220,0,1 S,0,1220,,0.5 F,0,5190,5390,1,0
Sprite,Foreground,Centre,"sb\f\0069.png",144.8787,191.6287 F,0,1020,1220,0,1 S,0,1220,,0.5 F,0,5190,5390,1,0
Sprite,Foreground,Centre,"sb\f\006c.png",155.3787,191.6287 F,0,1020,1220,0,1 S,0,1220,,0.5 F,0,5190,5390,1,0
Sprite,Foreground,Centre,"sb\f\0065.png",168.3787,195.6287 F,0,1020,1220,0,1 S,0,1220,,0.5 F,0,5190,5390,1,0
Sprite,Foreground,Centre,"sb\f\006f.png",199.1287,195.3787 F,0,1020,1220,0,1 S,0,1220,,0.5 F,0,5190,5390,1,0
Sprite,Foreground,Centre,"sb\f\0066.png",215.3787,193.6287 F,0,1020,1220,0,1 S,0,1220,,0.5 F,0,5190,5390,1,0
Sprite,Foreground,Centre,"sb\f\0054.png",244.1287,192.1287 F,0,1020,1220,0,1 S,0,1220,,0.5 F,0,5190,5390,1,0
Sprite,Foreground,Centre,"sb\f\0068.png",262.8787,192.3787 F,0,1020,1220,0,1 S,0,1220,,0.5 F,0,5190,5390,1,0
Sprite,Foreground,Centre,"sb\f\0065.png",280.3787,195.6287 F,0,1020,1220,0,1 S,0,1220,,0.5 F,0,5190,5390,1,0
Sprite,Foreground,Centre,"sb\f\0046.png",313.3787,194.3787 F,0,1020,1220,0,1 S,0,1220,,0.5 F,0,5190,5390,1,0
Sprite,Foreground,Centre,"sb\f\006c.png",325.8787,191.6287 F,0,1020,1220,0,1 S,0,1220,,0.5 F,0,5190,5390,1,0
Sprite,Foreground,Centre,"sb\f\006f.png",339.1287,195.3787 F,0,1020,1220,0,1 S,0,1220,,0.5 F,0,5190,5390,1,0
Sprite,Foreground,Centre,"sb\f\0061.png",357.8787,195.6287 F,0,1020,1220,0,1 S,0,1220,,0.5 F,0,5190,5390,1,0
Sprite,Foreground,Centre,"sb\f\0074.png",374.8787,192.3787 F,0,1020,1220,0,1 S,0,1220,,0.5 F,0,5190,5390,1,0
Sprite,Foreground,Centre,"sb\f\0069.png",387.8787,191.6287 F,0,1020,1220,0,1 S,0,1220,,0.5 F,0,5190,5390,1,0
Sprite,Foreground,Centre,"sb\f\006e.png",403.1287,196.3787 F,0,1020,1220,0,1 S,0,1220,,0.5 F,0,5190,5390,1,0
Sprite,Foreground,Centre,"sb\f\0067.png",421.8787,201.3787 F,0,1020,1220,0,1 S,0,1220,,0.5 F,0,5190,5390,1,0
Sprite,Foreground,Centre,"sb\f\0057.png",461.1287,192.1287 F,0,1020,1220,0,1 S,0,1220,,0.5 F,0,5190,5390,1,0
Sprite,Foreground,Centre,"sb\f\006f.png",485.1287,195.3787 F,0,1020,1220,0,1 S,0,1220,,0.5 F,0,5190,5390,1,0
Sprite,Foreground,Centre,"sb\f\0072.png",502.1287,195.6287 F,0,1020,1220,0,1 S,0,1220,,0.5 F,0,5190,5390,1,0
Sprite,Foreground,Centre,"sb\f\006c.png",515.3787,191.6287 F,0,1020,1220,0,1 S,0,1220,,0.5 F,0,5190,5390,1,0
Sprite,Foreground,Centre,"sb\f\0064.png",529.6287,191.8787 F,0,1020,1220,0,1 S,0,1220,,0.5 F,0,5190,5390,1,0
Sprite,Foreground,Centre,"sb\f\004d.png",276.1287,144.8787 F,0,5190,5390,0,1 S,0,5390,,0.5 F,0,9460,9660,1,0
Sprite,Foreground,Centre,"sb\f\0061.png",302.6287,148.6287 F,0,5190,5390,0,1 S,0,5390,,0.5 F,0,9460,9660,1,0
Sprite,Foreground,Centre,"sb\f\0070.png",321.6287,153.1287 F,0,5190,5390,0,1 S,0,5390,,0.5 F,0,9460,9660,1,0
Sprite,Foreground,Centre,"sb\f\0062.png",352.3787,143.8787 F,0,5190,5390,0,1 S,0,5390,,0.5 F,0,9460,9660,1,0
Sprite,Foreground,Centre,"sb\f\0079.png",370.1287,152.3787 F,0,5190,5390,0,1 S,0,5390,,0.5 F,0,9460,9660,1,0
Sprite,Foreground,Centre,"sb\f\0047.png",258.8787,192.3787 F,0,5190,5390,0,1 S,0,5390,,0.5 F,0,9460,9660,1,0
Sprite,Foreground,Centre,"sb\f\0061.png",282.1287,195.6287 F,0,5190,5390,0,1 S,0,5390,,0.5 F,0,9460,9660,1,0
Sprite,Foreground,Centre,"sb\f\0062.png",301.3787,190.8787 F,0,5190,5390,0,1 S,0,5390,,0.5 F,0,9460,9660,1,0
Sprite,Foreground,Centre,"sb\f\0064.png",319.8787,191.8787 F,0,5190,5390,0,1 S,0,5390,,0.5 F,0,9460,9660,1,0
Sprite,Foreground,Centre,"sb\f\0075.png",339.3787,195.3787 F,0,5190,5390,0,1 S,0,5390,,0.5 F,0,9460,9660,1,0
Sprite,Foreground,Centre,"sb\f\0030.png",361.3787,193.6287 F,0,5190,5390,0,1 S,0,5390,,0.5 F,0,9460,9660,1,0
Sprite,Foreground,Centre,"sb\f\0039.png",382.8787,195.8787 F,0,5190,5390,0,1 S,0,5390,,0.5 F,0,9460,9660,1,0
Sprite,Foreground,Centre,"sb\w.png",280,383 C,0,1126,,221,66,70 F,2,1126,1426,1,0 S,2,1126,1426,0.8,0.16 P,0,1126,1426,A
Sprite,Foreground,Centre,"sb\w.png",280,383 C,0,1393,,138,138,138 F,2,1393,1693,1,0 S,2,1393,1693,0.8,0.16 P,0,1393,1693,A
Sprite,Foreground,Centre,"sb\w.png",276,349 C,0,1459,,138,138,138 F,2,1459,1759,1,0 S,2,1459,1759,0.8,0.16 P,0,1459,1759,A
Sprite,Foreground,Centre,"sb\w.png",254,325 C,0,1526,,138,138,138 F,2,1526,1826,1,0 S,2,1526,1826,0.8,0.16 P,0,1526,1826,A
Sprite,Foreground,Centre,"sb\w.png",222,318 C,0,1593,,138,138,138 F,2,1593,1893,1,0 S,2,1593,1893,0.8,0.16 P,0,1593,1893,A
Sprite,Foreground,Centre,"sb\w.png",192,332 C,0,1660,,138,138,138 F,2,1660,1960,1,0 S,2,1660,1960,0.8,0.16 P,0,1660,1960,A
Sprite,Foreground,Centre,"sb\w.png",203,289 C,0,1726,,138,138,138 F,2,1726,2026,1,0 S,2,1726,2026,0.8,0.16 P,0,1726,2026,A
Sprite,Foreground,Centre,"sb\w.png",192,246 C,0,1793,,138,138,138 F,2,1793,2093,1,0 S,2,1793,2093,0.8,0.16 P,0,1793,2093,A
Sprite,Foreground,Centre,"sb\w.png",160,215 C,0,1860,,138,138,138 F,2,1860,2160,1,0 S,2,1860,2160,0.8,0.16 P,0,1860,2160,A
Sprite,Foreground,Centre,"sb\w.png",0,0 C,0,1926,,138,138,138 M,0,1926,1959,117,204,114.5536,226.3666 F,2,1926,2426,1,0 S,2,1926,2426,0.8,0.16 P,0,1926,2426,A M,0,1959,1992,114.5536,226.3666,112.1073,248.7332 M,0,1992,2026,112.1073,248.7332,114.5536,226.3666 M,0,2026,2059,114.5536,226.3666,117,204 M,0,2059,2092,117,204,114.5536,226.3666 M,0,2092,2126,114.5536,226.3666,112.1073,248.7332
Sprite,Foreground,Centre,"sb\w.png",208,321 C,0,2193,,245,134,101 F,2,2193,2493,1,0 S,2,2193,2493,0.8,0.16 P,0,2193,2493,A
Sprite,Foreground,Centre,"sb\w.png",219,278 C,0,2259,,245,134,101 F,2,2259,2559,1,0 S,2,2259,2559,0.8,0.16 P,0,2259,2559,A
Sprite,Foreground,Centre,"sb\w.png",208,235 C,0,2326,,245,134,101 F,2,2326,2626,1,0 S,2,2326,2626,0.8,0.16 P,0,2326,2626,A
Sprite,Foreground,Centre,"sb\w.png",176,204 C,0,2393,,245,134,101 F,2,2393,2693,1,0 S,2,2393,2693,0.8,0.16 P,0,2393,2693,A
Sprite,Foreground,Centre,"sb\w.png",0,0 C,0,2460,,245,134,101 M,0,2460,2493,133,193,130.5536,215.3666 F,2,2460,2960,1,0 S,2,2460,2960,0.8,0.16 P,0,2460,2960,A M,0,2493,2526,130.5536,215.3666,128.1073,237.7332 M,0,2526,2560,128.1073,237.7332,130.5536,215.3666 M,0,2560,2593,130.5536,215.3666,133,193 M,0,2593,2626,133,193,130.5536,215.3666 M,0,2626,2660,130.5536,215.3666,128.1073,237.7332
Sprite,Foreground,Centre,"sb\w.png",224,310 C,0,2727,,193,193,193 F,2,2727,3027,1,0 S,2,2727,3027,0.8,0.16 P,0,2727,3027,A
Sprite,Foreground,Centre,"sb\w.png",235,267 C,0,2793,,193,193,193 F,2,2793,3093,1,0 S,2,2793,3093,0.8,0.16 P,0,2793,3093,A
Sprite,Foreground,Centre,"sb\w.png",224,224 C,0,2860,,193,193,193 F,2,2860,3160,1,0 S,2,2860,3160,0.8,0.16 P,0,2860,3160,A
Sprite,Foreground,Centre,"sb\w.png",192,193 C,0,2927,,193,193,193 F,2,2927,3227,1,0 S,2,2927,3227,0.8,0.16 P,0,2927,3227,A
Sprite,Foreground,Centre,"sb\w.png",0,0 C,0,2993,,193,193,193 M,0,2993,3026,149,182,151.4464,159.6334 F,2,2993,3359,1,0 S,2,2993,3359,0.8,0.16 P,0,2993,3359,A M,0,3026,3059,151.4464,159.6334,153.8927,137.2668
Sprite,Foreground,Centre,"sb\w.png",0,0 C,0,3126,,193,193,193 M,0,3126,3159,160,102,162.4464,79.63338 F,2,3126,3492,1,0 S,2,3126,3492,0.8,0.16 P,0,3126,3492,A M,0,3159,3192,162.4464,79.63338,164.8927,57.26677
Sprite,Foreground,Centre,"sb\w.png",0,0 C,0,3260,,221,66,70 M,0,3260,3293,247,77,244.4595,99.35612 F,2,3260,3760,1,0 S,2,3260,3760,0.8,0.16 P,0,3260,3760,A M,0,3293,3326,244.4595,99.35612,242,121 M,0,3326,3360,242,121,244.4595,99.35612 M,0,3360,3393,244.4595,99.35612,247,77 M,0,3393,3426,247,77,244.4595,99.35612 M,0,3426,3460,244.4595,99.35612,242,121
Sprite,Foreground,Centre,"sb\w.png",0,0 C,0,3526,,221,66,70 M,0,3526,3559,154,137,151.4595,159.3561 F,2,3526,4026,1,0 S,2,3526,4026,0.8,0.16 P,0,3526,4026,A M,0,3559,3592,151.4595,159.3561,149,181 M,0,3592,3626,149,181,151.4595,159.3561 M,0,3626,3659,151.4595,159.3561,154,137 M,0,3659,3692,154,137,151.4595,159.3561 M,0,3692,3726,151.4595,159.3561,149,181
Sprite,Foreground,Centre,"sb\w.png",210,263 C,0,3793,,138,138,138 F,2,3793,4093,1,0 S,2,3793,4093,0.8,0.16 P,0,3793,4093,A
Sprite,Foreground,Centre,"sb\w.png",233,239 C,0,3859,,138,138,138 F,2,3859,4159,1,0 S,2,3859,4159,0.8,0.16 P,0,3859,4159,A
Sprite,Foreground,Centre,"sb\w.png",265,230 C,0,3926,,138,138,138 F,2,3926,4226,1,0 S,2,3926,4226,0.8,0.16 P,0,3926,4226,A
Sprite,Foreground,Centre,"sb\w.png",298,239 C,0,3993,,138,138,138 F,2,3993,4293,1,0 S,2,3993,4293,0.8,0.16 P,0,3993,4293,A
Sprite,Foreground,Centre,"sb\w.png",0,0 C,0,4060,,138,138,138 M,0,4060,4093,322,264,342.0538,253.7972 F,2,4060,4560,1,0 S,2,4060,4560,0.8,0.16 P,0,4060,4560,A M,0,4093,4126,342.0538,253.7972,362.1075,243.5944 M,0,4126,4160,362.1075,243.5944,342.0538,253.7972 M,0,4160,4193,342.0538,253.7972,322,264 M,0,4193,4226,322,264,342.0538,253.7972 M,0,4226,4260,342.0538,253.7972,362.1075,243.5944
Sprite,Foreground,Centre,"sb\w.png",0,0 C,0,4326,,245,134,101 M,0,4326,4359,399,100,407.6412,120.7147 F,2,4326,4826,1,0 S,2,4326,4826,0.8,0.16 P,0,4326,4826,A M,0,4359,4392,407.6412,120.7147,412.7803,142.5505 M,0,4392,4425,412.7803,142.5505,407.6412,120.7147 M,0,4425,4459,407.6412,120.7147,399,100 M,0,4459,4492,399,100,407.6412,120.7147 M,0,4492,4526,407.6412,120.7147,412.7803,142.5505
Sprite,Foreground,Centre,"sb\w.png",0,0 C,0,4593,,245,134,101 M,0,4593,4626,512,159,503.3588,179.7147 F,2,4593,5093,1,0 S,2,4593,5093,0.8,0.16 P,0,4593,5093,A M,0,4626,4659,503.3588,179.7147,498.2197,201.5505 M,0,4659,4692,498.2197,201.5505,503.3588,179.7147 M,0,4692,4726,503.3588,179.7147,512,159 M,0,4726,4759,512,159,503.3588,179.7147 M,0,4759,4793,503.3588,179.7147,498.2197,201.5505
Sprite,Foreground,Centre,"sb\w.png",0,0 C,0,4860,,245,134,101 M,0,4860,4893,362,243,379.6561,256.8713 F,2,4860,5360,1,0 S,2,4860,5360,0.8,0.16 P,0,4860,5360,A M,0,4893,4926,379.6561,256.8713,394.9884,273.2565 M,0,4926,4959,394.9884,273.2565,379.6561,256.8713 M,0,4959,4993,379.6561,256.8713,362,243 M,0,4993,5026,362,243,379.6561,256.8713 M,0,5026,5060,379.6561,256.8713,394.9884,273.2565
Sprite,Foreground,Centre,"sb\w.png",0,0 C,0,5126,,245,134,101 M,0,5126,5159,558,277,540.0565,290.4893 F,2,5126,5626,1,0 S,2,5126,5626,0.8,0.16 P,0,5126,5626,A M,0,5159,5192,540.0565,290.4893,524.4878,306.6441 M,0,5192,5225,524.4878,306.6441,540.0565,290.4893 M,0,5225,5259,540.0565,290.4893,558,277 M,0,5259,5292,558,277,540.0565,290.4893 M,0,5292,5326,540.0565,290.4893,524.4878,306.6441
Sprite,Foreground,Centre,"sb\w.png",525,425 C,0,5393,,193,193,193 F,2,5393,5693,1,0 S,2,5393,5693,0.8,0.16 P,0,5393,5693,A
Sprite,Foreground,Centre,"sb\w.png",514,421 C,0,5459,,193,193,193 F,2,5459,5759,1,0 S,2,5459,5759,0.8,0.16 P,0,5459,5759,A
Sprite,Foreground,Centre,"sb\w.png",503,418 C,0,5526,,193,193,193 F,2,5526,5826,1,0 S,2,5526,5826,0.8,0.16 P,0,5526,5826,A
Sprite,Foreground,Centre,"sb\w.png",492,415 C,0,5593,,193,193,193 F,2,5593,5893,1,0 S,2,5593,5893,0.8,0.16 P,0,5593,5893,A
Sprite,Foreground,Centre,"sb\w.png",481,412 C,0,5659,,193,193,193 F,2,5659,5959,1,0 S,2,5659,5959,0.8,0.16 P,0,5659,5959,A
Sprite,Foreground,Centre,"sb\w.png",470,409 C,0,5726,,193,193,193 F,2,5726,6026,1,0 S,2,5726,6026,0.8,0.16 P,0,5726,6026,A
Sprite,Foreground,Centre,"sb\w.png",459,406 C,0,5793,,193,193,193 F,2,5793,6093,1,0 S,2,5793,6093,0.8,0.16 P,0,5793,6093,A
Sprite,Foreground,Centre,"sb\w.png",449,403 C,0,5859,,193,193,193 F,2,5859,6159,1,0 S,2,5859,6159,0.8,0.16 P,0,5859,6159,A
Sprite,Foreground,Centre,"sb\w.png",438,400 C,0,5926,,221,66,70 F,2,5926,6226,1,0 S,2,5926,6226,0.8,0.16 P,0,5926,6226,A
Sprite,Foreground,Centre,"sb\w.png",438,384 C,0,5992,,221,66,70 F,2,5992,6292,1,0 S,2,5992,6292,0.8,0.16 P,0,5992,6292,A
Sprite,Foreground,Centre,"sb\w.png",431,370 C,0,6059,,221,66,70 F,2,6059,6359,1,0 S,2,6059,6359,0.8,0.16 P,0,6059,6359,A
Sprite,Foreground,Centre,"sb\w.png",419,361 C,0,6126,,221,66,70 F,2,6126,6426,1,0 S,2,6126,6426,0.8,0.16 P,0,6126,6426,A
Sprite,Foreground,Centre,"sb\w.png",403,359 C,0,6192,,221,66,70 F,2,6192,6492,1,0 S,2,6192,6492,0.8,0.16 P,0,6192,6492,A
Sprite,Foreground,Centre,"sb\w.png",389,364 C,0,6259,,221,66,70 F,2,6259,6559,1,0 S,2,6259,6559,0.8,0.16 P,0,6259,6559,A
Sprite,Foreground,Centre,"sb\w.png",378,376 C,0,6326,,221,66,70 F,2,6326,6626,1,0 S,2,6326,6626,0.8,0.16 P,0,6326,6626,A
Sprite,Foreground,Centre,"sb\w.png",375,391 C,0,6392,,221,66,70 F,2,6392,6692,1,0 S,2,6392,6692,0.8,0.16 P,0,6392,6692,A
Sprite,Foreground,Centre,"sb\w.png",379,406 C,0,6460,,138,138,138 F,2,6460,6760,1,0 S,2,6460,6760,0.8,0.16 P,0,6460,6760,A
Sprite,Foreground,Centre,"sb\w.png",391,375 C,0,6526,,138,138,138 F,2,6526,6826,1,0 S,2,6526,6826,0.8,0.16 P,0,6526,6826,A
Sprite,Foreground,Centre,"sb\w.png",386,342 C,0,6593,,138,138,138 F,2,6593,6893,1,0 S,2,6593,6893,0.8,0.16 P,0,6593,6893,A
Sprite,Foreground,Centre,"sb\w.png",365,317 C,0,6660,,138,138,138 F,2,6660,6960,1,0 S,2,6660,6960,0.8,0.16 P,0,6660,6960,A
Sprite,Foreground,Centre,"sb\w.png",333,306 C,0,6726,,138,138,138 F,2,6726,7026,1,0 S,2,6726,7026,0.8,0.16 P,0,6726,7026,A
Sprite,Foreground,Centre,"sb\w.png",301,314 C,0,6793,,138,138,138 F,2,6793,7093,1,0 S,2,6793,7093,0.8,0.16 P,0,6793,7093,A
Sprite,Foreground,Centre,"sb\w.png",278,338 C,0,6860,,138,138,138 F,2,6860,7160,1,0 S,2,6860,7160,0.8,0.16 P,0,6860,7160,A
Sprite,Foreground,Centre,"sb\w.png",270,370 C,0,6926,,138,138,138 F,2,6926,7226,1,0 S,2,6926,7226,0.8,0.16 P,0,6926,7226,A
Sprite,Foreground,Centre,"sb\w.png",0,0 C,0,6993,,245,134,101 M,0,6993,7026,281,402,303.3973,399.8523 F,2,6993,7493,1,0 S,2,6993,7493,0.8,0.16 P,0,6993,7493,A M,0,7026,7059,303.3973,399.8523,325.7945,397.7046 M,0,7059,7092,325.7945,397.7046,303.3973,399.8523 M,0,7092,7126,303.3973,399.8523,281,402 M,0,7126,7159,281,402,303.3973,399.8523 M,0,7159,7193,303.3973,399.8523,325.7945,397.7046
Sprite,Foreground,Centre,"sb\w.png",0,0 C,0,7260,,245,134,101 M,0,7260,7293,249,315,226.6027,317.1477 F,2,7260,7626,1,0 S,2,7260,7626,0.8,0.16 P,0,7260,7626,A M,0,7293,7326,226.6027,317.1477,204.2055,319.2954
Sprite,Foreground,Centre,"sb\w.png",0,0 C,0,7393,,245,134,101 M,0,7393,7426,161,324,138.6027,326.1477 F,2,7393,7759,1,0 S,2,7393,7759,0.8,0.16 P,0,7393,7759,A M,0,7426,7459,138.6027,326.1477,116.2055,328.2954
Sprite,Foreground,Centre,"sb\w.png",153,413 C,0,7526,,193,193,193 F,2,7526,7826,1,0 S,2,7526,7826,0.8,0.16 P,0,7526,7826,A
Sprite,Foreground,Centre,"sb\w.png",153,401 C,0,7592,,193,193,193 F,2,7592,7892,1,0 S,2,7592,7892,0.8,0.16 P,0,7592,7892,A
Sprite,Foreground,Centre,"sb\w.png",154,390 C,0,7659,,193,193,193 F,2,7659,7959,1,0 S,2,7659,7959,0.8,0.16 P,0,7659,7959,A
Sprite,Foreground,Centre,"sb\w.png",155,379 C,0,7726,,193,193,193 F,2,7726,8026,1,0 S,2,7726,8026,0.8,0.16 P,0,7726,8026,A
Sprite,Foreground,Centre,"sb\w.png",156,368 C,0,7792,,193,193,193 F,2,7792,8092,1,0 S,2,7792,8092,0.8,0.16 P,0,7792,8092,A
Sprite,Foreground,Centre,"sb\w.png",157,356 C,0,7859,,193,193,193 F,2,7859,8159,1,0 S,2,7859,8159,0.8,0.16 P,0,7859,8159,A
Sprite,Foreground,Centre,"sb\w.png",158,345 C,0,7926,,193,193,193 F,2,7926,8226,1,0 S,2,7926,8226,0.8,0.16 P,0,7926,8226,A
Sprite,Foreground,Centre,"sb\w.png",159,334 C,0,7992,,193,193,193 F,2,7992,8292,1,0 S,2,7992,8292,0.8,0.16 P,0,7992,8292,A
Sprite,Foreground,Centre,"sb\w.png",160,323 C,0,8060,,221,66,70 F,2,8060,8360,1,0 S,2,8060,8360,0.8,0.16 P,0,8060,8360,A
Sprite,Foreground,Centre,"sb\w.png",145,327 C,0,8126,,221,66,70 F,2,8126,8426,1,0 S,2,8126,8426,0.8,0.16 P,0,8126,8426,A
Sprite,Foreground,Centre,"sb\w.png",129,325 C,0,8193,,221,66,70 F,2,8193,8493,1,0 S,2,8193,8493,0.8,0.16 P,0,8193,8493,A
Sprite,Foreground,Centre,"sb\w.png",117,315 C,0,8260,,221,66,70 F,2,8260,8560,1,0 S,2,8260,8560,0.8,0.16 P,0,8260,8560,A
Sprite,Foreground,Centre,"sb\w.png",110,301 C,0,8326,,221,66,70 F,2,8326,8626,1,0 S,2,8326,8626,0.8,0.16 P,0,8326,8626,A
Sprite,Foreground,Centre,"sb\w.png",110,286 C,0,8393,,221,66,70 F,2,8393,8693,1,0 S,2,8393,8693,0.8,0.16 P,0,8393,8693,A
Sprite,Foreground,Centre,"sb\w.png",117,272 C,0,8459,,221,66,70 F,2,8459,8759,1,0 S,2,8459,8759,0.8,0.16 P,0,8459,8759,A
Sprite,Foreground,Centre,"sb\w.png",130,263 C,0,8526,,221,66,70 F,2,8526,8826,1,0 S,2,8526,8826,0.8,0.16 P,0,8526,8826,A
Sprite,Foreground,Centre,"sb\w.png",0,0 C,0,8593,,138,138,138 M,0,8593,8626,145,261,139.456,282.8063 F,2,8593,9093,1,0 S,2,8593,9093,0.8,0.16 P,0,8593,9093,A M,0,8626,8659,139.456,282.8063,133.912,304.6126 M,0,8659,8693,133.912,304.6126,139.456,282.8063 M,0,8693,8726,139.456,282.8063,145,261 M,0,8726,8759,145,261,139.456,282.8063 M,0,8759,8793,139.456,282.8063,133.912,304.6126
Sprite,Foreground,Centre,"sb\w.png",214,331 C,0,8860,,245,134,101 F,2,8860,9160,1,0 S,2,8860,9160,0.8,0.16 P,0,8860,9160,A
Sprite,Foreground,Centre,"sb\w.png",231,289 C,0,8926,,245,134,101 F,2,8926,9226,1,0 S,2,8926,9226,0.8,0.16 P,0,8926,9226,A
Sprite,Foreground,Centre,"sb\w.png",266,262 C,0,8993,,245,134,101 F,2,8993,9293,1,0 S,2,8993,9293,0.8,0.16 P,0,8993,9293,A
Sprite,Foreground,Centre,"sb\w.png",310,255 C,0,9059,,245,134,101 F,2,9059,9359,1,0 S,2,9059,9359,0.8,0.16 P,0,9059,9359,A
Sprite,Foreground,Centre,"sb\w.png",351,271 C,0,9126,,193,193,193 F,2,9126,9426,1,0 S,2,9126,9426,0.8,0.16 P,0,9126,9426,A
Sprite,Foreground,Centre,"sb\w.png",317,275 C,0,9192,,193,193,193 F,2,9192,9492,1,0 S,2,9192,9492,0.8,0.16 P,0,9192,9492,A
Sprite,Foreground,Centre,"sb\w.png",286,262 C,0,9259,,193,193,193 F,2,9259,9559,1,0 S,2,9259,9559,0.8,0.16 P,0,9259,9559,A
Sprite,Foreground,Centre,"sb\w.png",266,236 C,0,9325,,193,193,193 F,2,9325,9625,1,0 S,2,9325,9625,0.8,0.16 P,0,9325,9625,A
Sprite,Foreground,Centre,"sb\w.png",261,203 C,0,9393,,221,66,70 F,2,9393,9693,1,0 S,2,9393,9693,0.8,0.16 P,0,9393,9693,A
Sprite,Foreground,Centre,"sb\w.png",274,220 C,0,9459,,221,66,70 F,2,9459,9759,1,0 S,2,9459,9759,0.8,0.16 P,0,9459,9759,A
Sprite,Foreground,Centre,"sb\w.png",277,242 C,0,9526,,221,66,70 F,2,9526,9826,1,0 S,2,9526,9826,0.8,0.16 P,0,9526,9826,A
Sprite,Foreground,Centre,"sb\w.png",269,263 C,0,9592,,221,66,70 F,2,9592,9892,1,0 S,2,9592,9892,0.8,0.16 P,0,9592,9892,A
Sprite,Foreground,Centre,"sb\w.png",252,277 C,0,9660,,221,66,70 F,2,9660,9960,1,0 S,2,9660,9960,0.8,0.16 P,0,9660,9960,A
Sprite,Foreground,Centre,"sb\w.png",252,277 C,0,9926,,138,138,138 F,2,9926,10226,1,0 S,2,9926,10226,0.8,0.16 P,0,9926,10226,A
Sprite,Foreground,Centre,"sb\w.png",241,281 C,0,9992,,138,138,138 F,2,9992,10292,1,0 S,2,9992,10292,0.8,0.16 P,0,9992,10292,A
Sprite,Foreground,Centre,"sb\w.png",231,284 C,0,10059,,138,138,138 F,2,10059,10359,1,0 S,2,10059,10359,0.8,0.16 P,0,10059,10359,A
Sprite,Foreground,Centre,"sb\w.png",219,284 C,0,10125,,138,138,138 F,2,10125,10425,1,0 S,2,10125,10425,0.8,0.16 P,0,10125,10425,A
Sprite,Foreground,Centre,"sb\w.png",0,0 C,0,10193,,138,138,138 M,0,10193,10226,208,281,211.3377,258.7489 F,2,10193,10693,1,0 S,2,10193,10693,0.8,0.16 P,0,10193,10693,A M,0,10226,10259,211.3377,258.7489,214.6753,236.4979 M,0,10259,10293,214.6753,236.4979,211.3377,258.7489 M,0,10293,10326,211.3377,258.7489,208,281 M,0,10326,10359,208,281,211.3377,258.7489 M,0,10359,10393,211.3377,258.7489,214.6753,236.4979
Sprite,Foreground,Centre,"sb\w.png",183,159 C,0,10460,,245,134,101 F,2,10460,10760,1,0 S,2,10460,10760,0.8,0.16 P,0,10460,10760,A
Sprite,Foreground,Centre,"sb\w.png",192,152 C,0,10526,,245,134,101 F,2,10526,10826,1,0 S,2,10526,10826,0.8,0.16 P,0,10526,10826,A
Sprite,Foreground,Centre,"sb\w.png",202,147 C,0,10593,,245,134,101 F,2,10593,10893,1,0 S,2,10593,10893,0.8,0.16 P,0,10593,10893,A
Sprite,Foreground,Centre,"sb\w.png",213,144 C,0,10659,,245,134,101 F,2,10659,10959,1,0 S,2,10659,10959,0.8,0.16 P,0,10659,10959,A
Sprite,Foreground,Centre,"sb\w.png",0,0 C,0,10726,,245,134,101 M,0,10726,10759,224,142,241.6791,155.9176 F,2,10726,11226,1,0 S,2,10726,11226,0.8,0.16 P,0,10726,11226,A M,0,10759,10792,241.6791,155.9176,259.3582,169.8352 M,0,10792,10826,259.3582,169.8352,241.6791,155.9176 M,0,10826,10859,241.6791,155.9176,224,142 M,0,10859,10892,224,142,241.6791,155.9176 M,0,10892,10926,241.6791,155.9176,259.3582,169.8352
Sprite,Foreground,Centre,"sb\w.png",302,240 C,0,10993,,193,193,193 F,2,10993,11293,1,0 S,2,10993,11293,0.8,0.16 P,0,10993,11293,A
Sprite,Foreground,Centre,"sb\w.png",313,241 C,0,11059,,193,193,193 F,2,11059,11359,1,0 S,2,11059,11359,0.8,0.16 P,0,11059,11359,A
Sprite,Foreground,Centre,"sb\w.png",324,240 C,0,11126,,193,193,193 F,2,11126,11426,1,0 S,2,11126,11426,0.8,0.16 P,0,11126,11426,A
Sprite,Foreground,Centre,"sb\w.png",335,237 C,0,11192,,193,193,193 F,2,11192,11492,1,0 S,2,11192,11492,0.8,0.16 P,0,11192,11492,A
Sprite,Foreground,Centre,"sb\w.png",0,0 C,0,11260,,193,193,193 M,0,11260,11293,346,234,354.1017,213.0092 F,2,11260,11760,1,0 S,2,11260,11760,0.8,0.16 P,0,11260,11760,A M,0,11293,11326,354.1017,213.0092,362.2034,192.0185 M,0,11326,11360,362.2034,192.0185,354.1017,213.0092 M,0,11360,11393,354.1017,213.0092,346,234 M,0,11393,11426,346,234,354.1017,213.0092 M,0,11426,11460,354.1017,213.0092,362.2034,192.0185
Sprite,Foreground,Centre,"sb\w.png",0,0 C,0,11526,,193,193,193 M,0,11526,11559,400,114,417.5695,128.0556 F,2,11526,11892,1,0 S,2,11526,11892,0.8,0.16 P,0,11526,11892,A M,0,11559,11592,417.5695,128.0556,435,142
Sprite,Foreground,Centre,"sb\w.png",0,0 C,0,11660,,193,193,193 M,0,11660,11693,464,165,481.5695,179.0556 F,2,11660,12026,1,0 S,2,11660,12026,0.8,0.16 P,0,11660,12026,A M,0,11693,11726,481.5695,179.0556,499,193
Sprite,Foreground,Centre,"sb\w.png",0,0 C,0,11793,,221,66,70 M,0,11793,11826,433,246,424.3822,266.7842 F,2,11793,12293,1,0 S,2,11793,12293,0.8,0.16 P,0,11793,12293,A M,0,11826,11859,424.3822,266.7842,416,287 M,0,11859,11893,416,287,424.3822,266.7842 M,0,11893,11926,424.3822,266.7842,433,246 M,0,11926,11959,433,246,424.3822,266.7842 M,0,11959,11993,424.3822,266.7842,416,287
Sprite,Foreground,Centre,"sb\w.png",436,370 C,0,12060,,138,138,138 F,2,12060,12360,1,0 S,2,12060,12360,0.8,0.16 P,0,12060,12360,A
Sprite,Foreground,Centre,"sb\w.png",447,369 C,0,12126,,138,138,138 F,2,12126,12426,1,0 S,2,12126,12426,0.8,0.16 P,0,12126,12426,A
Sprite,Foreground,Centre,"sb\w.png",458,366 C,0,12193,,138,138,138 F,2,12193,12493,1,0 S,2,12193,12493,0.8,0.16 P,0,12193,12493,A
Sprite,Foreground,Centre,"sb\w.png",468,361 C,0,12259,,138,138,138 F,2,12259,12559,1,0 S,2,12259,12559,0.8,0.16 P,0,12259,12559,A
Sprite,Foreground,Centre,"sb\w.png",0,0 C,0,12326,,138,138,138 M,0,12326,12359,477,355,485.0099,333.974 F,2,12326,12826,1,0 S,2,12326,12826,0.8,0.16 P,0,12326,12826,A M,0,12359,12392,485.0099,333.974,493,313 M,0,12392,12426,493,313,485.0099,333.974 M,0,12426,12459,485.0099,333.974,477,355 M,0,12459,12492,477,355,485.0099,333.974 M,0,12492,12526,485.0099,333.974,493,313
Sprite,Foreground,Centre,"sb\w.png",433,246 C,0,12593,,245,134,101 F,2,12593,12893,1,0 S,2,12593,12893,0.8,0.16 P,0,12593,12893,A
Sprite,Foreground,Centre,"sb\w.png",422,251 C,0,12659,,245,134,101 F,2,12659,12959,1,0 S,2,12659,12959,0.8,0.16 P,0,12659,12959,A
Sprite,Foreground,Centre,"sb\w.png",412,254 C,0,12726,,245,134,101 F,2,12726,13026,1,0 S,2,12726,13026,0.8,0.16 P,0,12726,13026,A
Sprite,Foreground,Centre,"sb\w.png",401,256 C,0,12792,,245,134,101 F,2,12792,13092,1,0 S,2,12792,13092,0.8,0.16 P,0,12792,13092,A
Sprite,Foreground,Centre,"sb\w.png",0,0 C,0,12860,,193,193,193 M,0,12860,12893,389,255,372.2459,241.0967 F,2,12860,13360,1,0 S,2,12860,13360,0.8,0.16 P,0,12860,13360,A M,0,12893,12926,372.2459,241.0967,366.061,220.2875 M,0,12926,12960,366.061,220.2875,372.2459,241.0967 M,0,12960,12993,372.2459,241.0967,389,255 M,0,12993,13026,389,255,372.2459,241.0967 M,0,13026,13060,372.2459,241.0967,366.061,220.2875
Sprite,Foreground,Centre,"sb\w.png",0,0 C,0,13126,,193,193,193 M,0,13126,13159,255,145,257.8936,123.4307 F,2,13126,13626,1,0 S,2,13126,13626,0.8,0.16 P,0,13126,13626,A M,0,13159,13192,257.8936,123.4307,272.2504,107.0565 M,0,13192,13226,272.2504,107.0565,257.8936,123.4307 M,0,13226,13259,257.8936,123.4307,255,145 M,0,13259,13292,255,145,257.8936,123.4307 M,0,13292,13326,257.8936,123.4307,272.2504,107.0565
Sprite,Foreground,Centre,"sb\w.png",0,0 C,0,13393,,193,193,193 M,0,13393,13426,280,277,272.1412,256.6822 F,2,13393,13893,1,0 S,2,13393,13893,0.8,0.16 P,0,13393,13893,A M,0,13426,13459,272.1412,256.6822,276.7483,235.4408 M,0,13459,13493,276.7483,235.4408,272.1412,256.6822 M,0,13493,13526,272.1412,256.6822,280,277 M,0,13526,13559,280,277,272.1412,256.6822 M,0,13559,13593,272.1412,256.6822,276.7483,235.4408
Sprite,Foreground,Centre,"sb\w.png",0,0 C,0,13660,,193,193,193 M,0,13660,13693,361,132,374.9531,115.261 F,2,13660,14160,1,0 S,2,13660,14160,0.8,0.16 P,0,13660,14160,A M,0,13693,13726,374.9531,115.261,395.735,109.0117 M,0,13726,13760,395.735,109.0117,374.9531,115.261 M,0,13760,13793,374.9531,115.261,361,132 M,0,13793,13826,361,132,374.9531,115.261 M,0,13826,13860,374.9531,115.261,395.735,109.0117
Sprite,Foreground,Centre,"sb\w.png",400,276 C,0,13926,,221,66,70 F,2,13926,14226,1,0 S,2,13926,14226,0.8,0.16 P,0,13926,14226,A
Sprite,Foreground,Centre,"sb\w.png",398,287 C,0,13992,,221,66,70 F,2,13992,14292,1,0 S,2,13992,14292,0.8,0.16 P,0,13992,14292,A
Sprite,Foreground,Centre,"sb\w.png",397,298 C,0,14059,,221,66,70 F,2,14059,14359,1,0 S,2,14059,14359,0.8,0.16 P,0,14059,14359,A
Sprite,Foreground,Centre,"sb\w.png",396,309 C,0,14125,,221,66,70 F,2,14125,14425,1,0 S,2,14125,14425,0.8,0.16 P,0,14125,14425,A
Sprite,Foreground,Centre,"sb\w.png",395,320 C,0,14192,,221,66,70 F,2,14192,14492,1,0 S,2,14192,14492,0.8,0.16 P,0,14192,14492,A
Sprite,Foreground,Centre,"sb\w.png",394,331 C,0,14259,,221,66,70 F,2,14259,14559,1,0 S,2,14259,14559,0.8,0.16 P,0,14259,14559,A
Sprite,Foreground,Centre,"sb\w.png",393,343 C,0,14325,,221,66,70 F,2,14325,14625,1,0 S,2,14325,14625,0.8,0.16 P,0,14325,14625,A
Sprite,Foreground,Centre,"sb\w.png",392,354 C,0,14392,,221,66,70 F,2,14392,14692,1,0 S,2,14392,14692,0.8,0.16 P,0,14392,14692,A
Sprite,Foreground,Centre,"sb\w.png",391,365 C,0,14460,,138,138,138 F,2,14460,14760,1,0 S,2,14460,14760,0.8,0.16 P,0,14460,14760,A
Sprite,Foreground,Centre,"sb\w.png",385,350 C,0,14526,,138,138,138 F,2,14526,14826,1,0 S,2,14526,14826,0.8,0.16 P,0,14526,14826,A
Sprite,Foreground,Centre,"sb\w.png",374,339 C,0,14593,,138,138,138 F,2,14593,14893,1,0 S,2,14593,14893,0.8,0.16 P,0,14593,14893,A
Sprite,Foreground,Centre,"sb\w.png",360,333 C,0,14659,,138,138,138 F,2,14659,14959,1,0 S,2,14659,14959,0.8,0.16 P,0,14659,14959,A
Sprite,Foreground,Centre,"sb\w.png",344,333 C,0,14726,,138,138,138 F,2,14726,15026,1,0 S,2,14726,15026,0.8,0.16 P,0,14726,15026,A
Sprite,Foreground,Centre,"sb\w.png",330,340 C,0,14793,,138,138,138 F,2,14793,15093,1,0 S,2,14793,15093,0.8,0.16 P,0,14793,15093,A
Sprite,Foreground,Centre,"sb\w.png",320,352 C,0,14859,,138,138,138 F,2,14859,15159,1,0 S,2,14859,15159,0.8,0.16 P,0,14859,15159,A
Sprite,Foreground,Centre,"sb\w.png",315,366 C,0,14926,,138,138,138 F,2,14926,15226,1,0 S,2,14926,15226,0.8,0.16 P,0,14926,15226,A
Sprite,Foreground,Centre,"sb\w.png",317,382 C,0,14993,,245,134,101 F,2,14993,15293,1,0 S,2,14993,15293,0.8,0.16 P,0,14993,15293,A
Sprite,Foreground,Centre,"sb\w.png",298,368 C,0,15059,,245,134,101 F,2,15059,15359,1,0 S,2,15059,15359,0.8,0.16 P,0,15059,15359,A
Sprite,Foreground,Centre,"sb\w.png",278,360 C,0,15126,,245,134,101 F,2,15126,15426,1,0 S,2,15126,15426,0.8,0.16 P,0,15126,15426,A
Sprite,Foreground,Centre,"sb\w.png",255,357 C,0,15192,,245,134,101 F,2,15192,15492,1,0 S,2,15192,15492,0.8,0.16 P,0,15192,15492,A
Sprite,Foreground,Centre,"sb\w.png",233,360 C,0,15259,,245,134,101 F,2,15259,15559,1,0 S,2,15259,15559,0.8,0.16 P,0,15259,15559,A
Sprite,Foreground,Centre,"sb\w.png",211,366 C,0,15326,,245,134,101 F,2,15326,15626,1,0 S,2,15326,15626,0.8,0.16 P,0,15326,15626,A
Sprite,Foreground,Centre,"sb\w.png",188,367 C,0,15392,,245,134,101 F,2,15392,15692,1,0 S,2,15392,15692,0.8,0.16 P,0,15392,15692,A
Sprite,Foreground,Centre,"sb\w.png",166,361 C,0,15459,,245,134,101 F,2,15459,15759,1,0 S,2,15459,15759,0.8,0.16 P,0,15459,15759,A
Sprite,Foreground,Centre,"sb\w.png",0,0 C,0,15526,,193,193,193 M,0,15526,15559,150,344,145.9751,366.1371 F,2,15526,16026,1,0 S,2,15526,16026,0.8,0.16 P,0,15526,16026,A M,0,15559,15592,145.9751,366.1371,141.9502,388.2741 M,0,15592,15626,141.9502,388.2741,145.9751,366.1371 M,0,15626,15659,145.9751,366.1371,150,344 M,0,15659,15692,150,344,145.9751,366.1371 M,0,15692,15726,145.9751,366.1371,141.9502,388.2741
Sprite,Foreground,Centre,"sb\w.png",0,0 C,0,15793,,193,193,193 M,0,15793,15826,64,324,67.93825,301.8474 F,2,15793,16159,1,0 S,2,15793,16159,0.8,0.16 P,0,15793,16159,A M,0,15826,15859,67.93825,301.8474,71.8765,279.6947
Sprite,Foreground,Centre,"sb\w.png",0,0 C,0,15926,,193,193,193 M,0,15926,15959,80,245,83.93825,222.8474 F,2,15926,16292,1,0 S,2,15926,16292,0.8,0.16 P,0,15926,16292,A M,0,15959,15992,83.93825,222.8474,87.8765,200.6947
Sprite,Foreground,Centre,"sb\w.png",169,229 C,0,16060,,221,66,70 F,2,16060,16360,1,0 S,2,16060,16360,0.8,0.16 P,0,16060,16360,A
Sprite,Foreground,Centre,"sb\w.png",157,231 C,0,16126,,221,66,70 F,2,16126,16426,1,0 S,2,16126,16426,0.8,0.16 P,0,16126,16426,A
Sprite,Foreground,Centre,"sb\w.png",146,233 C,0,16193,,221,66,70 F,2,16193,16493,1,0 S,2,16193,16493,0.8,0.16 P,0,16193,16493,A
Sprite,Foreground,Centre,"sb\w.png",135,235 C,0,16259,,221,66,70 F,2,16259,16559,1,0 S,2,16259,16559,0.8,0.16 P,0,16259,16559,A
Sprite,Foreground,Centre,"sb\w.png",124,237 C,0,16326,,221,66,70 F,2,16326,16626,1,0 S,2,16326,16626,0.8,0.16 P,0,16326,16626,A
Sprite,Foreground,Centre,"sb\w.png",113,239 C,0,16393,,221,66,70 F,2,16393,16693,1,0 S,2,16393,16693,0.8,0.16 P,0,16393,16693,A
Sprite,Foreground,Centre,"sb\w.png",102,241 C,0,16460,,221,66,70 F,2,16460,16760,1,0 S,2,16460,16760,0.8,0.16 P,0,16460,16760,A
Sprite,Foreground,Centre,"sb\w.png",91,243 C,0,16526,,221,66,70 F,2,16526,16826,1,0 S,2,16526,16826,0.8,0.16 P,0,16526,16826,A
Sprite,Foreground,Centre,"sb\w.png",80,245 C,0,16593,,138,138,138 F,2,16593,16893,1,0 S,2,16593,16893,0.8,0.16 P,0,16593,16893,A
Sprite,Foreground,Centre,"sb\w.png",85,230 C,0,16659,,138,138,138 F,2,16659,16959,1,0 S,2,16659,16959,0.8,0.16 P,0,16659,16959,A
Sprite,Foreground,Centre,"sb\w.png",93,216 C,0,16726,,138,138,138 F,2,16726,17026,1,0 S,2,16726,17026,0.8,0.16 P,0,16726,17026,A
Sprite,Foreground,Centre,"sb\w.png",104,205 C,0,16793,,138,138,138 F,2,16793,17093,1,0 S,2,16793,17093,0.8,0.16 P,0,16793,17093,A
Sprite,Foreground,Centre,"sb\w.png",116,196 C,0,16859,,138,138,138 F,2,16859,17159,1,0 S,2,16859,17159,0.8,0.16 P,0,16859,17159,A
Sprite,Foreground,Centre,"sb\w.png",131,189 C,0,16926,,138,138,138 F,2,16926,17226,1,0 S,2,16926,17226,0.8,0.16 P,0,16926,17226,A
Sprite,Foreground,Centre,"sb\w.png",146,186 C,0,16993,,138,138,138 F,2,16993,17293,1,0 S,2,16993,17293,0.8,0.16 P,0,16993,17293,A
Sprite,Foreground,Centre,"sb\w.png",162,187 C,0,17059,,138,138,138 F,2,17059,17359,1,0 S,2,17059,17359,0.8,0.16 P,0,17059,17359,A
Sprite,Foreground,Centre,"sb\w.png",0,0 C,0,17126,,245,134,101 M,0,17126,17159,177,190,172.4911,212.0436 F,2,17126,17626,1,0 S,2,17126,17626,0.8,0.16 P,0,17126,17626,A M,0,17159,17192,172.4911,212.0436,168,234 M,0,17192,17225,168,234,172.4911,212.0436 M,0,17225,17259,172.4911,212.0436,177,190 M,0,17259,17292,177,190,172.4911,212.0436 M,0,17292,17326,172.4911,212.0436,168,234
Sprite,Foreground,Centre,"sb\w.png",223,298 C,0,17393,,193,193,193 F,2,17393,17693,1,0 S,2,17393,17693,0.8,0.16 P,0,17393,17693,A
Sprite,Foreground,Centre,"sb\w.png",267,291 C,0,17459,,193,193,193 F,2,17459,17759,1,0 S,2,17459,17759,0.8,0.16 P,0,17459,17759,A
Sprite,Foreground,Centre,"sb\w.png",312,285 C,0,17526,,193,193,193 F,2,17526,17826,1,0 S,2,17526,17826,0.8,0.16 P,0,17526,17826,A
Sprite,Foreground,Centre,"sb\w.png",356,279 C,0,17593,,193,193,193 F,2,17593,17893,1,0 S,2,17593,17893,0.8,0.16 P,0,17593,17893,A
Sprite,Foreground,Centre,"sb\w.png",401,273 C,0,17660,,221,66,70 F,2,17660,17960,1,0 S,2,17660,17960,0.8,0.16 P,0,17660,17960,A
Sprite,Foreground,Centre,"sb\w.png",404,250 C,0,17726,,221,66,70 F,2,17726,18026,1,0 S,2,17726,18026,0.8,0.16 P,0,17726,18026,A
Sprite,Foreground,Centre,"sb\w.png",407,228 C,0,17793,,221,66,70 F,2,17793,18093,1,0 S,2,17793,18093,0.8,0.16 P,0,17793,18093,A
Sprite,Foreground,Centre,"sb\w.png",410,206 C,0,17860,,221,66,70 F,2,17860,18160,1,0 S,2,17860,18160,0.8,0.16 P,0,17860,18160,A
Sprite,Foreground,Centre,"sb\w.png",0,0 C,0,17926,,138,138,138 M,0,17926,17959,413,183,416.04,205.2937 F,2,17926,18426,1,0 S,2,17926,18426,0.8,0.16 P,0,17926,18426,A M,0,17959,17992,416.04,205.2937,419,227 M,0,17992,18025,419,227,416.04,205.2937 M,0,18025,18059,416.04,205.2937,413,183 M,0,18059,18092,413,183,416.04,205.2937 M,0,18092,18126,416.04,205.2937,419,227
//Storyboard Layer 4 (Overlay)
//Storyboard Sound Samples

[TimingPoints]
60,266.666666666667,4,3,2,100,1,0
593,-100,4,3,3,100,0,0
1060,-100,4,3,2,5,0,0
1126,-100,4,3,4,100,0,0
1326,-100,4,3,2,5,0,0
1393,-100,4,3,2,100,0,0
1460,-100,4,3,3,100,0,0
1660,-100,4,3,2,100,0,0
1726,-100,4,3,3,100,0,0
1926,-100,4,3,2,100,0,0
1993,-100,4,3,3,100,0,0
2193,-100,4,3,2,100,0,0
2260,-100,4,3,3,100,0,0
2460,-100,4,3,2,100,0,0
2526,-100,4,3,3,100,0,0
2726,-100,4,3,2,100,0,0
2793,-100,4,3,3,100,0,0
2993,-100,4,3,2,100,0,0
3060,-100,4,3,3,100,0,0
3260,-100,4,3,2,100,0,0
3326,-100,4,3,3,100,0,0
3526,-100,4,3,2,100,0,0
3593,-100,4,3,3,100,0,0
3793,-100,4,3,2,100,0,0
3860,-100,4,3,3,100,0,0
4060,-100,4,3,2,100,0,0
4126,-100,4,3,3,100,0,0
4326,-100,4,3,2,100,0,0
4393,-100,4,3,3,100,0,0
4593,-100,4,3,2,100,0,0
4660,-100,4,3,3,100,0,0
4860,-100,4,3,2,100,0,0
4926,-100,4,3,3,100,0,0
5126,-100,4,3,4,100,0,0
5193,-100,4,3,3,100,0,0
5393,-100,4,3,2,100,0,0
5460,-100,4,3,3,100,0,0
5660,-100,4,3,2,100,0,0
5726,-100,4,3,3,100,0,0
5926,-100,4,3,7,100,0,0
5993,-100,4,3,3,100,0,0
6193,-100,4,3,2,100,0,0
6260,-100,4,3,3,100,0,0
6460,-100,4,3,4,100,0,0
6526,-100,4,3,3,100,0,0
6726,-100,4,3,2,100,0,0
6793,-100,4,3,3,100,0,0
6993,-100,4,3,2,100,0,0
7060,-100,4,3,3,100,0,0
7260,-100,4,3,2,100,0,0
7326,-100,4,3,3,100,0,0
7526,-100,4,3,7,100,0,0
7593,-100,4,3,3,100,0,0
7793,-100,4,3,2,100,0,0
7860,-100,4,3,3,100,0,0
7926,-100,4,3,2,100,0,0
7993,-100,4,3,3,100,0,0
8060,-100,4,3,4,100,0,0
8126,-100,4,3,3,100,0,0
8326,-100,4,3,7,100,0,0
8393,-100,4,3,3,100,0,0
8593,-100,4,3,6,100,0,0
8660,-100,4,3,3,100,0,0
8860,-100,4,3,2,100,0,0
9393,-100,4,3,3,100,0,0
9660,-100,4,3,2,100,0,0
9993,-100,4,3,3,100,0,0
10193,-100,4,3,2,100,0,0
10260,-100,4,3,3,100,0,0
10460,-100,4,3,2,100,0,0
10526,-100,4,3,3,100,0,0
10726,-100,4,3,2,100,0,0
10793,-100,4,3,3,100,0,0
10993,-100,4,3,2,100,0,0
11060,-100,4,3,3,100,0,0
11260,-100,4,3,2,100,0,0
11326,-100,4,3,3,100,0,0
11526,-100,4,3,2,100,0,0
11593,-100,4,3,3,100,0,0
11793,-100,4,3,7,100,0,0
11860,-100,4,3,3,100,0,0
12060,-100,4,3,2,100,0,0
12126,-100,4,3,3,100,0,0
12326,-100,4,3,4,100,0,0
12393,-100,4,3,3,100,0,0
12593,-100,4,3,2,100,0,0
12660,-100,4,3,3,100,0,0
12860,-100,4,3,7,100,0,0
12926,-100,4,3,3,100,0,0
13126,-100,4,3,4,100,0,0
13193,-100,4,3,3,100,0,0
13393,-100,4,3,7,100,0,0
13460,-100,4,3,3,100,0,0
13660,-100,4,3,2,100,0,0
13726,-100,4,3,3,100,0,0
13926,-100,4,3,4,100,0,0
13993,-100,4,3,3,100,0,0
14193,-100,4,3,2,100,0,0
14260,-100,4,3,3,100,0,0
14460,-100,4,3,7,100,0,0
14526,-100,4,3,3,100,0,0
14726,-100,4,3,2,100,0,0
14793,-100,4,3,3,100,0,0
14993,-100,4,3,4,100,0,0
15060,-100,4,3,3,100,0,0
15260,-100,4,3,2,100,0,0
15326,-100,4,3,3,100,0,0
15526,-100,4,3,2,100,0,0
15593,-100,4,3,3,100,0,0
15793,-100,4,3,2,100,0,0
15860,-100,4,3,3,100,0,0
16060,-100,4,3,7,100,0,0
16126,-100,4,3,3,100,0,0
16326,-100,4,3,2,100,0,0
16393,-100,4,3,3,100,0,0
16593,-100,4,3,4,100,0,0
16660,-100,4,3,3,100,0,0
16860,-100,4,3,7,100,0,0
16926,-100,4,3,3,100,0,0
16993,-100,4,3,4,100,0,0
17060,-100,4,3,3,100,0,0
17126,-100,4,3,6,100,0,0
17193,-100,4,3,3,100,0,0
17393,-100,4,3,2,100,0,0
17926,-100,4,3,3,100,0,0
18193,-100,4,3,2,100,0,0
22193,-100,4,3,4,100,0,0
22460,-100,4,3,5,100,0,0
22593,-100,4,3,2,100,0,0
25926,-100,4,3,3,100,0,0
25993,-100,4,3,2,100,0,0
26326,-100,4,3,3,100,0,0
26393,-100,4,3,2,100,0,0
26593,-100,4,3,3,100,0,0
26726,-100,4,3,2,100,0,0
26860,-100,4,3,3,100,0,0
26993,-100,4,3,4,100,0,0
27126,-100,4,3,2,100,0,0
30726,-100,4,3,3,100,0,0
30860,-100,4,3,2,100,0,0
31260,-100,4,3,4,100,0,0
31393,-100,4,3,2,100,0,0
34060,-100,4,3,7,100,0,0
34193,-100,4,3,3,100,0,0
34393,-100,4,3,2,5,0,0
34460,-100,4,3,2,100,0,0
35126,-100,4,3,3,100,0,0
35260,-200,4,3,4,100,0,0
35393,-200,4,3,2,100,0,0
36260,-200,4,3,2,5,0,0
36326,-200,4,3,2,100,0,0
36793,-200,4,3,2,5,0,0
36860,-200,4,3,2,100,0,0
37060,-200,4,3,2,5,0,0
37126,-200,4,3,2,100,0,0
37326,-200,4,3,2,5,0,0
37393,-200,4,3,2,100,0,0
37593,-200,4,3,2,5,0,0
37660,-200,4,3,2,100,0,0
37860,-200,4,3,2,5,0,0
37926,-200,4,3,2,100,0,0
38393,-200,4,3,2,5,0,0
38460,-200,4,3,2,100,0,0
39460,-200,4,3,2,5,0,0
39526,-200,4,3,3,100,0,0
39660,-200,4,3,2,100,0,0
39993,-200,4,3,2,5,0,0
40060,-200,4,3,2,100,0,0
40260,-200,4,3,2,5,0,0
40326,-200,4,3,2,100,0,0
40526,-200,4,3,2,5,0,0
40593,-200,4,3,2,100,0,0
41060,-200,4,3,2,5,0,0
41126,-200,4,3,2,100,0,0
41326,-200,4,3,2,5,0,0
41393,-200,4,3,2,100,0,0
41593,-200,4,3,2,5,0,0
41660,-200,4,3,2,100,0,0
42126,-200,4,3,2,5,0,0
42193,-200,4,3,2,100,0,0
42726,-200,4,3,4,100,0,0
42860,-200,4,3,2,100,0,0
43193,-200,4,3,2,5,0,0
43260,-200,4,3,2,100,0,0
43793,-133.333333333333,4,3,3,100,0,0
43860,-133.333333333333,4,3,2,100,0,0
44860,-133.333333333333,4,3,4,100,0,0
44926,-133.333333333333,4,3,2,100,0,0
45926,-133.333333333333,4,3,4,100,0,0
45993,-133.333333333333,4,3,2,100,0,0
46993,-133.333333333333,4,3,4,100,0,0
47060,-133.333333333333,4,3,2,100,0,0
48060,-133.333333333333,4,3,5,100,0,0
48126,-133.333333333333,4,3,2,100,0,0
49126,-133.333333333333,4,3,4,100,0,0
49193,-133.333333333333,4,3,2,100,0,0
49926,-133.333333333333,4,3,3,100,0,0
50193,-133.333333333333,4,3,2,100,0,0
50726,-133.333333333333,4,3,3,100,0,0
51260,-133.333333333333,4,3,2,100,0,0
52260,-133.333333333333,4,3,2,5,0,0
52326,-100,4,3,2,100,0,0
52593,-100,4,3,4,100,0,0
52726,-100,4,3,2,100,0,0
56860,-100,4,3,4,100,0,0
56993,-100,4,3,2,100,0,0
57460,-100,4,3,2,5,0,0
57526,-100,4,3,2,100,0,0
57593,-100,4,3,2,5,0,0
57660,-100,4,3,2,100,0,0
58660,-100,4,3,2,5,0,0
58726,-100,4,3,2,100,0,0
59660,-100,4,3,7,100,0,0
59793,-100,4,3,2,100,0,0
60326,-100,4,3,3,100,0,0
60593,-100,4,3,2,100,0,0
60860,-100,4,3,5,100,0,0
60993,-100,4,3,2,100,0,0
64593,-100,4,3,7,100,0,0
65126,-100,4,3,2,100,0,0
65260,-100,4,3,9,100,0,0
65660,-100,4,3,8,100,0,0
65793,-100,4,3,9,100,0,0
66193,-100,4,3,8,100,0,0
66326,-100,4,3,9,100,0,0
66726,-100,4,3,8,100,0,0
66860,-100,4,3,9,100,0,0
67260,-100,4,3,8,100,0,0
67393,-100,4,3,9,100,0,0
67793,-100,4,3,8,100,0,0
67926,-100,4,3,9,100,0,0
68326,-100,4,3,2,100,0,0
68993,-100,4,3,3,100,0,0
69126,-100,4,3,2,100,0,0
69393,-100,4,3,7,100,0,0
69526,-100,4,3,2,50,0,0
72504,-100,4,3,2,5,0,0
72593,-100,4,3,2,50,0,0
76771,-100,4,3,2,5,0,0
76860,-100,4,3,2,100,0,0
77926,-133.333333333333,4,3,3,100,0,0
77993,-133.333333333333,4,3,2,100,0,0
78993,-133.333333333333,4,3,4,100,0,0
79060,-133.333333333333,4,3,2,100,0,0
80060,-133.333333333333,4,3,4,100,0,0
80126,-133.333333333333,4,3,2,100,0,0
81126,-133.333333333333,4,3,4,100,0,0
81193,-133.333333333333,4,3,2,100,0,0
82193,-133.333333333333,4,3,3,100,0,0
82260,-133.333333333333,4,3,2,100,0,0
83260,-133.333333333333,4,3,4,100,0,0
83326,-133.333333333333,4,3,2,100,0,0
84593,-133.333333333333,4,3,3,100,0,0
85393,-133.333333333333,4,3,2,100,0,0
86393,-133.333333333333,4,3,2,5,0,0
86460,-133.333333333333,4,3,4,100,0,0
86593,-133.333333333333,4,3,2,100,0,0
87993,-133.333333333333,4,3,2,5,0,0
88060,-133.333333333333,4,3,2,100,0,0
88526,-133.333333333333,4,3,2,5,0,0
88593,-133.333333333333,4,3,2,100,0,0
88860,-133.333333333333,4,3,3,100,0,0
89126,-133.333333333333,4,3,2,100,0,0
90193,-133.333333333333,4,3,3,100,0,0
90460,-133.333333333333,4,3,2,100,0,0
90726,-100,4,3,2,100,0,0
90926,-100,4,3,2,5,0,0
90993,-100,4,3,4,100,0,0
91060,-100,4,3,3,100,0,0
91260,-100,4,3,2,100,0,0
91326,-100,4,3,3,100,0,0
91526,-100,4,3,2,100,0,0
91593,-100,4,3,3,100,0,0
91793,-100,4,3,2,100,0,0
91860,-100,4,3,3,100,0,0
92060,-100,4,3,2,100,0,0
92126,-100,4,3,3,100,0,0
92326,-100,4,3,2,100,0,0
92393,-100,4,3,3,100,0,0
92593,-100,4,3,2,100,0,0
92660,-100,4,3,3,100,0,0
92860,-100,4,3,2,100,0,0
92926,-100,4,3,3,100,0,0
93126,-100,4,3,2,100,0,0
93193,-100,4,3,3,100,0,0
93393,-100,4,3,2,100,0,0
93460,-100,4,3,3,100,0,0
93660,-100,4,3,4,100,0,0
93926,-100,4,3,2,100,0,0
94726,-133.333333333333,4,3,2,100,0,0
94793,-133.333333333333,4,3,3,100,0,0
94993,-100,4,3,4,100,0,0
95193,-100,4,3,2,5,0,0
95260,-100,4,3,2,100,0,0
95326,-100,4,3,3,100,0,0
95526,-100,4,3,2,100,0,0
95593,-100,4,3,3,100,0,0
95793,-100,4,3,2,100,0,0
95860,-100,4,3,3,100,0,0
96060,-100,4,3,2,100,0,0
96126,-100,4,3,3,100,0,0
96326,-100,4,3,2,100,0,0
96393,-100,4,3,3,100,0,0
96593,-100,4,3,2,100,0,0
96660,-100,4,3,3,100,0,0
96860,-100,4,3,2,100,0,0
96926,-100,4,3,3,100,0,0
97126,-100,4,3,2,100,0,0
97193,-100,4,3,3,100,0,0
97393,-100,4,3,2,100,0,0
97460,-100,4,3,3,100,0,0
97660,-100,4,3,2,100,0,0
97726,-100,4,3,3,100,0,0
97926,-100,4,3,2,100,0,0
97993,-100,4,3,3,100,0,0
98193,-100,4,3,2,100,0,0
98260,-100,4,3,3,100,0,0
98460,-100,4,3,2,100,0,0
98526,-100,4,3,3,100,0,0
98726,-100,4,3,4,100,0,0
98793,-100,4,3,3,100,0,0
98993,-100,4,3,4,100,0,0
99060,-100,4,3,3,100,0,0
99260,-100,4,3,2,100,0,0
99326,-100,4,3,3,100,0,0
99526,-100,4,3,6,100,0,0
99593,-100,4,3,3,100,0,0
99793,-100,4,3,2,100,0,0
99860,-100,4,3,3,100,0,0
100060,-100,4,3,2,100,0,0
100126,-100,4,3,3,100,0,0
100326,-100,4,3,2,100,0,0
100393,-100,4,3,3,100,0,0
100593,-100,4,3,2,100,0,0
100660,-100,4,3,3,100,0,0
100860,-100,4,3,2,100,0,0
100926,-100,4,3,3,100,0,0
101126,-100,4,3,2,100,0,0
101193,-100,4,3,3,100,0,0
101393,-100,4,3,2,100,0,0
102193,-133.333333333333,4,3,3,100,0,0
102460,-100,4,3,3,100,0,0
102593,-100,4,3,2,100,0,0
103526,-111.111111111111,4,3,2,100,0,0
103793,-111.111111111111,4,3,4,100,0,0
103926,-111.111111111111,4,3,2,100,0,0
107660,-111.111111111111,4,3,4,100,0,0
107793,-111.111111111111,4,3,7,100,0,0
107926,-111.111111111111,4,3,2,100,0,0
112060,-100,4,3,2,100,0,0
116060,-117.647058823529,4,3,3,100,0,0
116326,-100,4,3,7,100,0,0
116393,-100,4,3,2,100,0,0
118460,-100,4,3,7,100,0,0
118593,-100,4,3,2,100,0,0
118726,-100,4,3,3,100,0,0
118993,-100,4,3,6,100,0,0
119126,-100,4,3,2,100,0,0
119260,-100,4,3,3,100,0,0
119526,-100,4,3,6,100,0,0
119660,-100,4,3,2,100,0,0
120326,-100,4,3,3,100,0,0
120593,266.666666666667,3,3,2,100,1,1
120593,-111.111111111111,3,3,2,100,0,0
120859,-111.111111111111,3,3,4,100,0,0
120993,-111.111111111111,3,3,2,100,0,0
122393,-111.111111111111,3,3,2,5,0,0
122459,-111.111111111111,3,3,2,100,0,0
122593,-111.111111111111,3,3,6,100,0,0
122793,-111.111111111111,3,3,2,5,0,0
122859,-111.111111111111,3,3,2,100,0,0
122993,-111.111111111111,3,3,4,100,0,0
123126,-111.111111111111,3,3,2,100,0,0
123259,-111.111111111111,3,3,3,100,0,0
123393,-111.111111111111,3,3,2,100,0,0
123793,-111.111111111111,3,3,4,100,0,0
124059,-111.111111111111,3,3,2,100,0,0
125593,-111.111111111111,3,3,2,5,0,0
125659,-111.111111111111,3,3,2,100,0,0
125793,-111.111111111111,3,3,6,100,0,0
125993,-111.111111111111,3,3,2,5,0,0
126059,-111.111111111111,3,3,2,100,0,0
126193,-111.111111111111,3,3,4,100,0,0
126259,-111.111111111111,3,3,3,100,0,0
126459,-111.111111111111,3,3,2,100,0,0
126526,-111.111111111111,3,3,3,100,0,0
126726,-111.111111111111,3,3,2,100,0,0
126793,-111.111111111111,3,3,3,100,0,0
126993,-111.111111111111,3,3,4,100,0,0
127126,-111.111111111111,3,3,2,100,0,0
128793,-111.111111111111,3,3,2,5,0,0
128859,-111.111111111111,3,3,2,100,0,0
128993,-111.111111111111,3,3,6,100,0,0
129193,-111.111111111111,3,3,2,5,0,0
129259,-111.111111111111,3,3,2,100,0,0
129393,-111.111111111111,3,3,4,100,0,0
129526,-111.111111111111,3,3,2,100,0,0
129659,-111.111111111111,3,3,3,100,0,0
129793,-111.111111111111,3,3,2,100,0,0
130193,-111.111111111111,3,3,4,100,0,0
130459,-111.111111111111,3,3,2,100,0,0
132193,-111.111111111111,3,3,6,100,0,0
132393,-111.111111111111,3,3,2,100,0,0
132459,-111.111111111111,3,3,3,100,0,0
132593,-100,3,3,2,100,0,0
132659,-100,3,3,3,100,0,0
132859,-100,3,3,2,100,0,0
132926,-100,3,3,3,100,0,0
133126,-100,3,3,2,100,0,0
133193,-100,3,3,3,100,0,0
133393,-100,3,3,4,100,0,0
133526,-100,3,3,2,100,0,0
134393,-100,3,3,2,5,0,0
134459,-100,3,3,2,100,0,0
134926,-100,3,3,2,5,0,0
134993,-100,3,3,7,100,0,0
135193,-100,3,3,2,5,0,0
135259,-100,3,3,2,100,0,0
135593,-100,3,3,2,5,0,0
135659,-100,3,3,2,100,0,0
136593,-100,3,3,3,100,0,0
136726,-100,3,3,2,100,0,0
137593,-100,3,3,2,5,0,0
137659,-100,3,3,2,100,0,0
138126,-100,3,3,2,5,0,0
138193,-100,3,3,7,100,0,0
138393,-100,3,3,2,5,0,0
138459,-100,3,3,2,100,0,0
138793,-100,3,3,2,5,0,0
138859,-100,3,3,2,100,0,0
139526,-100,3,3,3,100,0,0
139659,-100,3,3,2,100,0,0
139793,-100,3,3,4,100,0,0
139926,-100,3,3,2,100,0,0
140059,-100,3,3,5,100,0,0
140193,-100,3,3,2,100,0,0
140793,-100,3,3,2,5,0,0
140859,-100,3,3,2,100,0,0
141326,-100,3,3,2,5,0,0
141393,-100,3,3,7,100,0,0
141593,-100,3,3,2,5,0,0
141659,-100,3,3,2,100,0,0
141993,-100,3,3,2,5,0,0
142059,-100,3,3,2,100,0,0
142193,-100,3,3,3,100,0,0
142459,-100,3,3,2,100,0,0
142593,-100,3,3,3,100,0,0
142726,-100,3,3,2,100,0,0
142993,-100,3,3,6,100,0,0
143126,-100,3,3,2,100,0,0
143793,-100,3,3,5,100,0,0
143993,-100,3,3,2,5,0,0
144059,-100,3,3,2,100,0,0
144459,-153.846153846153,3,3,2,100,0,0
144593,-100,3,3,3,100,0,0
144859,-100,3,3,2,100,0,0
144993,-100,3,3,3,100,0,0
145259,-100,3,3,2,100,0,0
145393,-100,3,3,5,100,0,0
145526,-100,3,3,2,100,0,0
145659,-100,3,3,3,100,0,0
145926,-100,3,3,2,100,0,0
146459,-100,3,3,3,100,0,0
146993,-100,3,3,2,100,0,0
148326,-100,3,3,3,100,0,0
148593,-100,3,3,2,100,0,0
148793,-100,3,3,2,5,0,0
148859,-100,3,3,2,100,0,0
149059,-100,3,3,2,5,0,0
149126,-100,3,3,2,100,0,0
149326,-100,3,3,2,5,0,0
149393,-100,3,3,2,100,0,0
149593,-100,3,3,2,5,0,0
149659,-100,3,3,2,100,0,0
150393,-100,3,3,2,5,0,0
150459,-100,3,3,2,100,0,0
150659,-100,3,3,2,5,0,0
150726,-100,3,3,2,100,0,0
150859,-100,3,3,3,100,0,0
150993,-100,3,3,2,100,0,0
152326,-100,3,3,3,100,0,0
152593,-153.846153846153,3,3,4,100,0,0
152793,-153.846153846153,3,3,2,5,0,0
152859,-153.846153846153,3,3,2,100,0,0
155526,-133.333333333333,3,3,2,100,0,0
155793,-133.333333333333,3,3,3,100,0,0
155993,-133.333333333333,3,3,2,5,0,0
156059,-133.333333333333,3,3,2,100,0,0
156526,-133.333333333333,3,3,2,5,0,0
156593,-133.333333333333,3,3,2,100,0,0
156793,-133.333333333333,3,3,2,5,0,0
156859,-133.333333333333,3,3,2,100,0,0
157059,-133.333333333333,3,3,2,5,0,0
157126,-133.333333333333,3,3,2,100,0,0
157393,-133.333333333333,3,3,4,100,0,0
157459,-133.333333333333,3,3,3,100,0,0
157593,-133.333333333333,3,3,2,100,0,0
157926,-133.333333333333,3,3,3,100,0,0
157993,-133.333333333333,3,3,2,100,0,0
158186,258.620689655172,3,3,2,100,1,0
158444,-100,3,3,3,100,0,0
158573,-100,3,3,2,100,0,0
158986,266.666666666667,3,3,3,100,1,1
159186,-100,3,3,2,5,0,1
159252,-100,3,3,2,100,0,1
159986,-100,3,3,2,5,0,1
160052,-100,3,3,2,100,0,1
160586,-100,3,3,3,100,0,1
160719,-100,3,3,2,100,0,1
161386,-83.3333333333333,3,3,2,100,0,1
161652,-83.3333333333333,3,3,6,100,0,1
162186,-100,3,3,4,100,0,1
162319,-100,3,3,2,100,0,1
163786,-100,3,3,4,100,0,1
163919,-100,3,3,2,100,0,1
165119,-100,3,3,3,100,0,1
165386,-100,3,3,2,100,0,1
166452,-100,3,3,5,100,0,1
166986,-100,3,3,3,100,0,1
167186,-100,3,3,2,5,0,1
167252,-100,3,3,2,100,0,1
167452,-100,3,3,2,5,0,1
167519,-100,3,3,2,100,0,1
167786,-100,3,3,4,100,0,1
168586,-100,3,3,3,100,0,1
168674,-100,3,3,2,100,0,1
170186,-117.647058823529,3,3,2,100,0,1
170452,-100,3,3,2,100,0,1
172586,-83.3333333333333,3,3,4,100,0,1
173386,-83.3333333333333,3,3,3,100,0,1
174186,-83.3333333333333,3,3,7,100,0,1
174986,-100,3,3,2,100,0,1
176586,-117.647058823529,3,3,2,100,0,1
176852,-100,3,3,2,100,0,1
177386,-100,3,3,4,100,0,1
177474,-100,3,3,2,100,0,1
178452,-100,3,3,3,100,0,1
178652,-100,3,3,3,5,0,1
178719,-100,3,3,3,100,0,1
178986,-100,3,3,6,100,0,1
179119,-100,3,3,2,100,0,1
179719,-100,3,3,2,5,0,1
179786,-100,3,3,3,100,0,1
179919,-100,3,3,2,100,0,1
180586,-83.3333333333333,3,3,7,100,0,1
181386,-125,3,3,2,100,0,1
182186,-100,3,3,2,100,0,1
184052,-100,3,3,3,100,0,1
184319,-133.333333333333,3,3,2,100,0,1
184586,266.666666666667,4,3,3,100,1,0
184674,-100,4,3,2,100,0,0
193119,-200,4,3,4,100,0,0
193186,-200,4,3,2,100,0,0
193586,-200,4,3,2,5,0,0
193652,-200,4,3,2,100,0,0
197386,-200,4,3,3,100,0,0
197452,-200,4,3,2,100,0,0
197852,-200,4,3,2,5,0,0
197919,-200,4,3,2,100,0,0
200586,-200,4,3,4,100,0,0
200652,-200,4,3,2,100,0,0
201052,-200,4,3,2,5,0,0
201119,-133.333333333333,4,3,2,100,0,0
201652,-133.333333333333,4,3,3,100,0,0
201719,-133.333333333333,4,3,2,100,0,0
202119,-133.333333333333,4,3,2,5,0,0
202186,-133.333333333333,4,3,4,100,0,0
203852,-133.333333333333,4,3,2,100,0,0
204252,-133.333333333333,4,3,2,5,0,0
204319,-133.333333333333,4,3,3,100,0,0
205986,-133.333333333333,4,3,2,100,0,0
206452,-133.333333333333,4,3,6,100,0,0
206519,-133.333333333333,4,3,2,100,0,0
206986,-133.333333333333,4,3,4,100,0,0
207052,-133.333333333333,4,3,2,100,0,0
207519,-133.333333333333,4,3,6,100,0,0
207586,-133.333333333333,4,3,2,100,0,0
209652,-133.333333333333,4,3,3,100,0,0
209919,-133.333333333333,4,3,2,100,0,0
210186,-100,4,3,2,100,0,0
211786,-100,4,3,3,100,0,0
212319,-100,4,3,2,100,0,0
212852,-133.333333333333,4,3,2,100,0,0
213119,-200,4,3,2,100,0,0
213386,-100,4,3,2,100,0,0
213519,-100,4,3,3,100,0,0
213652,-100,4,3,2,100,0,0
213786,-133.333333333333,4,3,2,100,0,0
214186,-133.333333333333,4,3,5,100,0,0
214386,-133.333333333333,4,3,2,5,0,0
214452,-100,4,3,2,100,0,0
214652,-100,4,3,2,5,0,0
214719,-100,4,3,2,100,0,0
214786,-100,4,3,3,100,0,0
214986,-100,4,3,2,100,0,0
215052,-100,4,3,3,100,0,0
215252,-100,4,3,2,100,0,0
215319,-100,4,3,3,100,0,0
215519,-100,4,3,2,100,0,0
215586,-100,4,3,3,100,0,0
215786,-100,4,3,2,100,0,0
215852,-100,4,3,3,100,0,0
216052,-100,4,3,2,100,0,0
216119,-100,4,3,3,100,0,0
216319,-100,4,3,2,100,0,0
216386,-100,4,3,3,100,0,0
216586,-100,4,3,2,100,0,0
216652,-100,4,3,3,100,0,0
216852,-100,4,3,2,100,0,0
216919,-100,4,3,3,100,0,0
217119,-100,4,3,2,100,0,0
217186,-100,4,3,3,100,0,0
217386,-100,4,3,2,100,0,0
217452,-100,4,3,3,100,0,0
217519,-100,4,3,4,100,0,0
217652,-100,4,3,7,100,0,0
217719,-100,4,3,2,100,0,0
218186,-133.333333333333,4,3,2,100,0,0
218452,-100,4,3,2,100,0,0
218919,-100,4,3,2,5,0,0
218986,-100,4,3,7,100,0,0
219052,-100,4,3,3,100,0,0
219252,-100,4,3,7,100,0,0
219319,-100,4,3,3,100,0,0
219652,-100,4,3,7,100,0,0
219719,-100,4,3,3,100,0,0
219919,-100,4,3,7,100,0,0
219986,-100,4,3,3,100,0,0
220319,-100,4,3,6,100,0,0
220386,-100,4,3,3,100,0,0
220719,-100,4,3,4,100,0,0
220786,-100,4,3,3,100,0,0
221119,-100,4,3,6,100,0,0
221186,-100,4,3,3,100,0,0
221386,-100,4,3,4,100,0,0
221452,-100,4,3,3,100,0,0
221652,-100,4,3,6,100,0,0
221719,-100,4,3,3,100,0,0
221919,-100,4,3,2,100,0,0
222186,-100,4,3,3,100,0,0
222452,-133.333333333333,4,3,2,100,0,0
222986,-100,4,3,2,100,0,0
223186,-100,4,3,2,100,0,0
223252,-100,4,3,2,100,0,0
223319,-100,4,3,3,100,0,0
223519,-100,4,3,2,100,0,0
223586,-100,4,3,3,100,0,0
223786,-100,4,3,2,100,0,0
223852,-100,4,3,3,100,0,0
224052,-100,4,3,2,100,0,0
224119,-100,4,3,3,100,0,0
224319,-100,4,3,2,100,0,0
224386,-100,4,3,3,100,0,0
224586,-100,4,3,2,100,0,0
224652,-100,4,3,3,100,0,0
224852,-100,4,3,2,100,0,0
224919,-100,4,3,3,100,0,0
225119,-100,4,3,6,100,0,0
225252,-100,4,3,2,100,0,0
225652,-100,4,3,3,100,0,0
225786,-100,4,3,2,100,0,0
227119,-100,4,3,3,100,0,0
227252,-111.111111111111,4,3,2,100,0,0
231386,-111.111111111111,4,3,4,100,0,0
231519,-111.111111111111,4,3,3,100,0,0
231652,-111.111111111111,4,3,2,100,0,0
234852,-111.111111111111,4,3,3,100,0,0
234986,-111.111111111111,4,3,2,100,0,0
235119,-111.111111111111,4,3,3,100,0,0
235252,-111.111111111111,4,3,2,100,0,0
235386,-111.111111111111,4,3,3,100,0,0
235519,-111.111111111111,4,3,2,100,0,0
235652,-111.111111111111,4,3,3,100,0,0
235786,-100,4,3,2,100,0,0
236052,-100,4,3,4,100,0,0
236119,-100,4,3,8,100,0,0
238986,-100,4,3,2,100,0,0
239786,-117.647058823529,4,3,3,100,0,0
240052,-100,4,3,3,100,0,0
240119,-100,4,3,2,100,0,0
242719,-100,4,3,5,100,0,0
243252,-100,4,3,2,100,0,0
244052,-100,4,3,3,100,0,0
244386,-100,4,3,2,100,0,0
244786,-100,4,3,2,5,0,0
244852,-100,4,3,3,100,0,0
245452,-100,4,3,2,100,0,0
245852,-100,4,3,2,5,0,0
245919,-100,4,3,3,100,0,0
246630,-100,4,3,3,5,0,0
246719,-100,4,3,3,100,0,0
246986,-100,4,3,2,100,0,0
247163,-100,4,3,3,5,0,0
247252,-100,4,3,2,100,0,0
247519,-100,4,3,3,100,0,0
247719,-100,4,3,2,5,0,0
247786,-100,4,3,2,100,0,0
248052,-66.6666666666667,4,3,2,100,0,0
248319,-66.6666666666667,4,3,2,5,0,0

[Colours]
Combo1 : 193,193,193
Combo2 : 221,66,70
Combo3 : 138,138,138
Combo4 : 245,134,101
Combo5 : 60,173,205
Combo6 : 152,7,7
Combo7 : 228,234,116

[HitObjects]
458,133,60,101,8,0:2:0:0:
432,96,126,1,8,2:2:0:0:
392,75,193,1,8,2:2:0:0:
348,74,260,1,8,2:2:0:0:
308,93,326,21,12,0:3:0:0:
326,105,392,1,8,2:3:0:0:
336,125,459,1,8,2:3:0:0:
333,147,526,1,8,2:3:0:0:
319,164,593,69,12,0:3:0:0:
312,154,659,1,8,2:3:0:0:
304,147,726,1,8,2:3:0:0:
294,141,793,1,8,2:3:0:0:
283,139,859,1,4,0:2:0:0:
216,327,1126,5,4,0:2:0:0:
216,327,1393,5,2,0:2:0:0:
212,293,1459,1,8,1:2:0:0:
190,269,1526,1,2,0:2:0:0:
158,262,1593,1,8,1:2:0:0:
128,276,1660,1,2,0:2:0:0:
139,233,1726,1,8,1:2:0:0:
128,190,1793,1,2,0:2:0:0:
96,159,1860,1,8,1:2:0:0:
53,148,1926,2,0,L|46:212,3,45,2|8|2|8,0:2|1:2|0:2|1:2,0:0:0:0:
144,265,2193,5,2,0:2:0:0:
155,222,2259,1,8,1:2:0:0:
144,179,2326,1,2,0:2:0:0:
112,148,2393,1,8,1:2:0:0:
69,137,2460,2,0,L|62:201,3,45,2|8|2|8,0:2|1:2|0:2|1:2,0:0:0:0:
160,254,2727,53,2,0:2:0:0:
171,211,2793,1,8,1:2:0:0:
160,168,2860,1,2,0:2:0:0:
128,137,2927,1,8,1:2:0:0:
85,126,2993,2,0,L|92:62,1,45,2|8,0:2|1:2,0:0:0:0:
96,46,3126,2,0,L|103:-18,1,45,2|8,0:2|1:2,0:0:0:0:
183,21,3260,6,0,L|178:65,3,45,2|8|2|8,0:2|1:2|0:2|1:2,0:0:0:0:
90,81,3526,2,0,L|85:125,3,45,2|8|2|8,0:2|1:2|0:2|1:2,0:0:0:0:
146,207,3793,5,2,0:2:0:0:
169,183,3859,1,8,1:2:0:0:
201,174,3926,1,2,0:2:0:0:
234,183,3993,1,8,1:2:0:0:
258,208,4060,2,0,L|315:179,3,45,2|8|2|8,0:2|1:2|0:2|1:2,0:0:0:0:
335,44,4326,6,0,P|349:87|350:109,3,45,2|8|2|8,0:2|1:2|0:2|1:2,0:0:0:0:
448,103,4593,2,0,P|434:146|433:168,3,45,2|8|2|8,0:2|1:2|0:2|1:2,0:0:0:0:
298,187,4860,2,0,P|331:217|343:235,3,45,2|8|2|8,0:2|1:2|0:2|1:2,0:0:0:0:
494,221,5126,2,0,P|460:251|448:269,3,45,4|8|0|8,0:2|1:2|0:0|1:2,0:0:0:0:
461,369,5393,53,4,0:2:0:0:
450,365,5459,1,8,1:2:0:0:
439,362,5526,1,2,0:2:0:0:
428,359,5593,1,8,1:2:0:0:
417,356,5659,1,2,0:2:0:0:
406,353,5726,1,8,1:2:0:0:
395,350,5793,1,2,0:2:0:0:
385,347,5859,1,8,1:2:0:0:
374,344,5926,5,4,0:2:0:0:
374,328,5992,1,8,1:2:0:0:
367,314,6059,1,2,0:2:0:0:
355,305,6126,1,8,1:2:0:0:
339,303,6192,1,2,0:2:0:0:
325,308,6259,1,8,1:2:0:0:
314,320,6326,1,2,0:2:0:0:
311,335,6392,1,8,1:2:0:0:
315,350,6460,5,4,0:2:0:0:
327,319,6526,1,8,1:2:0:0:
322,286,6593,1,2,0:2:0:0:
301,261,6660,1,8,1:2:0:0:
269,250,6726,1,2,0:2:0:0:
237,258,6793,1,8,1:2:0:0:
214,282,6860,1,2,0:2:0:0:
206,314,6926,1,8,1:2:0:0:
217,346,6993,6,0,L|290:339,3,45,2|8|2|8,0:2|1:2|0:2|1:2,0:0:0:0:
185,259,7260,2,0,L|112:266,1,45,2|8,0:2|1:2,0:0:0:0:
97,268,7393,2,0,L|24:275,1,45,2|8,0:2|1:2,0:0:0:0:
89,357,7526,53,4,0:2:0:0:
89,345,7592,1,8,1:2:0:0:
90,334,7659,1,2,0:2:0:0:
91,323,7726,1,8,1:2:0:0:
92,312,7792,1,2,0:3:0:0:
93,300,7859,1,8,1:2:0:0:
94,289,7926,1,2,0:3:0:0:
95,278,7992,1,8,1:2:0:0:
96,267,8060,5,4,0:2:0:0:
81,271,8126,1,8,1:2:0:0:
65,269,8193,1,0,0:0:0:0:
53,259,8260,1,8,1:2:0:0:
46,245,8326,1,4,0:2:0:0:
46,230,8393,1,8,1:2:0:0:
53,216,8459,1,0,0:0:0:0:
66,207,8526,1,8,1:2:0:0:
81,205,8593,6,0,L|66:264,3,45,4|8|0|8,0:2|1:2|0:0|1:2,0:0:0:0:
150,275,8860,5,8,0:2:0:0:
167,233,8926,1,8,2:2:0:0:
202,206,8993,1,8,2:2:0:0:
246,199,9059,1,8,2:2:0:0:
287,215,9126,53,8,0:3:0:0:
253,219,9192,1,8,2:3:0:0:
222,206,9259,1,8,2:3:0:0:
202,180,9325,1,8,2:3:0:0:
197,147,9393,5,8,0:3:0:0:
210,164,9459,1,8,2:3:0:0:
213,186,9526,1,8,2:3:0:0:
205,207,9592,1,8,2:3:0:0:
188,221,9660,1,4,0:2:0:0:
188,221,9926,5,2,0:3:0:0:
177,225,9992,1,8,1:2:0:0:
167,228,10059,1,2,0:3:0:0:
155,228,10125,1,8,1:2:0:0:
144,225,10193,2,0,L|153:165,3,45,2|8|2|8,0:3|1:2|0:3|1:2,0:0:0:0:
119,103,10460,5,2,0:3:0:0:
128,96,10526,1,8,1:2:0:0:
138,91,10593,1,2,0:3:0:0:
149,88,10659,1,8,1:2:0:0:
160,86,10726,2,0,L|207:123,3,45,2|8|2|8,0:3|1:2|0:3|1:2,0:0:0:0:
238,184,10993,53,2,0:3:0:0:
249,185,11059,1,8,1:2:0:0:
260,184,11126,1,2,0:3:0:0:
271,181,11192,1,8,1:2:0:0:
282,178,11260,2,0,L|304:121,3,45,2|8|2|8,0:3|1:2|0:3|1:2,0:0:0:0:
336,58,11526,2,0,L|371:86,1,45,2|8,0:3|1:2,0:0:0:0:
400,109,11660,2,0,L|435:137,1,45,2|8,0:3|1:2,0:0:0:0:
369,190,11793,6,0,L|352:231,3,45,4|8|2|8,0:2|1:2|0:3|1:2,0:0:0:0:
372,314,12060,5,2,0:3:0:0:
383,313,12126,1,8,1:2:0:0:
394,310,12193,1,2,0:3:0:0:
404,305,12259,1,8,1:2:0:0:
413,299,12326,2,0,L|429:257,3,45,4|8|2|8,0:2|1:2|0:3|1:2,0:0:0:0:
369,190,12593,5,2,0:3:0:0:
358,195,12659,1,8,1:2:0:0:
348,198,12726,1,2,0:3:0:0:
337,200,12792,1,8,1:2:0:0:
325,199,12860,54,0,P|303:176|318:137,3,45,4|8|0|8,0:2|1:2|0:0|1:2,0:0:0:0:
191,89,13126,2,0,P|199:58|241:51,3,45,4|8|0|8,0:2|1:2|0:0|1:2,0:0:0:0:
216,221,13393,2,0,P|208:190|240:163,3,45,4|8|0|8,0:2|1:2|0:0|1:2,0:0:0:0:
297,76,13660,2,0,P|320:54|359:68,3,45,4|8|0|8,0:2|1:2|0:0|1:2,0:0:0:0:
336,220,13926,5,4,0:2:0:0:
334,231,13992,1,8,1:2:0:0:
333,242,14059,1,2,0:3:0:0:
332,253,14125,1,8,1:2:0:0:
331,264,14192,1,2,0:3:0:0:
330,275,14259,1,8,1:2:0:0:
329,287,14325,1,2,0:3:0:0:
328,298,14392,1,8,1:2:0:0:
327,309,14460,5,4,0:2:0:0:
321,294,14526,1,8,1:2:0:0:
310,283,14593,1,2,0:3:0:0:
296,277,14659,1,8,1:2:0:0:
280,277,14726,1,2,0:3:0:0:
266,284,14793,1,8,1:2:0:0:
256,296,14859,1,2,0:3:0:0:
251,310,14926,1,8,1:2:0:0:
253,326,14993,5,4,0:2:0:0:
234,312,15059,1,8,1:2:0:0:
214,304,15126,1,2,0:3:0:0:
191,301,15192,1,8,1:2:0:0:
169,304,15259,1,2,0:3:0:0:
147,310,15326,1,8,1:2:0:0:
124,311,15392,1,2,0:3:0:0:
102,305,15459,1,8,1:2:0:0:
86,288,15526,54,0,L|74:354,3,45,2|8|2|8,0:3|1:2|0:3|1:2,0:0:0:0:
0,268,15793,2,0,L|8:223,1,45,2|8,0:3|1:2,0:0:0:0:
16,189,15926,2,0,L|24:144,1,45,2|8,0:3|1:2,0:0:0:0:
105,173,16060,5,4,0:2:0:0:
93,175,16126,1,8,1:2:0:0:
82,177,16193,1,2,0:3:0:0:
71,179,16259,1,8,1:2:0:0:
60,181,16326,1,2,0:3:0:0:
49,183,16393,1,8,1:2:0:0:
38,185,16460,1,2,0:3:0:0:
27,187,16526,1,8,1:2:0:0:
16,189,16593,5,4,0:2:0:0:
21,174,16659,1,8,1:2:0:0:
29,160,16726,1,0,0:0:0:0:
40,149,16793,1,8,1:2:0:0:
52,140,16859,1,4,0:2:0:0:
67,133,16926,1,8,1:2:0:0:
82,130,16993,1,4,0:2:0:0:
98,131,17059,1,8,1:2:0:0:
113,134,17126,6,0,L|104:178,3,45,4|0|0|0,0:2|0:0|0:0|0:0,0:0:0:0:
159,242,17393,53,8,0:2:0:0:
203,235,17459,1,8,2:2:0:0:
248,229,17526,1,8,2:2:0:0:
292,223,17593,1,8,2:2:0:0:
337,217,17660,5,8,0:3:0:0:
340,194,17726,1,8,2:3:0:0:
343,172,17793,1,8,2:3:0:0:
346,150,17860,1,8,2:3:0:0:
349,127,17926,6,0,L|355:171,3,45,8|8|8|8,0:3|2:3|2:3|2:3,0:0:0:0:
408,285,18193,6,0,P|420:232|463:196,1,90,4|0,0:2|2:0,0:0:0:0:
444,207,18460,2,0,P|432:260|389:296,1,90,10|0,0:2|0:0,0:0:0:0:
235,285,18726,54,0,P|195:248|185:192,1,90,10|0,0:2|2:0,0:0:0:0:
185,215,18993,2,0,P|224:251|234:307,1,90,10|0,0:2|0:0,0:0:0:0:
314,153,19260,6,0,P|321:109|306:68,1,90,10|0,0:2|2:0,0:0:0:0:
306,67,19526,2,0,P|299:111|315:153,1,90,10|0,0:2|0:0,0:0:0:0:
322,247,19793,1,10,0:2:0:0:
168,345,20060,1,10,0:2:0:0:
168,345,20193,1,0,2:0:0:0:
168,345,20326,6,0,P|125:328|66:341,1,90,10|0,0:2|2:0,0:0:0:0:
82,333,20593,2,0,P|118:304|136:246,1,90,10|0,0:2|0:0,0:0:0:0:
104,88,20860,6,0,P|61:105|2:92,1,90,10|0,0:2|2:0,0:0:0:0:
18,100,21127,2,0,P|54:128|72:186,1,90,10|0,0:2|0:0,0:0:0:0:
238,101,21393,54,0,P|274:72|292:14,1,90,10|0,0:2|0:0,0:0:0:0:
291,33,21660,2,0,P|297:78|338:123,1,90,10|0,0:2|0:0,0:0:0:0:
462,196,21926,2,0,B|499:187|484:173|512:166,2,60,12|0|0,0:2|2:0|2:0,0:0:0:0:
416,258,22193,1,12,0:2:0:0:
311,236,22326,1,8,0:2:0:0:
182,346,22460,6,0,P|237:333|268:293,1,90,12|0,0:2|2:0,0:0:0:0:
267,353,22726,2,0,P|223:362|182:346,1,90,10|0,0:2|0:0,0:0:0:0:
116,187,22993,6,0,P|130:145|165:117,1,90,10|0,0:2|2:0,0:0:0:0:
193,151,23260,2,0,P|149:157|115:186,1,90,10|0,0:2|0:0,0:0:0:0:
42,272,23526,6,0,P|48:315|77:349,1,90,10|0,0:2|2:0,0:0:0:0:
35,357,23793,2,0,P|26:313|42:271,1,90,10|0,0:2|0:0,0:0:0:0:
115,186,24060,1,10,0:2:0:0:
138,40,24326,1,10,0:2:0:0:
138,40,24460,1,0,2:0:0:0:
138,40,24593,54,0,B|131:62|131:62|173:139,1,90,10|0,0:2|2:0,0:0:0:0:
251,131,24860,2,0,B|258:109|258:109|216:32,1,90,10|0,0:2|0:0,0:0:0:0:
244,221,25126,1,10,0:2:0:0:
244,221,25260,2,0,L|357:207,1,90,0|10,2:0|0:2,0:0:0:0:
295,307,25526,1,0,0:0:0:0:
199,305,25660,5,8,0:3:0:0:
189,299,25726,1,8,2:2:0:0:
180,292,25793,1,8,2:2:0:0:
172,284,25860,1,8,2:2:0:0:
165,274,25926,1,8,0:3:0:0:
158,262,25993,1,8,2:2:0:0:
153,246,26060,1,8,2:2:0:0:
152,228,26126,1,8,2:2:0:0:
153,205,26193,1,8,0:3:0:0:
146,178,26260,1,8,2:2:0:0:
123,156,26326,1,8,2:3:0:0:
86,153,26393,1,8,2:2:0:0:
56,181,26460,5,8,0:3:0:0:
105,176,26526,1,8,2:3:0:0:
154,172,26593,1,8,2:3:0:0:
203,168,26660,1,8,2:3:0:0:
253,164,26726,6,0,P|262:126|243:68,1,90,4|8,0:2|0:0,0:0:0:0:
123,69,26993,2,0,P|146:51|185:45,1,45,4|0,0:2|0:0,0:0:0:0:
278,99,27126,2,0,P|282:127|267:164,1,45,10|0,0:2|0:0,0:0:0:0:
245,281,27260,54,0,P|273:254|333:241,1,90,0|10,0:0|0:2,0:0:0:0:
418,219,27526,2,0,L|433:133,1,45
392,345,27660,2,0,L|404:273,1,45,10|0,0:2|0:0,0:0:0:0:
437,219,27793,2,0,L|453:130,1,90,0|10,0:0|0:2,0:0:0:0:
305,207,28060,1,0,0:0:0:0:
336,42,28193,6,0,B|345:63|345:63|333:130,1,90,10|0,0:2|0:0,0:0:0:0:
318,220,28460,1,10,0:2:0:0:
198,264,28593,2,0,L|214:175,1,90,0|10,0:0|0:2,0:0:0:0:
373,304,28860,6,0,P|311:321|259:300,1,90,0|10,0:0|0:2,0:0:0:0:
214,175,29126,2,0,P|189:209|191:245,1,45
144,299,29260,2,0,P|157:316|162:338,1,45,10|0,0:2|0:0,0:0:0:0:
84,221,29393,2,0,P|28:196|-8:195,1,90,0|10,0:0|0:2,0:0:0:0:
171,64,29660,2,0,L|148:106,1,45
105,181,29793,2,0,L|84:221,1,45,10|0,0:2|0:0,0:0:0:0:
240,135,29926,6,0,L|193:58,1,90,0|10,0:0|0:2,0:0:0:0:
192,232,30193,2,0,L|281:229,1,90,0|10,0:0|0:2,0:0:0:0:
434,120,30460,53,0,0:0:0:0:
391,93,30548,1,0,2:0:0:0:
344,108,30637,1,0,2:0:0:0:
325,153,30726,2,0,P|360:127|406:130,1,90,4|10,0:3|0:2,0:0:0:0:
320,329,30993,6,0,P|329:287|320:208,1,90,4|10,0:2|0:2,0:0:0:0:
423,349,31260,2,0,P|443:315|450:280,1,45,4|0,0:2|0:0,0:0:0:0:
466,236,31393,2,0,P|466:196|454:162,1,45,10|0,0:2|0:0,0:0:0:0:
460,46,31526,2,0,P|443:101|403:122,1,90,0|10,0:0|0:2,0:0:0:0:
252,96,31793,2,0,L|203:71,1,45
152,137,31926,2,0,L|192:157,1,45,10|0,0:2|0:0,0:0:0:0:
277,263,32060,6,0,L|269:135,1,90,0|10,0:0|0:2,0:0:0:0:
267,84,32326,1,0,0:0:0:0:
267,84,32393,1,0,0:0:0:0:
267,84,32460,1,10,0:2:0:0:
84,137,32593,2,0,L|164:177,1,90,0|10,0:0|0:2,0:0:0:0:
268,0,32860,2,0,P|221:10|186:58,1,90,0|10,0:0|0:2,0:0:0:0:
56,212,33126,6,0,P|76:268|77:334,1,90,0|10,0:0|0:2,0:0:0:0:
177,287,33393,2,0,P|168:327|156:360,1,45
166,165,33526,2,0,P|153:204|147:238,1,45,10|0,0:2|0:0,0:0:0:0:
306,160,33660,54,0,P|260:198|226:255,1,90,0|10,0:0|0:2,0:0:0:0:
331,360,33926,2,0,L|411:363,1,45,4|0,0:2|0:0,0:0:0:0:
460,240,34060,2,0,L|380:243,1,45,12|0,0:2|0:0,0:0:0:0:
288,134,34193,6,0,L|227:227,1,90,4|0,0:3|0:0,0:0:0:0:
129,6,34460,5,8,0:2:0:0:
157,23,34526,1,8,2:2:0:0:
175,52,34593,1,8,2:2:0:0:
179,85,34659,1,8,2:2:0:0:
168,117,34726,1,0,0:0:0:0:
32,260,34993,5,8,0:3:0:0:
45,242,35059,1,8,2:3:0:0:
66,235,35126,1,8,2:3:0:0:
88,240,35192,1,8,2:3:0:0:
103,257,35260,54,0,B|85:355|85:355|355:283,1,360,4|12,0:2|0:2,0:0:0:0:
337,288,36860,5,4,2:2:0:0:
337,288,37126,1,0,0:0:0:0:
337,288,37393,1,4,0:2:0:0:
337,288,37659,1,0,2:0:0:0:
396,202,37926,2,0,L|374:104,1,90,4|0,0:2|0:0,0:0:0:0:
114,18,38460,6,0,B|63:65|63:65|262:96|262:96|283:189,1,360,12|4,0:2|0:2,0:0:0:0:
281,183,40060,1,4,2:2:0:0:
281,183,40326,1,0,2:0:0:0:
237,299,40593,6,0,L|152:261,1,90,12|0,0:2|0:0,0:0:0:0:
281,183,41126,1,4,0:2:0:0:
281,183,41392,1,0,0:0:0:0:
341,346,41660,54,0,L|426:308,1,90,4|0,0:2|0:0,0:0:0:0:
281,183,42193,1,4,0:2:0:0:
281,183,42459,1,0,0:0:0:0:
42,309,42726,6,0,L|125:346,1,90,12|0,0:2|0:0,0:0:0:0:
85,57,43260,5,8,2:1:0:0:
81,66,43526,1,8,2:1:0:0:
180,225,43793,6,0,L|186:166,15,33.7500012874604,4|0|0|0|0|0|0|0|4|0|0|0|0|0|0|0,0:2|0:0|0:0|0:0|0:0|0:0|0:0|0:0|0:2|0:0|0:0|0:0|0:0|0:0|0:0|0:0,0:0:0:0:
160,251,44860,53,12,0:2:0:0:
172,240,44926,1,0,0:0:0:0:
187,232,44993,1,0,0:0:0:0:
204,228,45059,1,0,0:0:0:0:
221,227,45126,1,0,0:0:0:0:
237,231,45193,1,0,0:0:0:0:
253,237,45259,1,0,0:0:0:0:
266,247,45326,1,0,0:0:0:0:
277,260,45393,6,0,L|261:300,3,33.7500012874604,4|0|0|0,0:2|0:0|0:0|0:0,0:0:0:0:
372,261,45660,2,0,L|356:301,3,33.7500012874604
447,182,45926,2,0,L|453:224,3,33.7500012874604,4|0|0|0,0:2|0:0|0:0|0:0,0:0:0:0:
434,65,46193,2,0,L|474:81,3,33.7500012874604
328,119,46460,2,0,L|359:131,7,33.7500012874604,4|0|0|0|0|0|0|0,0:2|0:0|0:0|0:0|0:0|0:0|0:0|0:0,0:0:0:0:
312,90,46993,5,12,0:2:0:0:
306,90,47059,1,0,0:0:0:0:
301,91,47126,1,0,0:0:0:0:
296,91,47192,1,0,0:0:0:0:
291,92,47259,1,0,0:0:0:0:
286,93,47326,1,0,0:0:0:0:
281,93,47392,1,0,0:0:0:0:
276,94,47459,1,0,0:0:0:0:
271,94,47526,1,4,0:2:0:0:
266,95,47592,1,0,0:0:0:0:
261,96,47659,1,0,0:0:0:0:
256,96,47726,1,0,0:0:0:0:
251,97,47792,1,0,0:0:0:0:
246,98,47859,1,0,0:0:0:0:
241,98,47926,1,0,0:0:0:0:
236,99,47992,1,0,0:0:0:0:
231,99,48060,6,0,L|252:160,3,33.7500012874604,4|0|0|0,0:2|0:0|0:0|0:0,0:0:0:0:
163,149,48326,2,0,L|184:210,7,33.7500012874604,0|0|0|0|4|0|0|0,0:0|0:0|0:0|0:0|0:2|0:0|0:0|0:0,0:0:0:0:
139,74,48860,2,0,L|150:43,3,33.7500012874604
110,74,49126,53,12,0:2:0:0:
115,90,49192,1,0,0:0:0:0:
116,106,49259,1,0,0:0:0:0:
113,123,49325,1,0,0:0:0:0:
107,138,49392,1,0,0:0:0:0:
97,152,49459,1,0,0:0:0:0:
84,163,49525,1,0,0:0:0:0:
69,170,49592,1,0,0:0:0:0:
53,174,49660,2,0,L|16:164,3,33.7500012874604
148,226,49926,2,0,L|185:216,3,33.7500012874604,4|0|0|0,0:3|0:0|0:0|0:0,0:0:0:0:
46,264,50193,5,8,0:2:0:0:
32,294,50259,1,8,2:2:0:0:
37,326,50326,1,8,2:2:0:0:
61,350,50392,1,8,2:2:0:0:
94,355,50460,1,8,2:3:0:0:
116,342,50526,1,8,2:3:0:0:
140,337,50593,1,8,2:3:0:0:
165,339,50659,1,8,2:3:0:0:
189,348,50726,5,8,0:3:0:0:
188,339,50792,1,8,2:3:0:0:
187,331,50859,1,8,2:3:0:0:
187,322,50925,1,8,2:3:0:0:
186,314,50992,1,8,0:3:0:0:
185,305,51059,1,8,0:3:0:0:
185,297,51125,1,8,0:3:0:0:
184,289,51192,1,8,0:3:0:0:
184,280,51260,5,4,0:2:0:0:
184,280,52326,53,4,0:2:0:0:
289,131,52460,2,0,P|271:173|226:210,1,90,10|4,0:2|0:2,0:0:0:0:
184,280,52726,1,10,0:2:0:0:
289,131,52860,2,0,P|256:161|239:203,1,90,0|10,0:0|0:2,0:0:0:0:
345,225,53126,1,0,0:0:0:0:
345,225,53260,1,10,0:2:0:0:
183,109,53393,5,0,0:0:0:0:
183,109,53526,2,0,L|66:99,1,90,10|0,0:2|0:0,0:0:0:0:
45,193,53793,2,0,L|135:201,1,90,10|0,0:2|0:0,0:0:0:0:
186,86,54060,2,0,B|160:83|151:87|151:87|133:74|133:74|114:78|96:78,2,90,10|0|10,0:2|0:0|0:2,0:0:0:0:
384,146,54460,6,0,P|429:132|468:77,1,90,0|10,0:0|0:2,0:0:0:0:
344,225,54726,2,0,P|389:235|451:207,1,90,0|10,0:0|0:2,0:0:0:0:
297,51,54993,2,0,L|292:169,1,90,0|10,0:0|0:2,0:0:0:0:
344,225,55260,1,0,0:0:0:0:
344,225,55393,1,10,0:2:0:0:
120,331,55526,6,0,B|145:287|145:287|202:274,1,90,0|10,0:0|0:2,0:0:0:0:
283,315,55793,2,0,B|258:359|258:359|201:372,1,90,0|10,0:0|0:2,0:0:0:0:
45,362,56060,2,0,B|22:339|42:331|18:302,2,60,2|0|0,0:3|2:0|2:0,0:0:0:0:
120,331,56326,2,0,P|122:296|169:228,1,90,4|10,0:3|0:2,0:0:0:0:
38,93,56593,54,0,P|40:128|87:196,1,90,4|10,0:2|0:2,0:0:0:0:
155,196,56860,1,4,0:2:0:0:
155,196,56993,1,10,0:2:0:0:
0,117,57126,2,0,P|19:146|93:181,1,90,0|10,0:0|0:2,0:0:0:0:
155,196,57393,1,0,0:0:0:0:
155,196,57526,1,10,0:2:0:0:
251,86,57660,6,0,B|297:70|297:70|355:86,2,90,0|10|0,0:0|0:2|0:0,0:0:0:0:
261,243,58060,6,0,B|290:214|290:214|299:166,1,90,10|0,0:2|0:0,0:0:0:0:
443,232,58326,2,0,B|432:192|432:192|395:160,1,90,10|0,0:2|0:0,0:0:0:0:
449,91,58593,1,0,0:0:0:0:
463,232,58726,6,0,P|426:318|407:323,1,90,0|10,0:0|0:2,0:0:0:0:
297,329,58993,2,0,P|241:253|246:235,1,90,0|10,0:0|0:2,0:0:0:0:
437,311,59260,54,0,P|477:293|498:254,1,90,0|10,0:0|0:2,0:0:0:0:
297,329,59526,1,4,0:2:0:0:
311,219,59660,1,4,0:2:0:0:
325,109,59793,6,0,L|259:114,1,45,8|0,0:2|0:0,0:0:0:0:
202,129,59926,1,0,0:0:0:0:
196,138,59992,1,0,0:0:0:0:
191,148,60060,6,0,L|125:153,1,45,12|0,0:3|0:0,0:0:0:0:
74,102,60193,1,0,0:0:0:0:
79,92,60259,1,0,0:0:0:0:
85,83,60327,6,0,L|150:77,2,45,12|0|0,0:3|0:0|0:0,0:0:0:0:
53,264,60593,1,4,0:2:0:0:
53,264,60860,53,12,0:2:0:0:
125,339,60993,1,8,0:2:0:0:
225,314,61126,1,12,0:2:0:0:
153,239,61260,1,8,0:2:0:0:
181,139,61393,6,0,B|203:106|203:106|205:90|205:90|235:46,1,90,12|8,0:2|0:2,0:0:0:0:
345,126,61660,1,12,0:2:0:0:
317,130,61793,1,8,0:2:0:0:
226,283,61926,5,12,0:2:0:0:
323,308,62060,1,8,0:2:0:0:
348,211,62193,1,12,0:2:0:0:
251,185,62326,1,8,0:2:0:0:
343,325,62460,2,0,L|452:333,1,90,12|8,0:2|0:2,0:0:0:0:
463,213,62726,1,12,0:2:0:0:
440,230,62859,1,8,0:2:0:0:
317,130,62993,5,12,0:2:0:0:
338,44,63126,1,8,0:2:0:0:
423,66,63260,1,12,0:2:0:0:
329,31,63393,1,8,0:2:0:0:
237,181,63526,2,0,B|247:226|247:226|246:238|246:238|255:287,1,90,12|8,0:2|0:2,0:0:0:0:
138,230,63793,1,12,0:2:0:0:
154,253,63926,1,8,0:2:0:0:
325,151,64060,53,12,0:2:0:0:
236,87,64193,1,8,0:2:0:0:
136,132,64326,1,12,0:2:0:0:
47,68,64460,1,8,0:2:0:0:
143,28,64593,2,0,B|133:59|155:52|145:86,2,60,12|0|0,0:2|0:0|0:0,0:0:0:0:
29,74,64860,2,0,P|45:125|56:195,1,90,12|8,0:2|0:2,0:0:0:0:
0,336,65126,5,12,0:2:0:0:
126,307,65260,1,10,0:2:0:0:
48,257,65393,1,10,0:2:0:0:
76,384,65527,1,8,0:2:0:0:
154,287,65660,6,0,B|202:297|202:297|213:293|213:293|260:305,1,90,10|8,0:2|0:2,0:0:0:0:
153,205,65926,1,10,0:2:0:0:
174,196,66060,1,8,0:2:0:0:
262,108,66193,5,10,0:2:0:0:
280,208,66326,1,8,0:2:0:0:
362,90,66460,1,10,0:2:0:0:
380,190,66593,1,8,0:2:0:0:
398,290,66726,2,0,L|273:275,1,90,10|8,0:2|0:2,0:0:0:0:
361,181,66993,1,10,0:2:0:0:
380,190,67126,1,8,0:2:0:0:
227,114,67260,53,10,0:2:0:0:
134,125,67393,1,8,0:2:0:0:
78,26,67526,1,10,0:2:0:0:
171,37,67659,1,8,0:2:0:0:
175,222,67793,2,0,L|60:210,1,90,10|8,0:2|0:2,0:0:0:0:
227,114,68060,1,10,0:2:0:0:
219,137,68193,1,8,0:2:0:0:
175,222,68326,5,8,0:2:0:0:
189,252,68392,1,8,0:2:0:0:
216,270,68459,1,8,0:2:0:0:
250,271,68526,1,8,0:2:0:0:
278,254,68593,2,0,L|267:201,3,45,4|0|0|0,0:3|0:0|0:0|0:0,0:0:0:0:
342,162,68860,2,0,L|352:207,1,45,8|0,0:3|0:0,0:0:0:0:
421,253,68993,1,8,0:3:0:0:
431,256,69059,1,0,0:0:0:0:
442,260,69126,2,0,L|431:207,3,45
487,159,69393,85,4,0:2:0:0:
448,53,76860,53,8,2:1:0:0:
95,320,77926,38,0,L|90:268,15,33.7500012874604,4|0|0|0|0|0|0|0|4|0|0|0|0|0|0|0,0:2|0:0|0:0|0:0|0:0|0:0|0:0|0:0|0:2|0:0|0:0|0:0|0:0|0:0|0:0|0:0,0:0:0:0:
66,250,78993,5,12,0:2:0:0:
75,263,79059,1,0,0:0:0:0:
88,274,79126,1,0,0:0:0:0:
103,283,79193,1,0,0:0:0:0:
119,288,79259,1,0,0:0:0:0:
135,289,79326,1,0,0:0:0:0:
152,288,79393,1,0,0:0:0:0:
168,282,79459,1,0,0:0:0:0:
183,274,79526,6,0,L|210:237,3,33.7500012874604,4|0|0|0,0:2|0:0|0:0|0:0,0:0:0:0:
274,298,79793,2,0,L|315:279,3,33.7500012874604
255,179,80060,2,0,L|282:142,3,33.7500012874604,4|0|0|0,0:2|0:0|0:0|0:0,0:0:0:0:
378,239,80326,2,0,L|419:220,3,33.7500012874604
386,89,80593,2,0,L|367:117,7,33.7500012874604,4|0|0|0|0|0|0|0,0:2|0:0|0:0|0:0|0:0|0:0|0:0|0:0,0:0:0:0:
343,142,81126,5,12,0:2:0:0:
337,141,81192,1,0,0:0:0:0:
332,140,81259,1,0,0:0:0:0:
327,140,81326,1,0,0:0:0:0:
322,139,81392,1,0,0:0:0:0:
317,139,81459,1,0,0:0:0:0:
312,138,81526,1,0,0:0:0:0:
307,138,81592,1,0,0:0:0:0:
302,137,81659,1,4,0:2:0:0:
297,137,81726,1,0,0:0:0:0:
292,136,81792,1,0,0:0:0:0:
287,136,81859,1,0,0:0:0:0:
282,135,81926,1,0,0:0:0:0:
277,135,81992,1,0,0:0:0:0:
272,134,82059,1,0,0:0:0:0:
267,134,82126,1,0,0:0:0:0:
262,133,82193,54,0,L|228:157,7,33.7500012874604,4|0|0|0|0|0|0|0,0:2|0:0|0:0|0:0|0:0|0:0|0:0|0:0,0:0:0:0:
149,141,82726,2,0,L|145:99,3,33.7500012874604,4|0|0|0,0:2|0:0|0:0|0:0,0:0:0:0:
198,39,82993,2,0,L|235:56,3,33.7500012874604
175,35,83260,5,12,0:2:0:0:
159,29,83326,1,0,0:0:0:0:
142,27,83393,1,0,0:0:0:0:
125,29,83460,1,0,0:0:0:0:
109,34,83526,1,0,0:0:0:0:
95,43,83593,1,0,0:0:0:0:
83,55,83660,1,0,0:0:0:0:
74,69,83726,1,0,0:0:0:0:
68,85,83793,2,0,L|51:131,3,33.7500012874604,4|0|0|0,0:2|0:0|0:0|0:0,0:0:0:0:
140,164,84060,2,0,L|157:210,3,33.7500012874604
250,146,84326,5,12,0:3:0:0:
274,144,84392,1,8,2:3:0:0:
297,153,84459,1,12,0:3:0:0:
313,173,84526,1,8,2:3:0:0:
318,198,84593,1,12,0:3:0:0:
317,214,84659,1,8,2:3:0:0:
311,230,84726,1,8,2:3:0:0:
299,242,84793,1,8,2:3:0:0:
284,249,84860,5,0,0:0:0:0:
283,240,84926,1,0,0:0:0:0:
282,232,84993,1,0,0:0:0:0:
282,223,85060,1,0,0:0:0:0:
281,215,85126,1,0,0:0:0:0:
281,206,85193,1,0,0:0:0:0:
280,198,85260,1,0,0:0:0:0:
279,190,85326,1,0,0:0:0:0:
279,181,85393,1,4,0:2:0:0:
465,21,86460,54,0,B|513:92|455:162|455:162|373:128|373:128|318:138|318:138|235:104|235:104|175:182|227:245|227:245,1,540.000020599366,4|0,0:2|0:0,0:0:0:0:
226,244,88060,2,0,P|222:156|183:108,1,135.000005149842,0|0,2:0|0:0,0:0:0:0:
50,256,88593,21,8,0:3:0:0:
82,264,88659,1,8,2:3:0:0:
114,254,88726,1,8,2:3:0:0:
136,230,88793,1,8,2:3:0:0:
143,197,88860,69,8,0:3:0:0:
121,190,88926,1,8,2:3:0:0:
100,183,88993,1,8,2:3:0:0:
78,176,89060,1,8,2:3:0:0:
57,169,89126,21,8,0:1:0:0:
67,165,89192,1,8,2:1:0:0:
78,162,89259,1,8,2:1:0:0:
89,159,89326,1,8,2:1:0:0:
99,155,89393,70,0,L|93:202,3,33.7500012874604
117,339,89660,21,12,0:3:0:0:
145,372,89726,1,8,2:3:0:0:
187,384,89793,1,8,2:3:0:0:
230,370,89860,1,8,2:3:0:0:
256,336,89926,69,12,0:3:0:0:
241,305,89992,1,8,2:3:0:0:
245,272,90059,1,8,2:3:0:0:
267,246,90126,1,8,2:3:0:0:
299,237,90193,21,0,0:0:0:0:
298,252,90259,1,0,0:0:0:0:
303,267,90326,1,0,0:0:0:0:
312,280,90393,1,0,0:0:0:0:
323,290,90460,2,0,L|359:290,3,33.7500012874604,8|8|8|8,0:1|2:1|2:1|2:1,0:0:0:0:
510,260,90726,86,0,P|454:232|448:171,1,90,4|0,0:2|0:0,0:0:0:0:
432,95,90993,53,4,0:2:0:0:
420,63,91059,1,8,1:2:0:0:
393,44,91126,1,2,0:3:0:0:
360,42,91193,1,8,1:2:0:0:
330,58,91259,1,2,0:3:0:0:
315,87,91326,1,8,1:2:0:0:
318,121,91393,1,2,0:3:0:0:
335,149,91460,1,8,1:2:0:0:
333,182,91526,1,2,0:3:0:0:
314,208,91593,1,8,1:2:0:0:
282,219,91660,1,2,0:3:0:0:
250,210,91726,1,8,1:2:0:0:
229,185,91793,1,2,0:3:0:0:
226,152,91860,1,8,1:2:0:0:
242,123,91926,1,2,0:3:0:0:
274,112,91993,1,8,1:2:0:0:
306,119,92059,1,2,0:3:0:0:
326,145,92126,1,8,1:2:0:0:
325,178,92193,1,2,0:3:0:0:
304,204,92259,1,8,1:2:0:0:
272,210,92326,38,0,L|228:192,3,45,2|8|2|8,0:3|1:2|0:3|1:2,0:0:0:0:
158,216,92593,2,0,L|114:198,3,45,2|8|2|8,0:3|1:2|0:3|1:2,0:0:0:0:
46,143,92860,53,2,0:3:0:0:
32,112,92926,1,8,1:2:0:0:
36,79,92993,1,2,0:3:0:0:
58,54,93060,1,8,1:2:0:0:
90,45,93126,1,2,0:3:0:0:
122,55,93193,1,8,1:2:0:0:
144,80,93260,1,2,0:3:0:0:
174,94,93326,1,8,1:2:0:0:
207,92,93393,38,0,L|227:33,3,45,2|8|0|8,0:3|1:2|0:0|1:2,0:0:0:0:
291,83,93660,2,0,L|311:24,3,45,4|0|0|0,0:2|0:0|0:0|0:0,0:0:0:0:
415,109,93926,54,0,L|358:117,3,45
302,169,94193,37,8,0:2:0:0:
299,213,94259,1,8,0:2:0:0:
296,258,94326,1,8,0:2:0:0:
293,303,94393,1,8,0:2:0:0:
290,348,94460,53,8,0:3:0:0:
282,326,94526,1,8,0:3:0:0:
275,305,94593,1,8,0:3:0:0:
268,284,94660,1,8,0:3:0:0:
261,262,94726,38,0,L|299:269,3,33.7500012874604,4|8|8|8,0:2|0:3|0:3|0:3,0:0:0:0:
180,363,94993,54,0,P|125:331|125:283,1,90,4|0,0:2|0:0,0:0:0:0:
47,209,95260,37,2,0:3:0:0:
77,222,95326,1,8,1:2:0:0:
110,216,95393,1,2,0:3:0:0:
133,192,95460,1,8,1:2:0:0:
140,160,95526,1,2,0:3:0:0:
126,129,95593,1,8,1:2:0:0:
98,111,95660,1,2,0:3:0:0:
65,109,95726,1,8,1:2:0:0:
31,109,95793,1,2,0:3:0:0:
4,89,95859,1,8,1:2:0:0:
0,56,95926,1,2,0:3:0:0:
18,29,95993,1,8,1:2:0:0:
51,23,96060,54,0,L|39:75,7,45,2|8|2|8|2|8|2|8,0:3|1:2|0:3|1:2|0:3|1:2|0:3|1:2,0:0:0:0:
204,54,96593,2,0,L|167:93,7,45,2|8|2|8|2|8|2|8,0:3|1:2|0:3|1:2|0:3|1:2|0:3|1:2,0:0:0:0:
234,208,97126,38,0,L|182:223,3,45,2|8|2|8,0:3|1:2|0:3|1:2,0:0:0:0:
289,122,97393,2,0,L|333:110,3,45,2|8|2|8,0:3|1:2|0:3|1:2,0:0:0:0:
468,157,97660,54,0,L|464:219,3,45,2|8|2|8,0:3|1:2|0:3|1:2,0:0:0:0:
371,200,97926,2,0,L|375:262,3,45,2|8|2|8,0:3|1:2|0:3|1:2,0:0:0:0:
318,74,98193,38,0,L|369:58,3,45,2|8|2|8,0:3|1:2|0:3|1:2,0:0:0:0:
212,192,98460,2,0,L|160:207,3,45,2|8|2|8,0:3|1:2|0:3|1:2,0:0:0:0:
101,101,98726,54,0,L|105:39,3,45,4|8|0|8,0:2|1:2|0:0|1:2,0:0:0:0:
198,63,98993,2,0,L|194:1,3,45,4|8|0|8,0:2|1:2|0:0|1:2,0:0:0:0:
241,150,99260,37,4,0:2:0:0:
245,182,99326,1,8,1:2:0:0:
230,212,99393,1,0,0:0:0:0:
201,229,99460,1,8,1:2:0:0:
168,226,99526,1,4,0:2:0:0:
142,205,99593,1,8,1:2:0:0:
112,189,99660,1,2,0:3:0:0:
78,190,99726,1,8,1:2:0:0:
48,204,99792,1,2,0:3:0:0:
29,232,99859,1,8,1:2:0:0:
28,265,99926,1,2,0:3:0:0:
44,295,99992,1,8,1:2:0:0:
72,312,100059,1,2,0:3:0:0:
106,310,100126,1,8,1:2:0:0:
131,288,100192,1,2,0:3:0:0:
139,256,100259,1,8,1:2:0:0:
126,225,100326,1,2,0:3:0:0:
98,208,100392,1,8,1:2:0:0:
65,210,100460,1,2,0:3:0:0:
41,233,100526,1,8,1:2:0:0:
37,266,100593,1,2,0:3:0:0:
55,294,100660,1,8,1:2:0:0:
86,305,100726,1,2,0:3:0:0:
117,290,100793,1,8,1:2:0:0:
129,258,100860,54,0,L|138:313,3,45,2|8|2|8,0:3|1:2|0:3|1:2,0:0:0:0:
215,327,101126,2,0,L|224:382,3,45,2|8|2|8,0:3|1:2|0:3|1:2,0:0:0:0:
290,272,101393,37,8,0:2:0:0:
334,278,101459,1,8,0:2:0:0:
379,284,101526,1,8,0:2:0:0:
423,290,101593,1,8,0:2:0:0:
468,296,101660,54,0,L|459:351,3,45,0|0|8|8,0:0|0:0|0:3|0:3,0:0:0:0:
418,168,101926,38,0,L|409:223,1,45,8|8,0:3|0:3,0:0:0:0:
311,230,102060,1,0,0:0:0:0:
320,236,102126,1,0,0:0:0:0:
329,242,102193,54,0,L|334:208,1,33.7500012874604,8|8,0:3|0:3,0:0:0:0:
281,146,102326,1,0,0:0:0:0:
281,146,102393,1,0,0:0:0:0:
281,146,102460,37,0,0:0:0:0:
135,245,102593,2,0,L|121:174,1,45,8|8,0:2|0:2,0:0:0:0:
227,83,102726,53,8,0:2:0:0:
281,146,102860,1,8,0:3:0:0:
335,208,102993,1,8,0:1:0:0:
208,63,103126,37,8,0:2:0:0:
151,258,103260,1,8,0:2:0:0:
118,103,103393,1,8,0:2:0:0:
29,204,103526,86,0,P|73:198|105:179,1,80.9999975280763,4|0,0:2|0:0,0:0:0:0:
217,163,103793,2,0,P|200:204|200:241,1,80.9999975280763,12|0,0:2|0:0,0:0:0:0:
284,300,104060,2,0,P|300:258|300:221,1,80.9999975280763,2|0,0:2|0:0,0:0:0:0:
361,151,104326,1,10,0:2:0:0:
361,151,104460,1,0,0:0:0:0:
478,252,104593,6,0,L|373:231,1,80.9999975280763,2|0,0:2|0:0,0:0:0:0:
281,135,104860,2,0,L|360:150,1,80.9999975280763,10|0,0:2|0:0,0:0:0:0:
213,199,105126,2,0,L|134:183,1,80.9999975280763,2|0,0:2|0:0,0:0:0:0:
0,52,105393,5,10,0:2:0:0:
16,132,105526,1,0,0:0:0:0:
77,78,105660,6,0,L|156:94,1,80.9999975280763,2|0,0:2|0:0,0:0:0:0:
73,237,105926,1,10,0:2:0:0:
134,183,106060,54,0,L|213:199,1,80.9999975280763,0|2,0:0|0:2,0:0:0:0:
176,371,106326,1,0,0:0:0:0:
176,371,106460,2,0,L|169:280,1,80.9999975280763,10|0,0:2|0:0,0:0:0:0:
350,216,106726,5,2,0:2:0:0:
326,299,106860,1,0,0:0:0:0:
434,196,106993,1,10,0:2:0:0:
326,299,107126,1,0,0:0:0:0:
291,154,107260,6,0,L|298:63,1,80.9999975280763,2|0,0:2|0:0,0:0:0:0:
302,285,107526,1,10,0:2:0:0:
214,235,107660,1,4,0:2:0:0:
132,366,107793,6,0,L|125:275,1,80.9999975280763,4|0,0:2|0:0,0:0:0:0:
1,160,108060,2,0,P|42:151|85:193,1,80.9999975280763,10|0,0:2|0:0,0:0:0:0:
181,55,108326,2,0,P|140:46|97:88,1,80.9999975280763,2|0,0:2|0:0,0:0:0:0:
220,227,108593,1,10,0:2:0:0:
164,146,108726,1,0,0:0:0:0:
275,45,108860,54,0,L|354:69,1,80.9999975280763,2|0,0:2|0:0,0:0:0:0:
463,213,109126,2,0,P|434:181|449:123,1,80.9999975280763,10|0,0:2|0:0,0:0:0:0:
512,5,109393,2,0,P|471:17|455:75,1,80.9999975280763,2|0,0:2|0:0,0:0:0:0:
326,153,109660,1,10,0:2:0:0:
286,59,109793,1,0,0:0:0:0:
240,216,109926,6,0,L|258:307,1,80.9999975280763,2|0,0:2|0:0,0:0:0:0:
344,238,110193,1,10,0:2:0:0:
341,251,110326,1,0,0:0:0:0:
155,268,110460,1,2,0:2:0:0:
163,276,110593,1,0,0:0:0:0:
270,320,110726,6,0,L|254:240,1,80.9999975280763,10|0,0:2|0:0,0:0:0:0:
180,169,110993,5,2,0:2:0:0:
155,268,111126,1,0,0:0:0:0:
69,139,111260,1,10,0:2:0:0:
86,313,111393,1,0,0:0:0:0:
64,103,111526,1,2,0:2:0:0:
91,356,111660,54,0,L|15:326,2,80.9999975280763,8|10|8,0:2|0:2|0:2,0:0:0:0:
400,274,112060,6,0,L|426:332,3,45,12|0|0|0,0:2|0:0|0:0|0:0,0:0:0:0:
339,171,112326,2,0,L|332:234,3,45,10|0|0|0,0:2|0:0|0:0|0:0,0:0:0:0:
370,82,112593,1,10,0:2:0:0:
372,71,112659,1,0,0:0:0:0:
378,61,112726,1,0,0:0:0:0:
387,54,112793,1,0,0:0:0:0:
397,51,112859,5,10,0:2:0:0:
364,46,112926,1,0,0:0:0:0:
331,41,112993,1,0,0:0:0:0:
297,36,113060,1,0,0:0:0:0:
264,31,113126,6,0,L|248:88,3,45,10|0|0|0,0:2|0:0|0:0|0:0,0:0:0:0:
174,41,113393,2,0,L|158:98,3,45,10|0|0|0,0:2|0:0|0:0|0:0,0:0:0:0:
84,51,113660,1,10,0:2:0:0:
80,61,113726,1,0,0:0:0:0:
77,72,113793,1,0,0:0:0:0:
74,83,113860,1,0,0:0:0:0:
71,94,113926,53,10,0:2:0:0:
103,89,113992,1,0,0:0:0:0:
129,109,114059,1,0,0:0:0:0:
134,142,114126,1,0,0:0:0:0:
114,168,114193,6,0,L|56:182,3,45,10|0|0|0,0:2|0:0|0:0|0:0,0:0:0:0:
163,272,114460,1,10,0:2:0:0:
163,272,114526,1,0,0:0:0:0:
163,272,114593,6,0,L|106:256,3,45,0|0|10|0,0:0|0:0|0:2|0:0,0:0:0:0:
67,336,114860,1,0,0:0:0:0:
67,336,114926,1,0,0:0:0:0:
67,336,114993,6,0,L|25:293,3,45,10|0|0|0,0:2|0:0|0:0|0:0,0:0:0:0:
163,272,115260,53,8,0:2:0:0:
195,281,115326,1,8,0:2:0:0:
227,290,115393,1,8,0:2:0:0:
260,299,115460,1,0,0:0:0:0:
292,308,115526,5,8,0:3:0:0:
284,316,115592,1,8,0:3:0:0:
276,324,115659,1,8,0:3:0:0:
268,332,115726,1,8,0:3:0:0:
260,340,115793,5,8,0:2:0:0:
256,295,115859,1,8,0:2:0:0:
253,250,115926,1,8,0:2:0:0:
250,205,115993,1,0,0:0:0:0:
247,160,116060,2,0,L|301:186,3,38.2500007295609,8|8|8|8,0:3|0:3|0:3|0:3,0:0:0:0:
401,299,116326,6,0,L|386:361,3,45,12|0|0|0,0:2|0:0|0:0|0:0,0:0:0:0:
458,207,116593,2,0,L|443:145,3,45,10|0|0|0,0:2|0:0|0:0|0:0,0:0:0:0:
375,72,116860,1,10,0:2:0:0:
372,82,116926,1,0,0:0:0:0:
369,93,116993,1,0,0:0:0:0:
367,104,117060,1,0,0:0:0:0:
364,115,117126,53,10,0:2:0:0:
342,89,117192,1,0,0:0:0:0:
312,75,117259,1,0,0:0:0:0:
279,76,117326,1,0,0:0:0:0:
249,93,117393,6,0,L|234:155,3,45,10|0|0|0,0:2|0:0|0:0|0:0,0:0:0:0:
186,220,117660,2,0,L|139:176,3,45,10|0|0|0,0:2|0:0|0:0|0:0,0:0:0:0:
107,101,117926,1,10,0:2:0:0:
117,97,117992,1,0,0:0:0:0:
128,94,118059,1,0,0:0:0:0:
139,91,118126,1,0,0:0:0:0:
150,88,118193,5,10,0:2:0:0:
146,121,118259,1,0,0:0:0:0:
142,155,118326,1,0,0:0:0:0:
139,188,118393,1,0,0:0:0:0:
135,222,118460,6,0,L|77:195,1,45,12|0,0:2|0:0,0:0:0:0:
36,309,118593,2,0,L|94:282,3,45,8|0|10|0,0:2|0:0|0:2|0:0,0:0:0:0:
204,324,118860,1,8,0:2:0:0:
204,324,118926,1,0,0:0:0:0:
204,324,118993,54,0,L|146:297,1,45,12|0,0:2|0:0,0:0:0:0:
11,298,119126,2,0,L|69:271,3,45,8|0|10|0,0:2|0:0|0:2|0:0,0:0:0:0:
125,164,119393,1,8,0:2:0:0:
125,164,119460,1,0,0:0:0:0:
125,164,119526,5,12,0:2:0:0:
212,292,119660,2,0,L|222:240,1,45,8|8,0:2|0:2,0:0:0:0:
204,118,119793,5,8,0:2:0:0:
312,260,119926,1,8,0:2:0:0:
326,114,120060,5,8,0:3:0:0:
407,120,120193,1,8,0:3:0:0:
361,184,120326,53,8,0:3:0:0:
371,49,120459,1,10,0:3:0:0:
505,102,120593,6,0,L|416:134,1,80.9999975280763,4|0,0:2|0:0,0:0:0:0:
352,214,120859,2,0,L|441:246,1,80.9999975280763,12|0,0:2|0:0,0:0:0:0:
495,129,121126,1,2,0:2:0:0:
475,135,121259,1,0,0:0:0:0:
456,142,121393,6,0,L|439:48,1,80.9999975280763,2|0,0:2|0:0,0:0:0:0:
352,214,121659,2,0,L|368:120,1,80.9999975280763,10|0,0:2|0:0,0:0:0:0:
259,201,121926,1,2,0:2:0:0:
242,183,122059,2,0,P|248:144|236:113,1,40.4999987640381
322,30,122193,6,0,P|272:56|269:134,1,121.499996292114,4|0,2:2|0:0,0:0:0:0:
273,154,122459,1,8,0:2:0:0:
174,2,122593,2,0,L|153:142,1,121.499996292114,4|0,0:2|0:0,0:0:0:0:
145,171,122859,1,8,0:0:0:0:
0,85,122993,53,4,0:2:0:0:
80,49,123126,1,8,0:3:0:0:
145,171,123259,5,8,0:3:0:0:
65,207,123392,1,8,0:1:0:0:
81,28,123526,5,8,0:2:0:0:
63,227,123659,1,8,0:2:0:0:
18,353,123793,6,0,L|96:332,1,80.9999975280763,4|0,0:2|0:0,0:0:0:0:
187,255,124059,2,0,L|265:234,1,80.9999975280763,12|0,0:2|0:0,0:0:0:0:
204,351,124326,1,2,0:2:0:0:
210,332,124459,2,0,L|249:321,1,40.4999987640381
329,286,124593,2,0,L|407:265,1,80.9999975280763,2|0,0:2|0:0,0:0:0:0:
361,114,124859,2,0,L|339:192,1,80.9999975280763,10|0,0:2|0:0,0:0:0:0:
483,205,125126,1,2,0:2:0:0:
464,198,125259,2,0,L|435:169,1,40.4999987640381
262,115,125393,54,0,P|236:65|300:4,1,121.499996292114,4|0,0:2|0:0,0:0:0:0:
305,0,125659,1,8,0:2:0:0:
339,192,125793,2,0,L|196:214,1,121.499996292114,4|0,0:2|0:0,0:0:0:0:
176,218,126059,1,8,0:2:0:0:
200,101,126193,5,4,0:2:0:0:
194,92,126259,1,8,1:2:0:0:
188,84,126326,1,2,0:3:0:0:
180,77,126393,1,8,1:2:0:0:
172,72,126459,1,2,0:3:0:0:
162,69,126526,1,8,1:2:0:0:
152,67,126593,1,2,0:3:0:0:
142,67,126659,1,8,1:2:0:0:
132,68,126726,5,2,0:3:0:0:
119,95,126792,1,8,1:2:0:0:
95,113,126859,1,2,0:3:0:0:
65,116,126926,1,8,1:2:0:0:
37,104,126993,6,0,L|68:18,1,80.9999975280763,4|0,0:2|0:0,0:0:0:0:
84,196,127259,2,0,L|56:272,1,80.9999975280763,10|0,0:2|0:0,0:0:0:0:
171,130,127526,1,2,0:2:0:0:
191,126,127659,2,0,L|177:164,1,40.4999987640381
158,250,127793,2,0,L|130:326,1,80.9999975280763,2|0,0:2|0:0,0:0:0:0:
314,294,128059,2,0,L|234:308,1,80.9999975280763,10|0,0:2|0:0,0:0:0:0:
280,153,128326,1,2,0:2:0:0:
270,171,128459,2,0,L|296:201,1,40.4999987640381
396,347,128593,54,0,P|454:350|485:273,1,121.499996292114,4|0,0:2|0:0,0:0:0:0:
494,265,128859,1,8,0:2:0:0:
420,97,128993,2,0,L|395:226,1,121.499996292114,4|0,0:2|0:0,0:0:0:0:
387,259,129259,1,8,0:2:0:0:
230,166,129393,5,4,0:2:0:0:
321,143,129526,1,8,0:3:0:0:
304,287,129659,5,8,0:3:0:0:
213,310,129793,1,8,0:1:0:0:
328,131,129926,5,8,0:2:0:0:
205,321,130059,1,8,0:2:0:0:
69,236,130193,54,0,L|148:217,1,80.9999975280763,4|0,0:2|0:0,0:0:0:0:
42,336,130459,2,0,L|120:316,1,80.9999975280763,12|0,0:2|0:0,0:0:0:0:
81,132,130726,1,2,0:2:0:0:
72,150,130859,2,0,L|32:159,1,40.4999987640381
69,236,130993,2,0,L|148:217,1,80.9999975280763,2|0,0:2|0:0,0:0:0:0:
152,33,131259,6,0,L|171:111,1,80.9999975280763,10|0,0:2|0:0,0:0:0:0:
274,231,131526,1,2,0:2:0:0:
256,222,131659,2,0,L|246:182,1,40.4999987640381
291,57,131793,6,0,P|336:26|395:82,1,121.499996292114,4|0,0:2|0:0,0:0:0:0:
400,94,132059,1,8,0:2:0:0:
285,301,132193,2,0,L|317:170,1,121.499996292114,4|0,0:2|0:0,0:0:0:0:
328,139,132459,1,2,0:3:0:0:
489,144,132593,5,2,0:3:0:0:
490,159,132659,1,8,1:2:0:0:
486,174,132726,1,2,0:3:0:0:
478,188,132792,1,8,1:2:0:0:
467,199,132859,1,2,0:3:0:0:
453,205,132926,1,8,1:2:0:0:
437,208,132992,1,2,0:3:0:0:
422,205,133059,1,8,1:2:0:0:
408,198,133126,53,2,0:3:0:0:
376,186,133192,1,8,1:2:0:0:
343,190,133259,1,2,0:3:0:0:
315,209,133325,1,8,1:2:0:0:
300,238,133393,6,0,B|302:276|302:276|356:329,1,90,4|0,0:2|0:0,0:0:0:0:
184,124,133659,2,0,B|166:157|166:157|187:229,1,90,10|0,0:2|0:0,0:0:0:0:
391,96,133926,2,0,B|340:110|340:110|307:93,1,90,2|0,0:2|0:0,0:0:0:0:
59,10,134193,6,0,B|109:-4|109:-4|142:12,1,90,10|0,0:2|0:0,0:0:0:0:
201,139,134459,5,4,0:3:0:0:
201,139,134593,1,4,0:3:0:0:
97,105,134726,1,8,0:2:0:0:
125,276,134859,1,0,0:0:0:0:
34,336,134993,54,0,P|20:286|39:220,1,90,4|0,0:2|0:0,0:0:0:0:
222,315,135259,1,10,0:2:0:0:
125,276,135393,6,0,P|137:225|187:178,1,90
222,315,135659,1,0,0:0:0:0:
331,209,135793,5,10,0:2:0:0:
375,286,135926,1,0,0:0:0:0:
427,215,136059,1,2,0:2:0:0:
471,292,136192,1,0,0:0:0:0:
499,117,136326,6,0,L|369:133,1,90,12|0,0:2|0:0,0:0:0:0:
335,304,136593,54,0,P|346:269|329:203,1,90,4|0,0:2|0:0,0:0:0:0:
197,30,136859,2,0,P|239:43|270:75,1,90,10|0,0:2|0:0,0:0:0:0:
148,235,137126,2,0,P|183:227|232:179,1,90,2|0,0:2|0:0,0:0:0:0:
451,67,137393,6,0,P|415:74|366:122,1,90,10|0,0:2|0:0,0:0:0:0:
337,217,137659,1,4,0:3:0:0:
337,217,137793,1,4,0:3:0:0:
449,198,137926,1,8,0:2:0:0:
250,131,138059,1,0,0:0:0:0:
287,329,138193,6,0,B|328:299|328:299|337:247,1,90,4|0,0:2|0:0,0:0:0:0:
246,162,138459,1,10,0:2:0:0:
194,350,138593,2,0,B|188:299|188:299|158:274,1,90
66,205,138859,1,8,0:2:0:0:
222,182,138993,5,8,0:2:0:0:
27,211,139126,1,8,0:2:0:0:
158,118,139259,53,8,0:3:0:0:
70,100,139393,1,8,0:2:0:0:
66,205,139526,5,8,0:3:0:0:
118,20,139659,1,8,0:2:0:0:
252,158,139793,6,0,L|235:271,1,90,4|0,0:2|0:0,0:0:0:0:
348,77,140059,2,0,L|365:190,1,90,12|0,0:2|0:0,0:0:0:0:
172,36,140326,2,0,L|155:149,1,90,2|0,0:2|0:0,0:0:0:0:
347,353,140593,6,0,L|330:240,1,90,10|0,0:2|0:0,0:0:0:0:
228,221,140859,1,4,0:3:0:0:
228,221,140993,1,4,0:3:0:0:
339,168,141126,1,8,0:2:0:0:
121,133,141259,1,0,0:0:0:0:
48,293,141393,54,0,P|92:277|108:225,1,90,4|0,0:2|0:0,0:0:0:0:
72,66,141659,1,10,0:2:0:0:
196,61,141793,2,0,P|198:104|168:137,1,90
27,191,142059,1,8,0:2:0:0:
200,271,142193,5,8,0:2:0:0:
256,193,142326,1,8,0:2:0:0:
309,278,142459,1,10,0:2:0:0:
365,200,142592,1,8,0:2:0:0:
482,358,142726,2,0,L|361:340,1,90,10|8,0:2|0:3,0:0:0:0:
365,225,142993,5,4,0:2:0:0:
443,172,143126,1,8,0:2:0:0:
440,73,143259,1,8,0:3:0:0:
459,177,143393,1,8,0:3:0:0:
312,110,143526,1,8,0:3:0:0:
475,182,143659,1,8,0:3:0:0:
494,329,143793,6,0,L|373:311,1,90,12|0,0:2|0:0,0:0:0:0:
203,231,144059,54,0,L|235:181,1,45,10|8,0:2|0:2,0:0:0:0:
284,104,144193,1,8,0:2:0:0:
284,104,144459,2,0,L|305:69,1,29.2499986610413
154,14,144593,6,0,P|170:62|172:123,1,90,8|8,0:2|0:2,0:0:0:0:
69,234,144859,1,8,0:2:0:0:
69,234,144993,2,0,L|42:129,1,90,8|8,0:2|0:2,0:0:0:0:
283,146,145259,1,8,0:2:0:0:
238,248,145393,5,4,0:2:0:0:
271,259,145526,2,0,P|298:248|334:248,1,45,8|0,0:3|0:0,0:0:0:0:
448,318,145659,5,8,0:3:0:0:
375,325,145793,1,8,0:3:0:0:
285,333,145926,1,8,0:1:0:0:
177,343,146059,1,8,0:1:0:0:
448,318,146193,53,4,0:2:0:0:
279,115,146726,1,2,0:3:0:0:
303,190,146859,1,2,0:3:0:0:
327,265,146993,5,8,0:2:0:0:
97,143,147526,1,0,2:0:0:0:
68,192,147615,1,0,2:0:0:0:
125,192,147704,1,0,2:0:0:0:
97,176,147793,5,8,0:2:0:0:
327,265,148326,1,2,0:3:0:0:
303,190,148460,1,2,0:3:0:0:
279,115,148593,5,8,0:2:0:0:
217,315,148859,1,8,0:2:0:0:
416,134,149126,1,4,0:3:0:0:
159,53,149392,53,8,0:2:0:0:
217,315,150193,5,8,0:2:0:0:
1,180,150726,1,8,0:3:0:0:
77,136,150859,1,8,0:3:0:0:
154,180,150993,5,8,0:1:0:0:
401,107,152593,6,0,P|455:201|419:258,1,175.499991966248,4|0,0:2|0:0,0:0:0:0:
352,282,153126,1,0,0:0:0:0:
352,282,153259,1,0,2:0:0:0:
352,282,153393,2,0,P|305:249|289:247,1,58.4999973220826,12|0,0:2|2:0,0:0:0:0:
223,339,153659,2,0,P|228:281|221:266,1,58.4999973220826,2|0,0:2|2:0,0:0:0:0:
109,255,153926,2,0,P|161:230|170:217,1,58.4999973220826,2|0,0:2|2:0,0:0:0:0:
246,163,154193,54,0,L|241:101,2,38.9999982147218,0|0|0,0:0|2:0|2:0,0:0:0:0:
136,77,154459,2,0,L|131:15,2,38.9999982147218,0|0|0,2:0|2:0|2:0,0:0:0:0:
317,85,154726,2,0,L|312:23,2,38.9999982147218,0|0|0,2:0|2:0|2:0,0:0:0:0:
444,57,154993,6,0,B|409:95|444:103|409:143,1,87.749995983124,8|0,0:2|0:0,0:0:0:0:
375,162,155259,2,0,P|421:184|429:237,1,87.749995983124,0|0,2:0|0:0,0:0:0:0:
436,263,155526,2,0,L|321:248,1,101.250003862381,0|0,2:0|0:0,0:0:0:0:
270,215,155793,6,0,P|178:202|77:283,1,202.500007724762,4|0,0:2|0:0,0:0:0:0:
66,307,156326,1,0,0:0:0:0:
31,30,156593,6,0,P|85:51|105:100,1,101.250003862381,8|0,0:2|0:0,0:0:0:0:
100,111,156859,2,0,P|123:80|172:70,1,67.5000025749208
233,79,157126,1,0,0:0:0:0:
233,79,157259,1,0,2:0:0:0:
202,232,157393,2,0,P|179:263|130:273,1,67.5000025749208,4|8,0:2|0:2,0:0:0:0:
128,280,157593,1,8,0:2:0:0:
128,280,157659,1,8,0:2:0:0:
312,225,157793,54,0,L|407:246,1,67.5000025749208,8|8,0:2|0:2,0:0:0:0:
295,236,158059,1,8,0:1:0:0:
468,344,158186,5,8,0:2:0:0:
442,191,158315,1,8,0:3:0:0:
377,239,158444,1,8,0:3:0:0:
429,71,158573,5,8,0:2:0:0:
293,203,158703,1,8,0:2:0:0:
448,52,158832,1,8,0:2:0:0:
257,90,158986,6,0,P|202:61|112:64,1,135,4|0,0:2|0:0,0:0:0:0:
91,80,159252,1,2,0:2:0:0:
115,180,159386,1,0,0:0:0:0:
53,235,159519,37,2,0:2:0:0:
60,213,159585,1,0,0:0:0:0:
74,196,159652,1,0,0:0:0:0:
93,185,159718,1,0,0:0:0:0:
115,180,159786,54,0,P|142:221|126:315,1,135,10|0,0:2|0:0,0:0:0:0:
105,334,160052,1,2,0:2:0:0:
287,293,160186,2,0,P|246:266|152:282,1,135
133,303,160452,1,0,0:0:0:0:
214,164,160586,37,4,0:2:0:0:
240,242,160719,1,0,0:0:0:0:
326,78,160852,53,2,0:2:0:0:
309,194,160986,1,0,0:0:0:0:
479,123,161119,37,2,0:2:0:0:
465,140,161185,1,0,0:0:0:0:
445,150,161252,1,0,0:0:0:0:
422,151,161318,1,0,0:0:0:0:
402,142,161386,54,0,L|417:18,1,107.999996704102,10|0,0:2|0:0,0:0:0:0:
111,237,161652,2,0,L|95:112,1,107.999996704102,12|0,0:2|0:0,0:0:0:0:
431,362,161919,2,0,L|446:238,1,107.999996704102,12|0,0:2|0:0,0:0:0:0:
227,182,162186,37,4,0:2:0:0:
306,280,162319,1,0,0:0:0:0:
125,255,162452,1,2,0:2:0:0:
306,280,162586,1,0,0:0:0:0:
302,146,162719,1,2,0:2:0:0:
279,145,162785,1,0,0:0:0:0:
258,151,162852,1,0,0:0:0:0:
239,164,162918,1,0,0:0:0:0:
227,182,162986,54,0,P|230:225|186:273,1,90,10|0,0:2|0:0,0:0:0:0:
94,233,163252,2,0,P|91:190|135:142,1,90,2|0,0:2|0:0,0:0:0:0:
256,227,163519,2,0,P|237:265|174:285,1,90,2|0,0:2|0:0,0:0:0:0:
248,61,163786,38,0,L|356:41,1,90,12|0,0:2|0:0,0:0:0:0:
339,147,164052,53,0,0:0:0:0:
163,23,164186,1,8,0:2:0:0:
237,217,164319,1,8,0:2:0:0:
143,17,164452,1,8,0:2:0:0:
118,178,164586,1,8,0:2:0:0:
123,11,164719,1,8,0:2:0:0:
253,99,164852,37,8,0:3:0:0:
120,156,164986,1,8,0:3:0:0:
218,213,165119,1,12,0:3:0:0:
138,168,165252,1,8,0:3:0:0:
58,123,165386,54,0,P|41:193|70:264,1,135,4|0,0:2|0:0,0:0:0:0:
97,319,165652,2,0,P|66:302|45:275,1,45,2|0,0:3|2:0,0:0:0:0:
165,357,165786,2,0,P|130:357|98:345,1,45
143,232,165919,37,2,0:3:0:0:
155,214,165985,1,0,0:0:0:0:
175,204,166052,1,0,0:0:0:0:
198,203,166118,1,0,0:0:0:0:
218,213,166186,54,0,P|229:267|298:260,1,135,8|0,0:2|0:0,0:0:0:0:
261,326,166452,2,0,P|209:286|203:221,1,135,2|0,0:2|0:0,0:0:0:0:
332,177,166719,2,0,P|287:215|279:257,1,90,2|0,0:2|0:0,0:0:0:0:
507,352,166986,38,0,B|491:254|491:254|449:235,1,135,4|0,0:2|0:0,0:0:0:0:
372,264,167252,2,0,L|499:229,1,90
429,77,167519,1,0,0:0:0:0:
414,94,167585,1,0,0:0:0:0:
409,115,167652,1,0,0:0:0:0:
413,137,167718,1,0,0:0:0:0:
425,156,167786,54,0,L|338:179,1,90,12|0,0:2|0:0,0:0:0:0:
41,93,168052,2,0,L|168:58,1,90,12|0,0:2|0:0,0:0:0:0:
387,300,168319,2,0,L|300:323,1,90,12|0,0:2|0:0,0:0:0:0:
105,327,168586,37,4,0:2:0:0:
87,286,168674,1,0,2:0:0:0:
103,245,168763,1,0,2:0:0:0:
142,226,168852,53,0,0:0:0:0:
171,205,168941,1,0,2:0:0:0:
182,170,169030,1,0,2:0:0:0:
174,141,169119,2,0,L|130:132,3,45
272,219,169386,37,12,0:2:0:0:
315,209,169474,1,0,2:0:0:0:
344,176,169563,1,0,2:0:0:0:
349,132,169652,53,0,0:0:0:0:
344,96,169741,1,0,2:0:0:0:
355,61,169830,1,0,2:0:0:0:
389,50,169919,2,0,L|459:98,2,60,0|0|0,0:0|2:0|2:0,0:0:0:0:
400,226,170186,38,0,P|385:197|349:166,2,51.0000009727478,8|0|0,0:2|2:0|2:0,0:0:0:0:
484,252,170452,2,0,P|486:222|480:192,2,60
293,350,170719,54,0,L|198:362,2,60,8|0|0,0:2|0:0|0:0,0:0:0:0:
288,240,170986,37,0,0:0:0:0:
267,218,171074,1,0,0:0:0:0:
239,208,171163,1,0,0:0:0:0:
210,211,171252,53,8,0:3:0:0:
179,230,171341,1,0,0:0:0:0:
146,244,171430,1,0,0:0:0:0:
98,239,171519,37,8,0:2:0:0:
70,199,171608,1,0,0:0:0:0:
79,151,171697,1,0,0:0:0:0:
124,130,171786,54,0,B|206:126|180:178|257:168,1,135,4|0,0:2|0:0,0:0:0:0:
290,162,172052,1,2,0:2:0:0:
309,64,172186,1,0,0:0:0:0:
368,206,172319,1,2,0:2:0:0:
390,207,172385,1,0,0:0:0:0:
410,201,172452,1,0,0:0:0:0:
428,190,172518,1,0,0:0:0:0:
443,172,172586,38,0,B|405:109|405:109|342:100,1,107.999996704102,12|0,0:2|0:0,0:0:0:0:
308,384,172852,2,0,B|381:382|381:382|420:332,1,107.999996704102,12|0,0:2|0:0,0:0:0:0:
192,162,173119,2,0,B|156:226|156:226|180:285,1,107.999996704102,12|0,0:2|0:0,0:0:0:0:
281,253,173386,54,0,B|305:242|311:210|311:210|282:212|264:233,1,107.999996704102,4|0,0:2|0:0,0:0:0:0:
67,171,173652,1,2,0:2:0:0:
156,353,173786,1,0,0:0:0:0:
18,105,173919,38,0,B|-1:86|3:54|3:54|30:66|40:91,1,107.999996704102,2|0,0:2|0:0,0:0:0:0:
98,278,174186,54,0,B|9:292|9:292|-11:324,1,107.999996704102,12|0,0:2|0:0,0:0:0:0:
336,188,174452,2,0,B|425:202|425:202|445:234,1,107.999996704102,12|0,0:2|0:0,0:0:0:0:
102,25,174719,2,0,B|13:39|13:39|-7:71,1,107.999996704102,12|0,0:2|0:0,0:0:0:0:
175,217,174986,37,4,0:2:0:0:
213,196,175074,1,0,2:0:0:0:
229,155,175163,1,0,2:0:0:0:
214,113,175252,53,0,0:0:0:0:
210,78,175341,1,0,2:0:0:0:
229,47,175430,1,0,2:0:0:0:
263,37,175519,38,0,L|319:56,3,45
503,135,175786,53,8,0:2:0:0:
459,142,175874,1,0,2:0:0:0:
421,120,175963,1,0,2:0:0:0:
405,79,176052,37,0,0:0:0:0:
420,46,176141,1,0,2:0:0:0:
456,45,176230,1,0,2:0:0:0:
471,77,176319,2,0,L|440:158,2,60,0|0|0,0:0|2:0|2:0,0:0:0:0:
413,224,176586,54,0,L|382:305,2,51.0000009727478,0|0|0,0:0|2:0|2:0,0:0:0:0:
292,146,176852,38,0,L|323:227,2,60,0|0|0,0:0|2:0|2:0,0:0:0:0:
491,275,177119,2,0,L|512:218,2,60,0|0|0,0:0|2:0|2:0,0:0:0:0:
387,360,177386,53,8,0:2:0:0:
382,330,177474,1,0,2:0:0:0:
363,307,177563,1,0,2:0:0:0:
336,295,177652,37,8,0:2:0:0:
294,298,177741,1,0,2:0:0:0:
256,316,177830,1,0,2:0:0:0:
208,308,177919,53,8,0:3:0:0:
176,264,178008,1,0,2:0:0:0:
193,206,178097,1,0,2:0:0:0:
248,183,178186,38,0,B|205:283|264:266|219:392,1,180,4|4,0:2|0:2,0:0:0:0:
136,308,178586,1,0,0:0:0:0:
335,226,178719,53,0,0:0:0:0:
342,204,178785,1,0,0:0:0:0:
344,182,178852,1,0,0:0:0:0:
341,160,178918,1,0,0:0:0:0:
332,139,178986,38,0,P|295:164|227:137,1,90,12|0,0:2|0:0,0:0:0:0:
224,54,179252,2,0,P|261:29|329:56,1,90
303,176,179519,2,0,P|258:179|213:121,1,90
59,36,179786,53,4,0:2:0:0:
78,147,179919,1,0,0:0:0:0:
97,258,180052,1,2,0:2:0:0:
122,138,180186,1,0,0:0:0:0:
97,258,180319,37,2,0:2:0:0:
108,238,180385,1,0,0:0:0:0:
126,225,180452,1,0,0:0:0:0:
147,220,180518,1,0,0:0:0:0:
169,223,180586,54,0,L|144:345,1,107.999996704102,12|0,0:2|0:0,0:0:0:0:
278,100,180852,2,0,L|380:65,1,107.999996704102,12|0,0:2|0:0,0:0:0:0:
434,348,181119,2,0,L|354:277,1,107.999996704102,12|0,0:2|0:0,0:0:0:0:
278,100,181386,38,0,P|301:130|295:161,2,48,8|0|0,0:2|2:0|2:0,0:0:0:0:
262,223,181652,2,0,P|223:228|200:207,2,48,0|0|0,0:0|2:0|2:0,0:0:0:0:
163,147,181919,2,0,P|177:110|207:101,2,48,0|0|0,0:0|2:0|2:0,0:0:0:0:
287,246,182186,54,0,L|216:296,2,60,8|0|0,0:2|2:0|2:0,0:0:0:0:
285,66,182452,2,0,L|363:102,2,60,0|0|0,0:0|2:0|2:0,0:0:0:0:
130,157,182719,2,0,L|122:70,2,60,0|0|0,0:0|2:0|2:0,0:0:0:0:
161,338,182986,37,8,0:2:0:0:
122,359,183074,1,8,0:2:0:0:
81,345,183163,1,8,0:2:0:0:
62,306,183252,53,8,0:2:0:0:
77,265,183341,1,8,0:2:0:0:
118,249,183430,1,8,0:2:0:0:
156,272,183519,2,0,L|139:342,2,60,8|8|8,0:2|0:2|0:2,0:0:0:0:
213,188,183786,37,8,0:3:0:0:
237,171,183874,1,8,0:3:0:0:
267,168,183963,1,8,0:3:0:0:
294,180,184052,53,8,0:3:0:0:
308,200,184141,1,8,0:3:0:0:
309,224,184230,1,8,0:3:0:0:
301,240,184319,2,0,L|249:245,2,45.0000017166138,8|8|8,0:1|0:1|0:1,0:0:0:0:
388,233,184586,37,4,0:2:0:0:
62,129,192586,6,0,L|76:294,2,120,8|8|8,0:3|0:3|0:3,0:0:0:0:
362,85,193119,22,0,P|318:116|268:114,1,90,4|0,0:2|0:0,0:0:0:0:
197,79,193652,1,4,0:2:0:0:
197,79,193919,1,0,0:0:0:0:
97,206,194186,70,0,L|189:180,1,90,12|0,0:2|0:0,0:0:0:0:
356,229,194719,2,0,L|269:253,1,90,4|0,0:2|0:0,0:0:0:0:
217,350,195252,1,4,0:2:0:0:
30,239,195786,2,0,P|47:190|46:137,1,90,4|0,0:2|0:0,0:0:0:0:
21,56,196319,21,12,0:2:0:0:
21,56,196586,1,0,0:0:0:0:
151,112,196852,1,4,0:2:0:0:
151,112,197119,1,0,0:0:0:0:
227,38,197386,69,4,0:2:0:0:
437,43,197919,2,0,P|422:82|418:138,1,90,4|0,0:2|0:0,0:0:0:0:
460,253,198452,22,0,L|358:219,1,90,12|0,0:2|0:0,0:0:0:0:
240,112,198986,2,0,L|325:140,1,90,4|0,0:2|0:0,0:0:0:0:
287,363,199519,70,0,P|230:328|258:233,1,180,4|4,0:2|0:2,0:0:0:0:
257,233,200319,1,0,0:0:0:0:
438,308,200586,1,12,0:2:0:0:
462,305,201119,22,0,L|453:187,2,90.0000034332277,8|8|8,0:1|0:1|0:1,0:0:0:0:
314,108,201652,70,0,B|228:130|228:130|198:119|198:119|108:139,1,202.500007724762,4|0,0:2|0:0,0:0:0:0:
85,145,202186,2,0,L|63:237,1,67.5000025749208
46,225,202452,2,0,L|24:317,1,67.5000025749208
260,298,202719,6,0,B|250:221|250:221|179:210,2,135.000005149842,12|0|0,0:2|0:0|0:0,0:0:0:0:
260,298,203519,1,0,0:0:0:0:
412,384,203786,86,0,B|429:252|429:252|526:237,1,202.500007724762,4|0,0:2|0:0,0:0:0:0:
512,220,204319,2,0,B|445:230,1,67.5000025749208
426,217,204586,2,0,B|359:227,1,67.5000025749208
340,24,204852,6,0,B|350:101|350:101|421:112,2,135.000005149842,12|0|0,0:2|0:0|0:0,0:0:0:0:
340,24,205652,1,0,0:0:0:0:
140,43,205919,85,4,0:2:0:0:
135,45,205986,1,0,0:0:0:0:
132,50,206052,1,0,0:0:0:0:
131,54,206119,1,0,0:0:0:0:
132,59,206186,1,0,0:0:0:0:
135,64,206252,1,0,0:0:0:0:
139,66,206319,1,0,0:0:0:0:
144,67,206386,1,0,0:0:0:0:
149,66,206452,1,4,0:2:0:0:
154,64,206519,1,0,0:0:0:0:
156,59,206586,1,0,0:0:0:0:
157,54,206652,1,0,0:0:0:0:
156,50,206719,1,0,0:0:0:0:
154,45,206786,1,0,0:0:0:0:
149,43,206852,1,0,0:0:0:0:
144,42,206919,1,0,0:0:0:0:
140,43,206986,6,0,L|125:96,15,33.7500012874604,12|0|0|0|0|0|0|0|4|0|0|0|0|0|0|0,0:2|0:0|0:0|0:0|0:0|0:0|0:0|0:0|0:2|0:0|0:0|0:0|0:0|0:0|0:0|0:0,0:0:0:0:
189,147,208052,86,0,L|174:200,3,33.7500012874604,12|0|0|0,0:2|0:0|0:0|0:0,0:0:0:0:
85,211,208319,2,0,L|70:264,11,33.7500012874604
134,315,209119,5,4,0:2:0:0:
134,315,209386,85,8,0:3:0:0:
155,289,209452,1,8,0:3:0:0:
186,278,209519,1,8,0:3:0:0:
219,284,209585,1,8,0:3:0:0:
244,306,209652,1,8,0:3:0:0:
262,318,209718,1,8,0:3:0:0:
284,321,209785,1,8,0:3:0:0:
306,316,209851,1,8,0:3:0:0:
324,302,209919,2,0,L|317:263,3,33.7500012874604,8|8|8|8,0:1|0:1|0:1|0:1,0:0:0:0:
290,110,210186,5,4,0:2:0:0:
290,110,210452,53,8,0:2:0:0:
212,168,210586,1,8,0:2:0:0:
192,46,210719,1,8,0:2:0:0:
212,168,210852,1,8,0:2:0:0:
78,27,210986,1,8,0:2:0:0:
212,168,211119,1,8,0:2:0:0:
50,188,211252,38,0,B|38:177|38:177|110:156,1,90,8|8,0:2|0:3,0:0:0:0:
165,325,211519,53,8,0:3:0:0:
132,316,211585,1,8,0:3:0:0:
113,289,211652,1,8,0:3:0:0:
116,256,211718,1,0,0:0:0:0:
139,233,211785,1,4,0:3:0:0:
332,252,212052,37,8,0:3:0:0:
356,245,212118,1,8,0:3:0:0:
371,225,212185,1,8,0:3:0:0:
368,200,212251,1,8,0:3:0:0:
351,183,212318,1,4,0:2:0:0:
243,109,212586,53,8,0:3:0:0:
239,119,212652,1,8,2:3:0:0:
236,129,212719,2,0,L|319:109,1,45,8|8,0:3|2:3,0:0:0:0:
361,98,212852,37,8,0:3:0:0:
368,95,212918,1,8,0:3:0:0:
376,93,212985,2,0,L|351:66,1,33.7500012874604,8|8,0:3|0:3,0:0:0:0:
302,16,213120,53,0,0:0:0:0:
297,11,213186,1,0,0:0:0:0:
292,6,213253,2,0,L|282:33,1,22.5
351,183,213386,37,8,0:3:0:0:
378,202,213452,1,8,0:3:0:0:
411,204,213519,1,8,0:3:0:0:
440,189,213585,1,8,0:3:0:0:
457,160,213652,2,0,L|425:125,1,45
293,251,213786,53,8,0:3:0:0:
267,252,213852,1,8,0:3:0:0:
245,240,213919,1,0,0:0:0:0:
232,220,213985,1,0,0:0:0:0:
232,195,214052,2,0,L|265:184,1,33.7500012874604
376,299,214186,37,10,0:2:0:0:
434,107,214452,54,0,P|407:54|353:40,1,90,4|0,0:2|0:0,0:0:0:0:
284,3,214719,37,4,0:2:0:0:
250,1,214785,1,8,1:2:0:0:
221,17,214852,1,2,0:3:0:0:
203,45,214918,1,8,1:2:0:0:
201,78,214985,1,2,0:3:0:0:
217,108,215052,1,8,1:2:0:0:
244,126,215119,1,2,0:3:0:0:
260,154,215185,1,8,1:2:0:0:
258,187,215252,1,2,0:3:0:0:
237,213,215318,1,8,1:2:0:0:
205,223,215385,1,2,0:3:0:0:
173,214,215452,1,8,1:2:0:0:
153,188,215519,1,2,0:3:0:0:
151,155,215585,1,8,1:2:0:0:
171,129,215652,1,2,0:3:0:0:
203,121,215718,1,8,1:2:0:0:
233,136,215785,1,2,0:3:0:0:
243,168,215852,1,8,1:2:0:0:
224,196,215919,1,0,0:0:0:0:
190,197,215986,1,8,1:2:0:0:
164,174,216052,54,0,L|171:113,3,45,2|8|2|8,0:3|1:2|0:3|1:2,0:0:0:0:
88,83,216319,2,0,L|82:127,3,45,2|8|2|8,0:3|1:2|0:3|1:2,0:0:0:0:
25,194,216586,37,2,0:3:0:0:
18,226,216652,1,8,1:2:0:0:
29,258,216719,1,2,0:3:0:0:
53,281,216785,1,8,1:2:0:0:
86,289,216852,1,2,0:3:0:0:
118,281,216919,1,8,1:2:0:0:
148,265,216986,1,2,0:3:0:0:
181,265,217052,1,8,1:2:0:0:
211,278,217119,54,0,L|203:335,3,45,2|8|2|8,0:3|1:2|0:3|1:2,0:0:0:0:
282,314,217386,2,0,L|274:371,3,45,2|10|4|0,0:3|1:2|0:2|0:0,0:0:0:0:
386,306,217652,38,0,L|455:300,3,45,4|0|0|0,0:2|1:0|0:0|1:0,0:0:0:0:
485,213,217919,53,8,0:2:0:0:
440,216,217985,1,8,0:2:0:0:
395,220,218052,1,8,0:2:0:0:
350,224,218118,1,0,0:0:0:0:
305,228,218186,2,0,L|313:279,3,33.7500012874604,8|8|8|8,0:3|0:3|0:3|0:3,0:0:0:0:
211,278,218452,37,8,0:2:0:0:
217,233,218518,1,8,0:2:0:0:
224,189,218585,1,8,0:2:0:0:
231,144,218651,1,8,0:2:0:0:
238,100,218719,54,0,P|250:68|316:55,1,90,4|0,0:2|0:0,0:0:0:0:
373,116,218986,37,4,0:2:0:0:
367,148,219052,1,8,1:2:0:0:
344,172,219119,1,0,0:0:0:0:
311,180,219185,1,8,1:2:0:0:
280,169,219252,1,4,0:2:0:0:
260,142,219319,1,8,1:2:0:0:
230,127,219386,1,0,0:0:0:0:
196,126,219452,1,8,1:2:0:0:
171,147,219519,1,0,0:0:0:0:
165,180,219585,1,8,1:2:0:0:
181,208,219652,1,4,0:2:0:0:
212,220,219719,1,8,1:2:0:0:
245,211,219786,54,0,L|278:154,7,45,0|8|4|8|0|8|0|8,0:0|1:2|0:2|1:2|0:0|1:2|0:0|1:2,0:0:0:0:
197,72,220319,2,0,L|174:110,7,45,4|8|0|8|0|8|4|8,0:2|1:2|0:0|1:2|0:0|1:2|0:2|1:2,0:0:0:0:
79,139,220852,38,0,L|56:100,3,45,0|8|0|8,0:0|1:2|0:0|1:2,0:0:0:0:
151,194,221119,2,0,L|128:232,3,45,4|8|0|8,0:2|1:2|0:0|1:2,0:0:0:0:
31,261,221386,2,0,L|8:299,3,45,4|8|0|8,0:2|1:2|0:0|1:2,0:0:0:0:
96,328,221652,2,0,L|73:366,3,45,4|8|0|8,0:2|1:2|0:0|1:2,0:0:0:0:
220,355,221919,53,0,0:0:0:0:
241,348,221985,1,8,0:3:0:0:
260,336,222052,1,8,0:3:0:0:
274,319,222118,1,8,0:3:0:0:
282,298,222186,37,8,0:3:0:0:
270,298,222252,1,8,0:3:0:0:
260,293,222319,1,8,0:3:0:0:
254,284,222385,1,8,0:3:0:0:
252,273,222452,54,0,L|300:279,3,33.7500012874604,8|8|8|8,0:1|0:1|0:1|0:1,0:0:0:0:
392,292,222719,1,0,0:0:0:0:
395,311,222986,37,4,0:2:0:0:
372,286,223052,1,0,0:0:0:0:
366,253,223119,1,0,0:0:0:0:
380,223,223186,1,0,0:0:0:0:
408,205,223252,1,2,0:3:0:0:
441,206,223319,1,8,1:2:0:0:
467,186,223385,1,2,0:3:0:0:
480,155,223452,1,8,1:2:0:0:
474,122,223518,1,2,0:3:0:0:
453,96,223585,1,8,1:2:0:0:
422,85,223652,1,2,0:3:0:0:
389,91,223718,1,8,1:2:0:0:
364,113,223785,1,2,0:3:0:0:
354,144,223852,1,8,1:2:0:0:
360,177,223919,1,2,0:3:0:0:
349,209,223986,1,8,1:2:0:0:
324,231,224052,1,2,0:3:0:0:
291,234,224119,1,8,1:2:0:0:
261,219,224185,1,2,0:3:0:0:
246,189,224252,1,8,1:2:0:0:
250,156,224319,1,2,0:3:0:0:
263,126,224385,1,8,1:2:0:0:
252,95,224452,1,2,0:3:0:0:
223,80,224518,1,8,1:2:0:0:
192,91,224586,54,0,L|136:74,3,45,2|8|2|8,0:3|1:2|0:3|1:2,0:0:0:0:
95,23,224852,2,0,L|38:5,3,45,2|8|2|8,0:3|1:2|0:3|1:2,0:0:0:0:
0,75,225119,37,4,0:2:0:0:
0,75,225186,1,0,0:0:0:0:
0,75,225252,1,8,0:2:0:0:
7,119,225318,1,8,0:2:0:0:
14,163,225386,2,0,L|109:119,1,90,8|8,0:3|0:3,0:0:0:0:
231,159,225652,53,8,0:3:0:0:
231,159,225786,1,8,0:1:0:0:
170,285,225919,37,4,0:2:0:0:
89,247,226052,1,0,0:0:0:0:
231,159,226186,53,8,0:2:0:0:
312,197,226319,2,0,L|359:219,1,45,8|8,0:2|0:2,0:0:0:0:
450,103,226452,37,8,0:2:0:0:
367,103,226586,1,8,0:2:0:0:
325,31,226719,1,4,0:2:0:0:
312,197,226852,53,8,0:2:0:0:
312,8,226985,1,0,0:0:0:0:
476,102,227118,1,4,0:2:0:0:
494,220,227252,38,0,L|394:207,1,80.9999975280763,4|0,0:2|0:0,0:0:0:0:
328,366,227519,2,0,L|289:272,1,80.9999975280763,12|0,0:2|0:0,0:0:0:0:
246,132,227786,2,0,L|196:196,1,80.9999975280763,4|0,0:2|0:0,0:0:0:0:
146,260,228052,1,10,0:2:0:0:
146,260,228186,1,0,0:0:0:0:
67,87,228319,54,0,L|147:97,1,80.9999975280763,2|0,0:2|0:0,0:0:0:0:
59,296,228586,2,0,L|27:221,1,80.9999975280763,10|0,0:2|0:0,0:0:0:0:
243,198,228852,2,0,L|193:262,1,80.9999975280763,2|0,0:2|0:0,0:0:0:0:
372,326,229119,37,10,0:2:0:0:
452,288,229252,1,0,0:0:0:0:
379,237,229386,54,0,L|384:135,1,80.9999975280763,2|0,0:2|0:0,0:0:0:0:
173,66,229652,1,10,0:2:0:0:
246,117,229786,38,0,L|241:219,1,80.9999975280763,0|2,0:0|0:2,0:0:0:0:
112,283,230052,1,0,0:0:0:0:
112,283,230186,2,0,L|115:202,1,80.9999975280763,10|0,0:2|0:0,0:0:0:0:
173,66,230452,53,2,0:2:0:0:
80,86,230586,1,0,0:0:0:0:
173,66,230719,1,10,0:2:0:0:
17,15,230852,1,0,0:0:0:0:
329,117,230986,38,0,L|423:148,1,80.9999975280763,2|0,0:2|0:0,0:0:0:0:
130,191,231252,1,10,0:2:0:0:
223,171,231385,1,4,0:2:0:0:
376,221,231519,54,0,L|470:252,1,80.9999975280763,4|0,0:2|0:0,0:0:0:0:
287,343,231786,2,0,P|273:286|293:246,1,80.9999975280763,10|0,0:2|0:0,0:0:0:0:
309,58,232052,2,0,P|323:115|303:155,1,80.9999975280763,2|0,0:2|0:0,0:0:0:0:
144,203,232319,1,10,0:2:0:0:
124,110,232452,1,0,0:0:0:0:
29,278,232586,38,0,L|123:309,1,80.9999975280763,2|0,0:2|0:0,0:0:0:0:
106,123,232852,2,0,P|61:128|36:157,1,80.9999975280763,10|0,0:2|0:0,0:0:0:0:
167,30,233119,2,0,P|203:56|210:94,1,80.9999975280763,2|0,0:2|0:0,0:0:0:0:
264,244,233386,1,10,0:2:0:0:
284,151,233519,1,0,0:0:0:0:
382,35,233652,54,0,L|400:117,1,80.9999975280763,2|0,0:2|0:0,0:0:0:0:
290,71,233919,1,10,0:2:0:0:
293,59,234052,1,0,0:0:0:0:
478,42,234186,1,2,0:2:0:0:
481,54,234319,1,0,0:0:0:0:
399,155,234452,38,0,L|381:75,1,80.9999975280763,10|0,0:2|0:0,0:0:0:0:
495,170,234719,53,10,0:2:0:0:
475,258,234852,1,8,0:2:0:0:
365,181,234986,1,10,0:2:0:0:
411,323,235119,1,8,0:2:0:0:
352,143,235252,1,10,0:2:0:0:
425,360,235386,2,0,L|528:353,2,80.9999975280763,8|10|8,0:2|0:2|0:2,0:0:0:0:
221,329,235786,38,0,L|178:370,3,45,14|0|0|0,0:2|0:0|0:0|0:0,0:0:0:0:
221,195,236052,2,0,L|178:236,3,45,12|0|0|0,0:2|0:0|0:0|0:0,0:0:0:0:
140,78,236319,1,10,0:2:0:0:
144,88,236385,1,0,0:0:0:0:
146,99,236452,1,0,0:0:0:0:
145,110,236518,1,0,0:0:0:0:
142,121,236586,53,10,0:2:0:0:
116,99,236652,1,0,0:0:0:0:
84,88,236719,1,0,0:0:0:0:
50,88,236785,1,0,0:0:0:0:
19,100,236852,38,0,L|62:141,3,45,10|0|0|0,0:2|0:0|0:0|0:0,0:0:0:0:
45,223,237119,2,0,L|88:264,3,45,10|0|0|0,0:2|0:0|0:0|0:0,0:0:0:0:
168,242,237386,1,10,0:2:0:0:
176,249,237452,1,0,0:0:0:0:
184,257,237519,1,0,0:0:0:0:
192,265,237585,1,0,0:0:0:0:
200,272,237652,53,10,0:2:0:0:
202,238,237718,1,0,0:0:0:0:
205,204,237785,1,0,0:0:0:0:
208,171,237851,1,0,0:0:0:0:
211,137,237919,38,0,P|238:115|271:105,3,45,10|0|0|0,0:2|0:0|0:0|0:0,0:0:0:0:
304,36,238186,1,10,0:2:0:0:
304,36,238252,1,0,0:0:0:0:
304,36,238319,2,0,P|336:48|361:71,3,45,0|0|10|0,0:0|0:0|0:2|0:0,0:0:0:0:
444,63,238586,1,0,0:0:0:0:
444,63,238652,1,0,0:0:0:0:
444,63,238719,2,0,P|449:97|441:130,3,45,10|0|0|0,0:2|0:0|0:0|0:0,0:0:0:0:
508,209,238986,53,8,0:2:0:0:
474,214,239052,1,8,0:2:0:0:
441,219,239119,1,8,0:2:0:0:
407,224,239185,1,8,0:2:0:0:
375,230,239252,1,8,0:3:0:0:
376,218,239318,1,8,0:3:0:0:
378,207,239385,1,8,0:3:0:0:
380,196,239451,1,8,0:3:0:0:
381,185,239519,37,8,0:2:0:0:
336,191,239585,1,8,0:2:0:0:
292,198,239652,1,8,0:2:0:0:
247,205,239718,1,8,0:2:0:0:
203,212,239786,2,0,L|221:259,3,38.2500007295609,8|8|8|8,0:3|0:3|0:3|0:3,0:0:0:0:
143,337,240052,53,4,0:2:0:0:
151,305,240118,1,0,0:0:0:0:
139,274,240185,1,0,0:0:0:0:
111,256,240251,1,0,0:0:0:0:
78,259,240318,1,10,0:2:0:0:
47,274,240386,1,0,0:0:0:0:
15,263,240452,1,0,0:0:0:0:
0,234,240519,1,0,0:0:0:0:
8,203,240585,1,10,0:2:0:0:
36,185,240652,1,0,0:0:0:0:
68,191,240719,1,0,0:0:0:0:
88,218,240786,1,0,0:0:0:0:
77,249,240852,2,0,L|27:230,3,45,10|0|0|0,0:2|0:0|0:0|0:0,0:0:0:0:
80,142,241119,37,10,0:2:0:0:
102,166,241185,1,0,0:0:0:0:
135,172,241252,1,0,0:0:0:0:
165,157,241318,1,0,0:0:0:0:
180,128,241385,1,10,0:2:0:0:
175,95,241452,1,0,0:0:0:0:
182,63,241518,1,0,0:0:0:0:
208,43,241585,1,0,0:0:0:0:
241,44,241651,1,10,0:2:0:0:
265,67,241718,1,0,0:0:0:0:
270,100,241785,1,0,0:0:0:0:
251,127,241851,1,0,0:0:0:0:
218,137,241919,2,0,L|231:201,3,45,10|0|0|0,0:2|0:0|0:0|0:0,0:0:0:0:
246,258,242186,54,0,L|330:263,1,45,12|0,0:2|0:0,0:0:0:0:
449,201,242319,2,0,L|365:196,3,45,8|0|0|0,0:2|0:0|0:0|0:0,0:0:0:0:
359,75,242586,1,0,0:0:0:0:
359,75,242652,1,0,0:0:0:0:
359,75,242719,38,0,L|354:159,1,45,12|0,0:2|0:0,0:0:0:0:
290,260,242852,2,0,L|295:176,3,45,8|0|0|0,0:2|0:0|0:0|0:0,0:0:0:0:
218,137,243119,1,0,0:0:0:0:
218,137,243186,1,0,0:0:0:0:
218,137,243252,53,8,0:2:0:0:
116,95,243386,2,0,L|54:112,1,45,8|0,0:2|0:0,0:0:0:0:
188,47,243519,1,8,0:2:0:0:
120,230,243652,1,8,0:2:0:0:
125,114,243786,37,8,0:3:0:0:
147,236,243919,1,8,0:3:0:0:
310,169,244052,1,8,0:3:0:0:
232,312,244186,1,8,0:3:0:0:
416,239,244319,85,4,0:2:0:0:
37,49,247519,21,4,0:2:0:0:
37,49,247786,1,8,0:2:0:0:
47,52,247852,1,8,0:2:0:0:
58,55,247919,1,8,0:2:0:0:
69,58,247985,1,8,0:2:0:0:
80,61,248052,38,0,B|33:139|33:139|59:198,1,135.000005149842,4|0,0:2|0:0,0:0:0:0:
