osu file format v14

[General]
AudioFilename: audio.mp3
AudioLeadIn: 0
PreviewTime: 91989
Countdown: 0
SampleSet: Normal
StackLeniency: 0.4
Mode: 0
LetterboxInBreaks: 0
WidescreenStoryboard: 0

[Editor]
Bookmarks: 111625,119261,120352,126898,129080,133080,133443,137807,146534,155624,156594,157442,158533,159503,159988,169079,187988,189443,191988,192352,194897,195261,197807,198170,229314,233902,246255,275003,292458,312094,327367,405505,423066,429652,467924,490512,529271,540907,593803,611258,618894
DistanceSpacing: 0.4
BeatDivisor: 3
GridSize: 4
TimelineZoom: 1.6

[Metadata]
Title:Bloodred Shores Of Enoshima
TitleUnicode:Bloodred Shores Of Enoshima
Artist:Whispered
ArtistUnicode:Whispered
Creator:MrKosiej
Version:Agony
Source:
Tags:metal
BeatmapID:1758010
BeatmapSetID:839857

[Difficulty]
HPDrainRate:5
CircleSize:4.2
OverallDifficulty:9
ApproachRate:9.4
SliderMultiplier:1.9
SliderTickRate:1

[Events]
//Background and Video events
0,0,"aIUfCts.jpg",0,0
//Break Periods
//Storyboard Layer 0 (Background)
//Storyboard Layer 1 (Fail)
//Storyboard Layer 2 (Pass)
//Storyboard Layer 3 (Foreground)
//Storyboard Layer 4 (Overlay)
//Storyboard Sound Samples

[TimingPoints]
59412,361.44578313253,3,1,0,5,1,0
85444,363.636363636364,3,1,0,20,1,0
85444,-200,3,1,0,20,0,0
94171,363.636363636364,3,1,0,50,1,0
155261,363.636363636364,4,1,0,50,1,0
166898,363.636363636364,3,1,0,50,1,0
173443,-66.6666666666667,3,1,0,50,0,0
173716,-66.6666666666667,3,1,0,5,0,0
173807,-100,3,1,0,50,0,0
175898,-100,3,1,0,5,0,0
175988,-100,3,1,0,50,0,0
177807,363.636363636364,4,1,0,50,1,0
177807,-80,4,1,0,50,0,0
178897,-100,4,1,0,50,0,0
201079,705.882352941176,3,1,0,50,1,0
234961,352.941176470588,4,1,0,50,1,0
257549,363.636363636364,3,1,0,50,1,0
352823,365.853658536585,3,1,0,50,1,0
370384,365.853658536585,3,1,0,50,1,1
387944,-100,3,1,0,50,0,0
434042,352.941176470588,3,1,0,50,1,0
450983,352.941176470588,3,1,0,50,1,0
484865,352.941176470588,4,1,0,50,1,0
507453,363.636363636364,4,1,0,50,1,0
549271,857.142857142857,4,1,0,50,1,0
559556,352.941176470588,3,1,0,50,1,0
568026,346.820809248555,3,1,0,50,1,0
576349,363.636363636364,3,1,0,50,1,0

[Colours]
Combo1 : 0,102,255
Combo2 : 255,51,153
Combo3 : 0,204,153
Combo4 : 153,0,255

[HitObjects]
324,62,85444,5,0,0:0:0:0:
254,168,85807,2,0,L|262:105,1,47.5
335,146,86171,2,0,L|340:193,1,47.5
357,324,86534,5,0,0:0:0:0:
427,218,86897,2,0,L|419:281,1,47.5
346,240,87261,2,0,L|340:192,1,47.5
324,62,87625,5,0,0:0:0:0:
197,54,87988,2,0,L|255:29,1,47.5
256,113,88352,2,0,L|218:141,1,47.5
113,221,88715,5,0,0:0:0:0:
240,229,89078,2,0,L|181:253,1,47.5
180,170,89442,2,0,L|217:141,1,47.5
319,180,89807,5,0,0:0:0:0:
339,311,90171,2,0,L|330:252,1,47.5
413,187,90534,2,0,L|405:233,1,47.5
306,95,90898,5,0,0:0:0:0:
339,311,91262,2,0,L|330:252,1,47.5
432,60,91625,2,0,L|424:106,1,47.5
237,331,91989,5,0,0:0:0:0:
223,323,92049,1,0,0:0:0:0:
208,318,92110,1,0,0:0:0:0:
192,316,92170,1,0,0:0:0:0:
176,317,92231,1,0,0:0:0:0:
161,321,92292,1,0,0:0:0:0:
146,328,92352,5,0,0:0:0:0:
153,305,92444,1,0,0:0:0:0:
151,281,92534,1,0,0:0:0:0:
140,259,92625,1,0,0:0:0:0:
122,242,92716,1,0,0:0:0:0:
110,221,92807,1,0,0:0:0:0:
109,197,92898,1,0,0:0:0:0:
119,175,92989,1,0,0:0:0:0:
138,160,93080,5,0,0:0:0:0:
115,151,93170,1,0,0:0:0:0:
98,135,93261,1,0,0:0:0:0:
88,114,93352,1,0,0:0:0:0:
88,90,93443,1,0,0:0:0:0:
97,68,93534,1,0,0:0:0:0:
113,52,93625,1,0,0:0:0:0:
135,43,93716,1,0,0:0:0:0:
159,43,93807,5,0,0:0:0:0:
189,80,93897,1,0,0:0:0:0:
231,100,93988,1,0,0:0:0:0:
278,100,94079,1,0,0:0:0:0:
321,80,94170,5,0,0:0:0:0:
337,155,94292,1,0,0:0:0:0:
293,217,94413,1,0,0:0:0:0:
394,218,94534,6,0,L|412:291,1,63.3333333333333
433,282,94777,1,0,0:0:0:0:
275,277,94898,2,0,L|295:204,1,63.3333333333333
273,203,95141,1,0,0:0:0:0:
321,353,95261,5,0,0:0:0:0:
244,357,95383,1,0,0:0:0:0:
168,362,95504,1,0,0:0:0:0:
136,292,95625,6,0,L|154:219,1,63.3333333333333
175,228,95868,1,0,0:0:0:0:
17,233,95989,2,0,L|37:305,1,63.3333333333333
17,307,96232,1,0,0:0:0:0:
167,144,96352,5,0,0:0:0:0:
97,178,96474,1,0,0:0:0:0:
26,150,96595,1,0,0:0:0:0:
91,90,96716,6,0,L|73:17,1,63.3333333333333
52,26,96959,1,0,0:0:0:0:
210,0,97080,2,0,L|189:72,1,63.3333333333333
210,74,97323,1,0,0:0:0:0:
167,144,97443,5,0,0:0:0:0:
243,149,97565,1,0,0:0:0:0:
291,209,97686,1,0,0:0:0:0:
204,227,97807,6,0,L|183:299,1,63.3333333333333
206,304,98050,1,0,0:0:0:0:
94,332,98171,2,0,L|114:259,1,63.3333333333333
92,255,98414,1,0,0:0:0:0:
206,304,98534,5,0,0:0:0:0:
281,286,98656,1,0,0:0:0:0:
355,268,98777,1,0,0:0:0:0:
365,275,98898,5,0,0:0:0:0:
290,293,99020,1,0,0:0:0:0:
306,206,99140,1,0,0:0:0:0:
313,213,99261,5,0,0:0:0:0:
334,139,99383,1,0,0:0:0:0:
356,65,99504,1,0,0:0:0:0:
451,42,99625,6,0,L|374:63,1,63.3333333333333
267,90,99867,1,0,0:0:0:0:
459,47,99989,6,0,L|382:68,1,63.3333333333333
275,95,100231,1,0,0:0:0:0:
356,65,100352,5,0,0:0:0:0:
335,139,100474,1,0,0:0:0:0:
313,213,100595,1,0,0:0:0:0:
402,302,100716,6,0,L|391:227,1,63.3333333333333
408,204,100958,1,0,0:0:0:0:
114,287,101080,2,0,L|184:314,1,63.3333333333333
195,341,101322,1,0,0:0:0:0:
275,95,101443,2,0,L|215:142,1,63.3333333333333
187,138,101685,1,0,0:0:0:0:
290,293,101807,5,0,0:0:0:0:
313,213,101928,1,0,0:0:0:0:
232,230,102049,1,0,0:0:0:0:
293,306,102171,5,0,0:0:0:0:
322,202,102292,1,0,0:0:0:0:
217,224,102413,1,0,0:0:0:0:
296,321,102534,5,0,0:0:0:0:
333,185,102655,1,0,0:0:0:0:
197,214,102776,1,0,0:0:0:0:
402,302,102898,5,0,0:0:0:0:
420,228,103019,1,0,0:0:0:0:
438,154,103140,1,0,0:0:0:0:
334,40,103261,6,0,L|348:108,1,63.3333333333333
370,112,103504,1,0,0:0:0:0:
212,99,103625,2,0,L|233:33,1,63.3333333333333
216,18,103868,1,0,0:0:0:0:
85,205,103989,5,0,0:0:0:0:
110,133,104110,1,0,0:0:0:0:
134,61,104231,1,0,0:0:0:0:
284,135,104352,6,0,L|216:121,1,63.3333333333333
212,99,104595,1,0,0:0:0:0:
230,266,104716,2,0,L|295:244,1,63.3333333333333
311,262,104959,1,0,0:0:0:0:
15,239,105080,5,0,0:0:0:0:
85,205,105202,1,0,0:0:0:0:
156,233,105323,1,0,0:0:0:0:
115,357,105443,6,0,L|101:289,1,63.3333333333333
79,285,105686,1,0,0:0:0:0:
152,64,105807,2,0,L|130:129,1,63.3333333333333
148,145,106050,1,0,0:0:0:0:
363,172,106171,5,0,0:0:0:0:
293,206,106293,1,0,0:0:0:0:
222,178,106414,1,0,0:0:0:0:
263,54,106534,6,0,L|277:122,1,63.3333333333333
299,126,106777,1,0,0:0:0:0:
226,347,106898,2,0,L|247:281,1,63.3333333333333
230,266,107141,1,0,0:0:0:0:
363,172,107261,5,0,0:0:0:0:
433,138,107383,1,0,0:0:0:0:
504,166,107504,1,0,0:0:0:0:
508,175,107625,5,0,0:0:0:0:
437,147,107746,1,0,0:0:0:0:
367,181,107867,1,0,0:0:0:0:
361,257,107989,1,0,0:0:0:0:
367,266,108110,5,0,0:0:0:0:
300,229,108231,1,0,0:0:0:0:
233,192,108352,1,0,0:0:0:0:
234,201,108474,5,0,0:0:0:0:
296,157,108595,1,0,0:0:0:0:
297,146,108716,5,0,0:0:0:0:
227,115,108837,1,0,0:0:0:0:
291,60,108958,5,0,0:0:0:0:
299,136,109079,1,0,0:0:0:0:
221,106,109201,5,0,0:0:0:0:
282,61,109322,1,0,0:0:0:0:
148,155,109443,6,0,L|127:84,2,63.3333333333333
99,324,109807,2,0,L|78:395,2,63.3333333333333
152,144,110171,2,0,L|131:73,2,63.3333333333333
177,228,110534,5,0,0:0:0:0:
101,218,110655,1,0,0:0:0:0:
148,155,110777,1,0,0:0:0:0:
207,302,110898,5,0,0:0:0:0:
242,290,110958,1,0,0:0:0:0:
273,293,111019,1,0,0:0:0:0:
295,304,111080,1,0,0:0:0:0:
308,316,111140,1,0,0:0:0:0:
315,326,111201,1,0,0:0:0:0:
317,331,111261,5,0,0:0:0:0:
347,321,111322,1,0,0:0:0:0:
365,303,111383,1,0,0:0:0:0:
373,286,111443,1,0,0:0:0:0:
375,273,111504,1,0,0:0:0:0:
372,267,111564,1,0,0:0:0:0:
367,262,111625,6,0,L|431:293,1,63.3333333333333
447,279,111867,1,0,0:0:0:0:
416,0,111989,2,0,L|357:39,1,63.3333333333333
361,60,112231,1,0,0:0:0:0:
465,187,112352,2,0,L|457:116,1,63.3333333333333
437,109,112594,1,0,0:0:0:0:
388,277,112716,6,0,L|452:308,1,63.3333333333333
468,294,112958,1,0,0:0:0:0:
437,15,113080,2,0,L|378:54,1,63.3333333333333
382,75,113322,1,0,0:0:0:0:
486,202,113443,2,0,L|478:131,1,63.3333333333333
458,124,113685,1,0,0:0:0:0:
409,292,113807,6,0,L|473:323,1,63.3333333333333
489,309,114049,1,0,0:0:0:0:
458,30,114171,2,0,L|399:69,1,63.3333333333333
403,90,114413,1,0,0:0:0:0:
507,217,114534,6,0,L|499:146,1,63.3333333333333
479,139,114776,1,0,0:0:0:0:
409,152,114898,2,0,L|401:81,1,63.3333333333333
381,74,115140,1,0,0:0:0:0:
329,275,115261,6,0,L|393:306,1,63.3333333333333
409,292,115503,1,0,0:0:0:0:
257,216,115625,2,0,L|226:280,1,63.3333333333333
240,296,115867,1,0,0:0:0:0:
288,139,115989,6,0,L|224:108,1,63.3333333333333
208,122,116231,1,0,0:0:0:0:
103,119,116352,2,0,L|167:150,1,63.3333333333333
183,136,116594,1,0,0:0:0:0:
288,139,116716,2,0,L|224:108,1,63.3333333333333
208,122,116958,1,0,0:0:0:0:
36,64,117080,6,0,L|5:128,1,63.3333333333333
19,144,117322,1,0,0:0:0:0:
16,249,117443,2,0,L|47:185,1,63.3333333333333
33,169,117685,1,0,0:0:0:0:
36,64,117807,2,0,L|5:128,1,63.3333333333333
19,144,118049,1,0,0:0:0:0:
174,235,118171,6,0,L|238:204,1,63.3333333333333
254,218,118413,1,0,0:0:0:0:
359,215,118534,2,0,L|295:246,1,63.3333333333333
279,232,118776,1,0,0:0:0:0:
174,235,118898,2,0,L|238:204,1,63.3333333333333
254,218,119140,1,0,0:0:0:0:
140,156,119261,5,0,0:0:0:0:
90,222,119383,1,0,0:0:0:0:
174,235,119504,1,0,0:0:0:0:
142,140,119625,5,0,0:0:0:0:
77,225,119747,1,0,0:0:0:0:
186,242,119868,1,0,0:0:0:0:
144,119,119989,5,0,0:0:0:0:
59,229,120111,1,0,0:0:0:0:
201,251,120232,1,0,0:0:0:0:
94,46,120352,6,0,L|49:101,1,63.3333333333333
58,119,120594,1,0,0:0:0:0:
229,114,120716,5,0,0:0:0:0:
300,139,120837,1,0,0:0:0:0:
369,108,120958,1,0,0:0:0:0:
370,97,121080,5,0,0:0:0:0:
301,128,121201,1,0,0:0:0:0:
230,103,121322,1,0,0:0:0:0:
231,92,121443,5,0,0:0:0:0:
223,173,121564,1,0,0:0:0:0:
213,255,121686,1,0,0:0:0:0:
222,262,121807,5,0,0:0:0:0:
148,296,121928,1,0,0:0:0:0:
72,328,122050,1,0,0:0:0:0:
82,336,122171,5,0,0:0:0:0:
156,302,122292,1,0,0:0:0:0:
232,270,122414,1,0,0:0:0:0:
222,262,122534,5,0,0:0:0:0:
156,224,122655,1,0,0:0:0:0:
125,153,122777,1,0,0:0:0:0:
135,77,122898,1,0,0:0:0:0:
143,85,123019,5,0,0:0:0:0:
208,123,123140,1,0,0:0:0:0:
285,114,123262,1,0,0:0:0:0:
346,67,123383,1,0,0:0:0:0:
353,75,123503,5,0,0:0:0:0:
292,122,123625,1,0,0:0:0:0:
215,131,123746,1,0,0:0:0:0:
150,93,123867,1,0,0:0:0:0:
143,85,123989,5,0,0:0:0:0:
143,161,124110,1,0,0:0:0:0:
97,223,124232,1,0,0:0:0:0:
26,252,124353,1,0,0:0:0:0:
30,262,124474,5,0,0:0:0:0:
35,182,124595,1,0,0:0:0:0:
214,305,124716,6,0,L|150:262,1,63.3333333333333
170,238,124958,1,0,0:0:0:0:
368,359,125080,2,0,L|301:319,1,63.3333333333333
287,346,125322,1,0,0:0:0:0:
274,206,125443,2,0,L|343:172,1,63.3333333333333
353,202,125685,1,0,0:0:0:0:
198,157,125807,5,0,0:0:0:0:
267,126,125928,1,0,0:0:0:0:
336,96,126049,1,0,0:0:0:0:
343,101,126171,5,0,0:0:0:0:
281,56,126292,1,0,0:0:0:0:
221,11,126413,1,0,0:0:0:0:
215,7,126534,5,0,0:0:0:0:
207,83,126655,1,0,0:0:0:0:
198,157,126776,1,0,0:0:0:0:
189,233,126898,1,0,0:0:0:0:
300,336,127140,5,0,0:0:0:0:
369,305,127261,1,0,0:0:0:0:
304,261,127383,1,0,0:0:0:0:
237,295,127504,1,0,0:0:0:0:
169,330,127625,1,0,0:0:0:0:
119,272,127746,2,0,L|87:235,2,31.6666666666667
300,336,127989,5,0,0:0:0:0:
304,261,128110,1,0,0:0:0:0:
308,185,128231,1,0,0:0:0:0:
313,109,128352,5,0,0:0:0:0:
243,154,128474,1,0,0:0:0:0:
315,192,128595,1,0,0:0:0:0:
321,96,128716,5,0,0:0:0:0:
230,154,128838,1,0,0:0:0:0:
323,203,128959,1,0,0:0:0:0:
320,7,129080,5,0,0:0:0:0:
166,211,129443,6,0,L|232:243,1,63.3333333333333
225,261,129686,1,0,0:0:0:0:
76,191,129807,2,0,L|15:232,1,63.3333333333333
0,215,130050,1,0,0:0:0:0:
152,38,130171,6,0,L|157:111,1,63.3333333333333
135,115,130414,1,0,0:0:0:0:
88,351,130534,2,0,L|82:277,1,63.3333333333333
105,274,130777,1,0,0:0:0:0:
255,180,130898,1,0,0:0:0:0:
258,205,131019,1,0,0:0:0:0:
260,230,131140,1,0,0:0:0:0:
242,73,131261,6,0,L|308:105,1,63.3333333333333
301,123,131504,1,0,0:0:0:0:
378,225,131625,2,0,L|372:151,1,63.3333333333333
391,148,131868,1,0,0:0:0:0:
439,20,131989,2,0,L|378:61,1,63.3333333333333
365,47,132232,1,0,0:0:0:0:
264,258,132352,6,0,L|330:290,1,63.3333333333333
323,308,132595,1,0,0:0:0:0:
479,281,132716,2,0,L|418:322,1,63.3333333333333
403,305,132959,1,0,0:0:0:0:
378,225,133080,5,0,0:0:0:0:
323,308,133201,1,0,0:0:0:0:
426,316,133322,1,0,0:0:0:0:
199,301,133443,5,0,0:0:0:0:
132,337,133564,1,0,0:0:0:0:
61,306,133686,1,0,0:0:0:0:
61,315,133807,5,0,0:0:0:0:
63,238,133928,1,0,0:0:0:0:
125,192,134050,1,0,0:0:0:0:
125,199,134171,5,0,0:0:0:0:
123,122,134292,1,0,0:0:0:0:
61,76,134414,1,0,0:0:0:0:
62,86,134534,5,0,0:0:0:0:
126,45,134655,1,0,0:0:0:0:
123,122,134777,1,0,0:0:0:0:
125,199,134898,6,0,L|185:223,1,63.3333333333333
207,212,135140,1,0,0:0:0:0:
86,295,135261,2,0,L|146:319,1,63.3333333333333
168,308,135503,1,0,0:0:0:0:
245,117,135625,5,0,0:0:0:0:
316,91,135746,1,0,0:0:0:0:
387,65,135867,1,0,0:0:0:0:
458,37,135989,6,0,L|470:1,2,31.6666666666667
422,138,136231,1,0,0:0:0:0:
501,122,136352,6,0,L|513:86,2,31.6666666666667
465,223,136594,1,0,0:0:0:0:
245,117,136716,5,0,0:0:0:0:
174,143,136837,1,0,0:0:0:0:
103,169,136958,1,0,0:0:0:0:
97,164,137080,5,0,0:0:0:0:
155,212,137201,1,0,0:0:0:0:
213,260,137322,1,0,0:0:0:0:
220,267,137443,5,0,0:0:0:0:
147,289,137564,1,0,0:0:0:0:
155,212,137686,1,0,0:0:0:0:
280,319,137807,6,0,P|339:297|398:317,1,126.666666666667
477,185,138171,1,0,0:0:0:0:
437,249,138292,1,0,0:0:0:0:
512,253,138413,1,0,0:0:0:0:
439,119,138534,6,0,L|420:78,2,31.6666666666667
477,185,138777,1,0,0:0:0:0:
308,47,138898,5,0,0:0:0:0:
346,113,139019,1,0,0:0:0:0:
381,181,139140,1,0,0:0:0:0:
212,140,139261,6,0,L|288:159,1,63.3333333333333
475,51,139504,1,0,0:0:0:0:
176,208,139625,6,0,L|252:227,1,63.3333333333333
439,119,139868,1,0,0:0:0:0:
142,277,139989,6,0,L|275:311,1,126.666666666667
411,344,140352,1,0,0:0:0:0:
337,325,140474,1,0,0:0:0:0:
390,271,140595,1,0,0:0:0:0:
281,384,140716,6,0,L|158:352,1,126.666666666667
40,112,141080,6,0,B|20:184|20:184|52:248,1,126.666666666667
247,188,141443,1,0,0:0:0:0:
178,156,141564,1,0,0:0:0:0:
103,172,141686,1,0,0:0:0:0:
324,246,141807,6,0,B|347:199|347:199|327:127,1,126.666666666667
129,36,142171,6,0,P|209:64|263:43,1,126.666666666667
40,112,142534,2,0,L|6:78,2,47.5
103,172,142777,1,0,0:0:0:0:
36,212,142897,5,0,0:0:0:0:
93,263,143019,1,0,0:0:0:0:
153,314,143140,1,0,0:0:0:0:
149,326,143261,5,0,0:0:0:0:
174,250,143383,1,0,0:0:0:0:
198,173,143504,1,0,0:0:0:0:
347,141,143625,6,0,L|264:159,1,63.3333333333333
117,190,143867,1,0,0:0:0:0:
401,203,143989,6,0,L|318:221,1,63.3333333333333
174,250,144231,1,0,0:0:0:0:
453,265,144352,6,0,L|370:283,2,63.3333333333333
459,13,144716,2,0,L|376:-5,2,63.3333333333333
451,371,145080,2,0,L|368:389,2,63.3333333333333
444,108,145443,5,0,0:0:0:0:
369,90,145564,1,0,0:0:0:0:
295,74,145685,1,0,0:0:0:0:
293,66,145807,5,0,0:0:0:0:
315,138,145928,1,0,0:0:0:0:
338,209,146049,1,0,0:0:0:0:
340,219,146170,5,0,0:0:0:0:
268,198,146291,1,0,0:0:0:0:
315,138,146413,1,0,0:0:0:0:
365,294,146534,6,0,L|242:262,1,126.666666666667
35,204,146898,1,0,0:0:0:0:
75,268,147019,1,0,0:0:0:0:
0,272,147140,1,0,0:0:0:0:
73,138,147261,6,0,L|92:97,2,31.6666666666667
35,204,147504,1,0,0:0:0:0:
204,66,147625,5,0,0:0:0:0:
166,132,147746,1,0,0:0:0:0:
131,200,147867,1,0,0:0:0:0:
393,153,147989,6,0,L|317:172,1,63.3333333333333
130,64,148232,1,0,0:0:0:0:
429,221,148353,6,0,L|353:240,1,63.3333333333333
166,132,148596,1,0,0:0:0:0:
463,290,148717,6,0,L|330:324,1,126.666666666667
194,357,149080,1,0,0:0:0:0:
215,284,149202,1,0,0:0:0:0:
268,338,149323,1,0,0:0:0:0:
112,375,149443,6,0,L|150:244,1,126.666666666667
287,103,149807,6,0,B|307:175|307:175|287:243,1,126.666666666667
80,179,150171,1,0,0:0:0:0:
149,147,150292,1,0,0:0:0:0:
224,163,150414,1,0,0:0:0:0:
11,229,150535,6,0,B|-3:198|-3:198|0:160,2,63.3333333333333
363,279,150898,6,0,L|401:148,1,126.666666666667
424,65,151261,2,0,L|405:24,2,31.6666666666667
478,189,151504,1,0,0:0:0:0:
309,95,151625,5,0,0:0:0:0:
286,169,151747,1,0,0:0:0:0:
263,244,151868,1,0,0:0:0:0:
273,251,151989,5,0,0:0:0:0:
210,199,152111,1,0,0:0:0:0:
149,147,152232,1,0,0:0:0:0:
59,251,152352,6,0,L|91:172,1,63.3333333333333
147,34,152594,1,0,0:0:0:0:
129,311,152716,6,0,L|161:232,1,63.3333333333333
217,93,152958,1,0,0:0:0:0:
202,378,153080,6,0,B|223:330|223:330|314:323,1,126.666666666667
481,311,153443,2,0,L|529:307,2,31.6666666666667
392,318,153686,1,0,0:0:0:0:
450,178,153807,5,0,0:0:0:0:
422,253,153928,1,0,0:0:0:0:
395,328,154049,1,0,0:0:0:0:
364,175,154171,5,0,0:0:0:0:
334,250,154292,1,0,0:0:0:0:
325,240,154413,1,0,0:0:0:0:
316,230,154534,5,0,0:0:0:0:
240,230,154655,1,0,0:0:0:0:
191,170,154777,1,0,0:0:0:0:
217,96,154898,5,0,0:0:0:0:
187,178,155019,1,0,0:0:0:0:
158,261,155140,1,0,0:0:0:0:
127,343,155261,6,0,L|200:333,2,63.3333333333333
11,207,155624,1,0,0:0:0:0:
98,193,155745,1,0,0:0:0:0:
67,275,155867,1,0,0:0:0:0:
43,123,155988,6,0,L|116:113,2,63.3333333333333
62,35,156351,2,0,L|0:43,1,63.3333333333333
338,147,156594,5,0,0:0:0:0:
251,133,156715,1,0,0:0:0:0:
282,215,156837,1,0,0:0:0:0:
283,63,156958,6,0,L|210:53,1,63.3333333333333
282,215,157200,2,0,L|344:223,1,63.3333333333333
512,128,157442,5,0,0:0:0:0:
425,114,157563,1,0,0:0:0:0:
456,197,157685,1,0,0:0:0:0:
480,45,157806,5,0,0:0:0:0:
442,287,157927,1,0,0:0:0:0:
251,133,158048,1,0,0:0:0:0:
253,365,158170,6,0,L|180:355,2,63.3333333333333
369,229,158533,1,0,0:0:0:0:
282,215,158654,1,0,0:0:0:0:
313,297,158776,1,0,0:0:0:0:
251,133,158897,6,0,L|178:123,2,63.3333333333333
215,41,159261,2,0,L|277:49,1,63.3333333333333
302,52,159503,1,0,0:0:0:0:
49,19,159624,6,0,L|72:77,1,63.3333333333333
171,312,159867,1,0,0:0:0:0:
364,60,159988,6,0,L|301:51,1,63.3333333333333
49,19,160231,1,0,0:0:0:0:
171,313,160351,6,0,L|209:262,1,63.3333333333333
364,60,160594,1,0,0:0:0:0:
49,19,160715,5,0,0:0:0:0:
109,165,160836,1,0,0:0:0:0:
171,313,160957,5,0,0:0:0:0:
180,319,161079,2,0,L|218:268,2,63.3333333333333
98,259,161442,5,0,0:0:0:0:
45,331,161564,2,0,L|83:280,1,63.3333333333333
162,93,161806,5,0,0:0:0:0:
109,165,161928,2,0,L|147:114,1,63.3333333333333
296,249,162170,6,0,L|219:248,1,63.3333333333333
218,268,162412,1,0,0:0:0:0:
347,338,162533,6,0,L|270:337,1,63.3333333333333
269,357,162775,1,0,0:0:0:0:
434,150,162897,6,0,L|396:82,1,63.3333333333333
378,91,163139,1,0,0:0:0:0:
388,238,163261,6,0,L|350:170,1,63.3333333333333
332,179,163503,1,0,0:0:0:0:
398,0,163624,5,0,0:0:0:0:
378,92,163745,1,0,0:0:0:0:
468,64,163867,1,0,0:0:0:0:
303,17,163988,6,0,L|289:79,2,63.3333333333333
188,62,164351,6,0,L|174:124,1,63.3333333333333
208,51,164594,1,0,0:0:0:0:
60,93,164715,6,0,L|0:111,1,63.3333333333333
79,104,164958,1,0,0:0:0:0:
53,206,165079,6,0,L|113:187,1,63.3333333333333
34,195,165322,1,0,0:0:0:0:
47,302,165442,5,0,0:0:0:0:
43,314,165503,1,0,0:0:0:0:
40,326,165564,2,0,L|80:334,3,31.6666666666667
221,332,165806,5,0,0:0:0:0:
134,317,165927,1,0,0:0:0:0:
47,302,166048,1,0,0:0:0:0:
221,332,166170,5,0,0:0:0:0:
191,248,166291,1,0,0:0:0:0:
242,176,166412,1,0,0:0:0:0:
212,92,166533,5,0,0:0:0:0:
204,102,166654,1,0,0:0:0:0:
196,112,166776,1,0,0:0:0:0:
294,251,166898,1,0,0:0:0:0:
294,251,167261,5,0,0:0:0:0:
347,329,167382,1,0,0:0:0:0:
364,333,167504,1,0,0:0:0:0:
329,166,167625,5,0,0:0:0:0:
382,244,167746,1,0,0:0:0:0:
399,248,167868,1,0,0:0:0:0:
365,80,167988,6,0,L|393:14,2,63.3333333333333
294,251,168352,2,0,L|222:259,2,63.3333333333333
196,112,168716,2,0,L|124:120,2,63.3333333333333
482,90,169079,5,0,0:0:0:0:
457,111,169169,1,0,0:0:0:0:
444,142,169260,1,0,0:0:0:0:
446,175,169351,1,0,0:0:0:0:
461,203,169443,1,0,0:0:0:0:
477,230,169534,1,0,0:0:0:0:
479,264,169625,1,0,0:0:0:0:
467,294,169716,1,0,0:0:0:0:
443,316,169807,1,0,0:0:0:0:
410,323,169898,1,0,0:0:0:0:
379,317,169989,1,0,0:0:0:0:
353,297,170080,1,0,0:0:0:0:
338,268,170170,5,0,0:0:0:0:
395,266,170261,1,0,0:0:0:0:
410,323,170352,1,0,0:0:0:0:
362,354,170443,1,0,0:0:0:0:
317,318,170534,1,0,0:0:0:0:
268,287,170625,1,0,0:0:0:0:
227,329,170716,1,0,0:0:0:0:
253,380,170807,1,0,0:0:0:0:
311,365,170898,6,0,L|319:301,1,47.5
333,187,171079,2,0,L|341:123,1,47.5
354,0,171261,1,0,0:0:0:0:
354,0,171625,5,0,0:0:0:0:
274,62,171746,1,0,0:0:0:0:
174,44,171867,1,0,0:0:0:0:
94,106,171988,1,0,0:0:0:0:
118,111,172110,1,0,0:0:0:0:
142,116,172231,1,0,0:0:0:0:
88,226,172352,6,0,L|11:210,2,63.3333333333333
248,260,172716,2,0,L|272:334,2,63.3333333333333
204,128,173079,2,0,L|127:112,2,63.3333333333333
512,190,173443,6,0,B|425:173|425:173|412:103|412:103|473:116,1,213.750008153916
512,265,173807,2,0,L|455:254,1,47.5
336,230,173988,2,0,L|382:239,1,47.5
303,332,174170,6,0,L|287:287,1,47.5
410,310,174352,2,0,L|378:345,1,47.5
205,384,174534,6,0,L|166:271,1,95
85,44,174898,2,0,L|107:108,1,47.5
134,183,175079,2,0,L|67:170,1,47.5
161,1,175261,6,0,L|227:13,1,47.5
210,140,175444,2,0,L|188:76,1,47.5
346,0,175625,6,0,L|398:155,1,142.5
361,243,175988,5,0,0:0:0:0:
388,224,176078,1,0,0:0:0:0:
420,215,176169,1,0,0:0:0:0:
453,218,176260,1,0,0:0:0:0:
483,231,176351,1,0,0:0:0:0:
446,355,176534,2,0,L|428:299,1,47.5
215,234,176716,5,0,0:0:0:0:
217,243,176806,1,0,0:0:0:0:
220,252,176897,1,0,0:0:0:0:
223,261,176988,1,0,0:0:0:0:
226,270,177079,1,0,0:0:0:0:
204,260,177169,1,0,0:0:0:0:
180,257,177260,1,0,0:0:0:0:
157,261,177351,1,0,0:0:0:0:
136,271,177442,5,0,0:0:0:0:
147,214,177534,1,0,0:0:0:0:
119,164,177625,1,0,0:0:0:0:
130,108,177716,1,0,0:0:0:0:
98,60,177807,6,0,B|88:109|88:109|66:138,1,79.1666666666667
89,46,178049,1,0,0:0:0:0:
227,138,178170,2,0,B|217:88|217:88|195:60,1,79.1666666666667
218,152,178412,1,0,0:0:0:0:
292,14,178534,2,0,B|301:63|301:63|324:92,1,79.1666666666667
301,0,178776,1,0,0:0:0:0:
291,232,178897,6,0,L|303:160,1,63.3333333333333
300,246,179139,1,0,0:0:0:0:
476,162,179261,6,0,P|435:155|402:165,1,63.3333333333333
393,173,179503,1,0,0:0:0:0:
448,78,179625,2,0,P|474:45|482:12,1,63.3333333333333
479,0,179867,1,0,0:0:0:0:
504,246,179988,2,0,P|477:278|469:311,1,63.3333333333333
473,324,180230,1,0,0:0:0:0:
326,341,180352,5,0,0:0:0:0:
358,272,180473,1,0,0:0:0:0:
401,334,180594,1,0,0:0:0:0:
250,347,180716,6,0,L|262:275,1,63.3333333333333
233,352,180958,1,0,0:0:0:0:
0,272,181079,2,0,P|32:298|65:306,1,63.3333333333333
77,306,181321,1,0,0:0:0:0:
133,175,181443,2,0,P|94:189|71:214,1,63.3333333333333
65,225,181685,1,0,0:0:0:0:
149,340,181807,2,0,P|155:299|145:266,1,63.3333333333333
139,256,182049,1,0,0:0:0:0:
14,84,182170,6,0,L|86:96,1,63.3333333333333
0,93,182412,1,0,0:0:0:0:
301,11,182534,6,0,P|294:52|304:84,1,63.3333333333333
320,0,182776,1,0,0:0:0:0:
336,157,182897,2,0,P|343:198|333:231,1,63.3333333333333
317,146,183139,1,0,0:0:0:0:
347,361,183261,5,0,0:0:0:0:
379,293,183382,1,0,0:0:0:0:
304,300,183503,1,0,0:0:0:0:
461,306,183625,6,0,L|434:365,1,63.3333333333333
455,284,183867,1,0,0:0:0:0:
492,190,183988,6,0,P|450:197|418:187,1,63.3333333333333
410,176,184230,1,0,0:0:0:0:
370,76,184352,2,0,P|397:108|404:141,1,63.3333333333333
398,154,184594,1,0,0:0:0:0:
332,239,184716,2,0,P|346:199|371:176,1,63.3333333333333
385,175,184958,1,0,0:0:0:0:
195,148,185079,6,0,L|130:154,1,63.3333333333333
211,131,185321,1,0,0:0:0:0:
16,88,185443,2,0,L|80:81,1,63.3333333333333
0,105,185685,1,0,0:0:0:0:
207,17,185807,2,0,L|142:23,1,63.3333333333333
223,0,186049,1,0,0:0:0:0:
6,227,186170,5,0,0:0:0:0:
81,234,186291,1,0,0:0:0:0:
49,166,186412,1,0,0:0:0:0:
113,301,186534,6,0,L|177:294,1,63.3333333333333
97,318,186776,1,0,0:0:0:0:
281,373,186897,6,0,P|274:331|284:299,1,63.3333333333333
300,384,187139,1,0,0:0:0:0:
337,212,187261,2,0,P|344:170|334:138,1,63.3333333333333
318,223,187503,1,0,0:0:0:0:
277,61,187625,2,0,P|270:19|280:-13,1,63.3333333333333
296,72,187867,1,0,0:0:0:0:
446,75,187988,5,0,0:0:0:0:
445,84,188048,1,0,0:0:0:0:
445,93,188109,1,0,0:0:0:0:
444,103,188169,1,0,0:0:0:0:
444,112,188230,1,0,0:0:0:0:
443,122,188291,1,0,0:0:0:0:
443,131,188352,2,0,L|451:178,5,31.6666666666667
339,150,188716,5,0,0:0:0:0:
343,180,188776,1,0,0:0:0:0:
348,210,188837,1,0,0:0:0:0:
353,240,188897,1,0,0:0:0:0:
358,271,188958,1,0,0:0:0:0:
363,301,189019,1,0,0:0:0:0:
368,331,189079,1,0,0:0:0:0:
378,342,189322,5,0,0:0:0:0:
283,384,189443,2,0,L|272:313,1,63.3333333333333
261,240,189685,1,0,0:0:0:0:
231,87,189807,6,0,B|242:158,1,63.3333333333333
253,231,190049,1,0,0:0:0:0:
152,148,190171,2,0,B|163:219,1,63.3333333333333
174,292,190413,1,0,0:0:0:0:
71,208,190534,2,0,B|82:279,1,63.3333333333333
93,352,190776,1,0,0:0:0:0:
239,369,190897,6,0,B|266:346|266:346|276:314,1,63.3333333333333
174,292,191140,1,0,0:0:0:0:
369,354,191261,2,0,B|381:320|381:320|373:287,1,63.3333333333333
274,319,191504,1,0,0:0:0:0:
475,276,191625,2,0,B|469:240|469:240|445:216,1,63.3333333333333
375,293,191868,1,0,0:0:0:0:
470,64,191988,5,0,0:0:0:0:
405,115,192110,1,0,0:0:0:0:
483,146,192231,1,0,0:0:0:0:
321,83,192352,6,0,B|254:57,1,63.3333333333333
185,30,192594,1,0,0:0:0:0:
95,153,192716,6,0,B|107:119|107:119|99:86,1,63.3333333333333
0,118,192959,1,0,0:0:0:0:
101,213,193079,2,0,B|88:179|88:179|96:146,1,63.3333333333333
196,178,193322,1,0,0:0:0:0:
94,273,193443,2,0,B|106:239|106:239|98:206,1,63.3333333333333
0,238,193686,1,0,0:0:0:0:
232,321,193807,6,0,B|214:251,1,63.3333333333333
196,178,194049,1,0,0:0:0:0:
164,28,194170,6,0,B|181:97,1,63.3333333333333
200,171,194412,1,0,0:0:0:0:
240,307,194534,6,0,B|222:237,1,63.3333333333333
204,164,194776,1,0,0:0:0:0:
278,29,194897,5,0,0:0:0:0:
343,80,195019,1,0,0:0:0:0:
265,111,195140,1,0,0:0:0:0:
424,80,195261,6,0,L|413:151,1,63.3333333333333
402,224,195503,1,0,0:0:0:0:
372,377,195625,6,0,B|383:306,1,63.3333333333333
394,233,195867,1,0,0:0:0:0:
282,384,195989,2,0,B|293:313,1,63.3333333333333
304,240,196231,1,0,0:0:0:0:
193,384,196352,2,0,B|204:313,1,63.3333333333333
215,240,196594,1,0,0:0:0:0:
103,304,196716,6,0,B|108:268|108:268|132:244,1,63.3333333333333
202,321,196959,1,0,0:0:0:0:
50,183,197080,2,0,B|72:155|72:155|105:146,1,63.3333333333333
128,248,197323,1,0,0:0:0:0:
65,53,197444,2,0,B|98:40|98:40|131:48,1,63.3333333333333
100,148,197687,1,0,0:0:0:0:
202,33,197807,5,0,0:0:0:0:
267,84,197929,1,0,0:0:0:0:
189,115,198050,1,0,0:0:0:0:
330,137,198170,6,0,L|321:205,2,63.3333333333333
463,86,198534,5,0,0:0:0:0:
422,157,198655,1,0,0:0:0:0:
445,235,198776,1,0,0:0:0:0:
469,313,198897,6,0,L|490:382,2,63.3333333333333
191,299,199261,5,0,0:0:0:0:
262,258,199382,1,0,0:0:0:0:
340,281,199503,1,0,0:0:0:0:
154,376,199625,5,0,0:0:0:0:
128,355,199715,1,0,0:0:0:0:
112,326,199806,1,0,0:0:0:0:
108,293,199897,1,0,0:0:0:0:
117,261,199988,1,0,0:0:0:0:
133,232,200078,1,0,0:0:0:0:
138,199,200169,1,0,0:0:0:0:
130,167,200260,1,0,0:0:0:0:
111,140,200352,5,0,0:0:0:0:
82,163,200442,1,0,0:0:0:0:
45,162,200533,1,0,0:0:0:0:
18,136,200624,1,0,0:0:0:0:
15,99,200716,6,0,L|72:85,1,47.5
199,51,200897,2,0,L|255:65,1,47.5
418,14,201079,1,0,0:0:0:0:
