osu file format v14

[General]
AudioFilename: audio.mp3
AudioLeadIn: 0
PreviewTime: -1
Countdown: 0
SampleSet: None
StackLeniency: 0.7
Mode: 0
LetterboxInBreaks: 0
WidescreenStoryboard: 0

[Editor]
Bookmarks: 69428,102856,104142,104249,111856
DistanceSpacing: 1.6
BeatDivisor: 4
GridSize: 8
TimelineZoom: 0.9

[Metadata]
Title:Jaguar
TitleUnicode:Jaguar
Artist:What so not
ArtistUnicode:What so not
Creator:Zonsa
Version:Light Insane
Source:
Tags:Dubstep; Trap; What so not; Jaguar track
BeatmapID:1322524
BeatmapSetID:627639

[Difficulty]
HPDrainRate:7
CircleSize:4
OverallDifficulty:6
ApproachRate:7
SliderMultiplier:1.4
SliderTickRate:1

[Events]
//Background and Video events
0,0,"maxresdefault.jpg",0,0
//Break Periods
2,82484,95099
//Storyboard Layer 0 (Background)
//Storyboard Layer 1 (Fail)
//Storyboard Layer 2 (Pass)
//Storyboard Layer 3 (Foreground)
//Storyboard Sound Samples

[TimingPoints]
13714,428.571428571429,4,3,0,50,1,0
27428,-66.6666666666667,4,3,0,50,0,0
30856,-200,4,3,0,50,0,0
41142,-100,4,3,0,50,0,0
54856,-200,4,3,0,50,0,0
55285,-66.6666666666667,4,3,0,50,0,0
58285,-200,4,3,0,50,0,0
68571,-100,4,3,0,50,0,0
80142,-200,4,3,0,50,0,0
95999,-100,4,3,0,50,0,0
121285,-200,4,3,0,50,0,0

[Colours]
Combo1 : 0,255,255
Combo2 : 255,255,255
Combo3 : 255,0,0

[HitObjects]
163,123,13713,6,0,P|219:82|288:80,2,140
96,224,14999,1,0,0:0:0:0:
160,320,15428,1,0,0:0:0:0:
288,304,15856,2,0,P|350:274|385:215,2,140
448,112,17142,6,0,B|336:144|272:112|192:240,1,280
160,64,18428,1,0,0:0:0:0:
96,240,18856,1,0,0:0:0:0:
288,192,19285,1,0,0:0:0:0:
240,80,19714,2,0,P|160:112|128:160,1,140
401,139,20571,6,0,P|385:75|320:64,2,140
368,208,21856,1,0,0:0:0:0:
224,128,22285,1,0,0:0:0:0:
112,48,22714,2,0,P|80:96|64:208,2,140
400,336,23999,6,0,P|432:288|448:176,2,140
112,128,25714,2,0,L|144:112,1,35
144,208,26035,2,0,L|112:224,3,35
272,144,26785,1,0,0:0:0:0:
272,144,26999,1,0,0:0:0:0:
384,64,27428,1,0,0:0:0:0:
144,128,27856,6,0,P|164:80|209:54,1,105.000004005432
225,134,28285,2,0,P|204:182|160:208,1,105.000004005432
48,192,28714,1,0,0:0:0:0:
160,288,28928,1,0,0:0:0:0:
48,288,29142,1,0,0:0:0:0:
432,240,29571,2,0,P|416:288|272:336,1,210.000008010865
256,112,30856,2,0,P|224:144|224:176,1,70
320,176,31499,5,0,0:0:0:0:
208,256,31714,1,0,0:0:0:0:
368,224,31928,1,0,0:0:0:0:
256,320,32142,1,0,0:0:0:0:
416,272,32356,1,0,0:0:0:0:
192,112,32571,1,0,0:0:0:0:
96,112,32999,2,0,L|112:160,1,35
192,144,33428,2,0,L|180:110,1,35
432,224,34285,6,0,P|400:240|400:240,1,35
288,288,34714,1,0,0:0:0:0:
272,80,35142,1,0,0:0:0:0:
96,128,35571,1,0,0:0:0:0:
128,240,35785,1,0,0:0:0:0:
96,128,35999,1,0,0:0:0:0:
176,64,36428,1,0,0:0:0:0:
272,80,36856,1,0,0:0:0:0:
320,128,37714,6,0,L|272:192,1,70
192,176,38356,1,0,0:0:0:0:
304,256,38571,1,0,0:0:0:0:
144,224,38785,1,0,0:0:0:0:
256,320,38999,1,0,0:0:0:0:
96,272,39213,1,0,0:0:0:0:
320,112,39428,1,0,0:0:0:0:
416,112,39856,2,0,L|400:160,1,35
320,144,40285,2,0,L|332:110,1,35
96,48,41142,6,0,P|80:96|96:144,1,70
144,144,41571,2,0,P|144:178|130:210,1,70
64,224,41999,2,0,P|48:272|64:320,1,70
192,176,43928,1,0,0:0:0:0:
304,256,44143,1,0,0:0:0:0:
144,224,44357,1,0,0:0:0:0:
256,320,44571,1,0,0:0:0:0:
96,272,44785,1,0,0:0:0:0:
240,128,45000,1,0,0:0:0:0:
304,80,45214,1,0,0:0:0:0:
384,96,45428,2,0,P|400:144|352:240,1,140
416,336,47999,6,0,P|432:288|416:240,1,70
368,240,48428,2,0,P|368:206|382:174,1,70
448,160,48856,2,0,P|464:112|448:64,1,70
256,192,49285,12,0,53142,0:0:0:0:
224,304,53999,5,0,0:0:0:0:
128,272,54214,1,0,0:0:0:0:
128,176,54428,5,0,0:0:0:0:
48,208,54856,2,0,L|96:192,1,35
144,128,55285,2,0,P|164:80|209:54,1,105.000004005432
225,134,55714,2,0,P|204:182|160:208,1,105.000004005432
48,192,56143,1,0,0:0:0:0:
160,288,56357,1,0,0:0:0:0:
48,288,56571,1,0,0:0:0:0:
208,128,56999,1,0,0:0:0:0:
304,112,57428,1,0,0:0:0:0:
320,128,58285,6,0,L|272:192,1,70
192,176,58927,1,0,0:0:0:0:
304,256,59142,1,0,0:0:0:0:
144,224,59356,1,0,0:0:0:0:
256,320,59570,1,0,0:0:0:0:
96,272,59784,1,0,0:0:0:0:
320,112,59999,1,0,0:0:0:0:
416,112,60427,2,0,L|400:160,1,35
320,144,60856,2,0,L|332:110,1,35
96,256,61714,6,0,L|64:176,1,70
112,96,62571,1,0,0:0:0:0:
192,272,62999,2,0,L|160:304,2,35
240,208,63856,2,0,L|192:144,2,70
400,256,65142,6,0,L|352:192,1,70
160,112,65785,1,0,0:0:0:0:
112,224,65999,1,0,0:0:0:0:
160,112,66214,1,0,0:0:0:0:
112,224,66428,1,0,0:0:0:0:
160,112,66642,1,0,0:0:0:0:
256,80,66856,2,0,L|336:64,2,70
48,96,68571,6,0,L|80:192,1,70
150,162,68999,2,0,L|128:96,1,70
208,96,69428,2,0,L|230:162,1,70
112,96,70285,1,0,0:0:0:0:
320,256,70714,5,0,0:0:0:0:
256,128,71142,1,0,0:0:0:0:
80,192,71356,1,0,0:0:0:0:
192,272,71571,1,0,0:0:0:0:
80,288,71785,1,0,0:0:0:0:
240,160,71999,2,0,P|240:96|224:96,4,70
464,96,75428,6,0,L|432:192,1,70
362,162,75856,2,0,L|384:96,1,70
304,96,76285,2,0,L|282:162,1,70
400,96,77142,1,0,0:0:0:0:
192,256,77571,1,0,0:0:0:0:
256,128,77999,1,0,0:0:0:0:
432,192,78213,1,0,0:0:0:0:
320,272,78428,1,0,0:0:0:0:
432,288,78642,1,0,0:0:0:0:
272,160,78856,2,0,P|272:96|288:96,4,70
368,192,80142,1,0,0:0:0:0:
384,288,80356,1,0,0:0:0:0:
256,288,80571,2,0,L|240:240,1,35
176,256,81214,2,0,L|187:289,1,35
112,288,81856,2,0,L|100:254,2,35
192,64,95999,6,0,P|176:96|224:192,1,140
256,112,96642,2,0,P|293:168|276:234,1,140
368,288,97285,2,0,L|208:320,1,140
176,304,98142,2,0,L|32:240,1,140
96,48,99428,6,0,P|80:80|128:176,1,140
160,96,100071,2,0,P|197:152|180:218,1,140
368,288,100714,2,0,L|208:320,1,140
176,304,101571,2,0,L|32:240,1,140
432,48,102856,6,0,P|396:54|349:150,1,140
432,127,103499,2,0,P|409:191|346:216,1,140
304,320,104142,2,0,L|152:259,1,140
134,228,104999,2,0,L|48:95,1,140
256,192,106285,12,0,109285,0:0:0:0:
128,112,109714,5,0,0:0:0:0:
400,64,110142,1,0,0:0:0:0:
368,272,110571,1,0,0:0:0:0:
128,112,110999,1,0,0:0:0:0:
368,272,111428,1,0,0:0:0:0:
128,112,111856,1,0,0:0:0:0:
128,320,112285,1,0,0:0:0:0:
192,176,112714,1,0,0:0:0:0:
304,96,113142,2,0,P|352:160|368:240,2,140
208,288,114428,2,0,P|160:240|144:160,2,140
384,288,115714,2,0,P|320:192|176:256,1,280
208,144,116999,5,0,0:0:0:0:
208,320,117428,1,0,0:0:0:0:
320,80,117856,1,0,0:0:0:0:
320,288,118285,1,0,0:0:0:0:
319,150,118714,2,0,L|448:224,2,140
224,96,119999,1,0,0:0:0:0:
48,96,120428,1,0,0:0:0:0:
288,208,120856,1,0,0:0:0:0:
96,192,121285,2,0,P|112:256|192:272,2,140
112,112,123428,5,0,0:0:0:0:
304,64,123642,1,0,0:0:0:0:
192,176,123856,1,0,0:0:0:0:
384,128,124071,1,0,0:0:0:0:
272,240,124285,1,0,0:0:0:0:
400,256,124499,1,0,0:0:0:0:
400,256,124606,1,0,0:0:0:0:
400,256,124714,1,0,0:0:0:0:
160,288,124928,5,0,0:0:0:0:
112,112,125142,1,0,0:0:0:0:
304,64,125356,1,0,0:0:0:0:
192,176,125570,1,0,0:0:0:0:
384,128,125785,1,0,0:0:0:0:
272,240,125999,1,0,0:0:0:0:
400,256,126214,1,0,0:0:0:0:
400,256,126321,1,0,0:0:0:0:
400,256,126429,1,0,0:0:0:0:
48,160,126642,5,0,0:0:0:0:
64,56,126856,1,0,0:0:0:0:
112,256,127070,1,0,0:0:0:0:
152,80,127285,1,0,0:0:0:0:
200,280,127499,1,0,0:0:0:0:
240,112,127713,1,0,0:0:0:0:
288,312,127927,1,0,0:0:0:0:
344,184,128142,1,0,0:0:0:0:
344,184,128249,1,0,0:0:0:0:
344,184,128357,1,0,0:0:0:0:
48,160,128570,5,0,0:0:0:0:
64,56,128785,1,0,0:0:0:0:
112,256,128999,1,0,0:0:0:0:
152,80,129214,1,0,0:0:0:0:
200,280,129428,1,0,0:0:0:0:
240,112,129642,1,0,0:0:0:0:
344,184,129856,1,0,0:0:0:0:
344,184,129963,1,0,0:0:0:0:
344,184,130071,1,0,0:0:0:0:
32,176,130285,5,0,0:0:0:0:
64,56,130500,1,0,0:0:0:0:
112,256,130714,1,0,0:0:0:0:
152,80,130929,1,0,0:0:0:0:
200,280,131143,1,0,0:0:0:0:
240,112,131357,1,0,0:0:0:0:
344,184,131571,1,0,0:0:0:0:
344,184,131678,1,0,0:0:0:0:
344,184,131786,1,0,0:0:0:0:
160,223,131999,5,0,0:0:0:0:
63,111,132213,1,0,0:0:0:0:
56,216,132428,1,0,0:0:0:0:
168,118,132642,1,0,0:0:0:0:
208,208,132856,1,0,0:0:0:0:
280,256,133070,1,0,0:0:0:0:
368,248,133285,1,0,0:0:0:0:
376,256,133392,1,0,0:0:0:0:
376,256,133500,1,0,0:0:0:0:
368,128,133714,6,0,P|288:96|256:96,2,105
