osu file format v14

[General]
AudioFilename: audio.mp3
AudioLeadIn: 0
PreviewTime: -1
Countdown: 0
SampleSet: None
StackLeniency: 0.7
Mode: 0
LetterboxInBreaks: 0
WidescreenStoryboard: 1

[Editor]
Bookmarks: 41571,69428,75428,102856,104142,104249,111856
DistanceSpacing: 2
BeatDivisor: 4
GridSize: 8
TimelineZoom: 1

[Metadata]
Title:Jaguar
TitleUnicode:Jaguar
Artist:What so not
ArtistUnicode:What so not
Creator:Zonsa
Version:Insane
Source:
Tags:Dubstep; Trap; What so not; Jaguar track
BeatmapID:1322620
BeatmapSetID:627639

[Difficulty]
HPDrainRate:7
CircleSize:4
OverallDifficulty:6
ApproachRate:9
SliderMultiplier:2
SliderTickRate:1

[Events]
//Background and Video events
0,0,"maxresdefault.jpg",0,0
//Break Periods
2,82484,95399
//Storyboard Layer 0 (Background)
//Storyboard Layer 1 (Fail)
//Storyboard Layer 2 (Pass)
//Storyboard Layer 3 (Foreground)
//Storyboard Sound Samples

[TimingPoints]
13714,428.571428571429,4,3,0,50,1,0
27428,-200,4,3,0,50,0,0
27856,-100,4,3,0,50,0,0
30856,-200,4,3,0,50,0,0
31499,-100,4,3,0,50,0,0
34285,-200,4,3,0,50,0,0
34714,-100,4,3,0,50,0,0
37714,-200,4,3,0,50,0,0
38356,-100,4,3,0,50,0,0
41142,-100,4,3,0,50,0,0
45428,-200,4,3,0,50,0,0
54856,-200,4,3,0,50,0,0
56142,-100,4,3,0,50,0,0
58285,-200,4,3,0,50,0,0
58928,-100,4,3,0,50,0,0
61714,-200,4,3,0,50,0,0
62999,-100,4,3,0,50,0,0
65142,-200,4,3,0,50,0,0
65785,-100,4,3,0,50,0,0
68571,-100,4,3,0,50,0,0
79714,-200,4,3,0,50,0,0
95999,-100,4,3,0,50,0,0

[Colours]
Combo1 : 0,255,255
Combo2 : 255,255,255
Combo3 : 255,0,0

[HitObjects]
192,64,13713,6,0,P|112:128|176:192,2,200
272,80,14999,1,0,0:0:0:0:
208,288,15428,1,0,0:0:0:0:
352,208,15856,1,0,0:0:0:0:
96,96,16285,2,0,P|76:164|181:216,1,200
320,64,17142,6,0,P|400:128|336:192,2,200
240,80,18428,1,0,0:0:0:0:
248,224,18857,1,0,0:0:0:0:
152,56,19286,1,0,0:0:0:0:
160,200,19714,1,0,0:0:0:0:
296,80,20142,1,0,0:0:0:0:
360,224,20571,1,0,0:0:0:0:
256,192,20678,12,0,26999,0:0:0:0:
96,160,27428,6,0,L|144:112,1,50
288,80,27856,2,0,P|352:96|352:128,1,100
368,240,28285,2,0,P|352:304|320:304,1,100
128,80,28714,2,0,L|128:160,1,50
208,192,28928,2,0,L|208:128,1,50
288,64,29142,2,0,P|336:80|320:224,2,200
64,320,30856,2,0,L|176:320,1,100
96,96,31499,6,0,L|144:144,1,50
64,160,31714,2,0,L|80:224,1,50
256,224,31928,2,0,L|207:211,1,50
178,280,32143,2,0,L|142:244,1,50
144,144,32356,2,0,L|192:96,1,50
288,64,32571,2,0,P|336:80|320:224,2,200
48,48,34285,6,0,L|96:80,1,50
160,128,34714,2,0,P|176:192|144:192,1,100
96,208,35142,2,0,P|80:272|112:272,1,100
352,96,35571,2,0,L|304:160,1,50
384,208,35785,2,0,L|304:208,1,50
208,208,35999,2,0,P|145:187|139:42,2,200
176,80,37714,6,0,L|112:160,1,100
160,240,38356,2,0,L|224:208,1,50
304,240,38571,2,0,L|272:192,1,50
352,128,38785,2,0,L|400:160,1,50
256,64,38999,2,0,L|224:128,1,50
144,64,39214,2,0,L|112:16,1,50
80,144,39428,2,0,P|128:224|256:224,2,200
408,72,41142,5,0,0:0:0:0:
360,51,41250,1,0,0:0:0:0:
312,64,41357,1,0,0:0:0:0:
287,106,41464,1,0,0:0:0:0:
299,153,41571,1,0,0:0:0:0:
340,178,41678,1,0,0:0:0:0:
376,201,41786,1,0,0:0:0:0:
409,238,41893,1,0,0:0:0:0:
407,287,42000,1,0,0:0:0:0:
372,322,42106,2,0,P|340:338|292:290,1,100
96,128,43928,6,0,L|48:96,1,50
192,80,44142,2,0,L|208:144,1,50
304,128,44356,2,0,L|336:80,1,50
208,224,44571,2,0,L|176:176,1,50
352,208,44785,2,0,L|400:176,1,50
288,304,44999,2,0,L|256:352,1,50
160,304,45214,2,0,L|160:240,1,50
64,320,45428,2,0,P|48:240|32:224,2,100
144,48,47999,5,0,0:0:0:0:
192,49,48106,1,0,0:0:0:0:
227,83,48213,1,0,0:0:0:0:
229,132,48320,1,0,0:0:0:0:
197,169,48427,1,0,0:0:0:0:
160,192,48535,1,0,0:0:0:0:
119,217,48642,1,0,0:0:0:0:
107,264,48749,1,0,0:0:0:0:
132,306,48856,1,0,0:0:0:0:
256,192,48964,12,0,53999,0:0:0:0:
224,96,54856,6,0,P|192:144|192:144,1,50
288,128,55285,2,0,L|320:80,1,50
352,160,55714,2,0,L|324:201,1,50
112,96,56142,1,0,0:0:0:0:
272,256,56356,1,0,0:0:0:0:
272,112,56571,2,0,P|336:112|384:224,2,200
96,272,58285,6,0,P|112:208|144:176,1,100
192,80,58928,2,0,L|128:32,1,50
336,144,59142,2,0,L|384:160,1,50
272,256,59356,2,0,L|304:304,1,50
288,80,59571,2,0,L|368:64,1,50
144,96,59785,2,0,L|80:64,1,50
160,192,59999,2,0,P|128:240|240:320,2,200
48,176,61714,2,0,L|75:217,1,50
112,144,62142,2,0,L|80:96,1,50
176,112,62571,2,0,L|203:153,1,50
304,240,62999,5,0,0:0:0:0:
384,96,63214,1,0,0:0:0:0:
160,208,63428,2,0,P|112:240|208:320,2,200
160,96,65142,6,0,L|96:176,1,100
112,240,65785,2,0,L|160:224,1,50
224,320,65999,2,0,L|160:320,1,50
320,256,66214,2,0,L|368:208,1,50
224,176,66428,2,0,L|240:240,1,50
240,96,66642,2,0,L|192:80,1,50
112,144,66856,2,0,P|64:192|128:304,2,200
69,228,68571,5,0,0:0:0:0:
49,179,68679,1,0,0:0:0:0:
62,132,68786,1,0,0:0:0:0:
104,107,68893,1,0,0:0:0:0:
151,119,69000,1,0,0:0:0:0:
176,160,69107,1,0,0:0:0:0:
199,196,69215,1,0,0:0:0:0:
236,229,69322,1,0,0:0:0:0:
285,227,69429,1,0,0:0:0:0:
320,192,69535,2,0,P|336:160|288:112,1,100
192,80,71356,5,0,0:0:0:0:
128,272,71571,1,0,0:0:0:0:
64,144,71785,1,0,0:0:0:0:
320,96,71999,1,0,0:0:0:0:
256,256,72214,1,0,0:0:0:0:
112,64,72428,1,0,0:0:0:0:
368,192,72642,1,0,0:0:0:0:
80,288,72856,1,0,0:0:0:0:
320,144,75428,5,0,0:0:0:0:
319,192,75535,1,0,0:0:0:0:
285,227,75642,1,0,0:0:0:0:
236,229,75749,1,0,0:0:0:0:
199,196,75856,1,0,0:0:0:0:
176,160,75964,1,0,0:0:0:0:
151,119,76071,1,0,0:0:0:0:
104,107,76178,1,0,0:0:0:0:
62,132,76285,1,0,0:0:0:0:
48,176,76392,2,0,P|48:211|113:231,1,100,0|0,0:3|0:3,0:3:0:0:
288,96,78214,5,0,0:0:0:0:
128,240,78428,1,0,0:0:0:0:
304,224,78642,1,0,0:0:0:0:
288,96,78856,1,0,0:0:0:0:
128,240,79071,1,0,0:0:0:0:
304,224,79285,1,0,0:0:0:0:
208,304,79499,1,0,0:0:0:0:
128,240,79714,2,0,P|96:192|96:192,1,50
400,80,80142,2,0,L|352:128,1,50
176,48,80571,2,0,P|144:64|144:80,1,50
160,144,81214,2,0,P|150:166|126:170,1,50
64,144,81856,2,0,P|32:160|32:176,2,50
64,144,95999,5,0,0:0:0:0:
96,128,96106,1,0,0:0:0:0:
128,112,96214,1,0,0:0:0:0:
160,112,96321,1,0,0:0:0:0:
192,112,96428,1,0,0:0:0:0:
224,128,96535,1,0,0:0:0:0:
256,144,96642,1,0,0:0:0:0:
272,176,96749,1,0,0:0:0:0:
288,208,96856,1,0,0:0:0:0:
288,240,96964,1,0,0:0:0:0:
272,272,97071,1,0,0:0:0:0:
240,288,97178,1,0,0:0:0:0:
208,288,97285,1,0,0:0:0:0:
176,272,97392,1,0,0:0:0:0:
144,256,97499,1,0,0:0:0:0:
112,224,97606,1,0,0:0:0:0:
96,192,97714,1,0,0:0:0:0:
112,160,97821,1,0,0:0:0:0:
128,128,97928,1,0,0:0:0:0:
160,112,98035,1,0,0:0:0:0:
192,112,98142,1,0,0:0:0:0:
224,112,98249,1,0,0:0:0:0:
256,128,98356,1,0,0:0:0:0:
288,144,98464,1,0,0:0:0:0:
304,176,98571,1,0,0:0:0:0:
320,208,98678,1,0,0:0:0:0:
352,224,98785,1,0,0:0:0:0:
368,192,98892,1,0,0:0:0:0:
368,160,98999,1,0,0:0:0:0:
368,128,99106,1,0,0:0:0:0:
352,96,99214,1,0,0:0:0:0:
320,80,99321,1,0,0:0:0:0:
288,64,99428,6,0,P|224:80|192:128,2,100
400,112,100285,1,0,0:0:0:0:
192,224,100714,1,0,0:0:0:0:
384,256,101142,1,0,0:0:0:0:
240,96,101571,2,0,P|160:112|144:160,2,100
288,288,102428,1,0,0:0:0:0:
160,192,102856,5,0,0:0:0:0:
160,160,102964,1,0,0:0:0:0:
176,128,103071,1,0,0:0:0:0:
208,112,103178,1,0,0:0:0:0:
240,96,103285,1,0,0:0:0:0:
272,96,103392,1,0,0:0:0:0:
304,112,103499,1,0,0:0:0:0:
320,144,103606,1,0,0:0:0:0:
320,176,103714,1,0,0:0:0:0:
304,208,103821,1,0,0:0:0:0:
272,240,103928,1,0,0:0:0:0:
240,256,104035,1,0,0:0:0:0:
208,272,104142,1,0,0:0:0:0:
176,272,104249,1,0,0:0:0:0:
144,256,104356,1,0,0:0:0:0:
112,224,104464,1,0,0:0:0:0:
96,192,104571,1,0,0:0:0:0:
96,160,104678,1,0,0:0:0:0:
112,128,104785,1,0,0:0:0:0:
144,112,104892,1,0,0:0:0:0:
176,128,104999,1,0,0:0:0:0:
192,160,105106,1,0,0:0:0:0:
208,192,105214,1,0,0:0:0:0:
224,224,105321,1,0,0:0:0:0:
240,256,105428,1,0,0:0:0:0:
272,272,105535,1,0,0:0:0:0:
304,256,105642,1,0,0:0:0:0:
320,224,105749,1,0,0:0:0:0:
336,192,105856,1,0,0:0:0:0:
352,160,105964,1,0,0:0:0:0:
368,128,106071,1,0,0:0:0:0:
368,96,106178,1,0,0:0:0:0:
336,80,106285,5,0,0:0:0:0:
304,64,106392,1,0,0:0:0:0:
272,64,106499,1,0,0:0:0:0:
240,64,106606,1,0,0:0:0:0:
208,80,106714,1,0,0:0:0:0:
176,96,106821,1,0,0:0:0:0:
160,128,106928,1,0,0:0:0:0:
160,160,107035,1,0,0:0:0:0:
176,192,107142,1,0,0:0:0:0:
208,224,107249,1,0,0:0:0:0:
240,224,107356,1,0,0:0:0:0:
272,208,107464,1,0,0:0:0:0:
304,192,107571,1,0,0:0:0:0:
320,160,107678,1,0,0:0:0:0:
304,128,107785,1,0,0:0:0:0:
272,112,107892,1,0,0:0:0:0:
240,112,107999,1,0,0:0:0:0:
208,112,108106,1,0,0:0:0:0:
176,128,108214,1,0,0:0:0:0:
144,144,108321,1,0,0:0:0:0:
128,176,108428,1,0,0:0:0:0:
128,208,108535,1,0,0:0:0:0:
144,240,108642,1,0,0:0:0:0:
176,272,108749,1,0,0:0:0:0:
208,272,108856,1,0,0:0:0:0:
240,256,108964,1,0,0:0:0:0:
256,224,109071,1,0,0:0:0:0:
272,192,109178,1,0,0:0:0:0:
272,160,109285,1,0,0:0:0:0:
256,128,109392,1,0,0:0:0:0:
224,112,109499,1,0,0:0:0:0:
192,112,109606,1,0,0:0:0:0:
160,112,109714,6,0,P|80:144|80:256,2,200
272,128,110999,1,0,0:0:0:0:
192,288,111428,1,0,0:0:0:0:
272,128,111856,2,0,P|336:144|336:176,2,100
80,320,112714,1,0,0:0:0:0:
336,224,113142,1,0,0:0:0:0:
112,144,113571,1,0,0:0:0:0:
336,224,113999,1,0,0:0:0:0:
144,288,114428,1,0,0:0:0:0:
384,304,114856,1,0,0:0:0:0:
144,288,115285,1,0,0:0:0:0:
176,64,115714,2,0,P|112:64|96:96,2,100
256,192,116571,12,0,122999,0:0:0:0:
80,144,123428,5,0,0:0:0:0:
112,128,123535,1,0,0:0:0:0:
144,128,123642,1,0,0:0:0:0:
176,144,123749,1,0,0:0:0:0:
192,176,123856,1,0,0:0:0:0:
208,208,123964,1,0,0:0:0:0:
224,240,124071,1,0,0:0:0:0:
240,272,124178,1,0,0:0:0:0:
272,288,124285,1,0,0:0:0:0:
304,288,124392,1,0,0:0:0:0:
336,272,124499,1,0,0:0:0:0:
352,240,124606,1,0,0:0:0:0:
368,208,124714,1,0,0:0:0:0:
352,176,124821,1,0,0:0:0:0:
320,144,124928,1,0,0:0:0:0:
288,128,125035,1,0,0:0:0:0:
256,128,125142,1,0,0:0:0:0:
224,144,125249,1,0,0:0:0:0:
192,176,125356,1,0,0:0:0:0:
176,208,125464,1,0,0:0:0:0:
144,224,125571,1,0,0:0:0:0:
112,224,125678,1,0,0:0:0:0:
96,192,125785,1,0,0:0:0:0:
80,160,125892,1,0,0:0:0:0:
96,128,125999,1,0,0:0:0:0:
128,112,126106,1,0,0:0:0:0:
160,112,126214,1,0,0:0:0:0:
192,112,126321,1,0,0:0:0:0:
224,128,126428,1,0,0:0:0:0:
240,160,126535,1,0,0:0:0:0:
256,192,126642,1,0,0:0:0:0:
256,224,126749,1,0,0:0:0:0:
240,272,126856,6,0,P|192:288|128:256,1,100
64,224,127285,1,0,0:0:0:0:
144,160,127714,1,0,0:0:0:0:
240,256,128142,1,0,0:0:0:0:
352,176,128571,1,0,0:0:0:0:
272,80,128999,6,0,P|176:112|176:128,2,100
352,144,129642,1,0,0:0:0:0:
192,304,129856,1,0,0:0:0:0:
240,224,130071,1,0,0:0:0:0:
304,160,130285,5,0,0:0:0:0:
336,144,130392,1,0,0:0:0:0:
368,160,130499,1,0,0:0:0:0:
384,192,130606,1,0,0:0:0:0:
384,224,130714,1,0,0:0:0:0:
368,256,130821,1,0,0:0:0:0:
336,272,130928,1,0,0:0:0:0:
304,272,131035,1,0,0:0:0:0:
272,272,131142,1,0,0:0:0:0:
240,272,131249,1,0,0:0:0:0:
208,256,131356,1,0,0:0:0:0:
176,240,131464,1,0,0:0:0:0:
160,208,131571,1,0,0:0:0:0:
160,176,131678,1,0,0:0:0:0:
176,144,131785,1,0,0:0:0:0:
208,128,131892,1,0,0:0:0:0:
240,128,131999,1,0,0:0:0:0:
272,144,132106,1,0,0:0:0:0:
288,176,132214,1,0,0:0:0:0:
288,208,132321,1,0,0:0:0:0:
272,240,132428,1,0,0:0:0:0:
240,256,132535,1,0,0:0:0:0:
208,256,132642,1,0,0:0:0:0:
176,240,132749,1,0,0:0:0:0:
160,208,132856,1,0,0:0:0:0:
160,176,132964,1,0,0:0:0:0:
192,144,133071,1,0,0:0:0:0:
224,128,133178,1,0,0:0:0:0:
256,128,133285,1,0,0:0:0:0:
288,128,133392,1,0,0:0:0:0:
320,128,133499,1,0,0:0:0:0:
352,112,133606,1,0,0:0:0:0:
384,80,133714,5,0,0:0:0:0:
384,48,133821,1,0,0:0:0:0:
352,32,133928,1,0,0:0:0:0:
320,32,134035,1,0,0:0:0:0:
288,32,134142,1,0,0:0:0:0:
256,48,134249,1,0,0:0:0:0:
224,64,134356,1,0,0:0:0:0:
192,80,134464,1,0,0:0:0:0:
160,96,134571,1,0,0:0:0:0:
144,128,134678,1,0,0:0:0:0:
144,160,134785,1,0,0:0:0:0:
160,192,134892,1,0,0:0:0:0:
176,224,134999,1,0,0:0:0:0:
192,256,135106,1,0,0:0:0:0:
224,272,135214,1,0,0:0:0:0:
256,256,135321,1,0,0:0:0:0:
288,240,135428,1,0,0:0:0:0:
304,208,135535,1,0,0:0:0:0:
320,176,135642,1,0,0:0:0:0:
304,144,135749,1,0,0:0:0:0:
288,112,135856,1,0,0:0:0:0:
256,96,135964,1,0,0:0:0:0:
224,96,136071,1,0,0:0:0:0:
192,96,136178,1,0,0:0:0:0:
160,112,136285,1,0,0:0:0:0:
144,144,136392,1,0,0:0:0:0:
144,176,136499,1,0,0:0:0:0:
160,208,136606,1,0,0:0:0:0:
176,240,136714,1,0,0:0:0:0:
208,256,136821,1,0,0:0:0:0:
240,256,136928,1,0,0:0:0:0:
272,256,137035,1,0,0:0:0:0:
304,240,137142,6,0,P|352:192|272:96,2,200
128,208,138214,2,0,L|208:240,1,50
128,128,138428,2,0,L|96:80,1,50
224,176,138642,2,0,L|288:192,1,50
256,96,138856,2,0,L|304:48,1,50
384,192,139071,2,0,L|384:128,1,50
320,272,139285,2,0,L|416:272,1,50
256,208,139499,2,0,L|304:192,1,50
208,288,139714,2,0,L|256:352,1,50
128,160,139928,2,0,L|64:176,1,50
224,96,140142,2,0,L|176:48,1,50
352,112,140356,2,0,L|400:80,1,50
336,192,140571,6,0,L|400:208,1,50
176,224,140785,2,0,L|128:256,1,50
256,272,140999,2,0,L|320:304,1,50
288,192,141214,2,0,L|336:176,1,50
208,128,141428,2,0,L|160:96,1,50
320,112,141642,2,0,L|384:112,1,50
144,160,141856,2,0,L|96:192,1,50
288,208,142071,2,0,L|368:224,1,50
192,272,142285,2,0,L|144:320,1,50
368,96,142499,2,0,L|416:112,1,50
240,112,142714,2,0,L|208:64,1,50
304,176,142928,2,0,L|368:192,1,50
224,256,143142,2,0,L|224:320,1,50
144,192,143356,2,0,L|80:224,1,50
128,112,143571,2,0,L|64:112,1,50
320,224,143785,2,0,L|384:256,1,50
224,256,143999,6,0,L|176:320,1,50
144,208,144214,2,0,L|80:192,1,50
320,272,144428,2,0,L|368:304,1,50
272,144,144642,2,0,L|320:112,1,50
176,96,144856,2,0,L|128:64,1,50
96,224,145071,2,0,L|80:288,1,50
192,224,145285,2,0,L|256:256,1,50
208,128,145499,2,0,L|224:80,1,50
320,144,145714,2,0,L|368:128,1,50
320,272,145928,2,0,L|272:224,1,50
224,320,146142,2,0,L|160:320,1,50
208,208,146356,2,0,L|160:240,1,50
256,112,146571,2,0,L|240:64,1,50
80,112,146785,2,0,L|32:96,1,50
112,224,146999,2,0,L|64:288,1,50
240,288,147214,2,0,L|304:320,1,50
272,192,147428,6,0,L|320:176,1,50
224,128,147642,2,0,L|272:80,1,50
128,192,147856,2,0,L|48:208,1,50
192,256,148071,2,0,L|192:320,1,50
320,256,148285,2,0,L|400:272,1,50
272,144,148499,2,0,L|224:176,1,50
256,64,148714,2,0,L|176:32,1,50
96,128,148928,2,0,L|144:144,1,50
80,224,149142,2,0,L|144:208,1,50
240,224,149356,2,0,L|192:256,1,50
352,192,149571,2,0,L|384:256,1,50
256,112,149785,2,0,L|176:96,1,50
352,112,149999,2,0,L|400:96,1,50
320,224,150214,2,0,L|400:272,1,50
224,256,150428,2,0,L|160:320,1,50
320,144,150642,6,0,L|368:112,1,50
