osu file format v14

[General]
AudioFilename: audio.mp3
AudioLeadIn: 0
PreviewTime: 14735
Countdown: 1
SampleSet: Soft
StackLeniency: 0.7
Mode: 0
LetterboxInBreaks: 0
WidescreenStoryboard: 1

[Editor]
DistanceSpacing: 2.2
BeatDivisor: 8
GridSize: 4
TimelineZoom: 2.5

[Metadata]
Title:MOONLIGHT
TitleUnicode:MOONLIGHT
Artist:WhOAMI Inc
ArtistUnicode:WhOAMI Inc
Creator:schoolboy
Version:VANUCIK'S EXTRA
Source:
Tags:XXXTENTACION vanucik trynna komore XXXTANTACION Спулае Мулае
BeatmapID:1948688
BeatmapSetID:930155

[Difficulty]
HPDrainRate:6
CircleSize:4
OverallDifficulty:7.5
ApproachRate:9.2
SliderMultiplier:1.8
SliderTickRate:1

[Events]
//Background and Video events
0,0,"833a0f037b454383f4dcab7bac773277.jpg",0,0
//Break Periods
//Storyboard Layer 0 (Background)
//Storyboard Layer 1 (Fail)
//Storyboard Layer 2 (Pass)
//Storyboard Layer 3 (Foreground)
//Storyboard Sound Samples

[TimingPoints]
296,468.75,4,2,1,45,1,0
296,-166.666666666667,4,2,1,45,0,0
1467,-50,4,2,1,45,0,0
1702,-200,4,2,1,45,0,0
5217,-50,4,2,1,45,0,0
5803,-166.666666666667,4,2,1,45,0,0
7092,-50,4,2,1,45,0,0
7796,-142.857142857143,4,2,1,45,0,0
8967,-50,4,2,1,50,0,0
9202,-142.857142857143,4,2,1,50,0,0
12717,-50,4,2,1,50,0,0
12952,-142.857142857143,4,2,1,50,0,0
14827,-333.333333333333,4,2,1,50,0,0
15296,-50,4,2,1,60,0,0
16467,-40,4,2,1,60,0,0
16702,-76.9230769230769,4,2,1,60,0,0
17171,-100,4,2,1,60,0,0
19046,-50,4,2,1,60,0,0
20217,-40,4,2,1,60,0,0
22366,-40,4,2,1,60,0,0
22483,-40,4,2,1,60,0,0
22522,-40,4,2,1,60,0,0
22639,-40,4,2,1,60,0,0
22678,-40,4,2,1,60,0,0
22796,-50,4,2,1,60,0,0
24202,-100,4,2,1,60,0,0
25842,-40,4,2,1,60,0,0
26077,-40,4,2,1,60,0,0
26116,-40,4,2,1,5,0,0
26233,-40,4,2,1,60,0,0
26272,-40,4,2,1,5,0,0
26389,-40,4,2,1,60,0,0
26428,-40,4,2,1,5,0,0
26546,-50,4,2,1,60,0,0
27717,-40,4,2,1,60,0,0
28889,-50,4,2,1,60,0,0
30296,-500,4,2,1,50,0,0
44358,-200,4,2,1,50,0,0
45296,-181.818181818181,4,2,1,55,0,0
48577,-181.818181818181,4,2,1,60,0,0
56546,-500,4,2,1,60,0,0
60296,-50,4,2,1,65,0,0
61233,-100,4,2,1,65,0,0
64046,-50,4,2,1,65,0,0
66389,-83.3333333333333,4,2,1,65,0,0
67796,-50,4,2,1,65,0,0
68733,-100,4,2,1,65,0,0
71546,-50,4,2,1,40,0,0
71780,-50,4,2,1,40,0,0
72014,-50,4,2,1,40,0,0
72483,-100,4,2,1,20,0,0
72952,-200,4,2,1,20,0,0
73421,-200,4,2,1,5,0,0

[Colours]
Combo1 : 255,94,55
Combo2 : 173,255,95
Combo3 : 17,254,176
Combo4 : 255,88,100

[HitObjects]
138,312,296,6,0,P|139:261|125:199,1,107.999996704102,6|2,0:0|1:2,0:0:0:0:
188,68,1057,2,0,L|187:53,1,13.4999995880127
244,130,1174,1,0,0:0:0:0:
244,130,1233,1,2,0:0:0:0:
439,255,1467,6,0,B|456:246|456:246|327:252,1,135,6|0,0:2|0:0,0:0:0:0:
329,241,1702,6,0,P|340:275|346:320,1,67.5,2|2,0:0|0:0,0:0:0:0:
234,138,2171,2,0,L|236:44,2,90,6|2|0,0:0|0:0|0:0,0:0:0:0:
326,96,3342,2,0,L|346:96,2,15
141,92,3577,2,0,P|129:119|121:163,1,67.5,2|0,0:0|0:0,0:0:0:0:
164,247,4046,6,0,L|168:288,2,22.5,12|0|0,0:0|0:0|0:0,0:0:0:0:
343,219,4514,2,0,P|290:209|279:209,1,56.25,2|0,0:0|0:0,0:0:0:0:
249,210,4866,1,2,0:0:0:0:
249,210,4924,1,2,0:0:0:0:
249,210,4983,2,0,L|251:183,1,22.5,2|0,0:0|0:0,0:0:0:0:
196,32,5217,6,0,P|238:75|318:77,1,135,6|0,0:0|0:0,0:0:0:0:
332,68,5452,2,0,B|321:57|321:57|311:138,1,90,2|0,0:0|0:0,0:0:0:0:
415,363,5803,5,2,0:0:0:0:
490,306,5921,2,0,P|447:275|380:276,1,107.999996704102,6|2,0:0|0:0,0:0:0:0:
141,315,6682,6,0,L|140:294,1,13.4999995880127,2|2,0:0|0:0,0:0:0:0:
218,352,6799,1,2,0:0:0:0:
218,352,6858,2,0,L|220:325,1,26.9999991760254
65,214,7092,2,0,B|45:199|45:199|49:313,1,135,6|0,0:0|0:0,0:0:0:0:
50,329,7327,1,2,0:0:0:0:
410,214,7796,6,0,L|412:118,1,94.499997116089,6|0,0:0|0:0,0:0:0:0:
422,220,8264,2,0,L|424:124,1,94.499997116089,2|2,0:0|0:0,0:0:0:0:
432,227,8733,1,10,0:0:0:0:
236,308,8967,6,0,B|203:330|203:330|332:334,1,135,6|0,0:0|0:0,0:0:0:0:
324,333,9202,2,0,P|332:287|316:233,1,94.499997116089,2|2,0:0|0:0,0:0:0:0:
128,175,9671,6,0,L|124:300,1,125.999996154785,6|2,0:0|0:0,0:0:0:0:
123,300,10608,1,8,0:0:0:0:
284,340,10842,2,0,L|310:339,2,20.9999993591309,0|2|2,0:0|0:0|0:0,0:0:0:0:
215,228,11077,5,8,0:0:0:0:
390,257,11233,1,8,0:0:0:0:
201,225,11389,1,8,0:0:0:0:
315,153,11546,6,0,P|320:122|319:105,2,31.4999990386963,8|0|8,0:1|0:1|0:1,0:0:0:0:
78,95,12014,2,0,L|80:207,1,94.499997116089,2|2,0:0|0:0,0:0:0:0:
85,326,12483,1,8,0:0:0:0:
85,326,12717,6,0,B|68:318|68:318|191:313,1,135,6|0,0:0|0:0,0:0:0:0:
220,309,12952,2,0,L|150:304,1,62.9999980773926,2|8,0:0|0:0,0:0:0:0:
422,310,13303,5,2,0:0:0:0:
375,235,13421,2,0,P|341:225|305:220,1,62.9999980773926,6|8,0:0|0:0,0:0:0:0:
229,179,13889,2,0,P|249:146|239:51,1,125.999996154785,0|8,0:0|0:0,0:0:0:0:
155,106,14827,5,0,0:0:0:0:
156,116,15061,1,0,0:0:0:0:
360,359,15296,6,0,P|321:254|296:218,1,120,6|0,1:2|0:0,0:0:0:0:
425,249,15530,2,0,P|387:192|330:138,1,120,2|0,1:2|0:0,0:0:0:0:
238,144,15764,2,0,P|228:229|224:307,1,120,2|0,1:2|0:0,0:0:0:0:
156,116,15999,2,0,P|133:190|117:250,1,120,2|0,3:2|0:0,0:0:0:0:
85,74,16233,1,10,2:0:0:0:
85,74,16467,6,0,B|52:53|52:53|197:42,1,168.75,2|0,0:0|0:0,0:0:0:0:
205,42,16702,5,2,3:2:0:0:
296,61,16819,1,2,0:0:0:0:
389,81,16936,1,10,0:0:0:0:
389,81,17171,5,2,0:0:0:0:
393,182,17288,1,2,0:0:0:0:
309,135,17405,1,2,0:0:0:0:
472,128,17522,1,0,0:0:0:0:
397,265,17639,1,2,0:0:0:0:
397,265,17874,6,0,P|339:258|292:256,1,90,2|2,0:0|0:0,0:0:0:0:
75,292,18577,5,2,0:0:0:0:
155,232,18694,1,2,0:0:0:0:
67,186,18811,1,2,0:0:0:0:
309,345,19046,6,0,P|328:233|332:181,1,120,2|0,1:2|0:0,0:0:0:0:
411,268,19280,2,0,P|409:180|400:128,1,120,2|0,1:2|0:0,0:0:0:0:
474,67,19514,2,0,P|407:55|344:47,1,120,2|0,1:2|0:0,0:0:0:0:
253,44,19749,2,0,P|164:44|98:49,1,120,0|0,3:2|0:0,0:0:0:0:
42,80,19983,1,10,0:0:0:0:
42,80,20217,6,0,B|12:110|12:110|142:115,1,168.75,2|0,0:0|0:0,0:0:0:0:
164,117,20452,5,2,3:2:0:0:
259,120,20569,1,2,0:0:0:0:
209,190,20686,1,10,0:0:0:0:
215,47,20803,1,2,0:0:0:0:
344,124,20921,5,2,3:2:0:0:
393,52,21038,1,2,0:0:0:0:
444,131,21155,1,10,0:0:0:0:
444,131,21389,6,0,P|425:229|411:334,1,150,2|0,1:2|0:0,0:0:0:0:
344,124,21624,2,0,P|337:224|337:297,1,150,2|0,3:2|0:0,0:0:0:0:
250,120,21858,1,10,0:0:0:0:
272,346,22092,2,0,P|249:293|146:266,1,168.75,0|0,0:0|0:0,0:0:0:0:
133,271,22327,6,0,L|138:325,1,37.5,8|0,0:0|0:0,0:0:0:0:
60,215,22483,2,0,L|44:262,1,37.5,8|0,0:0|0:0,0:0:0:0:
48,116,22639,2,0,L|4:157,1,37.5,8|0,0:0|0:0,0:0:0:0:
180,178,22796,6,0,P|270:170|350:167,1,120,2|0,1:2|0:0,0:0:0:0:
393,146,23030,2,0,P|327:140|267:131,1,120,2|0,1:2|0:0,0:0:0:0:
162,82,23264,2,0,P|231:79|307:68,1,120,2|0,1:2|0:0,0:0:0:0:
381,43,23499,2,0,P|320:37|193:5,1,180,2|0,3:2|0:0,0:0:0:0:
439,317,24202,5,2,0:0:0:0:
418,225,24319,1,2,0:0:0:0:
348,285,24436,1,2,0:0:0:0:
348,285,24671,5,2,0:0:0:0:
263,296,24788,1,2,0:0:0:0:
229,178,24905,1,2,0:0:0:0:
309,189,25022,1,0,0:0:0:0:
169,251,25139,1,2,0:0:0:0:
169,251,25374,6,0,P|96:238|64:234,1,90,2|10,0:0|0:0,0:0:0:0:
390,356,25842,6,0,B|426:333|426:333|279:327,1,168.75,2|0,1:1|0:0,0:0:0:0:
281,329,26077,6,0,P|246:320|215:315,1,37.5,8|0,0:0|0:0,0:0:0:0:
299,231,26233,2,0,P|267:201|248:185,1,37.5,8|0,0:0|0:0,0:0:0:0:
378,173,26389,2,0,P|362:123|355:108,1,37.5,8|0,0:0|0:0,0:0:0:0:
481,159,26546,6,0,P|478:83|471:20,1,120,2|0,1:2|0:0,0:0:0:0:
466,150,26780,2,0,P|463:238|471:313,1,120,2|0,1:2|0:0,0:0:0:0:
466,359,27014,2,0,P|398:334|330:325,1,120,2|0,1:2|0:0,0:0:0:0:
255,317,27249,2,0,P|177:317|126:327,1,120,2|0,3:2|0:0,0:0:0:0:
51,354,27483,1,10,0:0:0:0:
51,354,27717,6,0,B|55:277|55:277|47:269|47:269|50:185,1,168.75,2|0,0:0|0:0,0:0:0:0:
51,162,27952,5,2,3:2:0:0:
39,150,28069,1,2,0:0:0:0:
143,188,28186,1,10,0:0:0:0:
130,116,28303,1,2,0:0:0:0:
225,242,28421,1,2,3:2:0:0:
237,157,28538,1,0,0:0:0:0:
253,74,28655,1,10,0:0:0:0:
253,74,28889,6,0,B|245:66|242:63|158:21|104:11,1,120,2|0,1:2|0:0,0:0:0:0:
253,74,29124,2,0,P|311:61|376:56,1,120,2|0,3:2|0:0,0:0:0:0:
463,104,29358,1,10,0:0:0:0:
463,104,29592,6,0,B|441:94|441:94|444:213,1,135,2|0,0:0|0:0,0:0:0:0:
444,226,29827,1,8,0:0:0:0:
355,274,29983,1,8,0:0:0:0:
210,276,30139,1,8,0:0:0:0:
68,176,30296,6,0,L|67:140,1,36,6|0,0:0|0:0,0:0:0:0:
256,72,31233,5,2,0:0:0:0:
256,85,31389,1,2,0:0:0:0:
159,102,31546,5,2,0:0:0:0:
164,116,31702,1,2,0:0:0:0:
348,115,31858,5,2,0:0:0:0:
342,128,32014,1,2,0:0:0:0:
249,248,32171,6,0,P|221:238|211:235,1,36,2|0,1:2|0:0,0:0:0:0:
408,235,32874,2,0,P|407:213|403:192,1,36,2|0,0:0|0:0,0:0:0:0:
268,49,33577,5,8,0:0:0:0:
184,76,33733,1,8,0:0:0:0:
278,94,33889,1,8,0:0:0:0:
375,110,34046,2,0,L|376:72,1,36,2|0,0:0|0:0,0:0:0:0:
163,314,34983,6,0,L|164:332,2,12,2|2|2,0:0|0:0|0:0,0:0:0:0:
149,101,35452,2,0,L|150:114,2,12,2|2|2,0:0|0:0|0:0,0:0:0:0:
294,331,35921,6,0,P|295:309|294:292,1,36,2|0,1:2|0:0,0:0:0:0:
261,89,36624,2,0,P|260:111|261:128,1,36,2|0,0:0|0:0,0:0:0:0:
390,107,37327,6,0,L|369:106,1,12,8|8,0:0|0:0,0:0:0:0:
495,111,37639,1,8,0:0:0:0:
337,216,37796,2,0,P|313:210|295:209,1,36,6|2,0:0|0:0,0:0:0:0:
107,249,38733,6,0,P|131:239|169:134,1,144,10|8,0:0|0:0,0:0:0:0:
88,163,41077,5,8,0:0:0:0:
88,163,41233,1,8,0:0:0:0:
88,163,41389,1,8,0:0:0:0:
231,265,41546,6,0,L|274:263,1,36,2|2,1:2|0:0,0:0:0:0:
401,182,42483,5,10,0:0:0:0:
325,176,42639,1,2,0:0:0:0:
418,171,42795,1,2,0:0:0:0:
310,161,42951,1,2,0:0:0:0:
438,165,43108,1,2,0:0:0:0:
289,152,43264,1,2,0:0:0:0:
463,162,43421,5,2,0:0:0:0:
267,149,43889,1,2,0:0:0:0:
361,335,44358,5,8,0:0:0:0:
409,257,44592,2,0,P|385:248|363:244,1,45,2|2,0:0|0:0,0:0:0:0:
134,354,45296,5,6,1:2:0:0:
409,257,45530,1,2,1:2:0:0:
189,66,45764,2,0,L|222:156,1,74.2500022659302,2|0,1:2|0:0,0:0:0:0:
327,17,46233,5,10,0:0:0:0:
52,114,46467,1,2,3:2:0:0:
272,305,46702,2,0,L|246:235,1,74.2500022659302,2|0,3:2|0:0,0:0:0:0:
158,304,47171,5,2,3:2:0:0:
360,229,47405,1,10,0:0:0:0:
142,309,47639,1,2,1:2:0:0:
374,224,47874,1,2,3:2:0:0:
48,49,48108,5,10,0:0:0:0:
48,49,48577,5,8,0:0:0:0:
109,131,48733,1,8,0:0:0:0:
240,178,48889,1,8,0:0:0:0:
435,158,49046,5,6,1:2:0:0:
163,283,49280,1,2,1:2:0:0:
435,158,49514,2,0,L|437:65,1,74.2500022659302,2|0,1:2|0:0,0:0:0:0:
433,232,49983,5,10,0:0:0:0:
217,343,50217,1,2,3:2:0:0:
433,232,50452,2,0,L|435:139,1,74.2500022659302,2|0,3:2|0:0,0:0:0:0:
276,176,50921,5,2,3:2:0:0:
372,364,51155,1,10,0:0:0:0:
266,158,51389,1,2,1:2:0:0:
381,382,51624,1,2,3:2:0:0:
467,197,51858,5,8,0:0:0:0:
467,197,52327,5,8,0:0:0:0:
367,242,52483,1,8,0:0:0:0:
225,220,52639,1,8,0:0:0:0:
140,70,52796,5,6,1:2:0:0:
388,68,53030,1,2,1:2:0:0:
140,70,53264,2,0,L|141:149,1,74.2500022659302,2|0,1:2|0:0,0:0:0:0:
258,69,53733,5,10,0:0:0:0:
22,71,53967,1,2,3:2:0:0:
258,69,54202,2,0,L|259:148,1,74.2500022659302,2|0,3:2|0:0,0:0:0:0:
264,333,54671,5,2,3:2:0:0:
263,311,54905,1,10,0:0:0:0:
234,349,55139,1,2,1:2:0:0:
298,296,55374,1,2,3:2:0:0:
258,69,55608,5,8,0:0:0:0:
258,69,56077,5,8,0:0:0:0:
338,193,56233,1,8,0:0:0:0:
187,194,56389,1,8,0:0:0:0:
402,76,56546,6,0,P|429:64|496:121,1,126,6|0,1:2|0:0,0:0:0:0:
328,61,58421,6,0,P|305:45|277:41,1,54,0|0,0:0|0:0,0:0:0:0:
213,68,59358,1,8,0:0:0:0:
279,375,59827,5,8,0:0:0:0:
297,254,59983,1,8,0:0:0:0:
203,304,60139,1,8,0:0:0:0:
374,324,60296,6,0,P|388:211|392:145,1,120,6|0,1:2|0:0,0:0:0:0:
292,132,60530,2,0,P|382:200|438:237,1,120,2|0,1:2|0:0,0:0:0:0:
498,157,60764,2,0,P|393:201|333:230,1,120,2|0,1:2|0:0,0:0:0:0:
297,254,60999,1,2,3:2:0:0:
480,48,61233,6,0,P|416:32|368:26,1,90,10|0,2:0|0:0,0:0:0:0:
125,83,61702,5,2,3:2:0:0:
120,170,61819,1,2,0:0:0:0:
206,135,61936,1,10,0:0:0:0:
206,135,62171,5,2,0:0:0:0:
204,225,62288,1,2,0:0:0:0:
284,185,62405,1,2,0:0:0:0:
289,90,62522,1,0,0:0:0:0:
204,225,62639,5,2,0:0:0:0:
277,287,62874,2,0,P|329:278|384:275,1,90,2|2,0:0|0:0,0:0:0:0:
419,135,63577,5,2,0:0:0:0:
330,161,63694,1,2,0:0:0:0:
269,88,63811,1,2,0:0:0:0:
482,337,64046,6,0,P|395:313|333:304,1,120,2|0,1:2|0:0,0:0:0:0:
307,253,64280,2,0,P|232:251|173:256,1,120,2|0,1:2|0:0,0:0:0:0:
131,202,64514,2,0,P|53:210|-2:225,1,120,2|0,1:2|0:0,0:0:0:0:
53,298,64749,1,0,3:2:0:0:
349,147,64983,5,10,0:0:0:0:
349,147,65452,5,2,3:2:0:0:
289,78,65569,1,2,0:0:0:0:
197,77,65686,1,10,0:0:0:0:
131,141,65803,1,2,0:0:0:0:
174,236,65921,5,2,3:2:0:0:
225,157,66038,1,2,0:0:0:0:
79,221,66155,1,10,0:0:0:0:
212,322,66389,6,0,P|263:313|327:309,1,107.999996704102,2|0,0:2|0:0,0:0:0:0:
421,156,67327,5,8,0:0:0:0:
296,90,67483,1,8,0:0:0:0:
407,25,67639,1,8,0:0:0:0:
306,191,67796,6,0,P|232:171|173:165,1,120,2|0,1:2|0:0,0:0:0:0:
122,232,68030,2,0,P|141:306|165:360,1,120,2|0,1:2|0:0,0:0:0:0:
249,367,68264,2,0,P|303:312|338:264,1,120,2|0,1:2|0:0,0:0:0:0:
225,264,68499,1,2,3:2:0:0:
430,348,68733,6,0,P|445:293|444:241,1,90,10|0,2:0|0:0,0:0:0:0:
256,56,69202,5,2,0:0:0:0:
229,145,69319,1,2,0:0:0:0:
321,126,69436,1,10,0:0:0:0:
161,80,69671,5,2,0:0:0:0:
81,132,69788,1,2,0:0:0:0:
144,188,69905,1,10,0:0:0:0:
94,28,70022,1,0,0:0:0:0:
19,74,70139,1,2,0:0:0:0:
213,249,70374,6,0,P|278:238|313:237,1,90,2|10,0:0|0:0,0:0:0:0:
465,130,71077,5,8,0:0:0:0:
428,6,71233,1,8,0:0:0:0:
335,89,71389,1,8,0:0:0:0:
456,252,71546,6,0,P|354:227|273:215,1,120,2|0,1:2|0:0,0:0:0:0:
316,219,71780,2,0,P|239:213|190:214,1,120,2|0,1:2|0:0,0:0:0:0:
175,215,72014,2,0,P|96:221|50:230,1,120,2|0,1:2|0:0,0:0:0:0:
33,236,72249,1,2,3:2:0:0:
220,370,72483,6,0,P|240:319|244:275,1,90,10|2,0:0|3:2,0:0:0:0:
231,134,72952,6,0,P|227:101|234:36,1,90,2|0,0:0|0:0,0:0:0:0:
