osu file format v14

[General]
AudioFilename: audio.mp3
AudioLeadIn: 0
PreviewTime: 14735
Countdown: 1
SampleSet: Soft
StackLeniency: 0.2
Mode: 0
LetterboxInBreaks: 0
WidescreenStoryboard: 1

[Editor]
DistanceSpacing: 1.5
BeatDivisor: 4
GridSize: 8
TimelineZoom: 1

[Metadata]
Title:MOONLIGHT
TitleUnicode:MOONLIGHT
Artist:WhOAMI Inc
ArtistUnicode:WhOAMI Inc
Creator:schoolboy
Version:EXPERT
Source:
Tags:XXXTENTACION vanucik trynna komore XXXTANTACION Спулае Мулае
BeatmapID:1961024
BeatmapSetID:930155

[Difficulty]
HPDrainRate:5
CircleSize:4
OverallDifficulty:8
ApproachRate:9
SliderMultiplier:1.6
SliderTickRate:1

[Events]
//Background and Video events
0,0,"833a0f037b454383f4dcab7bac773277.jpg",0,0
//Break Periods
//Storyboard Layer 0 (Background)
//Storyboard Layer 1 (Fail)
//Storyboard Layer 2 (Pass)
//Storyboard Layer 3 (Foreground)
//Storyboard Sound Samples

[TimingPoints]
296,468.75,4,2,1,45,1,0
296,-117.647058823529,4,2,1,45,0,0
7796,-117.647058823529,4,2,1,50,0,0
14827,-181.818181818181,4,2,1,50,0,0
15296,-76.9230769230769,4,2,1,60,0,0
23499,-153.846153846154,4,2,1,60,0,0
25139,-76.9230769230769,4,2,1,60,0,0
30296,-153.846153846153,4,2,1,50,0,0
38733,-153.846153846153,4,2,1,50,0,0
45296,-111.111111111111,4,2,1,55,0,0
48577,-83.3333333333333,4,2,1,60,0,0
51506,-166.666666666667,4,2,1,60,0,0
54671,-83.3333333333333,4,2,1,60,0,0
55139,-166.666666666667,4,2,1,60,0,0
60296,-76.9230769230769,4,2,1,65,0,0
71663,-76.9230769230769,4,2,1,5,0,0

[Colours]
Combo1 : 255,94,55
Combo2 : 173,255,95
Combo3 : 17,254,176
Combo4 : 255,88,100

[HitObjects]
0,208,296,6,0,P|52:168|117:181,1,136.000002593994,6|2,0:0|1:2,0:0:0:0:
357,55,999,1,0,0:0:0:0:
346,72,1116,2,0,P|310:76|278:67,1,68.0000012969971,2|0,0:0|0:0,0:0:0:0:
199,33,1467,2,0,L|208:129,1,68.0000012969971,6|2,0:2|0:0,0:0:0:0:
222,287,2053,1,2,0:0:0:0:
285,351,2171,6,0,P|344:335|417:322,2,136.000002593994,6|2|0,0:0|0:0|0:0,0:0:0:0:
103,204,3342,2,0,L|107:172,2,22.666667098999,2|2|2,0:0|0:0|0:0,0:0:0:0:
28,266,3577,2,0,P|7:220|21:172,1,102.000001945496,2|0,0:0|0:0,0:0:0:0:
101,101,4046,6,0,B|166:110|173:74|233:84,1,136.000002593994,8|2,0:0|0:0,0:0:0:0:
435,156,4866,1,0,0:0:0:0:
380,94,4983,2,0,L|392:13,1,68.0000012969971,2|6,0:0|0:0,0:0:0:0:
497,226,5452,2,0,P|468:243|434:249,1,68.0000012969971,0|0,0:0|0:0,0:0:0:0:
307,214,5803,1,2,0:0:0:0:
329,199,5921,6,0,P|336:244|330:343,1,136.000002593994,6|2,0:0|0:0,0:0:0:0:
69,268,6741,1,2,0:0:0:0:
134,216,6858,2,0,L|217:226,1,68.0000012969971,2|6,0:0|0:0,0:0:0:0:
72,48,7327,2,0,P|36:103|50:167,1,136.000002593994,2|6,0:0|0:0,0:0:0:0:
50,167,8264,5,2,0:0:0:0:
221,352,8616,1,2,0:0:0:0:
288,297,8733,2,0,P|334:303|366:334,1,68.0000012969971,10|6,0:0|0:0,0:0:0:0:
510,261,9085,1,0,0:0:0:0:
430,228,9202,2,0,L|436:312,1,68.0000012969971,2|0,0:0|0:0,0:0:0:0:
507,144,9553,1,2,0:0:0:0:
496,122,9671,5,6,0:0:0:0:
410,100,9905,1,0,0:0:0:0:
324,78,10139,1,2,0:0:0:0:
95,338,10608,2,0,P|161:318|254:324,1,136.000002593994,8|8,0:0|0:0,0:0:0:0:
313,257,11233,5,8,0:0:0:0:
222,171,11389,5,8,0:0:0:0:
356,89,11546,6,0,B|435:105|410:124|481:140,1,136.000002593994,8|2,0:0|0:0,0:0:0:0:
240,310,12366,1,2,0:0:0:0:
321,334,12483,2,0,L|315:251,1,68.0000012969971,8|6,0:0|0:0,0:0:0:0:
185,128,12835,1,0,0:0:0:0:
149,214,12952,2,0,P|183:222|214:217,1,68.0000012969971,2|8,0:0|0:0,0:0:0:0:
71,136,13303,1,2,0:0:0:0:
22,220,13421,6,0,P|17:292|25:310,1,68.0000012969971,6|8,0:0|0:0,0:0:0:0:
181,87,13889,2,0,P|136:135|70:135,1,136.000002593994,0|8,0:0|0:0,0:0:0:0:
6,73,14592,1,2,0:0:0:0:
213,284,14827,6,0,L|203:349,1,66.0000020141602,0|0,0:0|0:0,0:0:0:0:
203,349,15296,6,0,P|251:330|303:327,1,103.999995239258,6|2,1:2|1:2,0:0:0:0:
469,146,15764,1,2,1:2:0:0:
370,99,15999,2,0,L|386:201,1,103.999995239258,2|10,3:2|2:0,0:0:0:0:
486,358,16467,6,0,B|495:333|495:333|471:342,1,51.999997619629,2|2,0:1|0:1,0:0:0:0:
256,220,16702,5,2,3:2:0:0:
183,248,16819,1,2,0:0:0:0:
111,217,16936,2,0,P|101:194|108:156,1,51.999997619629,10|0,0:0|0:0,0:0:0:0:
251,335,17171,5,2,0:0:0:0:
204,341,17288,1,2,0:0:0:0:
157,347,17405,1,2,0:0:0:0:
110,353,17522,1,2,0:0:0:0:
63,359,17639,5,2,0:0:0:0:
28,271,17874,1,2,0:0:0:0:
52,361,18108,1,2,0:0:0:0:
224,51,18577,5,2,0:0:0:0:
259,139,18694,1,2,0:0:0:0:
235,49,18811,1,2,0:0:0:0:
235,49,19046,5,2,1:2:0:0:
64,182,19280,1,2,1:2:0:0:
64,182,19397,1,2,0:0:0:0:
64,182,19514,1,2,1:2:0:0:
183,258,19749,2,0,P|181:208|169:154,1,103.999995239258,0|10,3:2|0:0,0:0:0:0:
26,358,20217,6,0,B|17:333|17:333|41:342,1,51.999997619629,2|2,0:1|0:1,0:0:0:0:
191,376,20452,5,2,3:2:0:0:
271,355,20569,1,2,0:0:0:0:
329,295,20686,1,10,0:0:0:0:
409,274,20803,1,2,0:0:0:0:
485,308,20921,1,2,3:2:0:0:
481,338,21038,1,2,0:0:0:0:
477,368,21155,1,10,0:0:0:0:
329,295,21389,5,2,1:2:0:0:
352,140,21624,1,2,3:2:0:0:
478,49,21858,1,10,0:0:0:0:
486,358,22092,6,0,B|495:333|495:333|471:342,1,51.999997619629,2|2,1:0|1:0,0:0:0:0:
356,236,22327,5,8,0:0:0:0:
161,166,22483,5,8,0:0:0:0:
362,221,22639,5,8,0:0:0:0:
156,180,22796,6,0,L|32:201,1,103.999995239258,2|2,1:2|1:2,0:0:0:0:
279,73,23264,1,2,1:2:0:0:
176,286,23499,2,0,L|52:307,1,103.999995239258,2|2,3:2|0:0,0:0:0:0:
386,345,24202,5,2,0:0:0:0:
386,345,24319,1,2,0:0:0:0:
386,345,24436,1,2,0:0:0:0:
230,195,24671,5,2,0:0:0:0:
304,142,24788,1,2,0:0:0:0:
312,233,24905,1,2,0:0:0:0:
230,195,25022,1,2,0:0:0:0:
304,142,25139,2,0,P|367:154|438:165,2,103.999995239258,2|2|10,0:0|0:0|0:0,0:0:0:0:
26,358,25842,6,0,B|17:333|17:333|41:342,1,51.999997619629,2|2,1:1|0:1,0:0:0:0:
197,363,26077,5,8,0:0:0:0:
158,131,26233,5,8,0:0:0:0:
345,258,26389,5,8,0:0:0:0:
16,244,26546,6,0,P|66:233|117:224,1,103.999995239258,2|2,1:2|1:2,0:0:0:0:
213,254,26897,1,2,0:0:0:0:
213,254,27014,1,2,1:2:0:0:
170,27,27249,2,0,L|156:146,1,103.999995239258,2|10,3:2|0:0,0:0:0:0:
486,358,27717,6,0,B|495:333|495:333|471:342,1,51.999997619629,2|2,0:1|0:1,0:0:0:0:
281,221,27952,5,2,3:2:0:0:
292,149,28069,1,2,0:0:0:0:
303,77,28186,1,10,0:0:0:0:
313,5,28303,1,2,0:0:0:0:
455,46,28421,6,0,P|431:58|403:63,1,51.999997619629,2|2,3:2|0:0,0:0:0:0:
313,5,28655,1,10,0:0:0:0:
398,266,28889,6,0,P|402:218|418:157,2,103.999995239258,2|2|10,1:2|3:2|0:0,0:0:0:0:
26,358,29592,6,0,B|17:333|17:333|41:342,1,51.999997619629,2|2,1:1|0:1,0:0:0:0:
171,182,29827,5,8,0:0:0:0:
140,90,29983,1,8,0:0:0:0:
171,182,30139,1,8,0:0:0:0:
151,8,30296,6,0,P|112:41|62:55,1,103.999995239258,6|0,0:0|0:0,0:0:0:0:
276,131,31233,1,2,0:0:0:0:
362,103,31389,1,2,0:0:0:0:
449,76,31546,1,2,0:0:0:0:
429,164,31702,1,2,0:0:0:0:
343,192,31858,1,2,0:0:0:0:
256,219,32015,1,2,0:0:0:0:
178,168,32171,6,0,P|184:117|187:65,1,103.999995239258,2|0,1:2|0:0,0:0:0:0:
53,189,32874,2,0,L|62:302,1,103.999995239258,2|0,0:0|0:0,0:0:0:0:
121,366,33577,5,8,0:0:0:0:
214,322,33733,5,8,0:0:0:0:
317,371,33889,5,8,0:0:0:0:
428,278,34046,6,0,P|393:242|339:243,1,103.999995239258,2|0,0:0|0:0,0:0:0:0:
174,110,34983,1,2,0:0:0:0:
259,79,35139,1,2,0:0:0:0:
243,168,35296,1,2,0:0:0:0:
227,119,35452,2,0,L|235:58,2,34.6666650797527,0|2|2,0:0|0:0|0:0,0:0:0:0:
154,204,35921,6,0,P|111:178|60:182,1,103.999995239258,2|0,1:2|0:0,0:0:0:0:
184,314,36624,2,0,P|235:304|286:299,1,103.999995239258,2|0,0:0|0:0,0:0:0:0:
432,345,37327,5,8,0:0:0:0:
376,240,37483,5,8,0:0:0:0:
469,138,37639,5,8,0:0:0:0:
359,43,37796,5,6,0:0:0:0:
251,360,38264,1,2,0:0:0:0:
251,360,38733,6,0,B|107:372|179:249|24:272,1,259.999988098145,10|0,0:0|0:0,0:0:0:0:
23,365,40139,1,2,0:0:0:0:
23,365,40374,2,0,P|76:361|102:319,1,103.999995239258,2|0,0:0|0:0,0:0:0:0:
164,175,41077,5,8,0:0:0:0:
139,43,41233,5,8,0:0:0:0:
159,185,41389,5,8,0:0:0:0:
0,136,41546,6,0,L|104:121,1,103.999995239258,2|2,1:2|0:0,0:0:0:0:
341,259,42483,1,10,0:0:0:0:
341,259,42639,1,2,0:0:0:0:
341,259,42796,1,2,0:0:0:0:
341,259,42952,1,2,0:0:0:0:
341,259,43108,1,2,0:0:0:0:
341,259,43264,1,2,0:0:0:0:
265,314,43421,5,2,0:0:0:0:
336,51,43889,1,2,0:0:0:0:
488,354,44358,5,8,0:0:0:0:
487,353,44592,2,0,P|491:328|501:304,1,51.999997619629,2|2,0:0|0:0,0:0:0:0:
194,52,45296,5,6,1:2:0:0:
228,158,45530,1,2,1:2:0:0:
177,41,45764,1,2,1:2:0:0:
211,147,45998,1,2,3:2:0:0:
86,301,46233,5,10,0:0:0:0:
52,195,46467,1,2,3:2:0:0:
103,312,46701,1,2,3:2:0:0:
69,206,46935,1,10,0:0:0:0:
259,289,47171,5,2,3:2:0:0:
267,277,47405,1,10,0:0:0:0:
273,290,47639,1,2,1:2:0:0:
259,289,47874,1,2,3:2:0:0:
267,277,48108,1,10,0:0:0:0:
273,290,48342,1,2,0:0:0:0:
403,384,48577,5,8,0:0:0:0:
421,298,48733,5,8,0:0:0:0:
441,212,48889,5,8,0:0:0:0:
274,60,49046,5,6,1:2:0:0:
367,36,49280,1,2,1:2:0:0:
390,129,49514,1,2,1:2:0:0:
297,153,49749,1,2,3:2:0:0:
180,270,49983,5,10,0:0:0:0:
87,294,50217,1,2,3:2:0:0:
64,201,50451,1,2,3:2:0:0:
157,177,50686,1,10,0:0:0:0:
289,338,50921,6,0,L|387:328,1,95.9999970703126,2|10,3:2|0:0,0:0:0:0:
498,166,51389,1,2,1:2:0:0:
512,250,51624,2,0,L|414:240,1,95.9999970703126,2|2,3:2|0:0,0:0:0:0:
259,88,52327,5,8,0:0:0:0:
344,60,52483,5,8,0:0:0:0:
325,147,52639,5,8,0:0:0:0:
49,219,52796,5,6,1:2:0:0:
49,219,53030,1,2,1:2:0:0:
126,337,53264,1,2,1:2:0:0:
126,337,53498,1,2,3:2:0:0:
463,219,53733,5,10,0:0:0:0:
463,219,53967,1,2,3:2:0:0:
386,337,54201,1,2,3:2:0:0:
386,337,54435,1,10,0:0:0:0:
253,35,54671,6,0,L|263:146,1,95.9999970703126,2|10,3:2|0:0,0:0:0:0:
115,256,55139,1,2,1:2:0:0:
197,288,55374,2,0,L|187:177,1,95.9999970703126,2|2,3:2|0:0,0:0:0:0:
27,32,56077,5,8,0:0:0:0:
118,83,56233,5,8,0:0:0:0:
220,56,56389,5,8,0:0:0:0:
116,98,56546,5,6,1:2:0:0:
256,192,56663,12,0,59592,0:0:0:0:
133,171,59827,5,8,0:0:0:0:
379,171,59983,5,8,0:0:0:0:
109,141,60139,5,8,0:0:0:0:
403,141,60296,6,0,L|522:114,1,103.999995239258,6|2,1:2|1:2,0:0:0:0:
327,51,60764,1,2,1:2:0:0:
439,332,60999,2,0,P|445:280|452:228,1,103.999995239258,2|10,3:2|2:0,0:0:0:0:
26,358,61467,6,0,B|17:333|17:333|41:342,1,51.999997619629,2|2,0:1|0:1,0:0:0:0:
208,222,61702,5,2,3:2:0:0:
242,146,61819,1,2,0:0:0:0:
188,82,61936,2,0,L|179:21,1,51.999997619629,10|0,0:0|0:0,0:0:0:0:
91,151,62171,5,2,0:0:0:0:
86,160,62288,1,2,0:0:0:0:
97,232,62405,5,2,0:0:0:0:
92,241,62522,1,2,0:0:0:0:
85,317,62640,5,2,0:0:0:0:
80,326,62874,5,2,0:0:0:0:
75,335,63108,5,2,0:0:0:0:
461,182,63577,5,2,0:0:0:0:
408,79,63694,2,0,L|418:21,1,51.999997619629,2|2,0:0|0:0,0:0:0:0:
416,27,64046,6,0,P|359:48|296:39,1,103.999995239258,2|2,1:2|1:2,0:0:0:0:
229,11,64397,1,2,0:0:0:0:
229,11,64514,1,2,1:2:0:0:
161,237,64749,2,0,P|218:216|281:225,1,103.999995239258,0|10,3:2|0:0,0:0:0:0:
486,358,65217,6,0,B|495:333|495:333|471:342,1,51.999997619629,2|2,0:1|0:1,0:0:0:0:
376,237,65452,5,2,3:2:0:0:
387,191,65569,1,2,0:0:0:0:
398,145,65686,1,10,0:0:0:0:
409,99,65803,1,2,0:0:0:0:
420,53,65921,5,2,3:2:0:0:
334,73,66038,1,2,0:0:0:0:
247,91,66155,1,10,0:0:0:0:
236,82,66389,5,2,0:2:0:0:
323,64,66623,1,2,0:2:0:0:
409,45,66858,1,2,0:0:0:0:
196,51,67327,5,8,0:0:0:0:
406,210,67483,5,8,0:0:0:0:
164,313,67639,5,8,0:0:0:0:
307,52,67796,6,0,L|294:189,1,103.999995239258,2|2,1:2|1:2,0:0:0:0:
61,104,68264,1,2,1:2:0:0:
164,313,68499,2,0,L|157:209,1,103.999995239258,2|10,3:2|2:0,0:0:0:0:
26,358,68967,6,0,B|17:333|17:333|41:342,1,51.999997619629,2|2,0:1|0:1,0:0:0:0:
317,221,69202,5,2,0:0:0:0:
312,251,69319,1,2,0:0:0:0:
307,281,69436,2,0,L|379:272,1,51.999997619629,10|0,0:0|0:0,0:0:0:0:
470,172,69671,5,2,0:0:0:0:
400,150,69788,1,2,0:0:0:0:
400,77,69905,1,2,0:0:0:0:
470,54,70022,1,2,0:0:0:0:
512,113,70139,5,2,0:0:0:0:
259,160,70374,2,0,P|189:151|129:152,1,103.999995239258,2|10,0:0|0:0,0:0:0:0:
486,358,70842,6,0,B|495:333|495:333|471:342,1,51.999997619629,2|2,1:1|0:1,0:0:0:0:
52,177,71077,5,8,0:0:0:0:
132,302,71233,5,8,0:0:0:0:
210,40,71389,5,8,0:0:0:0:
281,341,71546,5,2,1:2:0:0:
256,192,71663,12,0,73421,0:0:0:0:
