osu file format v14

[General]
AudioFilename: audio.mp3
AudioLeadIn: 0
PreviewTime: 153144
Countdown: 0
SampleSet: Soft
StackLeniency: 0.7
Mode: 0
LetterboxInBreaks: 0
WidescreenStoryboard: 1

[Editor]
Bookmarks: 13563
DistanceSpacing: 1.1
BeatDivisor: 4
GridSize: 4
TimelineZoom: 1

[Metadata]
Title:Nothing's Gonna Change My Love for You
TitleUnicode:Nothing's Gonna Change My Love for You
Artist:Westlife
ArtistUnicode:Westlife
Creator:bossandy
Version:ezek's Average
Source:The Bridges of Madison County
Tags:opening theme The Love Album Deluxe Edition Bonus tracks The Ultimate Collection George Benson Nicky Byrne Kian Egan Mark Feehily Shane Filan Brian McFadden ezek
BeatmapID:1767685
BeatmapSetID:821808

[Difficulty]
HPDrainRate:4
CircleSize:3.5
OverallDifficulty:4
ApproachRate:4
SliderMultiplier:1.6
SliderTickRate:1

[Events]
//Background and Video events
0,0,"BG.jpg",0,0
Video,-178,"video.avi"
//Break Periods
2,82095,83908
2,167094,175574
//Storyboard Layer 0 (Background)
//Storyboard Layer 1 (Fail)
//Storyboard Layer 2 (Pass)
//Storyboard Layer 3 (Foreground)
//Storyboard Sound Samples

[TimingPoints]
230,833.333333333333,4,2,1,40,1,0
40229,-100,4,2,1,50,0,0
53563,-100,4,2,2,50,0,0
55229,833.333333333333,4,2,2,60,1,1
81895,-100,4,2,2,60,0,0
85228,833.333333333333,4,2,2,50,1,0
126894,833.333333333333,4,2,2,60,1,1
151894,-100,4,2,2,60,0,0
153560,-100,4,2,2,70,0,1
165227,-100,4,2,2,60,0,1
166894,-100,4,2,2,50,0,0
180227,-100,4,2,2,70,0,1
206477,-100,4,2,2,70,0,0
206893,-100,4,2,2,60,0,1
208560,-100,4,2,2,50,0,1
210227,-100,4,2,2,40,0,1
211893,-100,4,2,2,30,0,1
213560,-100,4,2,2,20,0,1
215227,-100,4,2,2,10,0,1
216893,-100,4,2,2,9,0,1
217727,-100,4,2,2,8,0,1
218560,-100,4,2,2,7,0,1
219393,-100,4,2,2,6,0,1
220227,-100,4,2,2,5,0,0

[Colours]
Combo1 : 255,192,0
Combo2 : 255,255,128
Combo3 : 255,128,64
Combo4 : 207,243,112

[HitObjects]
18,89,13563,6,0,P|86:126|160:102,1,160,4|2,0:0|0:0,0:0:0:0:
227,33,14813,1,0,0:0:0:0:
298,96,15229,2,0,L|291:265,1,160,0|2,0:0|0:0,0:0:0:0:
285,351,16479,1,0,0:0:0:0:
368,303,16896,6,0,P|303:258|226:268,1,160,0|2,0:0|0:0,0:0:0:0:
149,326,18146,1,0,0:0:0:0:
66,375,18563,2,0,B|52:316|52:316|59:286|59:286|43:219,1,160,0|2,0:0|0:0,0:0:0:0:
62,124,19813,1,0,0:0:0:0:
106,39,20229,6,0,P|67:30|27:36,2,80,0|0|2,0:0|0:0|0:0,0:0:0:0:
179,100,21479,1,0,0:0:0:0:
263,53,21896,2,0,B|339:34|339:73|420:58,1,160,0|2,0:0|0:0,0:0:0:0:
355,238,23563,6,0,P|375:305|438:273,1,160,0|2,0:0|0:0,0:0:0:0:
488,192,24813,1,0,0:0:0:0:
438,110,25229,2,0,P|375:78|355:146,1,160,0|2,0:0|0:0,0:0:0:0:
400,232,26479,1,0,0:0:0:0:
434,321,26896,6,0,B|355:342|355:287|277:308,1,160,4|2,0:0|0:0,0:0:0:0:
199,363,28146,1,0,0:0:0:0:
117,312,28563,2,0,P|99:234|110:155,1,160,0|2,0:0|0:0,0:0:0:0:
187,99,29813,1,0,0:0:0:0:
262,157,30229,6,0,B|307:158|337:182|337:182|363:157|415:155,1,160,0|2,0:0|0:0,0:0:0:0:
486,97,31479,1,0,0:0:0:0:
408,40,31896,2,0,B|332:16|332:16|256:45,1,160,0|2,0:0|0:0,0:0:0:0:
173,91,33146,1,0,0:0:0:0:
86,48,33563,6,0,B|72:105|72:105|79:135|79:135|63:203,1,160,0|2,0:0|0:0,0:0:0:0:
37,296,34813,1,0,0:0:0:0:
108,359,35229,2,0,B|192:378|181:331|265:351,1,160,0|2,0:0|0:0,0:0:0:0:
358,370,36479,1,0,0:0:0:0:
452,350,36896,6,0,L|466:172,1,160,0|2,0:0|0:0,0:0:0:0:
365,25,38563,2,0,L|351:203,1,160,0|2,0:0|0:0,0:0:0:0:
303,267,39813,1,0,0:0:0:0:
235,334,40229,6,0,P|167:374|90:360,1,160,4|8,1:2|0:0,0:0:0:0:
14,301,41479,1,0,1:0:0:0:
84,235,41896,2,0,P|92:196|84:157,1,80,0|0,1:0|0:0,0:0:0:0:
21,84,42729,2,0,P|12:45|20:6,1,80,8|0,0:0|0:0,0:0:0:0:
107,46,43563,6,0,B|172:52|172:52|203:40|203:40|265:45,1,160,0|8,1:0|0:0,0:0:0:0:
359,53,44813,1,0,1:0:0:0:
306,133,45229,2,0,B|295:173|295:173|303:210,1,80,0|0,1:0|0:0,0:0:0:0:
364,285,46063,2,0,B|375:325|375:325|366:362,1,80,8|0,0:0|0:0,0:0:0:0:
276,326,46896,6,0,B|239:320|199:334|199:334|180:322|147:324,2,120,0|2|0,1:0|0:0|1:0,0:0:0:0:
364,285,48563,2,0,B|401:279|441:293|441:293|460:281|493:283,2,120,0|2|0,1:0|0:0|1:0,0:0:0:0:
345,189,50229,6,0,P|342:150|355:112,1,80,0|0,1:0|0:0,0:0:0:0:
292,40,51063,2,0,B|256:58|256:58|220:40,1,80,8|0,0:0|1:0,0:0:0:0:
156,112,51896,2,0,P|169:150|166:190,1,80,0|0,1:0|0:0,0:0:0:0:
256,220,52729,2,0,L|256:300,1,80,8|0,0:0|1:0,0:0:0:0:
177,355,53563,6,0,P|142:366|83:358,1,80,0|8,1:0|0:3,0:0:0:0:
130,272,54396,2,0,L|130:210,2,40,8|8|4,0:0|0:0|0:3,0:0:0:0:
36,244,55229,6,0,P|26:206|32:167,1,80,4|0,1:0|0:0,0:0:0:0:
101,101,56062,2,0,L|200:102,1,80,8|0,0:0|1:0,0:0:0:0:
260,155,56895,1,0,1:0:0:0:
328,87,57312,1,0,0:0:0:0:
255,23,57729,1,10,0:0:0:0:
446,38,58562,6,0,P|467:71|479:109,1,80,0|0,1:0|0:0,0:0:0:0:
420,186,59395,2,0,P|398:219|386:257,2,80,8|0|0,0:0|1:0|1:0,0:0:0:0:
497,128,60645,1,0,0:0:0:0:
457,40,61062,1,10,0:0:0:0:
361,35,61479,1,0,0:0:0:0:
285,211,62312,6,0,P|289:169|279:129,1,80,0|8,0:0|0:0,0:0:0:0:
188,108,63145,1,0,1:0:0:0:
93,92,63562,2,0,L|13:100,1,80,0|0,1:0|0:0,0:0:0:0:
13,196,64395,2,0,L|92:204,1,80,10|0,0:0|0:0,0:0:0:0:
174,154,65229,6,0,B|205:236|155:237|180:311,1,160,0|8,1:0|0:0,0:0:0:0:
256,368,66479,1,0,1:0:0:0:
331,309,66895,2,0,P|373:324|424:326,1,80,0|0,1:0|0:0,0:0:0:0:
484,269,67729,2,0,L|489:216,2,40,10|8|4,0:0|0:0|0:3,0:0:0:0:
395,231,68562,6,0,P|387:183|399:138,1,80,4|0,1:0|0:0,0:0:0:0:
434,66,69395,2,0,P|386:74|341:62,1,80,8|0,0:0|1:0,0:0:0:0:
264,37,70229,1,0,1:0:0:0:
179,82,70645,1,0,0:0:0:0:
93,38,71062,1,10,0:0:0:0:
112,228,71895,6,0,L|206:221,1,80,0|0,1:0|0:0,0:0:0:0:
150,308,72729,2,0,L|56:315,2,80,8|0|0,0:0|1:0|1:0,0:0:0:0:
236,350,73979,1,0,0:0:0:0:
313,293,74395,1,10,0:0:0:0:
289,199,74812,1,0,0:0:0:0:
369,147,75229,6,0,P|402:168|424:201,1,80,0|0,1:0|0:0,0:0:0:0:
392,291,76062,2,0,L|308:293,1,80,8|0,0:0|1:0,0:0:0:0:
228,341,76895,2,0,L|144:343,1,80,0|0,1:0|0:0,0:0:0:0:
91,265,77729,1,10,0:0:0:0:
137,181,78145,1,0,0:0:0:0:
256,192,78562,12,0,81895,1:0:0:0:
39,326,85228,6,0,P|86:383|153:352,1,160,4|10,1:0|0:0,0:0:0:0:
176,258,86478,1,0,1:0:0:0:
196,164,86894,2,0,P|263:132|310:190,1,160,0|8,1:0|0:0,0:0:0:0:
436,335,88561,6,0,L|428:162,1,160,0|8,1:0|0:0,0:0:0:0:
401,82,89811,1,0,1:0:0:0:
307,101,90228,2,0,B|225:87|225:87|179:25,1,160,0|8,1:0|0:0,0:0:0:0:
83,17,91478,1,0,0:0:0:0:
98,111,91894,6,0,B|127:191|64:189|99:277,1,160,0|8,1:0|0:0,0:0:0:0:
252,377,93561,2,0,B|223:297|286:299|251:211,1,160,0|8,1:0|0:0,0:0:0:0:
345,50,95228,6,0,P|383:40|423:41,1,80,0|0,1:0|0:0,0:0:0:0:
391,132,96061,2,0,P|352:142|312:141,1,80,8|0,0:0|1:0,0:0:0:0:
226,98,96894,2,0,B|164:72|147:142|130:70|69:95,1,160,0|8,1:0|0:0,0:0:0:0:
17,176,98144,1,2,0:1:0:0:
53,265,98561,6,0,P|127:286|192:243,1,160,4|8,1:0|0:0,0:0:0:0:
256,172,99811,1,0,1:0:0:0:
319,243,100228,2,0,P|384:286|458:265,1,160,0|10,1:0|0:0,0:0:0:0:
399,189,101478,1,0,0:0:0:0:
479,136,101894,6,0,P|414:93|339:114,1,160,0|8,1:0|0:0,0:0:0:0:
270,181,103144,1,0,1:0:0:0:
195,242,103561,2,0,B|130:253|130:253|97:239|97:239|30:248,1,160,0|8,1:0|0:0,0:0:0:0:
105,66,105228,6,0,B|170:55|170:55|203:69|203:69|270:60,1,160,0|8,1:0|0:0,0:0:0:0:
354,40,106478,1,0,1:0:0:0:
433,93,106894,2,0,P|410:158|447:240,1,160,0|8,1:0|0:0,0:0:0:0:
508,309,108144,1,0,0:0:0:0:
432,368,108561,6,0,B|356:391|355:334|272:365,1,160,0|8,1:0|0:0,0:0:0:0:
180,373,109811,1,0,1:0:0:0:
96,324,110228,2,0,P|68:260|104:168,1,160,0|12,1:0|0:0,0:0:0:0:
160,112,111477,1,2,0:1:0:0:
208,32,111894,6,0,B|159:15|128:28|128:28|85:16,2,120,4|2|0,1:0|0:0|1:0,0:0:0:0:
304,32,113561,2,0,B|353:15|384:28|384:28|427:16,2,120,0|2|0,1:0|0:0|1:0,0:0:0:0:
256,116,115227,6,0,B|281:142|324:141|324:141|415:137,1,160,0|8,1:0|0:0,0:0:0:0:
492,192,116477,1,0,1:0:0:0:
408,244,116894,2,0,B|323:241|323:241|280:240|255:266,1,160,0|10,1:0|0:0,0:0:0:0:
185,324,118144,1,0,0:0:0:0:
106,269,118561,6,0,B|87:312|87:312|86:345|100:383,2,120,0|2|0,1:0|0:0|1:0,0:0:0:0:
174,202,120227,2,0,B|193:159|193:159|194:126|180:88,2,120,0|2|0,1:0|0:0|1:0,0:0:0:0:
99,141,121894,6,0,L|16:148,1,80,0|0,1:0|0:0,0:0:0:0:
60,60,122727,2,0,P|97:28|133:23,1,80,8|0,0:0|1:0,0:0:0:0:
222,35,123561,2,0,L|235:120,1,80,0|0,1:0|0:0,0:0:0:0:
289,192,124394,2,0,P|327:182|355:154,1,80,8|0,0:0|1:0,0:0:0:0:
422,85,125227,6,0,B|463:77|463:77|517:88,1,80,0|8,1:0|0:3,0:0:0:0:
460,172,126061,2,0,L|460:224,2,40,8|8|4,0:0|0:0|0:3,0:0:0:0:
364,159,126894,6,0,P|341:192|337:236,1,80,4|0,1:0|0:0,0:0:0:0:
269,299,127727,2,0,P|246:266|242:222,1,80,8|0,0:0|1:0,0:0:0:0:
263,133,128560,1,0,1:0:0:0:
169,111,128977,1,0,0:0:0:0:
105,183,129394,1,10,0:0:0:0:
228,330,130227,6,0,P|265:342|304:337,1,80,0|0,1:0|0:0,0:0:0:0:
275,246,131060,2,0,P|237:233|198:238,2,80,8|0|0,0:0|1:0|1:0,0:0:0:0:
338,173,132310,1,0,0:0:0:0:
293,88,132727,1,10,0:0:0:0:
354,14,133144,1,0,0:0:0:0:
172,76,133977,6,0,L|92:62,1,80,0|8,0:0|0:0,0:0:0:0:
13,115,134810,1,0,1:0:0:0:
63,196,135227,2,0,L|143:210,1,80,0|0,1:0|0:0,0:0:0:0:
212,275,136060,1,10,0:0:0:0:
232,368,136477,1,0,0:0:0:0:
325,344,136894,6,0,B|356:262|306:261|331:187,1,160,0|8,1:0|0:0,0:0:0:0:
407,129,138144,1,0,1:0:0:0:
368,41,138560,2,0,P|319:34|282:10,1,80,0|0,1:0|0:0,0:0:0:0:
207,63,139394,2,0,L|144:65,2,40,10|8|4,0:0|0:0|0:3,0:0:0:0:
251,148,140227,6,0,P|261:207|261:237,1,80,4|0,1:0|0:0,0:0:0:0:
173,265,141060,2,0,P|163:324|163:354,1,80,8|0,0:0|1:0,0:0:0:0:
256,366,141894,1,0,1:0:0:0:
326,300,142310,1,0,0:0:0:0:
420,319,142727,1,10,0:0:0:0:
475,135,143560,6,0,B|435:146|435:146|397:136,1,80,0|0,1:0|0:0,0:0:0:0:
351,52,144394,2,0,B|391:41|391:41|428:50,2,80,8|0|0,0:0|1:0|1:0,0:0:0:0:
272,107,145644,1,0,0:0:0:0:
192,53,146060,1,10,0:0:0:0:
114,109,146477,1,0,0:0:0:0:
190,167,146894,6,0,P|194:243|143:306,1,160,0|8,1:0|0:0,0:0:0:0:
50,325,148144,1,0,1:0:0:0:
7,239,148560,2,0,L|-2:152,1,80,0|0,1:0|0:0,0:0:0:0:
84,114,149394,2,0,L|93:27,1,80,10|0,0:0|0:0,0:0:0:0:
187,46,150227,6,0,B|254:58|254:58|279:42|279:42|344:49,2,160,4|8|4,1:0|0:0|1:0,0:0:0:0:
210,139,152310,1,0,0:0:0:0:
307,151,152727,2,0,L|396:159,1,80,8|4,0:0|0:3,0:0:0:0:
481,145,153560,6,0,P|491:183|485:222,1,80,4|0,1:0|0:0,0:0:0:0:
411,283,154394,2,0,L|312:282,1,80,8|0,0:0|1:0,0:0:0:0:
252,229,155227,1,0,1:0:0:0:
184,297,155644,1,0,0:0:0:0:
257,361,156060,1,10,0:0:0:0:
66,346,156894,6,0,P|45:313|33:275,1,80,0|0,1:0|0:0,0:0:0:0:
92,198,157727,2,0,P|114:165|126:127,2,80,8|0|0,0:0|1:0|1:0,0:0:0:0:
33,275,158977,1,0,0:0:0:0:
103,342,159394,1,10,0:0:0:0:
189,299,159810,1,0,0:0:0:0:
268,354,160227,6,0,B|305:368|305:368|357:364,2,80,0|0|8,1:0|0:0|0:0,0:0:0:0:
324,276,161477,1,0,1:0:0:0:
419,292,161894,2,0,L|499:284,1,80,0|0,1:0|0:0,0:0:0:0:
499,188,162727,2,0,L|420:180,1,80,8|0,0:0|0:0,0:0:0:0:
338,230,163560,6,0,B|307:148|357:147|332:73,1,160,0|8,1:0|0:0,0:0:0:0:
256,16,164810,1,0,1:0:0:0:
180,74,165227,2,0,P|145:56|105:54,1,80,0|0,1:0|0:0,0:0:0:0:
29,112,166060,2,0,L|24:165,2,40,8|0|2,0:0|0:0|0:1,0:0:0:0:
120,143,166894,5,4,1:0:0:0:
256,192,176894,12,10,179393,0:0:0:0:
117,153,180227,6,0,P|125:201|113:246,1,80,4|0,1:0|0:0,0:0:0:0:
78,318,181060,2,0,P|126:310|171:322,1,80,8|0,0:0|1:0,0:0:0:0:
248,347,181893,1,0,1:0:0:0:
333,302,182310,1,0,0:0:0:0:
419,346,182727,1,10,0:0:0:0:
400,156,183560,6,0,L|306:163,1,80,0|0,1:0|0:0,0:0:0:0:
362,76,184393,2,0,L|456:69,2,80,8|0|0,0:0|1:0|1:0,0:0:0:0:
276,34,185643,1,0,0:0:0:0:
199,91,186060,1,10,0:0:0:0:
223,185,186477,1,0,0:0:0:0:
36,140,187310,6,0,L|117:136,1,80,0|8,0:0|0:0,0:0:0:0:
200,90,188143,1,0,1:0:0:0:
284,43,188560,2,0,L|368:41,1,80,0|0,1:0|0:0,0:0:0:0:
421,119,189393,1,10,0:0:0:0:
375,203,189810,1,0,0:0:0:0:
288,157,190227,6,0,P|215:131|146:166,1,160,0|8,1:0|0:0,0:0:0:0:
94,246,191477,1,0,1:0:0:0:
155,319,191893,2,0,L|162:360,2,40,0|8|8,1:0|0:0|0:3,0:0:0:0:
229,258,192727,2,0,L|221:216,2,40,10|8|4,0:0|0:0|0:3,0:0:0:0:
304,317,193560,6,0,B|325:324|325:324|395:321,1,80,4|0,1:0|0:0,0:0:0:0:
461,266,194393,2,0,B|454:245|454:245|457:175,1,80,8|0,0:0|1:0,0:0:0:0:
498,100,195227,1,0,1:0:0:0:
431,30,195643,1,0,0:0:0:0:
340,62,196060,1,10,0:0:0:0:
198,191,196893,6,0,P|167:181|108:195,1,80,0|0,1:0|0:0,0:0:0:0:
78,274,197727,2,0,P|109:284|168:270,2,80,8|0|0,0:0|1:0|1:0,0:0:0:0:
12,204,198977,1,0,0:0:0:0:
48,115,199393,1,10,0:0:0:0:
141,93,199810,1,0,0:0:0:0:
225,138,200227,6,0,P|257:189|364:232,1,160,0|8,1:0|0:0,0:0:0:0:
440,226,201477,1,0,1:0:0:0:
463,133,201893,2,0,L|481:35,1,80,0|0,1:0|0:0,0:0:0:0:
382,36,202727,2,0,L|364:134,1,80,10|0,0:0|0:0,0:0:0:0:
289,170,203560,6,0,L|274:248,1,80,0|0,1:0|0:0,0:0:0:0:
179,230,204393,2,0,L|193:151,1,80,8|0,0:0|1:0,0:0:0:0:
136,74,205227,2,0,P|138:53|144:36,2,40,0|8|8,1:0|0:0|0:3,0:0:0:0:
83,154,206060,2,0,P|81:175|75:192,2,40,10|4|4,0:0|0:3|0:3,0:0:0:0:
171,190,206893,6,0,P|164:231|175:270,1,80,4|0,1:0|0:0,0:0:0:0:
251,324,207727,2,0,L|348:327,1,80,8|0,0:0|1:0,0:0:0:0:
426,329,208560,1,0,1:0:0:0:
377,246,208977,1,0,0:0:0:0:
428,165,209393,1,10,0:0:0:0:
270,54,210227,6,0,B|298:46|298:46|348:53,1,80,0|0,1:0|0:0,0:0:0:0:
433,98,211060,2,0,B|483:105|483:105|511:97,2,80,8|0|0,0:0|1:0|1:0,0:0:0:0:
351,149,212310,1,0,0:0:0:0:
270,201,212727,1,10,0:0:0:0:
263,105,213143,1,0,0:0:0:0:
187,164,213560,6,0,L|167:268,1,80,0|0,1:0|0:0,0:0:0:0:
136,331,214393,2,0,P|84:274|88:196,1,160,8|0,0:0|1:0,0:0:0:0:
144,118,215643,1,0,0:0:0:0:
203,42,216060,2,0,L|282:49,1,80,10|0,0:0|0:0,0:0:0:0:
256,192,216893,12,4,220227,1:0:0:0:
