osu file format v14

[General]
AudioFilename: audio.mp3
AudioLeadIn: 0
PreviewTime: 153144
Countdown: 0
SampleSet: Soft
StackLeniency: 0.7
Mode: 0
LetterboxInBreaks: 0
WidescreenStoryboard: 0

[Editor]
DistanceSpacing: 1.1
BeatDivisor: 4
GridSize: 4
TimelineZoom: 1

[Metadata]
Title:Nothing's Gonna Change My Love for You
TitleUnicode:Nothing's Gonna Change My Love for You
Artist:Westlife
ArtistUnicode:Westlife
Creator:bossandy
Version:Love
Source:The Bridges of Madison County
Tags:opening theme The Love Album Deluxe Edition Bonus tracks The Ultimate Collection George Benson Nicky Byrne Kian Egan Mark Feehily Shane Filan Brian McFadden ezek
BeatmapID:1722428
BeatmapSetID:821808

[Difficulty]
HPDrainRate:4.5
CircleSize:4
OverallDifficulty:6
ApproachRate:7
SliderMultiplier:1.8
SliderTickRate:1

[Events]
//Background and Video events
0,0,"BG.jpg",0,0
Video,-178,"video.avi"
//Break Periods
2,167094,175994
//Storyboard Layer 0 (Background)
//Storyboard Layer 1 (Fail)
//Storyboard Layer 2 (Pass)
//Storyboard Layer 3 (Foreground)
//Storyboard Sound Samples

[TimingPoints]
230,833.333333333333,4,2,1,40,1,0
40229,-100,4,2,1,50,0,0
53563,-100,4,2,2,50,0,0
55229,833.333333333333,4,2,2,60,1,1
81895,-100,4,2,2,60,0,0
85228,833.333333333333,4,2,2,50,1,0
126894,833.333333333333,4,2,2,60,1,1
151894,-100,4,2,2,60,0,0
153560,-100,4,2,2,70,0,1
165227,-100,4,2,2,60,0,1
166894,-100,4,2,2,50,0,0
180227,-83.3333333333333,4,2,2,70,0,1
206477,-83.3333333333333,4,2,2,70,0,0
206893,-90.9090909090909,4,2,2,60,0,1
208560,-90.9090909090909,4,2,2,50,0,1
210227,-90.9090909090909,4,2,2,40,0,1
211893,-90.9090909090909,4,2,2,30,0,1
213560,-100,4,2,2,20,0,1
215227,-100,4,2,2,10,0,1
216893,-100,4,2,2,9,0,1
217727,-100,4,2,2,8,0,1
218560,-100,4,2,2,7,0,1
219393,-100,4,2,2,6,0,1
220227,-100,4,2,2,5,0,0

[Colours]
Combo1 : 255,192,0
Combo2 : 255,255,128
Combo3 : 255,128,64
Combo4 : 207,243,112

[HitObjects]
256,192,10229,12,2,12729,0:0:0:0:
460,32,13563,6,0,L|444:132,1,90,4|0,0:0|0:0,0:0:0:0:
508,208,14396,2,0,P|468:229|424:228,1,90,2|0,0:0|0:0,0:0:0:0:
348,152,15229,2,0,P|308:130|264:131,1,90
292,236,16063,1,2,0:0:0:0:
316,340,16479,1,0,0:0:0:0:
212,304,16896,6,0,B|168:287|124:304|124:304|80:320|36:304,1,180,0|2,0:0|0:0,0:0:0:0:
80,204,18146,1,0,0:0:0:0:
36,108,18563,2,0,P|36:60|64:20,1,90
140,92,19396,2,0,P|176:61|217:53,1,90,2|0,0:0|0:0,0:0:0:0:
296,128,20229,6,0,B|337:139|379:108|379:108|421:139|463:128,1,180,0|2,0:0|0:0,0:0:0:0:
508,228,21479,1,0,0:0:0:0:
464,328,21896,2,0,B|422:318|380:349|380:349|338:318|296:328,1,180,0|2,0:0|0:0,0:0:0:0:
272,224,23146,1,0,0:0:0:0:
192,296,23563,6,0,P|148:296|104:280,1,90
104,172,24396,2,0,P|146:156|190:156,1,90,2|0,0:0|0:0,0:0:0:0:
272,224,25229,2,0,P|344:179|293:149,1,180,0|2,0:0|0:0,0:0:0:0:
190,156,26479,1,0,0:0:0:0:
136,252,26896,6,0,P|144:300|172:336,1,90,4|0,0:0|0:0,0:0:0:0:
272,296,27729,2,0,P|312:276|364:272,1,90,2|0,0:0|0:0,0:0:0:0:
464,296,28563,2,0,L|484:204,1,90
428,116,29396,1,2,0:0:0:0:
336,172,29813,1,0,0:0:0:0:
244,112,30229,6,0,B|184:112|184:112|134:78|134:78|75:78,1,180,0|2,0:0|0:0,0:0:0:0:
16,172,31479,1,0,0:0:0:0:
100,240,31896,2,0,L|128:332,1,90
228,292,32729,2,0,L|200:200,1,90,2|0,0:0|0:0,0:0:0:0:
308,176,33563,6,0,L|360:348,1,180,0|2,0:0|0:0,0:0:0:0:
464,324,34813,1,0,0:0:0:0:
440,220,35229,2,0,B|416:136|416:136|392:84|348:72,1,180,0|2,0:0|0:0,0:0:0:0:
244,80,36479,1,0,0:0:0:0:
140,56,36896,6,0,B|96:48|96:48|52:56,1,90
8,156,37729,2,0,B|52:164|52:164|96:156,1,90,2|0,0:0|0:0,0:0:0:0:
140,56,38563,2,0,P|192:104|188:216,1,180,0|2,0:0|0:0,0:0:0:0:
100,264,39813,1,0,0:0:0:0:
196,316,40229,6,0,B|240:332|284:324|284:316|284:308|328:300|372:316,1,180,4|8,1:2|0:0,0:0:0:0:
464,368,41479,1,0,1:0:0:0:
464,368,41896,1,0,1:0:0:0:
504,268,42313,1,0,0:0:0:0:
412,212,42729,2,0,P|400:168|416:104,1,90,8|0,0:0|0:0,0:0:0:0:
452,24,43563,6,0,P|392:84|300:80,1,180,0|8,1:0|0:0,0:0:0:0:
204,32,44813,1,0,1:0:0:0:
204,32,45229,1,0,1:0:0:0:
128,108,45646,1,0,0:0:0:0:
176,204,46063,2,0,L|160:248,2,45,8|0|0,0:0|0:0|0:0,0:0:0:0:
280,180,46896,6,0,B|324:164|368:172|368:180|368:188|412:196|456:180,1,180,0|8,1:0|0:0,0:0:0:0:
412,80,48146,1,0,1:0:0:0:
412,80,48563,2,0,B|368:64|324:72|324:80|324:88|280:96|236:80,1,180,0|8,1:0|0:0,0:0:0:0:
156,12,49813,1,0,1:0:0:0:
64,64,50229,6,0,P|60:108|76:156,1,90,0|0,1:0|0:0,0:0:0:0:
172,192,51063,2,0,P|176:236|160:284,1,90,8|0,0:0|1:0,0:0:0:0:
240,356,51896,1,0,1:0:0:0:
340,316,52313,1,0,0:0:0:0:
320,212,52729,1,8,0:0:0:0:
216,184,53146,1,0,1:0:0:0:
162,279,53563,6,0,P|116:296|72:284,1,90,0|8,1:0|0:3,0:0:0:0:
112,184,54396,1,8,0:0:0:0:
112,184,54604,1,8,0:0:0:0:
112,184,54813,1,4,0:3:0:0:
224,356,55229,6,0,P|270:373|314:361,1,90,4|0,1:0|0:0,0:0:0:0:
308,364,55854,1,0,0:0:0:0:
308,364,56062,1,8,0:0:0:0:
280,260,56479,1,0,1:0:0:0:
248,156,56895,2,0,L|156:180,1,90,0|0,1:0|0:0,0:0:0:0:
128,76,57729,2,0,L|220:52,1,90,10|0,0:0|0:0,0:0:0:0:
248,156,58562,6,0,L|160:178,1,90,0|0,1:0|0:0,0:0:0:0:
160,178,59187,1,0,0:0:0:0:
160,178,59395,1,8,0:0:0:0:
52,160,59812,1,0,1:0:0:0:
88,264,60229,1,0,1:0:0:0:
156,348,60645,1,0,0:0:0:0:
256,304,61062,1,10,0:0:0:0:
356,348,61479,1,0,0:0:0:0:
424,264,61895,6,0,P|438:218|432:176,1,90,0|0,1:0|0:0,0:0:0:0:
432,177,62520,1,0,0:0:0:0:
432,177,62729,2,0,P|384:177|336:161,1,90,8|0,0:0|1:0,0:0:0:0:
312,64,63562,2,0,L|212:76,1,90,0|0,1:0|0:0,0:0:0:0:
212,184,64395,2,0,L|112:172,1,90,10|0,0:0|0:0,0:0:0:0:
20,208,65229,6,0,P|16:156|32:116,1,90,0|0,1:0|0:0,0:0:0:0:
28,121,65854,1,0,0:0:0:0:
28,121,66062,1,8,0:0:0:0:
120,64,66479,1,0,1:0:0:0:
122,173,66895,1,0,1:0:0:0:
214,116,67312,1,0,0:0:0:0:
220,224,67729,2,0,L|196:268,2,45,10|8|4,0:0|0:0|0:3,0:0:0:0:
312,72,68562,6,0,L|404:80,1,90,4|0,1:0|0:0,0:0:0:0:
401,79,69187,1,0,0:0:0:0:
401,79,69395,1,8,0:0:0:0:
452,172,69812,1,0,1:0:0:0:
404,268,70229,2,0,P|364:288|316:288,1,90,0|0,1:0|0:0,0:0:0:0:
252,204,71062,2,0,P|292:184|340:184,1,90,10|0,0:0|0:0,0:0:0:0:
319,288,71895,6,0,P|279:308|231:308,1,90,0|0,1:0|0:0,0:0:0:0:
234,308,72520,1,0,0:0:0:0:
234,308,72729,1,8,0:0:0:0:
148,248,73145,1,0,1:0:0:0:
52,300,73562,1,0,1:0:0:0:
0,204,73979,1,0,0:0:0:0:
96,152,74395,1,10,0:0:0:0:
48,52,74812,1,0,0:0:0:0:
152,28,75229,6,0,B|196:20|196:20|240:28,1,90,0|0,1:0|0:0,0:0:0:0:
240,28,75854,1,0,0:0:0:0:
240,28,76062,2,0,B|284:36|284:36|328:28,1,90,8|0,0:0|1:0,0:0:0:0:
420,84,76895,2,0,P|427:139|416:176,1,90,0|0,1:0|0:0,0:0:0:0:
324,228,77729,2,0,P|284:220|244:188,1,90,10|0,0:0|0:0,0:0:0:0:
148,144,78562,6,0,L|100:220,1,90,4|0,1:0|0:0,0:0:0:0:
200,268,79395,2,0,P|212:312|200:356,1,90,8|0,0:0|1:0,0:0:0:0:
310,354,80229,2,0,P|300:310|312:268,1,90,0|0,1:0|0:0,0:0:0:0:
412,220,81062,2,0,L|364:144,1,90,10|0,0:0|0:0,0:0:0:0:
304,56,81895,5,0,1:0:0:0:
256,192,82103,12,4,85228,1:0:0:0:
424,340,86061,5,10,0:0:0:0:
352,260,86478,1,0,1:0:0:0:
264,324,86894,2,0,P|220:340|176:336,1,90,0|0,1:0|0:0,0:0:0:0:
104,256,87728,2,0,L|108:164,1,90,8|0,0:0|0:0,0:0:0:0:
36,84,88561,6,0,P|112:128|200:112,1,180,0|8,1:0|0:0,0:0:0:0:
292,56,89811,1,0,1:0:0:0:
372,128,90228,2,0,P|412:144|460:140,1,90,0|0,1:0|0:0,0:0:0:0:
476,32,91061,2,0,P|436:16|388:20,1,90,8|0,0:0|0:0,0:0:0:0:
292,56,91894,6,0,B|251:67|209:36|209:36|167:67|125:56,1,180,0|8,1:0|0:0,0:0:0:0:
24,8,93144,1,0,1:0:0:0:
32,116,93561,2,0,L|38:215,1,90,0|0,1:0|0:0,0:0:0:0:
140,180,94394,2,0,L|135:270,1,90,8|0,0:0|0:0,0:0:0:0:
76,360,95228,6,0,P|120:376|175:370,1,90,0|0,1:0|0:0,0:0:0:0:
244,300,96061,2,0,P|288:298|330:313,1,90,8|0,0:0|1:0,0:0:0:0:
424,364,96894,2,0,P|380:292|392:184,1,180,0|8,1:0|0:0,0:0:0:0:
428,100,98144,1,2,0:1:0:0:
340,36,98561,6,0,L|232:56,1,90,4|0,1:0|0:0,0:0:0:0:
152,12,99394,2,0,P|144:56|156:104,1,90,8|0,0:0|1:0,0:0:0:0:
244,160,100228,1,0,1:0:0:0:
144,204,100644,1,0,0:0:0:0:
232,264,101061,2,0,L|320:244,1,90,10|0,0:0|0:0,0:0:0:0:
388,328,101894,6,0,L|212:368,1,180,0|8,1:0|0:0,0:0:0:0:
140,288,103144,1,0,1:0:0:0:
68,204,103561,2,0,L|52:108,1,90,0|0,1:0|0:0,0:0:0:0:
144,60,104394,2,0,L|220:112,1,90,8|0,0:0|0:0,0:0:0:0:
308,172,105228,6,0,B|352:189|396:172|396:172|440:156|484:172,1,180,0|8,1:0|0:0,0:0:0:0:
440,272,106478,1,0,1:0:0:0:
336,300,106894,2,0,B|292:308|292:308|248:300,1,90,0|0,1:0|0:0,0:0:0:0:
176,220,107728,2,0,P|132:220|92:240,1,90,8|0,0:0|0:0,0:0:0:0:
24,156,108561,6,0,P|103:115|192:115,1,180,0|8,1:0|0:0,0:0:0:0:
256,200,109811,1,0,1:0:0:0:
319,115,110228,2,0,P|364:110|409:115,1,90,0|0,1:0|0:0,0:0:0:0:
480,196,111061,2,0,P|485:224|482:248,2,45,12|8|2,0:0|0:0|0:1,0:0:0:0:
376,228,111894,6,0,B|317:233|317:233|264:203|264:203|204:208,1,180,4|10,1:0|0:0,0:0:0:0:
96,220,113144,1,0,1:0:0:0:
48,124,113561,2,0,L|68:28,1,90,0|0,1:0|0:0,0:0:0:0:
176,40,114394,2,0,L|156:136,1,90,10|0,0:0|0:0,0:0:0:0:
96,220,115227,6,0,B|140:236|184:220|184:220|228:203|272:220,1,180,0|8,1:0|0:0,0:0:0:0:
360,284,116477,1,0,1:0:0:0:
448,220,116894,2,0,P|444:176|418:133,1,90,0|0,1:0|0:0,0:0:0:0:
340,208,117727,2,0,P|306:179|257:167,1,90,10|0,0:0|0:0,0:0:0:0:
256,276,118561,6,0,P|178:295|168:216,1,180,0|8,1:0|0:0,0:0:0:0:
262,167,119811,1,0,1:0:0:0:
360,120,120227,2,0,P|349:40|272:60,1,180,0|10,1:0|0:0,0:0:0:0:
262,167,121477,1,0,1:0:0:0:
256,276,121894,6,0,P|293:306|348:320,1,90,0|0,1:0|0:0,0:0:0:0:
420,256,122727,2,0,P|382:225|328:212,1,90,8|0,0:0|1:0,0:0:0:0:
256,275,123561,2,0,P|222:305|179:319,1,90,0|0,1:0|0:0,0:0:0:0:
87,264,124394,2,0,P|121:234|164:220,1,90,8|0,0:0|1:0,0:0:0:0:
256,276,125227,5,0,1:0:0:0:
256,168,125644,1,8,0:3:0:0:
179,92,126061,2,0,P|177:70|179:47,2,45,8|8|4,0:0|0:0|0:3,0:0:0:0:
344,92,126894,6,0,L|444:92,1,90,4|0,1:0|0:0,0:0:0:0:
434,92,127519,1,0,0:0:0:0:
434,92,127727,1,8,0:0:0:0:
512,168,128144,1,0,1:0:0:0:
432,244,128560,2,0,L|340:244,1,90,0|0,1:0|0:0,0:0:0:0:
256,180,129394,2,0,P|208:184|172:204,1,90,10|0,0:0|0:0,0:0:0:0:
244,284,130227,6,0,L|266:372,1,90,0|0,1:0|0:0,0:0:0:0:
266,372,130852,1,0,0:0:0:0:
266,372,131060,1,8,0:0:0:0:
376,376,131477,1,0,1:0:0:0:
480,340,131894,1,0,1:0:0:0:
392,276,132310,1,0,0:0:0:0:
460,192,132727,1,10,0:0:0:0:
392,108,133144,1,0,0:0:0:0:
480,44,133560,6,0,P|500:92|496:136,1,90,0|0,1:0|0:0,0:0:0:0:
497,129,134185,1,0,0:0:0:0:
497,129,134394,2,0,P|472:172|416:196,1,90,8|0,0:0|1:0,0:0:0:0:
332,172,135227,2,0,L|320:272,1,90,0|0,1:0|0:0,0:0:0:0:
224,312,136060,2,0,L|212:212,1,90,10|0,0:0|0:0,0:0:0:0:
236,116,136894,6,0,P|184:120|144:104,1,90,0|0,1:0|0:0,0:0:0:0:
149,108,137519,1,0,0:0:0:0:
149,108,137727,1,8,0:0:0:0:
76,28,138144,1,0,1:0:0:0:
40,128,138560,1,0,1:0:0:0:
149,108,138977,1,0,0:0:0:0:
113,208,139394,2,0,L|89:264,2,45,10|8|4,0:0|0:0|0:3,0:0:0:0:
256,88,140227,6,0,L|305:-28,1,90,4|0,1:0|0:0,0:0:0:0:
291,5,140852,1,0,0:0:0:0:
291,5,141060,1,8,0:0:0:0:
380,64,141477,1,0,1:0:0:0:
468,128,141894,2,0,P|467:172|447:212,1,90,0|0,1:0|0:0,0:0:0:0:
348,260,142727,2,0,P|308:240|260:240,1,90,10|0,0:0|0:0,0:0:0:0:
188,316,143560,6,0,P|148:336|100:336,1,90,0|0,1:0|0:0,0:0:0:0:
104,336,144185,1,0,0:0:0:0:
104,336,144394,1,8,0:0:0:0:
124,228,144810,1,0,1:0:0:0:
80,128,145227,1,0,1:0:0:0:
180,88,145644,1,0,0:0:0:0:
224,188,146060,1,10,0:0:0:0:
324,148,146477,1,0,0:0:0:0:
308,256,146894,6,0,B|300:300|300:300|308:344,1,90,0|0,1:0|0:0,0:0:0:0:
308,344,147519,1,0,0:0:0:0:
308,344,147727,2,0,B|264:352|264:352|220:344,1,90,8|0,0:0|1:0,0:0:0:0:
116,376,148560,2,0,P|112:332|128:288,1,90,0|0,1:0|0:0,0:0:0:0:
192,200,149394,2,0,P|184:160|152:120,1,90,10|0,0:0|0:0,0:0:0:0:
228,44,150227,6,0,P|260:74|303:85,1,90,4|0,1:0|0:0,0:0:0:0:
392,148,151060,2,0,P|400:192|392:236,1,90,8|0,0:0|1:0,0:0:0:0:
303,298,151894,2,0,P|260:309|228:339,1,90,4|0,1:0|0:0,0:0:0:0:
228,339,152519,1,8,0:0:0:0:
228,339,152727,2,0,L|184:332,2,45,8|12|4,0:0|0:3|0:3,0:0:0:0:
388,308,153560,6,0,L|477:325,1,90,4|0,1:0|0:0,0:0:0:0:
476,324,154185,1,0,0:0:0:0:
476,324,154394,1,8,0:0:0:0:
512,216,154810,1,0,1:0:0:0:
472,116,155227,2,0,L|383:133,1,90,0|0,1:0|0:0,0:0:0:0:
296,196,156060,2,0,P|252:196|200:168,1,90,10|0,0:0|0:0,0:0:0:0:
144,264,156894,6,0,P|103:282|58:282,1,90,0|0,1:0|0:0,0:0:0:0:
58,282,157519,1,0,0:0:0:0:
58,282,157727,1,8,0:0:0:0:
88,180,158144,1,0,1:0:0:0:
116,76,158560,1,0,1:0:0:0:
208,16,158977,1,0,0:0:0:0:
256,112,159394,1,10,0:0:0:0:
304,16,159810,1,0,0:0:0:0:
388,80,160227,6,0,P|388:132|376:176,1,90,0|0,1:0|0:0,0:0:0:0:
378,168,160852,1,0,0:0:0:0:
378,168,161060,2,0,P|377:212|387:256,1,90,8|0,0:0|1:0,0:0:0:0:
495,247,161894,2,0,P|495:202|485:158,1,90,0|0,1:0|0:0,0:0:0:0:
420,71,162727,2,0,L|327:85,1,90,8|0,0:0|0:0,0:0:0:0:
224,96,163560,6,0,P|176:96|136:80,1,90,0|0,1:0|0:0,0:0:0:0:
34,47,164394,2,0,L|38:143,1,90,8|0,0:0|1:0,0:0:0:0:
37,247,165227,2,0,L|34:337,1,90,0|0,1:0|0:0,0:0:0:0:
137,303,166060,2,0,P|179:287|224:288,1,90,8|2,0:0|0:1,0:0:0:0:
330,309,166894,5,4,1:0:0:0:
256,192,176894,12,10,179393,0:0:0:0:
28,312,180227,6,0,L|12:200,1,107.999996704102,4|0,1:0|0:0,0:0:0:0:
12,205,180852,1,0,0:0:0:0:
12,205,181060,1,8,0:0:0:0:
68,88,181477,1,0,1:0:0:0:
148,188,181893,2,0,P|200:200|256:192,1,107.999996704102,0|0,1:0|0:0,0:0:0:0:
324,84,182727,2,0,P|377:77|429:89,1,107.999996704102,10|0,0:0|0:0,0:0:0:0:
484,208,183560,6,0,P|431:215|379:203,1,107.999996704102,0|0,1:0|0:0,0:0:0:0:
378,202,184185,1,0,0:0:0:0:
378,202,184393,1,8,0:0:0:0:
324,84,184810,1,0,1:0:0:0:
256,192,185227,1,0,1:0:0:0:
315,304,185643,1,0,0:0:0:0:
256,192,186060,1,10,0:0:0:0:
128,187,186477,1,0,0:0:0:0:
256,192,186893,6,0,B|290:194|290:194|322:215|322:215|357:218,1,107.999996704102,0|0,1:0|0:0,0:0:0:0:
357,218,187518,1,0,0:0:0:0:
357,218,187727,2,0,P|411:236|463:228,1,107.999996704102,8|0,0:0|1:0,0:0:0:0:
416,108,188560,2,0,P|362:90|310:98,1,107.999996704102,0|0,1:0|0:0,0:0:0:0:
216,184,189393,2,0,B|164:184|164:184|112:164,1,107.999996704102,10|0,0:0|0:0,0:0:0:0:
208,76,190227,6,0,B|260:76|260:76|312:96,1,107.999996704102,0|0,1:0|0:0,0:0:0:0:
312,96,190852,1,0,0:0:0:0:
312,96,191060,1,8,0:0:0:0:
436,136,191477,1,0,1:0:0:0:
420,264,191893,2,0,L|412:320,2,53.9999983520508,0|8|8,1:0|0:0|0:3,0:0:0:0:
296,232,192727,2,0,L|304:176,2,53.9999983520508,10|8|4,0:0|0:0|0:3,0:0:0:0:
156,366,193560,6,0,P|105:352|76:309,1,107.999996704102,4|0,1:0|0:0,0:0:0:0:
75,307,194185,1,0,0:0:0:0:
75,307,194393,1,8,0:0:0:0:
8,200,194810,1,0,1:0:0:0:
136,196,195227,2,0,P|192:184|224:144,1,107.999996704102,0|0,1:0|0:0,0:0:0:0:
240,16,196060,2,0,P|292:25|327:65,1,107.999996704102,10|0,0:0|0:0,0:0:0:0:
324,196,196893,6,0,B|368:208|368:208|429:196,1,107.999996704102,0|0,1:0|0:0,0:0:0:0:
429,196,197518,1,0,0:0:0:0:
429,196,197727,1,8,0:0:0:0:
484,312,198143,1,0,1:0:0:0:
356,320,198560,1,0,1:0:0:0:
244,384,198977,1,0,0:0:0:0:
356,320,199393,1,10,0:0:0:0:
324,192,199810,1,0,0:0:0:0:
212,260,200227,6,0,B|167:283|167:283|109:279,1,107.999996704102,0|0,1:0|0:0,0:0:0:0:
109,279,200852,1,0,0:0:0:0:
109,279,201060,2,0,P|64:264|40:196,1,107.999996704102,8|0,0:0|1:0,0:0:0:0:
70,86,201893,2,0,P|105:54|163:58,1,107.999996704102,0|0,1:0|0:0,0:0:0:0:
259,144,202727,2,0,P|267:198|236:237,1,107.999996704102,10|0,0:0|0:0,0:0:0:0:
112,280,203560,6,0,P|64:261|39:211,1,107.999996704102,0|0,1:0|0:0,0:0:0:0:
39,212,204185,1,0,0:0:0:0:
39,212,204393,1,8,0:0:0:0:
132,120,204810,1,0,1:0:0:0:
232,40,205227,2,0,L|288:48,2,53.9999983520508,0|8|8,1:0|0:0|0:3,0:0:0:0:
132,120,206060,2,0,L|76:128,2,53.9999983520508,10|4|4,0:0|0:3|0:3,0:0:0:0:
252,296,206893,6,0,L|352:312,1,99.0000030212403,4|0,1:0|0:0,0:0:0:0:
349,311,207518,1,0,0:0:0:0:
349,311,207727,1,8,0:0:0:0:
452,272,208143,1,0,1:0:0:0:
374,190,208560,2,0,P|356:144|368:84,1,99.0000030212403,0|0,1:0|0:0,0:0:0:0:
452,32,209393,2,0,P|470:78|458:138,1,99.0000030212403,10|0,0:0|0:0,0:0:0:0:
374,190,210227,6,0,P|321:202|264:188,1,99.0000030212403,0|0,1:0|0:0,0:0:0:0:
277,194,210852,1,0,0:0:0:0:
277,194,211060,1,8,0:0:0:0:
207,113,211477,1,0,1:0:0:0:
103,145,211893,1,0,1:0:0:0:
107,253,212310,1,0,0:0:0:0:
211,285,212727,1,10,0:0:0:0:
277,194,213143,1,0,0:0:0:0:
392,220,213560,6,0,B|432:224|432:224|476:200,1,90,0|0,1:0|0:0,0:0:0:0:
475,200,214185,1,0,0:0:0:0:
475,200,214393,2,0,P|458:152|460:108,1,90,8|0,0:0|1:0,0:0:0:0:
372,52,215227,2,0,P|318:70|272:64,1,90,0|0,1:0|0:0,0:0:0:0:
184,28,216060,2,0,P|130:23|84:44,1,90,10|0,0:0|0:0,0:0:0:0:
256,192,216893,12,4,220227,1:0:0:0:
