osu file format v14

[General]
AudioFilename: audio.mp3
AudioLeadIn: 0
PreviewTime: 105551
Countdown: 0
SampleSet: Soft
StackLeniency: 0.7
Mode: 0
LetterboxInBreaks: 0
EpilepsyWarning: 1
WidescreenStoryboard: 0

[Editor]
Bookmarks: 6283,18253,42687,65936,77572,89208,106624,116634,123309,145499,166195,182236,198582,210045,221575,233343,245094,256837
DistanceSpacing: 0.7
BeatDivisor: 4
GridSize: 4
TimelineZoom: 2.4

[Metadata]
Title:Polka Face
TitleUnicode:Polka Face
Artist:"Weird Al" Yankovic
ArtistUnicode:"Weird Al" Yankovic
Creator:riot1133
Version:shawty's like a melody
Source:
Tags:english alpocalypse folk pop dance hip hop r&b rhythm and blues swing medley liechtensteiner poker womanizer right round day 'n' nite need you now baby so what i kissed a girl fireflies blame it replay down break your heart the tick tock tik tok whatever's is left over acc hand shake will glahé glahe lady gaga britney spears flo rida ke$ha kesha kid cudi antebellum justin bieber ludacris pink katy perry owl city jamie foxx t-pain t pain iyaz jay sean lil wayne taio cruz frankie novelty
BeatmapID:2556143
BeatmapSetID:1229428

[Difficulty]
HPDrainRate:5
CircleSize:4
OverallDifficulty:8
ApproachRate:8.6
SliderMultiplier:1.4
SliderTickRate:1

[Events]
//Background and Video events
0,0,"Untitled.png",0,0
Video,-534,"video.mp4"
//Break Periods
//Storyboard Layer 0 (Background)
//Storyboard Layer 1 (Fail)
//Storyboard Layer 2 (Pass)
//Storyboard Layer 3 (Foreground)
//Storyboard Layer 4 (Overlay)
//Storyboard Sound Samples

[TimingPoints]
65,389.61038961039,4,2,1,65,1,0
65,-133.333333333333,4,2,1,65,0,0
844,408.163265306122,4,2,1,65,1,0
2476,434.782608695652,4,2,1,65,1,0
2910,-200,4,2,1,65,0,0
3345,461.538461538462,4,2,1,65,1,0
5191,400,4,2,1,65,1,0
5791,400.534045393858,4,2,1,65,1,0
10597,413.793103448276,4,2,1,65,1,0
12252,400.534045393858,4,2,1,65,1,0
13053,384.615384615385,4,2,1,65,1,0
13822,394.736842105263,4,2,1,65,1,0
14611,396.039603960396,4,2,1,65,1,0
16195,392.156862745098,4,2,1,65,1,0
17763,387.096774193548,4,2,1,65,1,0
23956,383.141762452107,4,2,1,65,1,0
30086,381.679389312977,4,2,1,65,1,0
36192,379.746835443038,4,2,1,65,1,0
40748,363.636363636364,4,2,1,65,1,0
42202,359.281437125748,4,2,1,65,1,0
43639,365.853658536585,4,2,1,65,1,0
46565,357.142857142857,4,2,1,65,1,0
47993,365.853658536585,4,2,1,65,1,0
49456,363.636363636364,4,2,1,65,1,0
53092,-200,4,2,1,65,0,0
53819,-100,4,2,1,65,0,0
59637,365.853658536585,4,2,1,65,1,0
61100,361.44578313253,4,2,1,65,1,0
62545,363.636363636364,4,2,1,65,1,0
63999,-133.333333333333,4,2,1,65,0,0
64363,-100,4,2,1,65,0,0
64726,-80,4,2,1,65,0,0
65090,-66.6666666666667,4,2,1,65,0,0
65454,-100,4,2,1,65,0,0
71635,-133.333333333333,4,2,1,65,0,0
73817,-100,4,2,1,65,0,0
88726,364.298724954463,4,2,1,65,1,0
94554,363.636363636364,4,2,1,65,1,0
100372,360.36036036036,4,2,1,65,1,0
106137,357.142857142857,4,2,1,65,1,0
114708,359.281437125748,4,2,1,65,1,0
116145,368.098159509202,4,2,1,65,1,0
117617,329.67032967033,4,2,1,65,1,0
117617,-200,4,2,1,30,0,0
120254,320.855614973262,4,2,1,30,1,0
120254,-200,4,2,1,30,0,0
122820,609.137055837563,4,2,1,65,1,0
127693,615.384615384615,4,2,1,65,1,0
132616,618.556701030928,4,2,1,65,1,0
135090,615.384615384615,4,2,1,65,1,0
142474,618.556701030928,4,2,1,65,1,0
144329,681.818181818182,4,2,1,65,1,0
144329,-200,4,2,1,65,0,0
145010,324.324324324324,4,2,1,65,1,0
145010,-133.333333333333,4,2,1,65,0,0
155388,322.58064516129,4,2,1,65,1,0
155388,-100,4,2,1,65,0,0
157968,324.324324324324,4,2,1,65,1,0
159265,326.086956521739,4,2,1,65,1,0
161873,324.324324324324,4,2,1,65,1,0
164469,309.278350515464,4,2,1,65,1,0
165706,506.329113924051,4,2,1,65,1,0
165706,-133.333333333333,4,2,1,65,0,0
167731,495.867768595041,4,2,1,65,1,0
167731,-133.333333333333,4,2,1,65,0,0
169714,500,4,2,1,65,1,0
176964,-66.6666666666667,4,2,1,65,0,0
177214,-80,4,2,1,65,0,0
177464,-100,4,2,1,65,0,0
179714,508.474576271186,4,2,1,65,1,0
181747,512.820512820513,4,2,1,65,1,0
185849,508.474576271186,4,2,1,65,1,0
189915,512.820512820513,4,2,1,65,1,0
191966,510.63829787234,4,2,1,65,1,0
198093,506.329113924051,4,2,1,65,1,0
204168,504.201680672269,4,2,1,65,1,0
206184,517.241379310345,4,2,1,65,1,0
208252,379.746835443038,4,2,1,65,1,0
209011,363.636363636364,4,2,1,65,1,0
209556,361.44578313253,4,2,1,65,1,0
212447,359.281437125748,4,2,1,65,1,0
216758,361.44578313253,4,2,1,65,1,0
219649,359.281437125748,4,2,1,65,1,0
221086,370.37037037037,4,2,1,65,1,0
222567,365.853658536585,4,2,1,65,1,0
224030,368.098159509202,4,2,1,65,1,0
231391,365.853658536585,4,2,1,65,1,0
240171,370.37037037037,4,2,1,65,1,0
243133,368.098159509202,4,2,1,65,1,0
244605,366.97247706422,4,2,1,65,1,0
256348,361.44578313253,4,2,1,65,1,0
257793,359.281437125748,4,2,1,65,1,0
259230,368.098159509202,4,2,1,65,1,0
260702,352.941176470588,4,2,1,65,1,0
261054,-133.333333333333,4,2,1,65,0,0
261407,-66.6666666666667,4,2,1,65,0,0
261584,-100,4,2,1,65,0,0
262113,357.142857142857,4,2,1,65,1,0
264970,-80,4,2,1,65,0,0
267113,-133.333333333333,4,2,1,65,0,0
267827,370.37037037037,4,2,1,65,1,0
267827,-66.6666666666667,4,2,1,65,0,0
268012,-66.6666666666667,4,2,1,65,0,1
272271,377.358490566038,4,2,1,65,1,0
273780,402.684563758389,4,2,1,65,1,0
274585,379.746835443038,4,2,1,65,1,0
275344,333.333333333333,4,2,1,65,1,0
276010,375,4,2,1,65,1,0
276962,450.112528132033,4,2,1,65,1,0

[Colours]
Combo1 : 97,173,231
Combo2 : 192,192,192
Combo3 : 208,117,158
Combo4 : 154,154,154
Combo5 : 248,231,137
Combo6 : 85,85,85

[HitObjects]
44,293,65,6,0,B|140:258|116:328|222:291,1,183.750007009506,0|0,3:0|0:0,0:0:0:0:
321,321,844,2,0,P|335:250|397:85,1,245,0|0,3:0|0:0,0:0:0:0:
323,34,1660,6,0,P|281:15|248:23,1,70,0|0,3:0|0:0,0:0:0:0:
190,73,1966,1,0,0:0:0:0:
196,87,2068,2,0,P|191:104|187:124,1,35,0|0,3:0|0:0,0:0:0:0:
250,178,2272,2,0,P|242:194|234:212,1,35
96,150,2476,1,8,0:0:0:0:
83,160,2910,6,0,L|93:219,1,52.5,4|0,0:0|0:0,0:0:0:0:
95,229,3345,1,0,3:0:0:0:
31,353,5191,5,8,0:0:0:0:
119,303,5391,1,8,0:0:0:0:
206,354,5591,1,8,0:0:0:0:
362,278,5791,5,0,3:0:0:0:
244,208,5991,2,0,P|255:244|262:283,1,70,8|0,0:0|3:0,0:0:0:0:
389,367,6391,1,8,0:0:0:0:
468,309,6592,2,0,P|474:274|485:241,1,70,0|8,3:0|0:0,0:0:0:0:
410,146,6992,2,0,P|376:168|342:170,1,70,0|8,3:0|0:0,0:0:0:0:
198,108,7393,5,0,3:0:0:0:
260,21,7593,2,0,P|297:24|346:34,1,70,8|0,0:0|3:0,0:0:0:0:
448,180,7993,1,8,0:0:0:0:
347,170,8194,2,0,P|309:173|261:183,1,70,0|8,3:0|0:0,0:0:0:0:
90,148,8594,2,0,P|112:182|114:216,1,70,0|8,3:0|0:0,0:0:0:0:
19,358,8995,5,0,3:0:0:0:
199,279,9195,2,0,P|236:282|285:292,1,70,8|0,0:0|3:0,0:0:0:0:
385,367,9596,1,8,0:0:0:0:
472,241,9796,5,0,3:0:0:0:
370,272,9996,1,8,0:0:0:0:
486,375,10196,1,0,3:0:0:0:
283,384,10397,1,8,0:0:0:0:
310,195,10597,5,0,3:0:0:0:
390,118,12452,5,8,0:0:0:0:
390,118,12552,1,8,0:0:0:0:
390,118,12652,1,8,0:0:0:0:
311,51,12852,1,8,0:0:0:0:
223,96,13053,5,0,3:0:0:0:
127,63,13245,2,0,P|91:68|57:75,1,70,8|0,0:0|3:0,0:0:0:0:
51,223,13629,1,8,0:0:0:0:
132,269,13822,2,0,P|166:262|200:257,1,70,0|8,3:0|0:0,0:0:0:0:
398,296,14216,2,0,P|358:311|340:340,1,70,0|8,3:0|0:0,0:0:0:0:
277,197,14611,5,0,3:0:0:0:
375,201,14809,2,0,P|409:205|443:212,1,70,8|0,0:0|3:0,0:0:0:0:
502,81,15205,1,8,0:0:0:0:
404,85,15403,2,0,P|369:89|335:96,1,70,0|8,3:0|0:0,0:0:0:0:
171,32,15799,2,0,P|170:67|144:94,1,70,0|8,3:0|0:0,0:0:0:0:
65,200,16195,6,0,P|85:240|99:280,1,70,0|8,3:0|0:0,0:0:0:0:
90,282,16489,1,0,0:0:0:0:
90,282,16587,1,0,3:0:0:0:
145,351,16783,1,8,0:0:0:0:
178,187,16979,1,12,0:0:0:0:
22,56,17763,6,0,L|92:46,1,70,0|8,3:0|0:0,0:0:0:0:
32,139,18150,2,0,L|102:129,1,70,0|8,3:0|0:0,0:0:0:0:
244,205,18537,2,0,L|174:195,1,70,0|8,3:0|0:0,0:0:0:0:
234,288,18924,2,0,L|164:278,1,70,0|8,3:0|0:0,0:0:0:0:
33,314,19311,6,0,P|72:321|98:351,1,70,0|8,3:0|0:0,0:0:0:0:
239,384,19698,2,0,P|276:370|313:383,1,70,0|8,3:0|0:0,0:0:0:0:
416,291,20085,1,0,3:0:0:0:
416,291,20279,1,8,0:0:0:0:
234,288,20472,1,0,3:0:0:0:
365,185,20666,1,8,0:0:0:0:
248,112,20859,6,0,L|258:182,1,70,0|8,3:0|0:0,0:0:0:0:
137,242,21246,1,0,3:0:0:0:
137,242,21440,1,8,0:0:0:0:
97,152,21633,2,0,P|62:151|27:176,1,70,0|8,3:0|0:0,0:0:0:0:
0,35,22021,2,0,P|34:34|69:59,1,70,0|8,3:0|0:0,0:0:0:0:
193,105,22408,5,0,3:0:0:0:
289,39,22601,2,0,L|326:45,1,35,8|0,0:0|0:0,0:0:0:0:
387,96,22795,2,0,L|424:90,3,35,0|0|8|0,3:0|0:0|0:0|0:0,0:0:0:0:
502,125,23182,5,0,3:0:0:0:
452,221,23375,1,8,0:0:0:0:
449,212,23472,1,8,0:0:0:0:
446,203,23569,1,8,0:0:0:0:
404,298,23762,1,8,0:0:0:0:
491,353,23956,5,0,3:0:0:0:
491,353,24147,1,8,0:0:0:0:
452,221,24339,1,0,3:0:0:0:
311,338,24530,2,0,P|341:358|368:380,1,70,8|0,0:0|3:0,0:0:0:0:
325,248,24913,1,8,0:0:0:0:
210,349,25105,1,0,3:0:0:0:
145,245,25296,6,0,P|180:247|215:252,1,70,8|0,0:0|3:0,0:0:0:0:
280,148,25680,1,8,0:0:0:0:
325,248,25871,1,0,3:0:0:0:
177,126,26063,1,8,0:0:0:0:
145,245,26254,1,0,3:0:0:0:
280,148,26446,1,8,0:0:0:0:
88,106,26637,2,0,P|52:108|17:113,1,70,0|8,3:0|0:0,0:0:0:0:
2,353,27021,6,0,P|34:337|50:306,1,70,0|8,3:0|0:0,0:0:0:0:
39,202,27404,1,0,3:0:0:0:
145,245,27595,2,0,P|147:280|152:315,2,70,8|0|8,0:0|3:0|0:0,0:0:0:0:
236,181,28170,2,0,P|247:147|255:113,1,70,0|8,3:0|0:0,0:0:0:0:
341,22,28553,6,0,P|379:17|412:31,1,70,0|8,3:0|0:0,0:0:0:0:
485,76,28936,1,0,3:0:0:0:
421,148,29128,1,8,0:0:0:0:
496,227,29319,1,0,3:0:0:0:
404,257,29511,1,8,0:0:0:0:
430,363,29703,1,0,3:0:0:0:
335,343,29894,2,0,P|301:347|261:355,1,70,8|0,0:0|3:0,0:0:0:0:
90,250,30276,5,8,0:0:0:0:
173,314,30467,1,0,3:0:0:0:
23,384,30658,2,0,P|44:355|92:344,1,70,8|0,0:0|3:0,0:0:0:0:
181,191,31040,1,8,0:0:0:0:
90,250,31231,1,0,3:0:0:0:
10,139,31421,2,0,P|49:146|93:159,1,70,8|0,0:0|3:0,0:0:0:0:
161,85,31803,5,8,0:0:0:0:
181,191,31994,1,0,3:0:0:0:
317,132,32185,1,8,0:0:0:0:
291,233,32376,1,0,3:0:0:0:
176,100,32566,1,8,0:0:0:0:
306,44,32757,2,0,P|344:44|374:61,1,70,0|8,3:0|0:0,0:0:0:0:
497,165,33139,6,0,P|506:198|512:233,1,70,0|8,3:0|0:0,0:0:0:0:
471,323,33521,1,0,3:0:0:0:
356,218,33711,2,0,P|318:218|288:235,2,70,8|0|8,0:0|3:0|0:0,0:0:0:0:
434,139,34284,2,0,P|462:159|497:165,1,70,0|8,3:0|0:0,0:0:0:0:
328,38,34666,6,0,P|335:75|342:115,1,70,0|8,3:0|0:0,0:0:0:0:
213,168,35047,1,0,3:0:0:0:
290,232,35238,1,8,0:0:0:0:
86,282,35429,1,12,0:0:0:0:
42,194,35620,1,8,0:0:0:0:
36,177,35715,1,8,0:0:0:0:
31,161,35811,1,8,0:0:0:0:
38,127,35906,1,8,0:0:0:0:
60,99,36001,1,8,0:0:0:0:
91,84,36097,1,8,0:0:0:0:
124,81,36192,6,0,P|158:93|210:107,1,70,0|8,3:0|0:0,0:0:0:0:
283,66,36571,1,0,3:0:0:0:
330,146,36761,1,8,0:0:0:0:
164,188,36951,2,0,P|181:234|188:259,1,70,0|8,3:0|0:0,0:0:0:0:
279,295,37331,2,0,P|270:343|264:368,1,70,0|8,3:0|0:0,0:0:0:0:
111,300,37710,5,0,3:0:0:0:
171,171,37900,1,8,0:0:0:0:
278,278,38090,1,0,3:0:0:0:
389,193,38280,2,0,P|352:184|316:193,1,70,8|0,0:0|3:0,0:0:0:0:
253,140,38660,1,8,0:0:0:0:
302,72,38850,1,0,3:0:0:0:
385,90,39040,1,8,0:0:0:0:
447,6,39229,6,0,P|485:22|522:33,1,70,0|8,3:0|0:0,0:0:0:0:
449,146,39609,1,0,3:0:0:0:
512,210,39799,1,8,0:0:0:0:
384,266,39989,2,0,P|371:233|378:200,1,70,0|8,3:0|0:0,0:0:0:0:
225,153,40369,2,0,P|257:164|280:195,1,70,0|8,3:0|0:0,0:0:0:0:
196,358,40748,5,0,3:0:0:0:
291,280,40929,1,8,0:0:0:0:
97,310,41111,1,0,3:0:0:0:
99,133,41293,1,8,0:0:0:0:
196,358,41475,5,8,0:0:0:0:
12,78,41838,5,12,0:0:0:0:
86,24,42202,5,0,3:0:0:0:
220,160,42381,2,0,P|219:140|217:124,1,35,8|0,0:0|0:0,0:0:0:0:
251,44,42561,1,0,3:0:0:0:
131,102,42740,1,8,0:0:0:0:
326,93,42920,6,0,P|349:89|366:88,1,35,0|0,3:0|0:0,0:0:0:0:
427,32,43100,1,8,0:0:0:0:
444,188,43279,1,0,3:0:0:0:
508,94,43459,1,8,0:0:0:0:
344,183,43639,6,0,P|346:201|350:222,1,35,0|0,3:0|0:0,0:0:0:0:
403,286,43821,2,0,P|397:303|390:323,1,35,8|0,0:0|0:0,0:0:0:0:
245,366,44004,1,0,3:0:0:0:
261,258,44187,1,8,0:0:0:0:
86,241,44370,6,0,P|89:258|91:275,1,35,0|0,3:0|0:0,0:0:0:0:
151,341,44553,1,8,0:0:0:0:
0,376,44736,1,0,3:0:0:0:
0,288,44919,1,8,0:0:0:0:
148,173,45102,6,0,P|165:172|186:177,3,35,0|0|8|0,3:0|0:0|0:0|0:0,0:0:0:0:
124,157,45468,1,0,3:0:0:0:
0,192,45651,1,8,0:0:0:0:
159,47,45834,1,0,3:0:0:0:
27,21,46017,1,8,0:0:0:0:
124,157,46199,2,0,P|141:152|159:149,2,35,0|0|8,3:0|0:0|0:0,0:0:0:0:
239,98,46565,6,0,P|257:94|278:93,1,35,0|0,3:0|0:0,0:0:0:0:
354,137,46743,1,8,0:0:0:0:
304,264,46922,1,0,3:0:0:0:
241,189,47100,1,8,0:0:0:0:
400,250,47279,5,0,3:0:0:0:
364,336,47457,2,0,P|386:339|402:344,1,35,8|0,0:0|0:0,0:0:0:0:
507,276,47636,2,0,P|502:259|500:241,1,35,0|0,3:0|0:0,0:0:0:0:
457,135,47815,2,0,P|451:151|444:167,1,35,8|0,0:0|0:0,0:0:0:0:
314,207,47993,6,0,P|299:168|279:133,1,70,0|8,3:0|0:0,0:0:0:0:
267,137,48267,1,0,0:0:0:0:
267,137,48359,2,0,P|247:131|227:138,1,35,0|0,3:0|0:0,0:0:0:0:
155,91,48541,2,0,P|114:96|87:125,1,70,8|0,0:0|3:0,0:0:0:0:
92,130,48816,1,0,0:0:0:0:
92,130,48907,1,8,0:0:0:0:
47,219,49090,2,0,P|53:236|58:256,2,35,0|0|8,3:0|0:0|0:0,0:0:0:0:
163,327,49456,6,0,P|177:279|190:252,1,70,0|8,3:0|0:0,0:0:0:0:
203,257,49728,1,0,0:0:0:0:
203,257,49819,2,0,P|219:247|242:247,1,35,0|0,3:0|0:0,0:0:0:0:
312,188,50001,2,0,P|295:149|287:120,1,70,8|0,0:0|3:0,0:0:0:0:
387,22,50365,1,8,0:0:0:0:
494,99,50546,2,0,P|479:91|457:90,2,35,0|0|8,3:0|0:0|0:0,0:0:0:0:
394,219,50910,5,0,3:0:0:0:
464,281,51092,1,8,0:0:0:0:
312,355,51274,2,0,P|316:338|320:320,1,35,0|0,3:0|0:0,0:0:0:0:
272,246,51456,1,8,0:0:0:0:
160,275,51637,6,0,P|151:295|146:312,1,35,0|0,3:0|0:0,0:0:0:0:
194,381,51819,1,8,0:0:0:0:
7,374,52001,1,0,3:0:0:0:
51,295,52183,1,8,0:0:0:0:
23,164,52365,5,0,3:0:0:0:
94,216,52546,1,8,0:0:0:0:
176,73,52728,2,0,P|158:69|141:67,1,35,0|0,3:0|0:0,0:0:0:0:
56,83,52910,1,8,0:0:0:0:
221,157,53092,6,0,B|233:172|233:172|231:196,1,35,0|8,3:0|0:0,0:0:0:0:
317,215,53456,2,0,L|341:213,2,17.5,0|0|8,3:0|0:0|0:0,0:0:0:0:
512,184,53819,5,0,3:0:0:0:
422,103,54001,2,0,P|427:119|431:139,1,35,8|0,0:0|0:0,0:0:0:0:
406,271,54183,1,0,3:0:0:0:
317,215,54365,1,8,0:0:0:0:
317,215,54546,1,0,0:0:0:0:
406,362,54728,5,8,0:0:0:0:
201,323,54910,2,0,P|209:287|224:245,1,70,8|0,0:0|0:0,0:0:0:0:
75,177,55274,5,0,3:0:0:0:
164,151,55456,2,0,P|183:154|198:162,1,35,8|0,0:0|0:0,0:0:0:0:
275,98,55637,1,0,3:0:0:0:
219,255,55819,1,8,0:0:0:0:
219,255,56001,1,0,0:0:0:0:
111,70,56183,5,8,0:0:0:0:
292,192,56365,2,0,P|326:184|365:177,1,70,8|8,0:0|0:0,0:0:0:0:
376,185,56637,1,8,0:0:0:0:
376,185,56728,5,0,3:0:0:0:
289,69,56910,2,0,P|284:51|283:31,1,35,8|0,0:0|0:0,0:0:0:0:
391,10,57092,1,0,3:0:0:0:
277,180,57274,1,8,0:0:0:0:
277,180,57456,1,0,0:0:0:0:
184,46,57637,5,8,0:0:0:0:
420,101,57819,2,0,P|464:118|494:137,1,70,8|0,0:0|0:0,0:0:0:0:
465,222,58183,5,0,3:0:0:0:
506,311,58365,2,0,P|489:318|475:330,1,35,8|0,0:0|0:0,0:0:0:0:
382,317,58546,1,0,3:0:0:0:
322,384,58728,1,8,0:0:0:0:
215,200,58910,5,4,0:0:0:0:
370,223,59092,1,8,0:0:0:0:
231,341,59274,1,8,0:0:0:0:
197,332,59364,1,8,0:0:0:0:
163,324,59455,1,8,0:0:0:0:
128,317,59546,1,8,0:0:0:0:
94,311,59637,6,0,P|83:272|71:237,1,70,0|8,3:0|0:0,0:0:0:0:
16,169,60002,1,0,3:0:0:0:
16,169,60094,1,0,0:0:0:0:
16,169,60185,2,0,P|22:150|25:124,1,35,8|0,0:0|0:0,0:0:0:0:
83,35,60368,2,0,P|92:52|99:77,1,35,0|0,3:0|0:0,0:0:0:0:
173,149,60551,2,0,P|179:130|182:104,1,35,8|0,0:0|0:0,0:0:0:0:
257,53,60734,2,0,P|276:63|297:83,1,35,0|0,3:0|0:0,0:0:0:0:
339,153,60917,2,0,P|368:175|432:168,1,70,8|0,0:0|3:0,0:0:0:0:
487,246,61280,5,8,0:0:0:0:
484,263,61371,1,0,0:0:0:0:
481,280,61461,1,0,3:0:0:0:
478,297,61551,1,0,0:0:0:0:
475,315,61642,1,8,0:0:0:0:
366,376,61822,2,0,P|359:363|345:347,1,35,0|0,3:0|0:0,0:0:0:0:
276,280,62003,2,0,P|257:287|234:289,1,35,8|0,0:0|0:0,0:0:0:0:
158,345,62184,2,0,P|151:332|137:316,1,35,0|0,3:0|0:0,0:0:0:0:
51,283,62365,2,0,P|46:248|40:210,1,70,8|0,0:0|3:0,0:0:0:0:
89,130,62726,5,8,0:0:0:0:
106,132,62817,1,0,0:0:0:0:
123,135,62907,1,0,3:0:0:0:
140,138,62999,1,0,0:0:0:0:
158,141,63090,1,8,0:0:0:0:
286,161,63272,1,0,3:0:0:0:
381,79,63454,2,0,P|363:79|344:85,1,35,8|0,0:0|0:0,0:0:0:0:
312,246,63635,2,0,P|321:268|325:282,1,35,0|0,3:0|0:0,0:0:0:0:
397,370,63817,2,0,L|402:353,1,35,8|0,0:0|0:0,0:0:0:0:
473,260,63999,6,0,P|441:239|392:237,1,78.7500030040742,4|0,0:0|0:0,0:0:0:0:
324,278,64363,2,0,B|276:289|225:317,1,105,4|0,0:0|0:0,0:0:0:0:
134,364,64726,2,0,P|169:327|152:251,1,131.25,4|0,0:0|0:0,0:0:0:0:
12,236,65090,2,0,B|83:204|91:268|165:237,1,157.500006008148,4|8,0:0|0:0,0:0:0:0:
189,123,65454,6,0,P|150:136|130:164,1,70,0|8,3:0|0:0,0:0:0:0:
265,250,65817,2,0,P|296:271|325:291,1,70,0|8,3:0|0:0,0:0:0:0:
371,187,66181,2,0,P|387:220|402:252,1,70,0|8,3:0|0:0,0:0:0:0:
494,185,66544,2,0,P|491:222|488:257,1,70,0|8,3:0|0:0,0:0:0:0:
315,123,66908,6,0,P|357:98|382:100,1,70,0|8,3:0|0:0,0:0:0:0:
357,17,67272,2,0,P|405:16|426:30,1,70,0|8,3:0|0:0,0:0:0:0:
488,254,67635,2,0,P|456:263|422:277,1,70,0|8,3:0|0:0,0:0:0:0:
250,197,67999,2,0,P|231:169|214:136,1,70,0|8,3:0|0:0,0:0:0:0:
137,12,68363,6,0,P|132:46|123:80,1,70,0|8,3:0|0:0,0:0:0:0:
45,127,68726,1,0,3:0:0:0:
70,210,68908,1,8,0:0:0:0:
219,290,69090,2,0,P|247:326|246:358,1,70,0|8,3:0|0:0,0:0:0:0:
388,261,69454,2,0,P|366:296|350:334,1,70,0|8,3:0|0:0,0:0:0:0:
505,206,69817,5,0,3:0:0:0:
418,173,69999,1,8,0:0:0:0:
445,58,70181,2,0,P|480:47|515:39,1,70,0|8,3:0|0:0,0:0:0:0:
306,73,70544,2,0,P|308:112|330:141,1,70,0|8,3:0|0:0,0:0:0:0:
162,320,70908,2,0,B|162:285|162:285|180:255,1,70,0|8,3:0|0:0,0:0:0:0:
156,172,71181,1,0,0:0:0:0:
147,159,71272,6,0,P|159:120|166:89,1,70,0|8,3:0|0:0,0:0:0:0:
72,9,71635,2,0,P|42:10|19:26,1,52.5000020027161,0|8,3:0|0:0,0:0:0:0:
4,116,71999,2,0,P|34:117|57:133,1,52.5000020027161,0|8,3:0|0:0,0:0:0:0:
75,224,72363,2,0,P|45:225|22:241,1,52.5000020027161,0|8,3:0|0:0,0:0:0:0:
157,288,72726,6,0,P|181:279|212:274,1,52.5000020027161,0|8,3:0|0:0,0:0:0:0:
268,205,73090,2,0,P|293:209|322:220,1,52.5000020027161,0|8,3:0|0:0,0:0:0:0:
434,135,73454,2,0,P|411:154|405:179,1,52.5000020027161,0|8,3:0|0:0,0:0:0:0:
373,346,73817,2,0,P|380:298|388:265,1,70,0|8,3:0|0:0,0:0:0:0:
495,211,74181,6,0,P|503:244|512:279,1,70,0|8,3:0|0:0,0:0:0:0:
384,277,74544,1,0,3:0:0:0:
293,313,74726,1,8,0:0:0:0:
202,214,74908,2,0,P|240:198|273:208,1,70,0|8,3:0|0:0,0:0:0:0:
344,150,75272,2,0,P|384:155|408:180,1,70,0|8,3:0|0:0,0:0:0:0:
487,26,75635,5,0,3:0:0:0:
400,74,75817,1,8,0:0:0:0:
247,3,75999,2,0,P|215:16|168:31,1,70,0|8,3:0|0:0,0:0:0:0:
174,41,76272,1,8,0:0:0:0:
174,41,76363,1,8,0:0:0:0:
59,234,76726,5,4,0:0:0:0:
253,355,77090,5,0,3:0:0:0:
204,271,77272,1,8,0:0:0:0:
287,197,77454,2,0,P|298:229|306:266,1,70,0|8,3:0|0:0,0:0:0:0:
372,365,77817,2,0,P|388:330|416:309,1,70,0|8,3:0|0:0,0:0:0:0:
445,220,78181,2,0,B|475:239|475:239|516:237,1,70,0|8,3:0|0:0,0:0:0:0:
468,129,78544,5,0,3:0:0:0:
468,129,78726,1,8,0:0:0:0:
375,148,78908,1,0,3:0:0:0:
449,40,79090,1,8,0:0:0:0:
301,18,79272,1,0,3:0:0:0:
468,129,79454,1,8,0:0:0:0:
446,29,79635,1,0,3:0:0:0:
369,135,79817,1,8,0:0:0:0:
217,83,79999,5,0,3:0:0:0:
313,7,80181,1,8,0:0:0:0:
265,157,80363,1,0,3:0:0:0:
171,14,80544,1,8,0:0:0:0:
105,153,80726,2,0,P|140:156|182:165,1,70,0|8,3:0|0:0,0:0:0:0:
26,289,81090,2,0,B|53:263|53:263|95:253,1,70,0|8,3:0|0:0,0:0:0:0:
171,315,81454,5,0,3:0:0:0:
171,315,81635,1,8,0:0:0:0:
298,249,81817,1,0,3:0:0:0:
276,354,81999,1,8,0:0:0:0:
191,194,82181,2,0,P|222:177|264:158,1,70,0|8,3:0|0:0,0:0:0:0:
385,210,82544,1,0,3:0:0:0:
431,294,82726,1,8,0:0:0:0:
471,157,82908,5,0,3:0:0:0:
339,119,83090,1,8,0:0:0:0:
447,56,83272,2,0,P|488:50|516:64,1,70,0|8,3:0|0:0,0:0:0:0:
386,195,83635,1,0,3:0:0:0:
253,162,83817,1,8,0:0:0:0:
285,50,83999,2,0,B|314:32|314:32|349:33,1,70,0|8,3:0|0:0,0:0:0:0:
492,172,84363,5,0,3:0:0:0:
492,172,84544,1,8,0:0:0:0:
433,281,84726,1,0,3:0:0:0:
364,171,84908,1,8,0:0:0:0:
353,333,85090,5,0,3:0:0:0:
186,287,85272,1,8,0:0:0:0:
270,148,85454,1,0,3:0:0:0:
256,355,85635,1,8,0:0:0:0:
92,293,85817,5,0,3:0:0:0:
170,193,85999,1,8,0:0:0:0:
146,382,86181,1,0,3:0:0:0:
0,315,86363,1,8,0:0:0:0:
186,287,86544,6,0,P|224:292|264:303,1,70,0|8,3:0|0:0,0:0:0:0:
332,249,86908,1,0,3:0:0:0:
211,97,87090,6,0,P|171:102|144:127,1,70,8|0,0:0|3:0,0:0:0:0:
58,157,87454,2,0,P|41:194|49:230,1,70,8|0,0:0|3:0,0:0:0:0:
254,299,87817,1,8,0:0:0:0:
300,155,87999,1,8,0:0:0:0:
300,155,88363,5,8,0:0:0:0:
317,158,88454,1,8,0:0:0:0:
332,165,88544,1,8,0:0:0:0:
346,177,88635,1,8,0:0:0:0:
356,192,88726,5,0,3:0:0:0:
338,282,88908,1,8,0:0:0:0:
220,220,89090,1,0,3:0:0:0:
257,332,89272,1,8,0:0:0:0:
356,192,89454,2,0,P|402:186|438:183,1,70,0|8,3:0|0:0,0:0:0:0:
494,131,89818,1,0,3:0:0:0:
330,9,90001,6,0,P|292:27|277:60,1,70,8|0,0:0|3:0,0:0:0:0:
266,145,90365,1,8,0:0:0:0:
161,130,90547,1,0,3:0:0:0:
115,221,90729,1,8,0:0:0:0:
66,87,90911,1,0,3:0:0:0:
164,111,91093,1,8,0:0:0:0:
235,31,91276,1,0,3:0:0:0:
370,83,91458,6,0,P|364:121|360:162,1,70,8|0,0:0|3:0,0:0:0:0:
419,238,91822,2,0,P|387:259|371:291,1,70,8|0,0:0|3:0,0:0:0:0:
301,351,92186,1,8,0:0:0:0:
211,318,92368,2,0,P|177:321|70:353,1,140,0|8,3:0|0:0,0:0:0:0:
108,190,92915,1,0,0:0:0:0:
121,182,93006,1,0,0:0:0:0:
135,180,93097,6,0,P|178:191|193:215,1,70,0|8,3:0|0:0,0:0:0:0:
333,264,93461,2,0,P|336:247|342:224,2,35,0|0|8,3:0|0:0|0:0,0:0:0:0:
371,94,93826,2,0,P|336:96|298:104,1,70,0|8,3:0|0:0,0:0:0:0:
290,117,94099,1,0,0:0:0:0:
291,116,94190,1,0,3:0:0:0:
130,31,94372,6,0,P|157:62|196:74,1,70,8|0,0:0|3:0,0:0:0:0:
260,23,94735,1,8,0:0:0:0:
301,103,94917,1,0,3:0:0:0:
226,177,95099,1,8,0:0:0:0:
276,290,95281,1,0,3:0:0:0:
318,207,95463,1,8,0:0:0:0:
213,197,95644,1,0,3:0:0:0:
159,359,95826,6,0,P|198:362|238:368,1,70,8|0,0:0|3:0,0:0:0:0:
363,321,96190,2,0,P|397:332|422:363,1,70,8|0,0:0|3:0,0:0:0:0:
503,328,96554,1,8,0:0:0:0:
436,259,96735,1,0,3:0:0:0:
489,184,96917,1,8,0:0:0:0:
418,103,97099,2,0,P|420:85|426:67,1,35,0|0,3:0|0:0,0:0:0:0:
347,14,97281,6,0,P|314:18|274:28,1,70,8|0,0:0|3:0,0:0:0:0:
149,0,97644,2,0,P|123:20|92:48,1,70,8|0,0:0|3:0,0:0:0:0:
10,87,98008,1,8,0:0:0:0:
154,229,98190,2,0,B|179:200|179:200|230:194,1,70,0|8,3:0|0:0,0:0:0:0:
290,135,98554,1,0,3:0:0:0:
361,200,98735,6,0,B|391:186|391:186|514:202,1,140,8|8,0:0|0:0,0:0:0:0:
418,373,99281,2,0,P|411:355|402:340,2,35,0|0|8,3:0|0:0|0:0,0:0:0:0:
312,312,99644,1,0,3:0:0:0:
312,312,99826,1,8,0:0:0:0:
227,356,100008,1,4,0:0:0:0:
175,250,100190,6,0,P|178:229|182:210,2,35,8|8|0,0:0|0:0|3:0,0:0:0:0:
108,379,100552,2,0,P|94:337|63:310,1,70,8|0,0:0|3:0,0:0:0:0:
0,219,100912,2,0,P|36:214|72:208,1,70,8|0,0:0|3:0,0:0:0:0:
167,155,101272,1,8,0:0:0:0:
175,250,101453,1,0,3:0:0:0:
78,97,101633,6,0,P|118:59|213:60,1,140,8|8,0:0|0:0,0:0:0:0:
273,113,102173,1,0,3:0:0:0:
412,27,102353,2,0,P|385:63|372:86,1,70,8|0,0:0|3:0,0:0:0:0:
437,155,102714,1,8,0:0:0:0:
367,232,102894,1,0,3:0:0:0:
367,232,102984,1,0,0:0:0:0:
367,232,103074,6,0,P|372:293|379:314,1,70,8|0,0:0|3:0,0:0:0:0:
228,370,103435,2,0,P|233:309|240:288,1,70,8|0,0:0|3:0,0:0:0:0:
183,87,103795,2,0,P|217:137|234:152,1,70,8|0,0:0|3:0,0:0:0:0:
131,276,104156,2,0,P|104:220|100:198,1,70,8|0,0:0|3:0,0:0:0:0:
92,61,104516,1,8,0:0:0:0:
282,60,104696,5,0,3:0:0:0:
207,203,104876,1,8,0:0:0:0:
183,87,105056,1,0,3:0:0:0:
346,133,105236,1,8,0:0:0:0:
346,133,105326,1,8,0:0:0:0:
346,133,105417,2,0,P|384:142|406:172,1,70,8|8,0:0|3:0,0:0:0:0:
475,231,105687,1,8,3:0:0:0:
486,245,105777,2,0,P|473:282|463:321,1,70,8|8,3:0|0:0,0:0:0:0:
149,303,106137,6,0,P|175:273|228:278,1,70,0|8,3:0|0:0,0:0:0:0:
255,126,106494,2,0,B|250:162|250:162|270:196,1,70,0|8,3:0|0:0,0:0:0:0:
372,305,106851,2,0,P|338:298|301:293,1,70,0|8,3:0|0:0,0:0:0:0:
175,384,107208,1,0,3:0:0:0:
79,358,107387,6,0,P|71:318|59:284,1,70,8|0,0:0|3:0,0:0:0:0:
6,212,107744,1,8,0:0:0:0:
142,87,107922,2,0,B|134:59|134:59|261:78,1,140,0|0,3:0|3:0,0:0:0:0:
382,12,108458,1,8,0:0:0:0:
417,95,108637,2,0,L|488:108,1,70,0|8,3:0|0:0,0:0:0:0:
372,303,108994,6,0,P|331:295|295:317,1,70,0|8,3:0|0:0,0:0:0:0:
138,260,109351,2,0,B|167:236|167:236|202:238,1,70,0|8,3:0|0:0,0:0:0:0:
337,154,109708,2,0,P|295:181|283:210,1,70,0|8,3:0|0:0,0:0:0:0:
207,341,110065,1,0,3:0:0:0:
138,260,110244,6,0,P|77:251|58:250,1,70,8|0,0:0|3:0,0:0:0:0:
16,177,110601,1,8,0:0:0:0:
242,51,110779,2,0,B|254:86|254:86|180:159,1,140,0|0,3:0|3:0,0:0:0:0:
85,107,111315,1,8,0:0:0:0:
83,16,111494,2,0,P|126:3|159:8,1,70,0|8,3:0|0:0,0:0:0:0:
408,29,111851,6,0,P|377:46|348:66,1,70,0|8,3:0|0:0,0:0:0:0:
301,173,112208,2,0,B|339:170|339:170|370:187,1,70,0|8,3:0|0:0,0:0:0:0:
506,214,112565,2,0,P|485:173|461:166,1,70,0|8,3:0|0:0,0:0:0:0:
322,269,112922,1,0,3:0:0:0:
400,320,113101,6,0,P|383:356|371:388,1,70,8|0,0:0|3:0,0:0:0:0:
283,374,113458,1,8,0:0:0:0:
134,302,113637,2,0,B|38:325|38:325|13:323|-6:309,1,140,0|0,3:0|3:0,0:0:0:0:
45,226,114172,1,8,0:0:0:0:
6,114,114351,1,0,3:0:0:0:
6,114,114529,1,8,0:0:0:0:
165,15,114708,6,0,P|201:22|238:38,1,70,0|8,3:0|0:0,0:0:0:0:
386,38,115067,2,0,P|429:65|444:107,1,70,0|8,3:0|0:0,0:0:0:0:
512,216,115426,1,0,3:0:0:0:
431,257,115606,1,8,0:0:0:0:
344,373,115785,2,0,P|331:338|313:305,1,70,0|8,3:0|0:0,0:0:0:0:
188,222,116145,5,4,0:0:0:0:
284,140,116329,1,8,0:0:0:0:
281,157,116421,1,8,0:0:0:0:
279,174,116513,1,4,3:0:0:0:
49,298,117617,6,0,P|46:281|58:302,1,70
143,217,118166,1,0,0:0:0:0:
145,199,118276,2,0,P|150:182|150:206,1,70
266,175,118825,1,0,0:0:0:0:
277,161,118935,2,0,P|290:149|278:170,1,70
386,108,119485,2,0,P|399:111|451:138,1,70
408,19,120144,1,0,0:0:0:0:
390,26,120254,6,0,P|366:20|342:17,1,46.6666666666667
210,38,120574,2,0,P|197:56|206:77,1,46.6666666666667
284,126,120895,1,0,0:0:0:0:
143,145,121109,2,0,P|121:113|112:106,1,46.6666666666667
41,56,121430,1,0,0:0:0:0:
16,67,121537,5,0,0:0:0:0:
54,285,121858,1,0,3:0:0:0:
54,285,122179,2,0,P|81:292|118:321,1,70,0|0,3:0|0:0,0:0:0:0:
194,379,122820,5,0,3:0:0:0:
261,262,123124,2,0,P|298:271|313:300,1,70,8|0,0:0|3:0,0:0:0:0:
396,337,123581,1,0,0:0:0:0:
414,347,123733,2,0,P|433:341|451:340,1,35,8|0,0:0|0:0,0:0:0:0:
498,264,124038,5,0,3:0:0:0:
425,140,124342,2,0,P|434:87|436:57,1,70,8|0,0:0|3:0,0:0:0:0:
361,13,124799,1,0,0:0:0:0:
341,12,124951,2,0,P|324:16|312:32,1,35,8|0,0:0|0:0,0:0:0:0:
298,114,125256,5,0,3:0:0:0:
168,50,125561,2,0,P|131:42|95:36,1,70,8|0,0:0|3:0,0:0:0:0:
29,99,126017,1,0,0:0:0:0:
40,113,126170,2,0,P|39:132|35:152,1,35,8|0,0:0|0:0,0:0:0:0:
14,249,126474,6,0,P|53:252|81:280,1,70,0|8,3:0|0:0,0:0:0:0:
256,269,127083,2,0,P|267:309|274:341,1,70,0|8,3:0|0:0,0:0:0:0:
349,374,127540,1,0,0:0:0:0:
366,364,127693,5,0,3:0:0:0:
398,229,128000,2,0,P|367:210|334:213,1,70,8|0,0:0|3:0,0:0:0:0:
265,157,128462,1,0,0:0:0:0:
247,162,128616,2,0,P|228:157|213:154,1,35,8|0,0:0|0:0,0:0:0:0:
165,81,128923,5,0,3:0:0:0:
384,57,129231,2,0,P|361:92|349:120,1,70,8|0,0:0|3:0,0:0:0:0:
396,196,129693,1,0,0:0:0:0:
404,213,129846,2,0,P|420:225|444:232,1,35,8|0,0:0|0:0,0:0:0:0:
495,295,130154,5,0,3:0:0:0:
344,376,130462,2,0,P|317:346|271:356,1,70,8|0,0:0|3:0,0:0:0:0:
209,301,130923,1,0,0:0:0:0:
192,298,131077,2,0,P|175:305|149:310,1,35,8|0,0:0|0:0,0:0:0:0:
43,376,131385,6,0,P|31:335|17:303,1,70,0|8,3:0|0:0,0:0:0:0:
76,152,132000,1,0,3:0:0:0:
225,230,132308,1,8,0:0:0:0:
239,214,132462,1,0,0:0:0:0:
239,214,132616,6,0,L|254:143,1,70,0|8,3:0|0:0,0:0:0:0:
251,62,133079,1,0,0:0:0:0:
265,51,133234,1,0,3:0:0:0:
346,24,133389,2,0,P|363:32|383:33,2,35,0|8|0,0:0|0:0|0:0,0:0:0:0:
445,92,133853,6,0,P|451:129|454:166,1,70,0|8,3:0|0:0,0:0:0:0:
428,332,134471,1,0,3:0:0:0:
415,344,134626,2,0,P|414:362|425:383,2,35,0|8|0,0:0|0:0|0:0,0:0:0:0:
329,307,135090,5,0,3:0:0:0:
210,362,135397,2,0,P|212:374|217:388,2,23.3333333333333,8|0|0,0:0|0:0|0:0,0:0:0:0:
119,329,135705,2,0,P|115:341|112:355,2,23.3333333333333,0|0|0,3:0|0:0|0:0,0:0:0:0:
56,254,136013,2,0,P|46:262|36:273,2,23.3333333333333,8|0|0,0:0|0:0|0:0,0:0:0:0:
114,177,136320,6,0,B|91:159|164:81|252:154,1,175,0|0,3:0|0:0,0:0:0:0:
265,179,137243,1,8,0:0:0:0:
333,42,137551,5,0,3:0:0:0:
459,88,137859,2,0,P|493:135|493:153,1,70,8|0,0:0|3:0,0:0:0:0:
433,218,138320,1,0,0:0:0:0:
446,229,138474,2,0,P|450:247|453:266,1,35,8|0,0:0|0:0,0:0:0:0:
369,382,138782,5,0,3:0:0:0:
267,298,139090,2,0,P|234:307|199:322,1,70,8|0,0:0|3:0,0:0:0:0:
96,377,139551,1,0,0:0:0:0:
81,366,139705,2,0,P|65:339|46:335,1,35,8|0,0:0|0:0,0:0:0:0:
0,265,140013,5,0,3:0:0:0:
63,139,140320,2,0,P|72:177|84:213,1,70,8|0,0:0|3:0,0:0:0:0:
171,194,140782,1,0,0:0:0:0:
192,188,140936,2,0,P|214:191|235:204,1,35,8|0,0:0|0:0,0:0:0:0:
314,131,141243,6,0,P|352:148|399:126,1,70,0|8,3:0|0:0,0:0:0:0:
483,56,141859,1,0,3:0:0:0:
323,0,142166,1,8,0:0:0:0:
169,61,142474,6,0,P|222:81|242:82,1,70,0|8,3:0|0:0,0:0:0:0:
274,171,142989,1,0,0:0:0:0:
263,184,143092,2,0,P|264:213|282:231,1,46.6666666666667,0|0,3:0|0:0,0:0:0:0:
263,301,143401,2,0,P|289:314|314:308,1,46.6666666666667,8|0,0:0|0:0,0:0:0:0:
365,359,143711,1,0,3:0:0:0:
436,327,144329,6,0,L|424:268,1,52.5,12|0,0:0|0:0,0:0:0:0:
473,207,145010,5,0,3:0:0:0:
478,62,145334,1,2,0:0:0:0:
385,30,145982,1,2,0:0:0:0:
310,84,146631,1,2,0:0:0:0:
162,36,147172,1,0,3:0:0:0:
145,27,147280,2,0,P|95:49|91:82,1,70.0000026702882,2|0,0:0|0:0,0:0:0:0:
126,139,147604,5,8,0:0:0:0:
47,303,147928,1,2,0:0:0:0:
136,270,148577,1,2,0:0:0:0:
218,317,149226,1,2,0:0:0:0:
218,317,149442,2,0,B|240:329|240:329|310:320,1,70.0000026702882,8|0,0:0|0:0,0:0:0:0:
356,340,149766,2,0,L|321:344,1,35.0000013351441,8|2,0:0|0:0,0:0:0:0:
484,279,150199,5,0,3:0:0:0:
368,107,150523,1,2,0:0:0:0:
426,34,151172,1,2,0:0:0:0:
512,74,151820,1,2,0:0:0:0:
464,221,152361,1,0,3:0:0:0:
449,205,152469,2,0,P|403:214|385:256,1,70.0000026702882,2|0,0:0|0:0,0:0:0:0:
380,317,152793,5,8,0:0:0:0:
320,181,153118,1,2,0:0:0:0:
240,222,153766,1,2,0:0:0:0:
163,166,154415,1,2,0:0:0:0:
201,42,155064,1,8,0:0:0:0:
228,20,155172,1,8,0:0:0:0:
262,14,155280,1,8,0:0:0:0:
291,26,155388,5,0,3:0:0:0:
361,103,155710,2,0,L|347:201,1,93.3333333333333,8|0,0:0|0:0,0:0:0:0:
362,221,156033,1,0,3:0:0:0:
500,303,156248,1,0,0:0:0:0:
479,323,156355,2,0,P|433:295|391:308,1,93.3333333333333,8|0,0:0|0:0,0:0:0:0:
344,371,156678,5,0,3:0:0:0:
247,234,157000,2,0,B|198:229|207:266|153:258,1,93.3333333333333,8|0,0:0|0:0,0:0:0:0:
135,279,157323,1,0,3:0:0:0:
7,366,157538,1,0,0:0:0:0:
32,384,157646,2,0,L|125:372,1,93.3333333333333,8|0,0:0|0:0,0:0:0:0:
207,357,157968,5,0,3:0:0:0:
46,225,158292,1,8,0:0:0:0:
115,150,158508,1,0,0:0:0:0:
139,130,158616,2,0,P|186:131|218:164,1,93.3333333333333,0|0,3:0|0:0,0:0:0:0:
246,236,158940,1,8,0:0:0:0:
376,154,159157,1,0,0:0:0:0:
352,128,159265,6,0,L|341:33,1,93.3333333333333,0|0,3:0|0:0,0:0:0:0:
254,29,159591,2,0,P|189:37|171:65,1,93.3333333333333,8|0,0:0|0:0,0:0:0:0:
139,130,159917,1,0,3:0:0:0:
26,43,160134,1,8,0:0:0:0:
34,72,160243,1,8,0:0:0:0:
34,72,160569,6,0,L|22:165,1,93.3333333333333,0|0,3:0|0:0,0:0:0:0:
31,178,160895,1,8,0:0:0:0:
117,294,161112,1,0,0:0:0:0:
138,271,161221,2,0,P|189:270|219:307,1,93.3333333333333,0|0,3:0|0:0,0:0:0:0:
235,305,161547,1,8,0:0:0:0:
393,358,161765,1,0,0:0:0:0:
408,336,161873,6,0,L|398:240,1,93.3333333333333,0|0,3:0|0:0,0:0:0:0:
408,232,162197,1,8,0:0:0:0:
464,116,162413,1,0,0:0:0:0:
438,132,162521,2,0,P|386:126|348:150,1,93.3333333333333,0|0,3:0|0:0,0:0:0:0:
334,142,162845,1,8,0:0:0:0:
270,63,163170,6,0,L|177:73,1,93.3333333333333,0|0,3:0|0:0,0:0:0:0:
158,104,163494,2,0,L|65:94,1,93.3333333333333,8|0,0:0|0:0,0:0:0:0:
37,114,163818,1,0,3:0:0:0:
143,225,164035,1,8,0:0:0:0:
171,205,164143,1,8,0:0:0:0:
290,233,164469,5,0,3:0:0:0:
290,233,165706,6,0,P|258:277|231:321,3,105.000004005432,0|0|0|0,3:0|3:0|3:0|3:0,0:0:0:0:
343,316,167731,2,0,P|409:307|440:262,1,105.000004005432,0|0,3:0|3:0,0:0:0:0:
413,174,168722,2,0,P|388:161|342:165,1,52.5000020027161,0|0,3:0|0:0,0:0:0:0:
300,71,169218,5,8,0:0:0:0:
260,36,169342,1,8,0:0:0:0:
207,37,169466,1,8,0:0:0:0:
171,75,169590,1,8,0:0:0:0:
168,129,169714,6,0,P|196:163|249:168,1,70,0|8,3:0|0:0,0:0:0:0:
287,239,170214,2,0,P|328:254|376:232,1,70,0|8,3:0|0:0,0:0:0:0:
473,149,170714,6,0,P|446:182|427:209,1,70,0|8,3:0|0:0,0:0:0:0:
361,264,171214,2,0,P|354:306|351:338,1,70,0|8,3:0|0:0,0:0:0:0:
508,327,171714,6,0,P|486:295|450:280,1,70,0|8,3:0|0:0,0:0:0:0:
413,190,172214,2,0,P|377:173|339:178,1,70,0|8,3:0|0:0,0:0:0:0:
304,43,172714,6,0,P|260:61|236:67,1,70,0|8,3:0|0:0,0:0:0:0:
148,121,173214,2,0,P|100:114|77:107,1,70,0|8,3:0|0:0,0:0:0:0:
22,173,173589,1,0,0:0:0:0:
31,190,173714,5,0,3:0:0:0:
104,271,173964,1,8,0:0:0:0:
94,287,174089,2,0,L|98:322,1,35,0|0,0:0|3:0,0:0:0:0:
172,384,174339,1,0,0:0:0:0:
187,372,174464,6,0,L|267:378,1,70,8|0,0:0|3:0,0:0:0:0:
333,341,174839,1,0,0:0:0:0:
332,321,174964,1,8,0:0:0:0:
316,200,175214,2,0,B|282:196|282:196|249:211,1,70,0|8,3:0|0:0,0:0:0:0:
187,273,175589,1,0,0:0:0:0:
171,269,175714,6,0,L|154:199,1,70,0|8,3:0|0:0,0:0:0:0:
196,130,176089,1,0,0:0:0:0:
214,123,176214,1,0,3:0:0:0:
349,88,176464,1,8,0:0:0:0:
156,29,176714,5,0,3:0:0:0:
156,29,176964,2,0,L|78:44,1,78.7500030040742,8|0,0:0|0:0,0:0:0:0:
66,48,177214,2,0,L|52:115,1,65.625,0|0,3:0|0:0,0:0:0:0:
51,129,177464,2,0,L|78:158,1,35,8|0,0:0|0:0,0:0:0:0:
173,205,177714,6,0,P|156:242|142:282,1,70,0|8,3:0|0:0,0:0:0:0:
239,380,178214,2,0,P|245:345|254:311,1,70,0|8,3:0|0:0,0:0:0:0:
360,249,178714,1,0,3:0:0:0:
379,256,178839,1,0,0:0:0:0:
397,263,178964,1,8,0:0:0:0:
483,301,179214,1,0,3:0:0:0:
356,354,179464,1,8,0:0:0:0:
243,226,179714,6,0,L|282:221,3,35,0|0|8|0,3:0|0:0|0:0|0:0,0:0:0:0:
345,156,180222,1,0,3:0:0:0:
350,145,180349,1,0,0:0:0:0:
340,125,180476,1,8,0:0:0:0:
300,101,180603,1,0,0:0:0:0:
240,115,180730,5,0,3:0:0:0:
371,28,180985,1,4,0:0:0:0:
439,78,181239,2,0,L|435:122,1,35
499,174,181493,2,0,L|495:218,1,35
482,327,181747,6,0,P|446:342|416:364,1,70,0|8,3:0|0:0,0:0:0:0:
277,246,182259,2,0,P|295:240|312:243,1,35,0|0,3:0|0:0,0:0:0:0:
321,324,182516,2,0,P|302:329|286:327,1,35,8|0,0:0|0:0,0:0:0:0:
198,203,182772,6,0,P|164:218|133:211,1,70,0|8,3:0|0:0,0:0:0:0:
31,289,183285,2,0,P|38:310|42:325,1,35,0|0,3:0|0:0,0:0:0:0:
118,382,183541,2,0,P|125:366|134:350,1,35,8|0,0:0|0:0,0:0:0:0:
287,327,183798,6,0,P|318:341|337:382,1,70,0|8,3:0|0:0,0:0:0:0:
488,284,184311,2,0,L|453:291,1,35,0|0,3:0|0:0,0:0:0:0:
352,225,184567,2,0,L|387:232,1,35,8|0,0:0|0:0,0:0:0:0:
485,143,184823,6,0,L|494:72,1,70,0|8,3:0|0:0,0:0:0:0:
327,27,185336,2,0,P|307:31|292:37,1,35,0|0,3:0|0:0,0:0:0:0:
204,18,185593,2,0,P|189:31|178:44,1,35,8|0,0:0|0:0,0:0:0:0:
106,87,185849,5,0,3:0:0:0:
19,169,186103,1,8,0:0:0:0:
25,184,186230,1,0,0:0:0:0:
31,199,186357,1,0,3:0:0:0:
115,287,186611,5,8,0:0:0:0:
109,306,186738,1,0,0:0:0:0:
207,254,186993,1,0,0:0:0:0:
213,235,187120,1,8,0:0:0:0:
330,198,187374,2,0,P|349:200|363:215,1,35,0|0,3:0|0:0,0:0:0:0:
493,220,187628,2,0,P|477:207|457:208,1,35,8|0,0:0|0:0,0:0:0:0:
378,301,187882,5,0,3:0:0:0:
249,144,188137,1,8,0:0:0:0:
255,129,188264,1,0,0:0:0:0:
261,114,188391,1,0,3:0:0:0:
347,12,188645,5,8,0:0:0:0:
351,29,188772,1,0,0:0:0:0:
463,71,189026,1,0,0:0:0:0:
467,88,189153,1,8,0:0:0:0:
485,208,189408,2,0,L|451:202,1,35,0|0,3:0|0:0,0:0:0:0:
367,244,189662,2,0,L|333:238,1,35,8|0,0:0|0:0,0:0:0:0:
252,297,189915,5,0,3:0:0:0:
85,174,190171,1,8,0:0:0:0:
55,303,190427,2,0,P|73:311|98:315,1,35,0|0,3:0|0:0,0:0:0:0:
157,368,190684,2,0,P|177:365|200:357,1,35,8|0,0:0|0:0,0:0:0:0:
252,297,190940,5,0,3:0:0:0:
136,107,191197,1,8,0:0:0:0:
221,16,191453,2,0,L|215:56,1,35,0|0,3:0|0:0,0:0:0:0:
286,112,191709,2,0,L|292:152,1,35,8|0,0:0|0:0,0:0:0:0:
230,210,191966,5,0,3:0:0:0:
408,39,192221,1,8,0:0:0:0:
478,107,192476,2,0,L|484:147,1,35,0|0,3:0|0:0,0:0:0:0:
413,203,192732,2,0,L|407:243,1,35,8|0,0:0|0:0,0:0:0:0:
469,306,192987,5,0,3:0:0:0:
250,231,193242,1,8,0:0:0:0:
131,293,193497,2,0,P|150:326|160:332,1,35,0|0,3:0|0:0,0:0:0:0:
216,379,193753,2,0,P|254:379|264:373,1,35,8|0,0:0|0:0,0:0:0:0:
323,304,194008,5,0,3:0:0:0:
260,199,194263,1,8,0:0:0:0:
255,215,194391,1,0,0:0:0:0:
250,231,194519,1,0,3:0:0:0:
104,211,194774,5,8,0:0:0:0:
99,195,194902,1,0,0:0:0:0:
164,124,195157,1,0,0:0:0:0:
169,108,195285,1,8,0:0:0:0:
98,33,195540,2,0,L|56:39,1,35,0|0,3:0|0:0,0:0:0:0:
1,121,195795,2,0,L|43:127,1,35,8|0,0:0|0:0,0:0:0:0:
99,195,196051,5,0,3:0:0:0:
132,295,196306,1,8,0:0:0:0:
137,311,196434,1,0,0:0:0:0:
240,364,196689,1,0,0:0:0:0:
245,348,196817,1,8,0:0:0:0:
355,279,197072,5,0,3:0:0:0:
282,193,197327,1,8,0:0:0:0:
320,83,197583,1,0,3:0:0:0:
439,52,197838,1,8,0:0:0:0:
453,62,197966,1,0,0:0:0:0:
467,72,198093,5,0,3:0:0:0:
512,224,198346,1,8,0:0:0:0:
434,155,198599,2,0,P|388:164|361:176,1,70,0|8,3:0|0:0,0:0:0:0:
321,263,198979,1,0,0:0:0:0:
286,251,199105,5,0,3:0:0:0:
269,258,199232,1,0,0:0:0:0:
254,266,199358,1,8,0:0:0:0:
196,361,199611,1,0,3:0:0:0:
107,256,199865,1,8,0:0:0:0:
294,347,200118,5,0,3:0:0:0:
209,189,200371,1,8,0:0:0:0:
190,186,200498,1,0,0:0:0:0:
173,185,200624,1,0,3:0:0:0:
9,256,200877,1,8,0:0:0:0:
31,80,201130,6,0,P|77:80|105:121,1,70,0|8,3:0|0:0,0:0:0:0:
185,98,201510,1,0,0:0:0:0:
218,81,201637,1,0,3:0:0:0:
235,82,201763,1,0,0:0:0:0:
254,85,201890,1,8,0:0:0:0:
386,252,202143,5,0,3:0:0:0:
456,197,202396,1,8,0:0:0:0:
456,161,202523,1,0,0:0:0:0:
433,134,202649,1,0,3:0:0:0:
312,164,202903,1,8,0:0:0:0:
249,62,203156,5,0,3:0:0:0:
276,40,203282,1,0,0:0:0:0:
310,34,203409,1,8,0:0:0:0:
343,44,203535,1,0,0:0:0:0:
361,37,203662,2,0,L|398:47,1,35,0|0,3:0|0:0,0:0:0:0:
489,96,203915,1,8,0:0:0:0:
478,110,204042,1,0,0:0:0:0:
476,127,204168,5,0,3:0:0:0:
507,236,204420,1,8,0:0:0:0:
420,305,204672,2,0,L|409:268,2,35,0|0|8,3:0|0:0|0:0,0:0:0:0:
363,367,205050,1,0,0:0:0:0:
350,380,205176,1,0,3:0:0:0:
282,296,205428,1,8,0:0:0:0:
427,181,205680,6,0,L|435:143,2,35,0|0|8,3:0|0:0|0:0,0:0:0:0:
346,206,206058,1,0,0:0:0:0:
328,210,206184,1,0,3:0:0:0:
311,104,206442,1,0,0:0:0:0:
488,74,206701,6,0,L|514:45,2,35,0|0|8,3:0|0:0|0:0,0:0:0:0:
405,55,207089,1,0,0:0:0:0:
387,49,207218,1,0,3:0:0:0:
291,9,207477,6,0,P|273:15|256:22,1,35,8|0,0:0|0:0,0:0:0:0:
216,108,207735,1,0,3:0:0:0:
122,0,207994,6,0,P|118:18|116:36,1,35,8|0,0:0|0:0,0:0:0:0:
183,127,208252,1,0,3:0:0:0:
71,188,209011,5,8,0:0:0:0:
49,214,209101,1,8,0:0:0:0:
47,249,209192,1,8,0:0:0:0:
65,278,209283,1,8,0:0:0:0:
97,290,209374,1,8,0:0:0:0:
131,282,209465,1,8,0:0:0:0:
153,255,209556,6,0,P|180:233|217:229,1,70,4|8,3:2|0:0,0:0:0:0:
311,257,209917,1,0,3:0:0:0:
260,134,210098,2,0,P|281:106|313:95,1,70,8|0,0:0|3:2,0:0:0:0:
468,44,210459,1,8,0:0:0:0:
407,118,210640,1,0,3:0:0:0:
491,179,210821,1,8,0:0:0:0:
473,279,211001,5,0,3:2:0:0:
400,347,211182,2,0,P|355:341|320:337,1,70,8|0,0:0|3:0,0:0:0:0:
213,228,211543,2,0,P|178:232|143:236,1,70,8|0,0:0|3:2,0:0:0:0:
67,310,211905,1,8,0:0:0:0:
174,327,212086,1,0,3:0:0:0:
59,337,212266,1,8,0:0:0:0:
55,198,212447,6,0,P|105:214|116:239,1,70,0|8,3:2|0:0,0:0:0:0:
216,187,212806,2,0,P|251:225|248:253,1,70,0|8,3:0|0:0,0:0:0:0:
353,293,213165,1,0,3:2:0:0:
438,195,213345,1,8,0:0:0:0:
309,140,213524,1,0,3:0:0:0:
360,62,213704,1,8,0:0:0:0:
197,14,213884,6,0,P|216:54|225:79,1,70,0|8,3:2|0:0,0:0:0:0:
120,102,214243,2,0,P|116:146|111:172,1,70,0|8,3:0|0:0,0:0:0:0:
27,202,214602,6,0,P|8:242|-1:267,1,70,0|8,3:2|0:0,0:0:0:0:
104,290,214961,2,0,P|107:334|112:360,1,70,0|8,3:0|0:0,0:0:0:0:
224,353,215231,1,8,0:0:0:0:
240,343,215321,6,0,P|275:345|304:369,1,70,0|8,3:2|0:0,0:0:0:0:
401,351,215680,1,0,3:0:0:0:
511,235,215860,2,0,P|493:272|485:299,1,70,8|0,0:0|3:2,0:0:0:0:
335,279,216219,1,8,0:0:0:0:
411,227,216399,1,0,3:0:0:0:
375,146,216578,1,8,0:0:0:0:
447,60,216758,5,0,3:2:0:0:
363,2,216938,2,0,P|326:8|300:42,1,70,8|0,0:0|3:0,0:0:0:0:
229,164,217300,2,0,P|253:188|287:192,1,70,8|0,0:0|3:2,0:0:0:0:
375,146,217661,1,8,0:0:0:0:
305,58,217842,1,0,3:0:0:0:
447,60,218023,1,8,0:0:0:0:
304,30,218203,6,0,P|270:33|227:44,1,70,0|8,3:2|0:0,0:0:0:0:
133,10,218565,2,0,P|105:30|73:60,1,70,0|8,3:0|0:0,0:0:0:0:
16,153,218926,5,0,3:2:0:0:
77,232,219107,1,8,0:0:0:0:
165,121,219288,1,0,3:0:0:0:
101,234,219468,1,8,0:0:0:0:
246,187,219649,6,0,P|318:202|392:221,1,140,0|4,3:2|3:2,0:0:0:0:
473,284,220187,1,8,0:0:0:0:
453,303,220367,1,8,0:0:0:0:
341,293,220547,1,8,0:0:0:0:
251,349,220726,1,8,0:0:0:0:
127,279,220906,1,8,0:0:0:0:
113,263,220996,1,0,0:0:0:0:
112,241,221086,6,0,P|130:207|160:195,1,70,0|8,3:0|0:0,0:0:0:0:
183,162,221363,2,0,P|221:160|246:180,1,70
278,177,221641,1,8,0:0:0:0:
334,86,221826,6,0,B|369:82|369:82|399:100,1,70,0|8,3:0|0:0,0:0:0:0:
432,97,222104,2,0,B|451:126|451:126|484:137,1,70
500,160,222382,1,8,0:0:0:0:
469,292,222567,6,0,P|441:311|384:307,1,70,0|8,3:0|0:0,0:0:0:0:
275,270,222932,1,0,3:0:0:0:
275,270,223115,1,8,0:0:0:0:
321,384,223298,1,0,3:0:0:0:
401,230,223481,1,8,0:0:0:0:
512,370,223664,1,0,3:0:0:0:
506,194,223847,1,8,0:0:0:0:
405,314,224030,6,0,L|334:322,1,70,0|8,3:0|0:0,0:0:0:0:
308,310,224306,2,0,L|241:336,1,70
226,359,224582,1,8,0:0:0:0:
141,308,224766,6,0,P|111:288|76:274,1,70,0|8,3:0|0:0,0:0:0:0:
72,251,225042,2,0,P|87:218|111:189,1,70
106,165,225318,1,8,0:0:0:0:
27,25,225502,6,0,B|41:36|41:36|106:40,1,70,0|8,3:0|0:0,0:0:0:0:
211,47,225870,1,0,3:0:0:0:
211,47,226054,1,8,0:0:0:0:
106,165,226238,1,0,3:0:0:0:
287,135,226422,1,8,0:0:0:0:
233,254,226606,1,0,3:0:0:0:
389,192,226790,1,8,0:0:0:0:
346,53,226974,6,0,P|322:23|289:12,1,70,0|8,3:0|0:0,0:0:0:0:
267,12,227250,2,0,P|231:27|212:56,1,70
209,76,227526,1,8,0:0:0:0:
190,204,227710,6,0,B|164:180|164:180|127:178,1,70,0|8,3:0|0:0,0:0:0:0:
101,160,227987,2,0,B|67:170|67:170|46:201,1,70
26,218,228263,1,8,0:0:0:0:
55,361,228447,6,0,P|91:366|126:373,1,70,0|8,3:0|0:0,0:0:0:0:
206,324,228815,1,0,3:0:0:0:
206,324,228999,1,8,0:0:0:0:
308,374,229183,1,0,3:0:0:0:
280,256,229367,1,8,0:0:0:0:
420,266,229551,1,0,3:0:0:0:
310,166,229735,1,8,0:0:0:0:
396,349,229919,6,0,P|405:290|409:272,1,70,0|8,3:0|0:0,0:0:0:0:
411,166,230287,2,0,P|434:111|443:94,1,70,0|8,3:0|0:0,0:0:0:0:
261,28,230655,6,0,P|221:24|196:37,1,70,0|8,3:0|0:0,0:0:0:0:
93,50,231023,2,0,P|69:82|68:110,1,70,0|8,3:0|0:0,0:0:0:0:
110,204,231391,5,0,3:0:0:0:
220,187,231573,1,8,0:0:0:0:
236,191,231665,1,0,0:0:0:0:
253,196,231756,1,0,3:0:0:0:
259,287,231939,1,8,0:0:0:0:
157,106,232122,5,0,3:0:0:0:
254,111,232305,1,8,0:0:0:0:
269,103,232397,1,8,0:0:0:0:
286,100,232488,1,8,0:0:0:0:
373,56,232671,1,8,0:0:0:0:
386,64,232763,1,8,0:0:0:0:
397,77,232854,6,0,P|423:113|448:140,1,70,0|8,3:0|0:0,0:0:0:0:
429,214,233128,1,0,0:0:0:0:
424,231,233219,1,0,3:0:0:0:
472,310,233402,1,8,0:0:0:0:
337,255,233585,6,0,P|302:262|279:290,1,70,0|8,3:0|0:0,0:0:0:0:
211,338,233860,1,0,0:0:0:0:
193,332,233951,1,0,3:0:0:0:
114,384,234134,1,8,0:0:0:0:
31,331,234317,5,0,3:0:0:0:
42,172,234500,2,0,P|62:204|74:234,1,70,12|0,0:0|3:0,0:0:0:0:
144,65,234866,2,0,P|145:102|140:134,1,70,12|0,0:0|3:0,0:0:0:0:
226,218,235232,1,8,0:0:0:0:
240,227,235323,1,0,0:0:0:0:
257,230,235414,1,0,3:0:0:0:
337,157,235597,1,8,0:0:0:0:
260,118,235780,5,0,3:0:0:0:
431,69,235963,1,8,0:0:0:0:
388,231,236146,1,4,3:2:0:0:
475,162,236329,1,8,0:0:0:0:
512,331,236512,6,0,P|475:313|444:305,1,70,0|8,3:0|0:0,0:0:0:0:
370,343,236786,1,0,0:0:0:0:
359,359,236878,1,4,3:2:0:0:
270,334,237061,1,8,0:0:0:0:
159,373,237244,6,0,P|149:357|139:343,3,35,0|0|8|0,3:0|0:0|0:0|0:0,0:0:0:0:
56,288,237610,2,0,P|42:300|28:311,3,35,0|0|8|0,3:0|0:0|0:0|0:0,0:0:0:0:
32,198,237975,5,4,3:2:0:0:
162,228,238158,1,8,0:0:0:0:
160,245,238250,1,8,0:0:0:0:
150,259,238341,1,0,3:0:0:0:
117,140,238524,1,8,0:0:0:0:
199,77,238707,6,0,P|239:85|275:98,1,70,0|8,3:0|0:0,0:0:0:0:
347,60,238982,1,0,0:0:0:0:
364,51,239073,1,0,3:0:0:0:
457,97,239256,1,8,0:0:0:0:
477,234,239439,6,0,P|435:228|418:206,1,70,0|8,3:0|0:0,0:0:0:0:
348,161,239713,1,0,0:0:0:0:
332,170,239805,1,0,3:0:0:0:
273,246,239988,1,8,0:0:0:0:
314,336,240171,5,0,3:0:0:0:
418,207,240356,1,8,0:0:0:0:
435,368,240541,1,4,3:2:0:0:
512,300,240726,1,8,0:0:0:0:
340,227,240911,6,0,P|289:239|268:247,1,70,0|8,3:0|0:0,0:0:0:0:
214,313,241189,1,0,0:0:0:0:
196,308,241282,1,0,3:0:0:0:
117,243,241467,1,8,0:0:0:0:
31,382,241652,6,0,P|61:363|70:329,1,70,4|8,3:2|0:0,0:0:0:0:
19,260,241930,1,0,0:0:0:0:
2,252,242022,1,0,3:0:0:0:
56,174,242208,1,8,0:0:0:0:
5,57,242393,6,0,P|43:77|77:90,1,70,0|8,3:0|0:0,0:0:0:0:
146,58,242671,1,0,0:0:0:0:
163,50,242763,1,0,3:0:0:0:
284,96,242948,1,8,0:0:0:0:
363,36,243133,5,0,3:0:0:0:
464,129,243317,1,8,0:0:0:0:
457,145,243409,1,0,0:0:0:0:
450,161,243501,2,0,P|453:181|460:201,3,35,0|0|8|0,3:0|0:0|0:0|0:0,0:0:0:0:
508,272,243869,5,4,3:2:0:0:
417,326,244053,1,8,0:0:0:0:
327,246,244237,1,8,0:0:0:0:
292,240,244329,1,8,0:0:0:0:
257,234,244421,1,8,0:0:0:0:
223,228,244513,1,8,0:0:0:0:
188,223,244605,6,0,P|161:257|157:293,1,70,0|8,3:0|0:0,0:0:0:0:
74,349,244971,1,0,3:0:0:0:
88,198,245155,1,8,0:0:0:0:
240,361,245338,2,0,P|190:372|165:383,1,70,0|8,3:0|0:0,0:0:0:0:
13,265,245705,1,0,3:0:0:0:
186,195,245889,1,8,0:0:0:0:
74,349,246072,5,0,3:0:0:0:
258,345,246256,1,8,0:0:0:0:
99,227,246439,1,0,3:0:0:0:
305,273,246623,1,8,0:0:0:0:
274,95,246806,2,0,P|239:92|208:113,1,70,0|8,3:0|0:0,0:0:0:0:
63,71,247173,2,0,P|92:101|107:125,1,70,0|8,3:0|0:0,0:0:0:0:
163,251,247540,6,0,P|131:235|98:226,1,70,0|8,3:0|0:0,0:0:0:0:
0,149,247907,1,0,3:0:0:0:
156,20,248091,1,8,0:0:0:0:
260,138,248274,2,0,P|226:146|195:162,1,70,0|8,3:0|0:0,0:0:0:0:
305,251,248641,1,0,3:0:0:0:
354,111,248825,1,8,0:0:0:0:
223,289,249008,5,0,3:0:0:0:
174,156,249192,1,8,0:0:0:0:
377,304,249375,2,0,P|394:261|407:237,1,70,0|8,3:0|0:0,0:0:0:0:
501,122,249742,2,0,P|472:147|429:147,1,70,0|8,3:0|0:0,0:0:0:0:
299,74,250109,2,0,P|320:100|354:111,1,70,0|8,3:0|0:0,0:0:0:0:
131,64,250476,6,0,P|165:52|210:39,1,70,0|8,3:0|0:0,0:0:0:0:
264,168,250843,1,0,3:0:0:0:
127,177,251027,1,8,0:0:0:0:
64,42,251210,2,0,P|97:51|130:63,1,70,0|8,3:0|0:0,0:0:0:0:
197,229,251577,1,0,3:0:0:0:
67,252,251760,1,8,0:0:0:0:
211,121,251944,5,0,3:0:0:0:
269,286,252127,1,8,0:0:0:0:
93,326,252311,2,0,P|69:293|81:261,1,70,0|8,3:0|0:0,0:0:0:0:
41,145,252678,2,0,P|82:165|124:175,1,70,0|8,3:0|0:0,0:0:0:0:
398,146,253045,2,0,B|369:127|369:127|332:133,1,70,0|8,3:0|0:0,0:0:0:0:
269,286,253412,5,0,3:0:0:0:
310,370,253595,1,8,0:0:0:0:
329,376,253687,1,0,0:0:0:0:
491,273,253963,1,8,0:0:0:0:
472,267,254054,1,0,0:0:0:0:
453,261,254146,2,0,P|418:266|382:274,1,70,0|8,3:0|0:0,0:0:0:0:
261,162,254513,2,0,P|294:172|326:185,1,70,0|8,3:0|0:0,0:0:0:0:
510,151,254880,5,0,3:0:0:0:
438,85,255063,1,8,0:0:0:0:
420,90,255155,1,0,0:0:0:0:
252,14,255430,1,8,0:0:0:0:
234,9,255522,1,0,0:0:0:0:
216,4,255614,5,0,3:0:0:0:
158,161,255797,1,8,0:0:0:0:
29,70,255981,1,8,0:0:0:0:
52,44,256072,1,8,0:0:0:0:
83,30,256164,1,8,0:0:0:0:
118,31,256256,1,8,0:0:0:0:
149,46,256347,5,0,3:0:0:0:
146,60,256709,1,0,3:0:0:0:
143,73,257070,1,0,3:0:0:0:
140,86,257432,1,0,3:0:0:0:
81,151,257793,5,0,3:0:0:0:
84,164,258152,1,0,3:0:0:0:
87,177,258511,1,0,3:0:0:0:
105,263,258691,5,0,0:0:0:0:
205,219,258870,1,0,3:0:0:0:
317,305,259050,1,0,0:0:0:0:
209,372,259230,5,0,3:0:0:0:
202,351,259598,1,0,3:0:0:0:
198,331,259966,1,0,3:0:0:0:
193,312,260334,1,0,3:0:0:0:
229,153,260702,5,8,0:0:0:0:
258,135,260790,1,8,0:0:0:0:
293,132,260878,1,8,0:0:0:0:
326,144,260966,1,8,0:0:0:0:
350,168,261054,5,4,3:0:0:0:
366,188,261142,1,4,3:0:0:0:
389,200,261230,1,4,3:0:0:0:
415,202,261318,1,4,3:0:0:0:
439,194,261407,5,0,3:0:0:0:
443,141,261495,1,0,3:0:0:0:
448,89,261584,2,0,P|461:72|482:59,1,35,4|4,3:0|3:0,0:0:0:0:
359,87,261760,2,0,P|360:65|372:43,1,35,0|0,3:0|3:0,0:0:0:0:
280,129,261937,2,0,P|271:109|270:84,1,35,0|0,3:0|3:0,0:0:0:0:
181,32,262113,6,0,P|127:45|104:56,1,70,0|8,3:0|0:0,0:0:0:0:
67,149,262470,2,0,P|38:196|29:220,1,70,0|8,3:0|0:0,0:0:0:0:
69,312,262827,2,0,P|82:366|92:389,1,70,0|8,3:0|0:0,0:0:0:0:
217,351,263184,2,0,P|229:318|235:283,1,70,0|8,3:0|0:0,0:0:0:0:
236,144,263541,6,0,P|204:117|169:115,1,70,0|8,3:0|0:0,0:0:0:0:
95,189,263898,2,0,P|53:192|27:215,1,70,0|8,3:0|0:0,0:0:0:0:
69,312,264255,1,0,3:0:0:0:
160,357,264434,1,4,3:0:0:0:
246,292,264613,1,4,3:0:0:0:
280,294,264702,1,4,3:0:0:0:
311,310,264791,1,4,3:0:0:0:
331,338,264880,1,4,3:0:0:0:
339,372,264970,6,0,P|393:362|430:357,1,87.5,4|8,3:2|0:0,0:0:0:0:
503,281,265327,2,0,P|451:261|416:249,1,87.5,0|8,3:2|0:0,0:0:0:0:
264,241,265684,2,0,P|305:204|334:182,1,87.5,0|8,3:2|0:0,0:0:0:0:
360,79,266041,2,0,P|305:87|269:95,1,87.5,0|8,3:2|0:0,0:0:0:0:
101,32,266398,5,0,3:2:0:0:
185,163,266577,1,8,0:0:0:0:
185,163,266666,1,8,0:0:0:0:
185,163,266755,1,8,0:0:0:0:
150,137,266844,1,8,0:0:0:0:
107,138,266933,1,8,0:0:0:0:
73,165,267022,1,8,0:0:0:0:
61,206,267113,5,4,3:0:0:0:
65,232,267202,1,0,3:0:0:0:
68,258,267291,1,4,3:0:0:0:
71,284,267380,1,0,3:0:0:0:
87,305,267470,5,0,3:0:0:0:
84,324,267559,1,0,3:0:0:0:
81,344,267648,1,4,3:0:0:0:
79,363,267737,1,4,3:0:0:0:
66,378,267827,5,0,3:0:0:0:
185,163,268012,2,0,P|233:162|279:205,1,105.000004005432,12|0,0:0|3:0,0:0:0:0:
360,243,268289,1,0,0:0:0:0:
354,273,268382,1,12,0:0:0:0:
326,112,268567,1,0,3:0:0:0:
193,266,268752,1,12,0:0:0:0:
160,243,268845,1,0,0:0:0:0:
125,241,268938,2,0,B|70:244|84:280|36:289,1,105.000004005432,0|4,3:0|3:0,0:0:0:0:
0,208,269215,1,0,0:0:0:0:
13,184,269308,5,0,3:0:0:0:
10,55,269493,1,12,0:0:0:0:
35,75,269586,1,0,0:0:0:0:
69,69,269678,1,0,3:0:0:0:
158,126,269864,1,12,0:0:0:0:
317,26,270049,1,0,3:0:0:0:
266,170,270234,1,12,0:0:0:0:
291,195,270327,2,0,L|277:302,1,105.000004005432
294,331,270604,1,4,3:0:0:0:
328,343,270697,1,4,3:0:0:0:
363,334,270789,5,4,3:0:0:0:
469,162,270975,1,12,0:0:0:0:
510,332,271160,1,0,3:0:0:0:
378,220,271345,1,12,0:0:0:0:
504,76,271530,1,0,3:0:0:0:
381,29,271715,1,12,0:0:0:0:
349,19,271808,2,0,P|297:30|272:86,1,105.000004005432
266,108,272086,1,0,3:0:0:0:
260,144,272178,1,0,3:0:0:0:
253,179,272271,5,8,0:0:0:0:
203,359,273214,5,0,0:0:0:0:
139,220,273403,1,0,0:0:0:0:
355,347,273780,5,8,0:0:0:0:
18,140,274585,5,8,0:0:0:0:
465,66,275344,5,8,0:0:0:0:
455,82,275455,1,8,0:0:0:0:
341,35,275677,1,8,0:0:0:0:
246,112,275899,5,8,0:0:0:0:
283,185,276010,1,8,0:0:0:0:
118,91,276260,1,8,0:0:0:0:
93,98,276962,5,12,0:0:0:0:
256,192,277112,12,0,280562,0:0:0:0:
