osu file format v14

[General]
AudioFilename: hardware.mp3
AudioLeadIn: 0
PreviewTime: 288
Countdown: 0
SampleSet: Normal
StackLeniency: 0.7
Mode: 3
LetterboxInBreaks: 0
SpecialStyle: 0
WidescreenStoryboard: 0

[Editor]
DistanceSpacing: 1
BeatDivisor: 4
GridSize: 8
TimelineZoom: 3.099999

[Metadata]
Title:Hardware Store
TitleUnicode:Hardware Store
Artist:Weird Al Yankovic
ArtistUnicode:Weird Al Yankovic
Creator:Aqo
Version:Hard(ware store)
Source:
Tags:
BeatmapID:1103806
BeatmapSetID:519602

[Difficulty]
HPDrainRate:9
CircleSize:7
OverallDifficulty:10
ApproachRate:5
SliderMultiplier:1.4
SliderTickRate:1

[Events]
//Background and Video events
0,0,"bg2.jpg",0,0
//Break Periods
//Storyboard Layer 0 (Background)
//Storyboard Layer 1 (Fail)
//Storyboard Layer 2 (Pass)
//Storyboard Layer 3 (Foreground)
//Storyboard Sound Samples

[TimingPoints]
288,474.935290066728,4,1,0,10,1,0
7886,-100,4,1,0,10,0,0
15485,-100,4,1,0,10,0,0
45881,-100,4,1,0,10,0,0
46831,-100,4,1,0,10,0,0
53480,-100,4,1,0,10,0,0
62979,-100,4,1,0,10,0,0
70578,-100,4,1,0,10,0,0
100974,-100,4,1,0,10,0,0
101924,-100,4,1,0,10,0,0
108573,-100,4,1,0,10,0,0
118071,-100,4,1,0,10,0,0
127570,-100,4,1,0,10,0,0
142768,-100,4,1,0,10,0,0
173164,-100,4,1,0,10,0,0
174114,-100,4,1,0,10,0,0
180763,-100,4,1,0,10,0,0
190262,-100,4,1,0,10,0,0
199760,-100,4,1,0,10,0,0
209259,-100,4,1,0,10,0,0
222557,-100,4,1,0,10,0,0

[HitObjects]
329,192,7886,5,0,0:0:0:0:
402,192,7886,1,0,0:0:0:0:
36,192,7886,1,0,0:0:0:0:
256,192,7886,1,0,0:0:0:0:
109,192,7886,1,0,0:0:0:0:
182,192,8124,1,0,0:0:0:0:
329,192,8361,1,0,0:0:0:0:
402,192,8361,1,0,0:0:0:0:
475,192,8361,1,0,0:0:0:0:
182,192,8599,1,0,0:0:0:0:
329,192,8836,1,0,0:0:0:0:
402,192,8836,1,0,0:0:0:0:
36,192,8836,1,0,0:0:0:0:
109,192,8836,1,0,0:0:0:0:
182,192,9074,1,0,0:0:0:0:
402,192,9193,1,0,0:0:0:0:
475,192,9193,1,0,0:0:0:0:
329,192,9311,1,0,0:0:0:0:
182,192,9549,1,0,0:0:0:0:
402,192,9549,1,0,0:0:0:0:
109,192,9549,1,0,0:0:0:0:
402,192,9786,1,0,0:0:0:0:
329,192,9786,1,0,0:0:0:0:
256,192,9786,1,0,0:0:0:0:
36,192,9786,1,0,0:0:0:0:
475,192,9786,1,0,0:0:0:0:
182,192,10024,1,0,0:0:0:0:
402,192,10261,1,0,0:0:0:0:
329,192,10261,1,0,0:0:0:0:
109,192,10261,1,0,0:0:0:0:
182,192,10499,1,0,0:0:0:0:
402,192,10736,1,0,0:0:0:0:
329,192,10736,1,0,0:0:0:0:
36,192,10736,1,0,0:0:0:0:
475,192,10736,1,0,0:0:0:0:
182,192,10974,1,0,0:0:0:0:
402,192,11092,1,0,0:0:0:0:
109,192,11092,1,0,0:0:0:0:
329,192,11211,1,0,0:0:0:0:
402,192,11448,1,0,0:0:0:0:
182,192,11448,1,0,0:0:0:0:
475,192,11448,1,0,0:0:0:0:
329,192,11686,1,0,0:0:0:0:
402,192,11686,1,0,0:0:0:0:
256,192,11686,1,0,0:0:0:0:
36,192,11686,1,0,0:0:0:0:
109,192,11686,1,0,0:0:0:0:
182,192,11923,1,0,0:0:0:0:
329,192,12161,1,0,0:0:0:0:
402,192,12161,1,0,0:0:0:0:
475,192,12161,1,0,0:0:0:0:
182,192,12398,1,0,0:0:0:0:
329,192,12636,1,0,0:0:0:0:
402,192,12636,1,0,0:0:0:0:
36,192,12636,1,0,0:0:0:0:
109,192,12636,1,0,0:0:0:0:
182,192,12873,1,0,0:0:0:0:
402,192,12992,1,0,0:0:0:0:
475,192,12992,1,0,0:0:0:0:
329,192,13111,1,0,0:0:0:0:
182,192,13348,1,0,0:0:0:0:
402,192,13348,1,0,0:0:0:0:
109,192,13348,1,0,0:0:0:0:
475,192,13586,1,0,0:0:0:0:
329,192,13586,1,0,0:0:0:0:
256,192,13586,1,0,0:0:0:0:
36,192,13586,1,0,0:0:0:0:
109,192,13586,1,0,0:0:0:0:
182,192,13823,1,0,0:0:0:0:
475,192,13823,1,0,0:0:0:0:
109,192,13823,1,0,0:0:0:0:
329,192,14061,1,0,0:0:0:0:
475,192,14061,1,0,0:0:0:0:
109,192,14061,1,0,0:0:0:0:
182,192,14298,1,0,0:0:0:0:
475,192,14298,1,0,0:0:0:0:
109,192,14298,1,0,0:0:0:0:
329,192,14536,1,0,0:0:0:0:
475,192,14536,1,0,0:0:0:0:
402,192,14654,1,0,0:0:0:0:
109,192,14654,1,0,0:0:0:0:
182,192,14773,1,0,0:0:0:0:
402,192,14892,1,0,0:0:0:0:
109,192,14892,1,0,0:0:0:0:
329,192,15010,1,0,0:0:0:0:
475,192,15010,1,0,0:0:0:0:
182,192,15248,1,0,0:0:0:0:
475,192,15248,1,0,0:0:0:0:
402,192,15367,1,0,0:0:0:0:
475,192,15485,1,0,0:0:0:0:
256,192,15485,1,0,0:0:0:0:
36,192,15485,1,0,0:0:0:0:
329,192,15485,1,0,0:0:0:0:
109,192,15485,1,0,0:0:0:0:
182,192,15604,1,0,0:0:0:0:
329,192,15723,1,0,0:0:0:0:
402,192,15723,1,0,0:0:0:0:
182,192,15842,1,0,0:0:0:0:
329,192,15960,1,0,0:0:0:0:
109,192,15960,1,0,0:0:0:0:
182,192,16079,1,0,0:0:0:0:
256,192,16138,1,0,0:0:0:0:
329,192,16198,1,0,0:0:0:0:
402,192,16198,1,0,0:0:0:0:
36,192,16198,1,0,0:0:0:0:
182,192,16317,1,0,0:0:0:0:
329,192,16435,1,0,0:0:0:0:
109,192,16435,1,0,0:0:0:0:
475,192,16435,1,0,0:0:0:0:
182,192,16554,1,0,0:0:0:0:
256,192,16613,1,0,0:0:0:0:
329,192,16673,1,0,0:0:0:0:
402,192,16673,1,0,0:0:0:0:
36,192,16673,1,0,0:0:0:0:
182,192,16792,1,0,0:0:0:0:
329,192,16910,1,0,0:0:0:0:
109,192,16910,1,0,0:0:0:0:
475,192,16910,1,0,0:0:0:0:
182,192,17029,1,0,0:0:0:0:
256,192,17088,1,0,0:0:0:0:
329,192,17148,1,0,0:0:0:0:
402,192,17148,1,0,0:0:0:0:
36,192,17148,1,0,0:0:0:0:
182,192,17266,1,0,0:0:0:0:
329,192,17385,1,0,0:0:0:0:
109,192,17385,1,0,0:0:0:0:
475,192,17385,1,0,0:0:0:0:
36,192,17385,1,0,0:0:0:0:
182,192,17504,1,0,0:0:0:0:
256,192,17563,1,0,0:0:0:0:
329,192,17623,1,0,0:0:0:0:
402,192,17623,1,0,0:0:0:0:
36,192,17623,1,0,0:0:0:0:
182,192,17741,1,0,0:0:0:0:
329,192,17860,1,0,0:0:0:0:
109,192,17860,1,0,0:0:0:0:
475,192,17860,1,0,0:0:0:0:
182,192,17979,1,0,0:0:0:0:
256,192,18038,1,0,0:0:0:0:
329,192,18098,1,0,0:0:0:0:
402,192,18098,1,0,0:0:0:0:
36,192,18098,1,0,0:0:0:0:
182,192,18216,1,0,0:0:0:0:
329,192,18335,1,0,0:0:0:0:
109,192,18335,1,0,0:0:0:0:
475,192,18335,1,0,0:0:0:0:
182,192,18454,1,0,0:0:0:0:
256,192,18513,1,0,0:0:0:0:
329,192,18573,1,0,0:0:0:0:
402,192,18573,1,0,0:0:0:0:
36,192,18573,1,0,0:0:0:0:
182,192,18691,1,0,0:0:0:0:
329,192,18810,1,0,0:0:0:0:
109,192,18810,1,0,0:0:0:0:
475,192,18810,1,0,0:0:0:0:
182,192,18929,1,0,0:0:0:0:
256,192,18988,1,0,0:0:0:0:
329,192,19047,1,0,0:0:0:0:
402,192,19047,1,0,0:0:0:0:
36,192,19047,1,0,0:0:0:0:
182,192,19166,1,0,0:0:0:0:
329,192,19285,1,0,0:0:0:0:
475,192,19285,1,0,0:0:0:0:
109,192,19285,1,0,0:0:0:0:
402,192,19285,1,0,0:0:0:0:
182,192,19404,1,0,0:0:0:0:
256,192,19463,1,0,0:0:0:0:
329,192,19522,1,0,0:0:0:0:
402,192,19522,1,0,0:0:0:0:
36,192,19522,1,0,0:0:0:0:
182,192,19641,1,0,0:0:0:0:
109,192,19760,1,0,0:0:0:0:
329,192,19760,1,0,0:0:0:0:
475,192,19760,1,0,0:0:0:0:
182,192,19879,1,0,0:0:0:0:
256,192,19938,1,0,0:0:0:0:
329,192,19997,1,0,0:0:0:0:
402,192,19997,1,0,0:0:0:0:
36,192,19997,1,0,0:0:0:0:
182,192,20116,1,0,0:0:0:0:
329,192,20235,1,0,0:0:0:0:
475,192,20235,1,0,0:0:0:0:
109,192,20235,1,0,0:0:0:0:
182,192,20354,1,0,0:0:0:0:
256,192,20413,1,0,0:0:0:0:
36,192,20472,1,0,0:0:0:0:
402,192,20472,1,0,0:0:0:0:
329,192,20472,1,0,0:0:0:0:
182,192,20591,1,0,0:0:0:0:
475,192,20710,1,0,0:0:0:0:
329,192,20710,1,0,0:0:0:0:
109,192,20710,1,0,0:0:0:0:
182,192,20828,1,0,0:0:0:0:
256,192,20888,1,0,0:0:0:0:
402,192,20947,1,0,0:0:0:0:
36,192,20947,1,0,0:0:0:0:
329,192,20947,1,0,0:0:0:0:
182,192,21066,1,0,0:0:0:0:
109,192,21185,1,0,0:0:0:0:
475,192,21185,1,0,0:0:0:0:
329,192,21185,1,0,0:0:0:0:
36,192,21185,1,0,0:0:0:0:
182,192,21303,1,0,0:0:0:0:
256,192,21363,1,0,0:0:0:0:
36,192,21422,1,0,0:0:0:0:
402,192,21422,1,0,0:0:0:0:
329,192,21422,1,0,0:0:0:0:
182,192,21541,1,0,0:0:0:0:
475,192,21660,1,0,0:0:0:0:
329,192,21660,1,0,0:0:0:0:
109,192,21660,1,0,0:0:0:0:
182,192,21778,1,0,0:0:0:0:
256,192,21838,1,0,0:0:0:0:
36,192,21897,1,0,0:0:0:0:
402,192,21897,1,0,0:0:0:0:
329,192,21897,1,0,0:0:0:0:
182,192,22016,1,0,0:0:0:0:
109,192,22135,1,0,0:0:0:0:
475,192,22135,1,0,0:0:0:0:
329,192,22135,1,0,0:0:0:0:
182,192,22253,1,0,0:0:0:0:
256,192,22313,1,0,0:0:0:0:
329,192,22372,1,0,0:0:0:0:
402,192,22372,1,0,0:0:0:0:
36,192,22372,1,0,0:0:0:0:
182,192,22491,1,0,0:0:0:0:
109,192,22609,1,0,0:0:0:0:
329,192,22609,1,0,0:0:0:0:
475,192,22609,1,0,0:0:0:0:
182,192,22728,1,0,0:0:0:0:
256,192,22788,1,0,0:0:0:0:
329,192,22847,1,0,0:0:0:0:
36,192,22847,1,0,0:0:0:0:
402,192,22847,1,0,0:0:0:0:
182,192,22966,1,0,0:0:0:0:
329,192,23084,1,0,0:0:0:0:
475,192,23084,1,0,0:0:0:0:
109,192,23084,1,0,0:0:0:0:
402,192,23084,1,0,0:0:0:0:
36,192,23084,1,0,0:0:0:0:
182,192,23203,1,0,0:0:0:0:
256,192,23262,1,0,0:0:0:0:
329,192,23322,1,0,0:0:0:0:
402,192,23322,1,0,0:0:0:0:
36,192,23322,1,0,0:0:0:0:
182,192,23441,1,0,0:0:0:0:
109,192,23559,1,0,0:0:0:0:
329,192,23559,1,0,0:0:0:0:
475,192,23559,1,0,0:0:0:0:
182,192,23678,1,0,0:0:0:0:
256,192,23737,1,0,0:0:0:0:
329,192,23797,1,0,0:0:0:0:
402,192,23797,1,0,0:0:0:0:
36,192,23797,1,0,0:0:0:0:
182,192,23916,1,0,0:0:0:0:
329,192,24034,1,0,0:0:0:0:
475,192,24034,1,0,0:0:0:0:
109,192,24034,1,0,0:0:0:0:
182,192,24153,1,0,0:0:0:0:
256,192,24212,1,0,0:0:0:0:
36,192,24272,1,0,0:0:0:0:
402,192,24272,1,0,0:0:0:0:
329,192,24272,1,0,0:0:0:0:
182,192,24390,1,0,0:0:0:0:
475,192,24509,1,0,0:0:0:0:
329,192,24509,1,0,0:0:0:0:
109,192,24509,1,0,0:0:0:0:
182,192,24628,1,0,0:0:0:0:
256,192,24687,1,0,0:0:0:0:
402,192,24747,1,0,0:0:0:0:
36,192,24747,1,0,0:0:0:0:
329,192,24747,1,0,0:0:0:0:
182,192,24865,1,0,0:0:0:0:
109,192,24984,1,0,0:0:0:0:
475,192,24984,1,0,0:0:0:0:
329,192,24984,1,0,0:0:0:0:
36,192,24984,1,0,0:0:0:0:
182,192,25103,1,0,0:0:0:0:
256,192,25162,1,0,0:0:0:0:
36,192,25222,1,0,0:0:0:0:
402,192,25222,1,0,0:0:0:0:
329,192,25222,1,0,0:0:0:0:
182,192,25340,1,0,0:0:0:0:
475,192,25459,1,0,0:0:0:0:
329,192,25459,1,0,0:0:0:0:
109,192,25459,1,0,0:0:0:0:
182,192,25578,1,0,0:0:0:0:
256,192,25637,1,0,0:0:0:0:
36,192,25697,1,0,0:0:0:0:
402,192,25697,1,0,0:0:0:0:
329,192,25697,1,0,0:0:0:0:
182,192,25815,1,0,0:0:0:0:
109,192,25934,1,0,0:0:0:0:
475,192,25934,1,0,0:0:0:0:
329,192,25934,1,0,0:0:0:0:
182,192,26053,1,0,0:0:0:0:
256,192,26112,1,0,0:0:0:0:
329,192,26171,1,0,0:0:0:0:
402,192,26171,1,0,0:0:0:0:
36,192,26171,1,0,0:0:0:0:
182,192,26290,1,0,0:0:0:0:
109,192,26409,1,0,0:0:0:0:
329,192,26409,1,0,0:0:0:0:
475,192,26409,1,0,0:0:0:0:
182,192,26528,1,0,0:0:0:0:
256,192,26587,1,0,0:0:0:0:
329,192,26646,1,0,0:0:0:0:
36,192,26646,1,0,0:0:0:0:
402,192,26646,1,0,0:0:0:0:
182,192,26765,1,0,0:0:0:0:
329,192,26884,1,0,0:0:0:0:
475,192,26884,1,0,0:0:0:0:
109,192,26884,1,0,0:0:0:0:
402,192,26884,1,0,0:0:0:0:
182,192,27003,1,0,0:0:0:0:
256,192,27062,1,0,0:0:0:0:
329,192,27121,1,0,0:0:0:0:
402,192,27121,1,0,0:0:0:0:
36,192,27121,1,0,0:0:0:0:
182,192,27240,1,0,0:0:0:0:
109,192,27359,1,0,0:0:0:0:
329,192,27359,1,0,0:0:0:0:
475,192,27359,1,0,0:0:0:0:
182,192,27478,1,0,0:0:0:0:
256,192,27537,1,0,0:0:0:0:
329,192,27596,1,0,0:0:0:0:
402,192,27596,1,0,0:0:0:0:
36,192,27596,1,0,0:0:0:0:
182,192,27715,1,0,0:0:0:0:
329,192,27834,1,0,0:0:0:0:
475,192,27834,1,0,0:0:0:0:
109,192,27834,1,0,0:0:0:0:
182,192,27952,1,0,0:0:0:0:
256,192,28012,1,0,0:0:0:0:
36,192,28071,1,0,0:0:0:0:
402,192,28071,1,0,0:0:0:0:
329,192,28071,1,0,0:0:0:0:
182,192,28190,1,0,0:0:0:0:
475,192,28309,1,0,0:0:0:0:
329,192,28309,1,0,0:0:0:0:
109,192,28309,1,0,0:0:0:0:
182,192,28427,1,0,0:0:0:0:
256,192,28487,1,0,0:0:0:0:
402,192,28546,1,0,0:0:0:0:
36,192,28546,1,0,0:0:0:0:
329,192,28546,1,0,0:0:0:0:
182,192,28665,1,0,0:0:0:0:
109,192,28784,1,0,0:0:0:0:
475,192,28784,1,0,0:0:0:0:
329,192,28784,1,0,0:0:0:0:
36,192,28784,1,0,0:0:0:0:
182,192,28902,1,0,0:0:0:0:
256,192,28962,1,0,0:0:0:0:
36,192,29021,1,0,0:0:0:0:
402,192,29021,1,0,0:0:0:0:
329,192,29021,1,0,0:0:0:0:
182,192,29140,1,0,0:0:0:0:
475,192,29259,1,0,0:0:0:0:
329,192,29259,1,0,0:0:0:0:
109,192,29259,1,0,0:0:0:0:
182,192,29377,1,0,0:0:0:0:
256,192,29437,1,0,0:0:0:0:
36,192,29496,1,0,0:0:0:0:
402,192,29496,1,0,0:0:0:0:
329,192,29496,1,0,0:0:0:0:
182,192,29615,1,0,0:0:0:0:
109,192,29733,1,0,0:0:0:0:
475,192,29733,1,0,0:0:0:0:
329,192,29733,1,0,0:0:0:0:
182,192,29852,1,0,0:0:0:0:
256,192,29912,1,0,0:0:0:0:
329,192,29971,1,0,0:0:0:0:
402,192,29971,1,0,0:0:0:0:
36,192,29971,1,0,0:0:0:0:
182,192,30090,1,0,0:0:0:0:
109,192,30208,1,0,0:0:0:0:
329,192,30208,1,0,0:0:0:0:
475,192,30208,1,0,0:0:0:0:
182,192,30327,1,0,0:0:0:0:
256,192,30387,1,0,0:0:0:0:
329,192,30446,1,0,0:0:0:0:
36,192,30446,1,0,0:0:0:0:
402,192,30446,1,0,0:0:0:0:
182,192,30565,1,0,0:0:0:0:
256,192,30683,1,0,0:0:0:0:
329,192,30683,1,0,0:0:0:0:
475,192,30683,1,0,0:0:0:0:
109,192,30683,1,0,0:0:0:0:
402,192,30683,1,0,0:0:0:0:
36,192,30683,1,0,0:0:0:0:
182,192,30802,1,0,0:0:0:0:
256,192,30861,1,0,0:0:0:0:
329,192,30921,1,0,0:0:0:0:
402,192,30921,1,0,0:0:0:0:
36,192,30921,1,0,0:0:0:0:
182,192,31040,1,0,0:0:0:0:
109,192,31158,1,0,0:0:0:0:
329,192,31158,1,0,0:0:0:0:
475,192,31158,1,0,0:0:0:0:
182,192,31277,1,0,0:0:0:0:
256,192,31336,1,0,0:0:0:0:
329,192,31396,1,0,0:0:0:0:
402,192,31396,1,0,0:0:0:0:
36,192,31396,1,0,0:0:0:0:
182,192,31514,1,0,0:0:0:0:
329,192,31633,1,0,0:0:0:0:
475,192,31633,1,0,0:0:0:0:
109,192,31633,1,0,0:0:0:0:
182,192,31752,1,0,0:0:0:0:
256,192,31811,1,0,0:0:0:0:
36,192,31871,1,0,0:0:0:0:
402,192,31871,1,0,0:0:0:0:
329,192,31871,1,0,0:0:0:0:
182,192,31989,1,0,0:0:0:0:
475,192,32108,1,0,0:0:0:0:
329,192,32108,1,0,0:0:0:0:
109,192,32108,1,0,0:0:0:0:
182,192,32227,1,0,0:0:0:0:
256,192,32286,1,0,0:0:0:0:
402,192,32346,1,0,0:0:0:0:
36,192,32346,1,0,0:0:0:0:
329,192,32346,1,0,0:0:0:0:
475,192,32346,1,0,0:0:0:0:
182,192,32464,1,0,0:0:0:0:
109,192,32583,1,0,0:0:0:0:
475,192,32583,1,0,0:0:0:0:
329,192,32583,1,0,0:0:0:0:
36,192,32583,1,0,0:0:0:0:
256,192,32583,1,0,0:0:0:0:
182,192,32702,1,0,0:0:0:0:
256,192,32761,1,0,0:0:0:0:
36,192,32821,1,0,0:0:0:0:
402,192,32821,1,0,0:0:0:0:
329,192,32821,1,0,0:0:0:0:
182,192,32939,1,0,0:0:0:0:
475,192,33058,1,0,0:0:0:0:
329,192,33058,1,0,0:0:0:0:
109,192,33058,1,0,0:0:0:0:
182,192,33177,1,0,0:0:0:0:
256,192,33236,1,0,0:0:0:0:
36,192,33296,1,0,0:0:0:0:
402,192,33296,1,0,0:0:0:0:
329,192,33296,1,0,0:0:0:0:
182,192,33414,1,0,0:0:0:0:
109,192,33533,1,0,0:0:0:0:
475,192,33533,1,0,0:0:0:0:
329,192,33533,1,0,0:0:0:0:
182,192,33652,1,0,0:0:0:0:
256,192,33711,1,0,0:0:0:0:
329,192,33770,1,0,0:0:0:0:
402,192,33770,1,0,0:0:0:0:
36,192,33770,1,0,0:0:0:0:
182,192,33889,1,0,0:0:0:0:
109,192,34008,1,0,0:0:0:0:
329,192,34008,1,0,0:0:0:0:
475,192,34008,1,0,0:0:0:0:
182,192,34127,1,0,0:0:0:0:
256,192,34186,1,0,0:0:0:0:
329,192,34245,1,0,0:0:0:0:
36,192,34245,1,0,0:0:0:0:
402,192,34245,1,0,0:0:0:0:
182,192,34364,1,0,0:0:0:0:
329,192,34483,1,0,0:0:0:0:
475,192,34483,1,0,0:0:0:0:
109,192,34483,1,0,0:0:0:0:
256,192,34483,1,0,0:0:0:0:
36,192,34483,1,0,0:0:0:0:
182,192,34602,1,0,0:0:0:0:
256,192,34661,1,0,0:0:0:0:
329,192,34720,1,0,0:0:0:0:
402,192,34720,1,0,0:0:0:0:
36,192,34720,1,0,0:0:0:0:
182,192,34839,1,0,0:0:0:0:
109,192,34958,1,0,0:0:0:0:
329,192,34958,1,0,0:0:0:0:
475,192,34958,1,0,0:0:0:0:
182,192,35077,1,0,0:0:0:0:
256,192,35136,1,0,0:0:0:0:
329,192,35195,1,0,0:0:0:0:
402,192,35195,1,0,0:0:0:0:
36,192,35195,1,0,0:0:0:0:
182,192,35314,1,0,0:0:0:0:
329,192,35433,1,0,0:0:0:0:
475,192,35433,1,0,0:0:0:0:
109,192,35433,1,0,0:0:0:0:
182,192,35551,1,0,0:0:0:0:
256,192,35611,1,0,0:0:0:0:
36,192,35670,1,0,0:0:0:0:
402,192,35670,1,0,0:0:0:0:
329,192,35670,1,0,0:0:0:0:
182,192,35789,1,0,0:0:0:0:
475,192,35908,1,0,0:0:0:0:
329,192,35908,1,0,0:0:0:0:
109,192,35908,1,0,0:0:0:0:
182,192,36026,1,0,0:0:0:0:
256,192,36086,1,0,0:0:0:0:
402,192,36145,1,0,0:0:0:0:
36,192,36145,1,0,0:0:0:0:
329,192,36145,1,0,0:0:0:0:
182,192,36264,1,0,0:0:0:0:
109,192,36383,1,0,0:0:0:0:
475,192,36383,1,0,0:0:0:0:
329,192,36383,1,0,0:0:0:0:
256,192,36383,1,0,0:0:0:0:
36,192,36383,1,0,0:0:0:0:
182,192,36501,1,0,0:0:0:0:
256,192,36561,1,0,0:0:0:0:
36,192,36620,1,0,0:0:0:0:
402,192,36620,1,0,0:0:0:0:
329,192,36620,1,0,0:0:0:0:
182,192,36739,1,0,0:0:0:0:
475,192,36858,1,0,0:0:0:0:
329,192,36858,1,0,0:0:0:0:
109,192,36858,1,0,0:0:0:0:
182,192,36976,1,0,0:0:0:0:
256,192,37036,1,0,0:0:0:0:
36,192,37095,1,0,0:0:0:0:
402,192,37095,1,0,0:0:0:0:
329,192,37095,1,0,0:0:0:0:
182,192,37214,1,0,0:0:0:0:
109,192,37332,1,0,0:0:0:0:
475,192,37332,1,0,0:0:0:0:
329,192,37332,1,0,0:0:0:0:
182,192,37451,1,0,0:0:0:0:
256,192,37511,1,0,0:0:0:0:
329,192,37570,1,0,0:0:0:0:
402,192,37570,1,0,0:0:0:0:
36,192,37570,1,0,0:0:0:0:
182,192,37689,1,0,0:0:0:0:
109,192,37807,1,0,0:0:0:0:
329,192,37807,1,0,0:0:0:0:
475,192,37807,1,0,0:0:0:0:
182,192,37926,1,0,0:0:0:0:
256,192,37985,1,0,0:0:0:0:
329,192,38045,1,0,0:0:0:0:
36,192,38045,1,0,0:0:0:0:
402,192,38045,1,0,0:0:0:0:
475,192,38045,1,0,0:0:0:0:
182,192,38164,1,0,0:0:0:0:
329,192,38282,1,0,0:0:0:0:
475,192,38282,1,0,0:0:0:0:
109,192,38282,1,0,0:0:0:0:
256,192,38282,1,0,0:0:0:0:
36,192,38282,1,0,0:0:0:0:
182,192,38401,1,0,0:0:0:0:
256,192,38460,1,0,0:0:0:0:
329,192,38520,1,0,0:0:0:0:
402,192,38520,1,0,0:0:0:0:
36,192,38520,1,0,0:0:0:0:
182,192,38639,1,0,0:0:0:0:
109,192,38757,1,0,0:0:0:0:
329,192,38757,1,0,0:0:0:0:
475,192,38757,1,0,0:0:0:0:
182,192,38876,1,0,0:0:0:0:
256,192,38935,1,0,0:0:0:0:
329,192,38995,1,0,0:0:0:0:
402,192,38995,1,0,0:0:0:0:
36,192,38995,1,0,0:0:0:0:
182,192,39113,1,0,0:0:0:0:
329,192,39232,1,0,0:0:0:0:
475,192,39232,1,0,0:0:0:0:
109,192,39232,1,0,0:0:0:0:
182,192,39351,1,0,0:0:0:0:
256,192,39410,1,0,0:0:0:0:
36,192,39470,1,0,0:0:0:0:
402,192,39470,1,0,0:0:0:0:
329,192,39470,1,0,0:0:0:0:
182,192,39588,1,0,0:0:0:0:
475,192,39707,1,0,0:0:0:0:
329,192,39707,1,0,0:0:0:0:
109,192,39707,1,0,0:0:0:0:
182,192,39826,1,0,0:0:0:0:
256,192,39885,1,0,0:0:0:0:
402,192,39945,1,0,0:0:0:0:
36,192,39945,1,0,0:0:0:0:
329,192,39945,1,0,0:0:0:0:
475,192,39945,1,0,0:0:0:0:
182,192,40063,1,0,0:0:0:0:
109,192,40182,1,0,0:0:0:0:
475,192,40182,1,0,0:0:0:0:
329,192,40182,1,0,0:0:0:0:
256,192,40182,1,0,0:0:0:0:
36,192,40182,1,0,0:0:0:0:
182,192,40301,1,0,0:0:0:0:
256,192,40360,1,0,0:0:0:0:
36,192,40420,1,0,0:0:0:0:
402,192,40420,1,0,0:0:0:0:
329,192,40420,1,0,0:0:0:0:
182,192,40538,1,0,0:0:0:0:
475,192,40657,1,0,0:0:0:0:
329,192,40657,1,0,0:0:0:0:
109,192,40657,1,0,0:0:0:0:
182,192,40776,1,0,0:0:0:0:
256,192,40835,1,0,0:0:0:0:
36,192,40894,1,0,0:0:0:0:
402,192,40894,1,0,0:0:0:0:
329,192,40894,1,0,0:0:0:0:
182,192,41013,1,0,0:0:0:0:
109,192,41132,1,0,0:0:0:0:
475,192,41132,1,0,0:0:0:0:
329,192,41132,1,0,0:0:0:0:
182,192,41251,1,0,0:0:0:0:
256,192,41310,1,0,0:0:0:0:
329,192,41369,1,0,0:0:0:0:
402,192,41369,1,0,0:0:0:0:
36,192,41369,1,0,0:0:0:0:
182,192,41488,1,0,0:0:0:0:
109,192,41607,1,0,0:0:0:0:
329,192,41607,1,0,0:0:0:0:
475,192,41607,1,0,0:0:0:0:
182,192,41726,1,0,0:0:0:0:
256,192,41785,1,0,0:0:0:0:
329,192,41844,1,0,0:0:0:0:
36,192,41844,1,0,0:0:0:0:
402,192,41844,1,0,0:0:0:0:
475,192,41844,1,0,0:0:0:0:
182,192,41963,1,0,0:0:0:0:
329,192,42082,1,0,0:0:0:0:
475,192,42082,1,0,0:0:0:0:
109,192,42082,1,0,0:0:0:0:
256,192,42082,1,0,0:0:0:0:
36,192,42082,1,0,0:0:0:0:
182,192,42201,1,0,0:0:0:0:
256,192,42260,1,0,0:0:0:0:
329,192,42319,1,0,0:0:0:0:
402,192,42319,1,0,0:0:0:0:
36,192,42319,1,0,0:0:0:0:
182,192,42438,1,0,0:0:0:0:
109,192,42557,1,0,0:0:0:0:
329,192,42557,1,0,0:0:0:0:
475,192,42557,1,0,0:0:0:0:
182,192,42675,1,0,0:0:0:0:
256,192,42735,1,0,0:0:0:0:
329,192,42794,1,0,0:0:0:0:
402,192,42794,1,0,0:0:0:0:
36,192,42794,1,0,0:0:0:0:
182,192,42913,1,0,0:0:0:0:
329,192,43032,1,0,0:0:0:0:
475,192,43032,1,0,0:0:0:0:
109,192,43032,1,0,0:0:0:0:
182,192,43150,1,0,0:0:0:0:
256,192,43210,1,0,0:0:0:0:
36,192,43269,1,0,0:0:0:0:
402,192,43269,1,0,0:0:0:0:
329,192,43269,1,0,0:0:0:0:
182,192,43388,1,0,0:0:0:0:
475,192,43507,1,0,0:0:0:0:
329,192,43507,1,0,0:0:0:0:
109,192,43507,1,0,0:0:0:0:
182,192,43625,1,0,0:0:0:0:
256,192,43685,1,0,0:0:0:0:
402,192,43744,1,0,0:0:0:0:
36,192,43744,1,0,0:0:0:0:
329,192,43744,1,0,0:0:0:0:
182,192,43863,1,0,0:0:0:0:
109,192,43982,1,0,0:0:0:0:
475,192,43982,1,0,0:0:0:0:
329,192,43982,1,0,0:0:0:0:
256,192,43982,1,0,0:0:0:0:
36,192,43982,1,0,0:0:0:0:
182,192,44100,1,0,0:0:0:0:
256,192,44160,1,0,0:0:0:0:
36,192,44219,1,0,0:0:0:0:
402,192,44219,1,0,0:0:0:0:
329,192,44219,1,0,0:0:0:0:
182,192,44338,1,0,0:0:0:0:
475,192,44456,1,0,0:0:0:0:
329,192,44456,1,0,0:0:0:0:
109,192,44456,1,0,0:0:0:0:
182,192,44575,1,0,0:0:0:0:
256,192,44635,1,0,0:0:0:0:
36,192,44694,1,0,0:0:0:0:
402,192,44694,1,0,0:0:0:0:
329,192,44694,1,0,0:0:0:0:
182,192,44813,1,0,0:0:0:0:
109,192,44931,1,0,0:0:0:0:
475,192,44931,1,0,0:0:0:0:
329,192,44931,1,0,0:0:0:0:
182,192,45050,1,0,0:0:0:0:
256,192,45110,1,0,0:0:0:0:
329,192,45169,1,0,0:0:0:0:
402,192,45169,1,0,0:0:0:0:
36,192,45169,1,0,0:0:0:0:
475,192,45169,1,0,0:0:0:0:
109,192,45169,1,0,0:0:0:0:
182,192,45288,1,0,0:0:0:0:
109,192,45406,1,0,0:0:0:0:
329,192,45406,1,0,0:0:0:0:
475,192,45406,1,0,0:0:0:0:
182,192,45525,1,0,0:0:0:0:
256,192,45584,1,0,0:0:0:0:
109,192,45644,1,0,0:0:0:0:
329,192,45644,1,0,0:0:0:0:
36,192,45644,1,0,0:0:0:0:
402,192,45644,1,0,0:0:0:0:
475,192,45644,1,0,0:0:0:0:
182,192,45763,1,0,0:0:0:0:
256,192,45881,1,0,0:0:0:0:
36,192,45881,1,0,0:0:0:0:
402,192,45881,1,0,0:0:0:0:
475,192,45881,1,0,0:0:0:0:
329,192,46000,1,0,0:0:0:0:
256,192,46119,1,0,0:0:0:0:
109,192,46119,1,0,0:0:0:0:
475,192,46119,1,0,0:0:0:0:
329,192,46237,1,0,0:0:0:0:
182,192,46237,1,0,0:0:0:0:
402,192,46356,1,0,0:0:0:0:
256,192,46356,1,0,0:0:0:0:
36,192,46356,1,0,0:0:0:0:
329,192,46475,1,0,0:0:0:0:
256,192,46594,1,0,0:0:0:0:
109,192,46594,1,0,0:0:0:0:
475,192,46594,1,0,0:0:0:0:
329,192,46712,1,0,0:0:0:0:
256,192,46831,1,0,0:0:0:0:
36,192,46831,1,0,0:0:0:0:
402,192,46831,1,0,0:0:0:0:
329,192,46950,1,0,0:0:0:0:
475,192,47069,1,0,0:0:0:0:
109,192,47069,1,0,0:0:0:0:
256,192,47069,1,0,0:0:0:0:
329,192,47187,1,0,0:0:0:0:
182,192,47187,1,0,0:0:0:0:
36,192,47306,1,0,0:0:0:0:
256,192,47306,1,0,0:0:0:0:
402,192,47306,1,0,0:0:0:0:
109,192,47306,128,0,47365:0:0:0:0:
329,192,47425,1,0,0:0:0:0:
109,192,47544,1,0,0:0:0:0:
475,192,47544,1,0,0:0:0:0:
256,192,47544,1,0,0:0:0:0:
182,192,47544,128,0,47603:0:0:0:0:
329,192,47662,1,0,0:0:0:0:
256,192,47781,1,0,0:0:0:0:
402,192,47781,1,0,0:0:0:0:
36,192,47781,1,0,0:0:0:0:
182,192,47900,1,0,0:0:0:0:
475,192,48018,1,0,0:0:0:0:
109,192,48018,1,0,0:0:0:0:
256,192,48018,1,0,0:0:0:0:
182,192,48137,1,0,0:0:0:0:
329,192,48137,1,0,0:0:0:0:
402,192,48256,1,0,0:0:0:0:
36,192,48256,1,0,0:0:0:0:
256,192,48256,1,0,0:0:0:0:
182,192,48375,1,0,0:0:0:0:
109,192,48493,1,0,0:0:0:0:
256,192,48493,1,0,0:0:0:0:
475,192,48493,1,0,0:0:0:0:
182,192,48612,1,0,0:0:0:0:
36,192,48731,1,0,0:0:0:0:
256,192,48731,1,0,0:0:0:0:
402,192,48731,1,0,0:0:0:0:
182,192,48850,1,0,0:0:0:0:
109,192,48968,1,0,0:0:0:0:
256,192,48968,1,0,0:0:0:0:
475,192,48968,1,0,0:0:0:0:
329,192,49087,1,0,0:0:0:0:
182,192,49087,1,0,0:0:0:0:
256,192,49206,1,0,0:0:0:0:
402,192,49206,1,0,0:0:0:0:
36,192,49206,1,0,0:0:0:0:
182,192,49325,1,0,0:0:0:0:
475,192,49443,1,0,0:0:0:0:
256,192,49443,1,0,0:0:0:0:
109,192,49443,1,0,0:0:0:0:
182,192,49562,1,0,0:0:0:0:
36,192,49681,1,0,0:0:0:0:
402,192,49681,1,0,0:0:0:0:
256,192,49681,1,0,0:0:0:0:
329,192,49800,1,0,0:0:0:0:
256,192,49918,1,0,0:0:0:0:
109,192,49918,1,0,0:0:0:0:
475,192,49918,1,0,0:0:0:0:
182,192,50037,1,0,0:0:0:0:
329,192,50037,1,0,0:0:0:0:
256,192,50156,1,0,0:0:0:0:
36,192,50156,1,0,0:0:0:0:
402,192,50156,1,0,0:0:0:0:
329,192,50274,1,0,0:0:0:0:
475,192,50393,1,0,0:0:0:0:
256,192,50393,1,0,0:0:0:0:
109,192,50393,1,0,0:0:0:0:
329,192,50512,1,0,0:0:0:0:
402,192,50631,1,0,0:0:0:0:
256,192,50631,1,0,0:0:0:0:
36,192,50631,1,0,0:0:0:0:
329,192,50749,1,0,0:0:0:0:
475,192,50868,1,0,0:0:0:0:
256,192,50868,1,0,0:0:0:0:
109,192,50868,1,0,0:0:0:0:
329,192,50987,1,0,0:0:0:0:
182,192,50987,1,0,0:0:0:0:
36,192,51106,1,0,0:0:0:0:
402,192,51106,1,0,0:0:0:0:
256,192,51106,1,0,0:0:0:0:
109,192,51106,128,0,51165:0:0:0:0:
329,192,51224,1,0,0:0:0:0:
109,192,51343,1,0,0:0:0:0:
256,192,51343,1,0,0:0:0:0:
475,192,51343,1,0,0:0:0:0:
182,192,51343,128,0,51402:0:0:0:0:
329,192,51462,1,0,0:0:0:0:
256,192,51581,1,0,0:0:0:0:
402,192,51581,1,0,0:0:0:0:
36,192,51581,1,0,0:0:0:0:
329,192,51818,1,0,0:0:0:0:
256,192,51818,1,0,0:0:0:0:
475,192,51818,1,0,0:0:0:0:
109,192,51818,1,0,0:0:0:0:
182,192,52055,1,0,0:0:0:0:
402,192,52055,1,0,0:0:0:0:
36,192,52055,1,0,0:0:0:0:
256,192,52293,1,0,0:0:0:0:
182,192,52293,1,0,0:0:0:0:
109,192,52293,1,0,0:0:0:0:
475,192,52293,1,0,0:0:0:0:
329,192,52530,1,0,0:0:0:0:
36,192,52530,1,0,0:0:0:0:
402,192,52530,1,0,0:0:0:0:
109,192,52768,1,0,0:0:0:0:
475,192,52768,1,0,0:0:0:0:
256,192,52768,1,0,0:0:0:0:
329,192,52768,1,0,0:0:0:0:
329,192,52887,1,0,0:0:0:0:
256,192,52887,1,0,0:0:0:0:
182,192,52887,1,0,0:0:0:0:
402,192,53005,1,0,0:0:0:0:
36,192,53005,1,0,0:0:0:0:
182,192,53124,1,0,0:0:0:0:
256,192,53124,1,0,0:0:0:0:
475,192,53243,1,0,0:0:0:0:
109,192,53243,1,0,0:0:0:0:
329,192,53243,1,0,0:0:0:0:
256,192,53243,1,0,0:0:0:0:
182,192,53243,1,0,0:0:0:0:
256,192,53362,1,0,0:0:0:0:
329,192,53480,1,0,0:0:0:0:
475,192,53480,1,0,0:0:0:0:
109,192,53480,1,0,0:0:0:0:
182,192,53599,1,0,0:0:0:0:
256,192,53658,1,0,0:0:0:0:
329,192,53718,1,0,0:0:0:0:
402,192,53718,1,0,0:0:0:0:
36,192,53718,1,0,0:0:0:0:
182,192,53836,1,0,0:0:0:0:
109,192,53955,1,0,0:0:0:0:
329,192,53955,1,0,0:0:0:0:
475,192,53955,1,0,0:0:0:0:
402,192,54074,1,0,0:0:0:0:
36,192,54074,1,0,0:0:0:0:
182,192,54074,1,0,0:0:0:0:
256,192,54133,1,0,0:0:0:0:
329,192,54193,1,0,0:0:0:0:
109,192,54193,1,0,0:0:0:0:
475,192,54193,1,0,0:0:0:0:
402,192,54311,1,0,0:0:0:0:
36,192,54311,1,0,0:0:0:0:
182,192,54311,1,0,0:0:0:0:
329,192,54430,1,0,0:0:0:0:
475,192,54430,1,0,0:0:0:0:
109,192,54430,1,0,0:0:0:0:
402,192,54549,1,0,0:0:0:0:
36,192,54549,1,0,0:0:0:0:
182,192,54549,1,0,0:0:0:0:
256,192,54608,1,0,0:0:0:0:
329,192,54668,1,0,0:0:0:0:
475,192,54668,1,0,0:0:0:0:
109,192,54668,1,0,0:0:0:0:
402,192,54786,1,0,0:0:0:0:
36,192,54786,1,0,0:0:0:0:
182,192,54786,1,0,0:0:0:0:
475,192,54905,1,0,0:0:0:0:
329,192,54905,1,0,0:0:0:0:
109,192,54905,1,0,0:0:0:0:
402,192,55024,1,0,0:0:0:0:
36,192,55024,1,0,0:0:0:0:
182,192,55024,1,0,0:0:0:0:
256,192,55083,1,0,0:0:0:0:
329,192,55143,1,0,0:0:0:0:
109,192,55143,1,0,0:0:0:0:
475,192,55143,1,0,0:0:0:0:
402,192,55261,1,0,0:0:0:0:
36,192,55261,1,0,0:0:0:0:
182,192,55261,1,0,0:0:0:0:
329,192,55380,1,0,0:0:0:0:
109,192,55380,1,0,0:0:0:0:
475,192,55380,1,0,0:0:0:0:
402,192,55499,1,0,0:0:0:0:
182,192,55499,1,0,0:0:0:0:
36,192,55499,1,0,0:0:0:0:
256,192,55558,1,0,0:0:0:0:
329,192,55617,1,0,0:0:0:0:
475,192,55617,1,0,0:0:0:0:
109,192,55617,1,0,0:0:0:0:
182,192,55736,1,0,0:0:0:0:
36,192,55736,1,0,0:0:0:0:
402,192,55736,1,0,0:0:0:0:
329,192,55855,1,0,0:0:0:0:
475,192,55855,1,0,0:0:0:0:
109,192,55855,1,0,0:0:0:0:
182,192,55974,1,0,0:0:0:0:
36,192,55974,1,0,0:0:0:0:
402,192,55974,1,0,0:0:0:0:
256,192,56033,1,0,0:0:0:0:
109,192,56092,1,0,0:0:0:0:
329,192,56092,1,0,0:0:0:0:
475,192,56092,1,0,0:0:0:0:
36,192,56211,1,0,0:0:0:0:
182,192,56211,1,0,0:0:0:0:
402,192,56211,1,0,0:0:0:0:
329,192,56330,1,0,0:0:0:0:
109,192,56330,1,0,0:0:0:0:
475,192,56330,1,0,0:0:0:0:
402,192,56449,1,0,0:0:0:0:
182,192,56449,1,0,0:0:0:0:
36,192,56449,1,0,0:0:0:0:
256,192,56508,1,0,0:0:0:0:
329,192,56567,1,0,0:0:0:0:
109,192,56567,1,0,0:0:0:0:
475,192,56567,1,0,0:0:0:0:
402,192,56686,1,0,0:0:0:0:
182,192,56686,1,0,0:0:0:0:
36,192,56686,1,0,0:0:0:0:
109,192,56805,1,0,0:0:0:0:
475,192,56805,1,0,0:0:0:0:
329,192,56805,1,0,0:0:0:0:
36,192,56924,1,0,0:0:0:0:
402,192,56924,1,0,0:0:0:0:
182,192,56924,1,0,0:0:0:0:
256,192,56983,1,0,0:0:0:0:
329,192,57042,1,0,0:0:0:0:
475,192,57042,1,0,0:0:0:0:
109,192,57042,1,0,0:0:0:0:
402,192,57161,1,0,0:0:0:0:
36,192,57161,1,0,0:0:0:0:
182,192,57161,1,0,0:0:0:0:
329,192,57280,1,0,0:0:0:0:
475,192,57280,1,0,0:0:0:0:
109,192,57280,1,0,0:0:0:0:
36,192,57398,1,0,0:0:0:0:
402,192,57398,1,0,0:0:0:0:
182,192,57398,1,0,0:0:0:0:
256,192,57458,1,0,0:0:0:0:
329,192,57517,1,0,0:0:0:0:
109,192,57517,1,0,0:0:0:0:
475,192,57517,1,0,0:0:0:0:
402,192,57636,1,0,0:0:0:0:
182,192,57636,1,0,0:0:0:0:
36,192,57636,1,0,0:0:0:0:
475,192,57755,1,0,0:0:0:0:
109,192,57755,1,0,0:0:0:0:
329,192,57755,1,0,0:0:0:0:
36,192,57873,1,0,0:0:0:0:
182,192,57873,1,0,0:0:0:0:
402,192,57873,1,0,0:0:0:0:
256,192,57933,1,0,0:0:0:0:
475,192,57992,1,0,0:0:0:0:
109,192,57992,1,0,0:0:0:0:
329,192,57992,1,0,0:0:0:0:
36,192,58111,1,0,0:0:0:0:
182,192,58111,1,0,0:0:0:0:
402,192,58111,1,0,0:0:0:0:
329,192,58230,1,0,0:0:0:0:
475,192,58230,1,0,0:0:0:0:
109,192,58230,1,0,0:0:0:0:
182,192,58348,1,0,0:0:0:0:
402,192,58348,1,0,0:0:0:0:
36,192,58348,1,0,0:0:0:0:
256,192,58408,1,0,0:0:0:0:
329,192,58467,1,0,0:0:0:0:
475,192,58467,1,0,0:0:0:0:
109,192,58467,1,0,0:0:0:0:
182,192,58586,1,0,0:0:0:0:
36,192,58586,1,0,0:0:0:0:
402,192,58586,1,0,0:0:0:0:
109,192,58705,1,0,0:0:0:0:
475,192,58705,1,0,0:0:0:0:
329,192,58705,1,0,0:0:0:0:
182,192,58823,1,0,0:0:0:0:
402,192,58823,1,0,0:0:0:0:
36,192,58823,1,0,0:0:0:0:
256,192,58883,1,0,0:0:0:0:
475,192,58942,1,0,0:0:0:0:
109,192,58942,1,0,0:0:0:0:
329,192,58942,1,0,0:0:0:0:
402,192,59061,1,0,0:0:0:0:
182,192,59061,1,0,0:0:0:0:
36,192,59061,1,0,0:0:0:0:
109,192,59179,1,0,0:0:0:0:
475,192,59179,1,0,0:0:0:0:
329,192,59179,1,0,0:0:0:0:
182,192,59298,1,0,0:0:0:0:
402,192,59298,1,0,0:0:0:0:
36,192,59298,1,0,0:0:0:0:
256,192,59358,1,0,0:0:0:0:
475,192,59417,1,0,0:0:0:0:
109,192,59417,1,0,0:0:0:0:
329,192,59417,1,0,0:0:0:0:
36,192,59536,1,0,0:0:0:0:
182,192,59536,1,0,0:0:0:0:
402,192,59536,1,0,0:0:0:0:
329,192,59654,1,0,0:0:0:0:
109,192,59654,1,0,0:0:0:0:
475,192,59654,1,0,0:0:0:0:
402,192,59773,1,0,0:0:0:0:
182,192,59773,1,0,0:0:0:0:
36,192,59773,1,0,0:0:0:0:
256,192,59833,1,0,0:0:0:0:
329,192,59892,1,0,0:0:0:0:
109,192,59892,1,0,0:0:0:0:
475,192,59892,1,0,0:0:0:0:
402,192,60011,1,0,0:0:0:0:
182,192,60011,1,0,0:0:0:0:
36,192,60011,1,0,0:0:0:0:
109,192,60129,1,0,0:0:0:0:
475,192,60129,1,0,0:0:0:0:
329,192,60129,1,0,0:0:0:0:
36,192,60248,1,0,0:0:0:0:
402,192,60248,1,0,0:0:0:0:
182,192,60248,1,0,0:0:0:0:
256,192,60307,1,0,0:0:0:0:
109,192,60367,1,0,0:0:0:0:
475,192,60367,1,0,0:0:0:0:
329,192,60367,1,0,0:0:0:0:
402,192,60486,1,0,0:0:0:0:
36,192,60486,1,0,0:0:0:0:
182,192,60486,1,0,0:0:0:0:
329,192,60604,1,0,0:0:0:0:
475,192,60604,1,0,0:0:0:0:
109,192,60604,1,0,0:0:0:0:
36,192,60723,1,0,0:0:0:0:
402,192,60723,1,0,0:0:0:0:
182,192,60723,1,0,0:0:0:0:
256,192,60782,1,0,0:0:0:0:
329,192,60842,1,0,0:0:0:0:
109,192,60842,1,0,0:0:0:0:
475,192,60842,1,0,0:0:0:0:
36,192,60960,1,0,0:0:0:0:
182,192,60960,1,0,0:0:0:0:
402,192,60960,1,0,0:0:0:0:
329,192,61079,1,0,0:0:0:0:
475,192,61079,1,0,0:0:0:0:
109,192,61079,1,0,0:0:0:0:
256,192,61079,1,0,0:0:0:0:
36,192,61198,1,0,0:0:0:0:
402,192,61198,1,0,0:0:0:0:
182,192,61198,1,0,0:0:0:0:
329,192,61317,1,0,0:0:0:0:
109,192,61317,1,0,0:0:0:0:
475,192,61317,1,0,0:0:0:0:
256,192,61317,1,0,0:0:0:0:
402,192,61435,1,0,0:0:0:0:
182,192,61435,1,0,0:0:0:0:
36,192,61435,1,0,0:0:0:0:
475,192,61554,1,0,0:0:0:0:
109,192,61554,1,0,0:0:0:0:
329,192,61554,1,0,0:0:0:0:
256,192,61554,1,0,0:0:0:0:
36,192,61673,1,0,0:0:0:0:
182,192,61673,1,0,0:0:0:0:
402,192,61673,1,0,0:0:0:0:
475,192,61792,1,0,0:0:0:0:
109,192,61792,1,0,0:0:0:0:
329,192,61792,1,0,0:0:0:0:
256,192,61792,1,0,0:0:0:0:
36,192,61910,1,0,0:0:0:0:
182,192,61910,1,0,0:0:0:0:
402,192,61910,1,0,0:0:0:0:
329,192,62029,1,0,0:0:0:0:
475,192,62029,1,0,0:0:0:0:
109,192,62029,1,0,0:0:0:0:
256,192,62029,1,0,0:0:0:0:
182,192,62148,1,0,0:0:0:0:
402,192,62148,1,0,0:0:0:0:
36,192,62148,1,0,0:0:0:0:
256,192,62148,1,0,0:0:0:0:
329,192,62267,1,0,0:0:0:0:
475,192,62267,1,0,0:0:0:0:
109,192,62267,1,0,0:0:0:0:
256,192,62267,1,0,0:0:0:0:
182,192,62385,1,0,0:0:0:0:
36,192,62385,1,0,0:0:0:0:
402,192,62385,1,0,0:0:0:0:
256,192,62385,1,0,0:0:0:0:
109,192,62504,1,0,0:0:0:0:
475,192,62504,1,0,0:0:0:0:
329,192,62504,1,0,0:0:0:0:
256,192,62504,1,0,0:0:0:0:
182,192,62623,1,0,0:0:0:0:
402,192,62623,1,0,0:0:0:0:
36,192,62623,1,0,0:0:0:0:
256,192,62623,1,0,0:0:0:0:
475,192,62741,1,0,0:0:0:0:
109,192,62741,1,0,0:0:0:0:
329,192,62741,1,0,0:0:0:0:
256,192,62741,1,0,0:0:0:0:
402,192,62860,1,0,0:0:0:0:
182,192,62860,1,0,0:0:0:0:
36,192,62860,1,0,0:0:0:0:
256,192,62860,1,0,0:0:0:0:
256,192,62979,1,0,0:0:0:0:
475,192,62979,1,0,0:0:0:0:
182,192,63454,1,0,0:0:0:0:
329,192,63929,1,0,0:0:0:0:
109,192,64285,1,0,0:0:0:0:
402,192,64641,1,0,0:0:0:0:
36,192,64879,1,0,0:0:0:0:
256,192,64879,1,0,0:0:0:0:
329,192,65354,1,0,0:0:0:0:
182,192,65829,1,0,0:0:0:0:
402,192,66185,1,0,0:0:0:0:
109,192,66541,1,0,0:0:0:0:
256,192,66778,1,0,0:0:0:0:
475,192,66778,1,0,0:0:0:0:
182,192,67253,1,0,0:0:0:0:
329,192,67728,1,0,0:0:0:0:
109,192,68085,1,0,0:0:0:0:
402,192,68441,1,0,0:0:0:0:
36,192,68678,1,0,0:0:0:0:
256,192,68678,1,0,0:0:0:0:
475,192,68678,1,0,0:0:0:0:
475,192,68916,1,0,0:0:0:0:
329,192,69153,1,0,0:0:0:0:
475,192,69153,1,0,0:0:0:0:
475,192,69391,1,0,0:0:0:0:
182,192,69628,1,0,0:0:0:0:
475,192,69628,1,0,0:0:0:0:
475,192,69866,1,0,0:0:0:0:
402,192,69984,1,0,0:0:0:0:
475,192,69984,1,0,0:0:0:0:
475,192,70222,1,0,0:0:0:0:
109,192,70340,1,0,0:0:0:0:
475,192,70340,1,0,0:0:0:0:
475,192,70459,1,0,0:0:0:0:
256,192,70578,1,0,0:0:0:0:
329,192,70578,1,0,0:0:0:0:
475,192,70578,1,0,0:0:0:0:
109,192,70578,1,0,0:0:0:0:
182,192,70697,1,0,0:0:0:0:
256,192,70756,1,0,0:0:0:0:
329,192,70815,1,0,0:0:0:0:
402,192,70815,1,0,0:0:0:0:
36,192,70815,1,0,0:0:0:0:
182,192,70934,1,0,0:0:0:0:
109,192,71053,1,0,0:0:0:0:
329,192,71053,1,0,0:0:0:0:
475,192,71053,1,0,0:0:0:0:
182,192,71172,1,0,0:0:0:0:
256,192,71231,1,0,0:0:0:0:
329,192,71290,1,0,0:0:0:0:
402,192,71290,1,0,0:0:0:0:
36,192,71290,1,0,0:0:0:0:
182,192,71409,1,0,0:0:0:0:
329,192,71528,1,0,0:0:0:0:
475,192,71528,1,0,0:0:0:0:
109,192,71528,1,0,0:0:0:0:
182,192,71647,1,0,0:0:0:0:
256,192,71706,1,0,0:0:0:0:
36,192,71765,1,0,0:0:0:0:
402,192,71765,1,0,0:0:0:0:
329,192,71765,1,0,0:0:0:0:
182,192,71884,1,0,0:0:0:0:
475,192,72003,1,0,0:0:0:0:
329,192,72003,1,0,0:0:0:0:
109,192,72003,1,0,0:0:0:0:
182,192,72121,1,0,0:0:0:0:
256,192,72181,1,0,0:0:0:0:
402,192,72240,1,0,0:0:0:0:
36,192,72240,1,0,0:0:0:0:
329,192,72240,1,0,0:0:0:0:
182,192,72359,1,0,0:0:0:0:
109,192,72478,1,0,0:0:0:0:
475,192,72478,1,0,0:0:0:0:
329,192,72478,1,0,0:0:0:0:
36,192,72478,1,0,0:0:0:0:
182,192,72596,1,0,0:0:0:0:
256,192,72656,1,0,0:0:0:0:
36,192,72715,1,0,0:0:0:0:
402,192,72715,1,0,0:0:0:0:
329,192,72715,1,0,0:0:0:0:
182,192,72834,1,0,0:0:0:0:
475,192,72953,1,0,0:0:0:0:
329,192,72953,1,0,0:0:0:0:
109,192,72953,1,0,0:0:0:0:
182,192,73071,1,0,0:0:0:0:
256,192,73131,1,0,0:0:0:0:
36,192,73190,1,0,0:0:0:0:
402,192,73190,1,0,0:0:0:0:
329,192,73190,1,0,0:0:0:0:
182,192,73309,1,0,0:0:0:0:
109,192,73428,1,0,0:0:0:0:
475,192,73428,1,0,0:0:0:0:
329,192,73428,1,0,0:0:0:0:
182,192,73546,1,0,0:0:0:0:
256,192,73606,1,0,0:0:0:0:
329,192,73665,1,0,0:0:0:0:
402,192,73665,1,0,0:0:0:0:
36,192,73665,1,0,0:0:0:0:
182,192,73784,1,0,0:0:0:0:
109,192,73902,1,0,0:0:0:0:
329,192,73902,1,0,0:0:0:0:
475,192,73902,1,0,0:0:0:0:
182,192,74021,1,0,0:0:0:0:
256,192,74081,1,0,0:0:0:0:
329,192,74140,1,0,0:0:0:0:
36,192,74140,1,0,0:0:0:0:
402,192,74140,1,0,0:0:0:0:
182,192,74259,1,0,0:0:0:0:
329,192,74377,1,0,0:0:0:0:
475,192,74377,1,0,0:0:0:0:
109,192,74377,1,0,0:0:0:0:
402,192,74377,1,0,0:0:0:0:
182,192,74496,1,0,0:0:0:0:
256,192,74556,1,0,0:0:0:0:
329,192,74615,1,0,0:0:0:0:
402,192,74615,1,0,0:0:0:0:
36,192,74615,1,0,0:0:0:0:
182,192,74734,1,0,0:0:0:0:
109,192,74852,1,0,0:0:0:0:
329,192,74852,1,0,0:0:0:0:
475,192,74852,1,0,0:0:0:0:
182,192,74971,1,0,0:0:0:0:
256,192,75030,1,0,0:0:0:0:
329,192,75090,1,0,0:0:0:0:
402,192,75090,1,0,0:0:0:0:
36,192,75090,1,0,0:0:0:0:
182,192,75209,1,0,0:0:0:0:
329,192,75327,1,0,0:0:0:0:
475,192,75327,1,0,0:0:0:0:
109,192,75327,1,0,0:0:0:0:
182,192,75446,1,0,0:0:0:0:
256,192,75505,1,0,0:0:0:0:
36,192,75565,1,0,0:0:0:0:
402,192,75565,1,0,0:0:0:0:
329,192,75565,1,0,0:0:0:0:
182,192,75683,1,0,0:0:0:0:
475,192,75802,1,0,0:0:0:0:
329,192,75802,1,0,0:0:0:0:
109,192,75802,1,0,0:0:0:0:
182,192,75921,1,0,0:0:0:0:
256,192,75980,1,0,0:0:0:0:
402,192,76040,1,0,0:0:0:0:
36,192,76040,1,0,0:0:0:0:
329,192,76040,1,0,0:0:0:0:
182,192,76158,1,0,0:0:0:0:
109,192,76277,1,0,0:0:0:0:
475,192,76277,1,0,0:0:0:0:
329,192,76277,1,0,0:0:0:0:
36,192,76277,1,0,0:0:0:0:
182,192,76396,1,0,0:0:0:0:
256,192,76455,1,0,0:0:0:0:
36,192,76515,1,0,0:0:0:0:
402,192,76515,1,0,0:0:0:0:
329,192,76515,1,0,0:0:0:0:
182,192,76633,1,0,0:0:0:0:
475,192,76752,1,0,0:0:0:0:
329,192,76752,1,0,0:0:0:0:
109,192,76752,1,0,0:0:0:0:
182,192,76871,1,0,0:0:0:0:
256,192,76930,1,0,0:0:0:0:
36,192,76990,1,0,0:0:0:0:
402,192,76990,1,0,0:0:0:0:
329,192,76990,1,0,0:0:0:0:
182,192,77108,1,0,0:0:0:0:
109,192,77227,1,0,0:0:0:0:
475,192,77227,1,0,0:0:0:0:
329,192,77227,1,0,0:0:0:0:
182,192,77346,1,0,0:0:0:0:
256,192,77405,1,0,0:0:0:0:
329,192,77464,1,0,0:0:0:0:
402,192,77464,1,0,0:0:0:0:
36,192,77464,1,0,0:0:0:0:
182,192,77583,1,0,0:0:0:0:
109,192,77702,1,0,0:0:0:0:
329,192,77702,1,0,0:0:0:0:
475,192,77702,1,0,0:0:0:0:
182,192,77821,1,0,0:0:0:0:
256,192,77880,1,0,0:0:0:0:
329,192,77939,1,0,0:0:0:0:
36,192,77939,1,0,0:0:0:0:
402,192,77939,1,0,0:0:0:0:
182,192,78058,1,0,0:0:0:0:
329,192,78177,1,0,0:0:0:0:
475,192,78177,1,0,0:0:0:0:
109,192,78177,1,0,0:0:0:0:
402,192,78177,1,0,0:0:0:0:
36,192,78177,1,0,0:0:0:0:
182,192,78296,1,0,0:0:0:0:
256,192,78355,1,0,0:0:0:0:
329,192,78414,1,0,0:0:0:0:
402,192,78414,1,0,0:0:0:0:
36,192,78414,1,0,0:0:0:0:
182,192,78533,1,0,0:0:0:0:
109,192,78652,1,0,0:0:0:0:
329,192,78652,1,0,0:0:0:0:
475,192,78652,1,0,0:0:0:0:
182,192,78771,1,0,0:0:0:0:
256,192,78830,1,0,0:0:0:0:
329,192,78889,1,0,0:0:0:0:
402,192,78889,1,0,0:0:0:0:
36,192,78889,1,0,0:0:0:0:
182,192,79008,1,0,0:0:0:0:
329,192,79127,1,0,0:0:0:0:
475,192,79127,1,0,0:0:0:0:
109,192,79127,1,0,0:0:0:0:
182,192,79245,1,0,0:0:0:0:
256,192,79305,1,0,0:0:0:0:
36,192,79364,1,0,0:0:0:0:
402,192,79364,1,0,0:0:0:0:
329,192,79364,1,0,0:0:0:0:
182,192,79483,1,0,0:0:0:0:
475,192,79602,1,0,0:0:0:0:
329,192,79602,1,0,0:0:0:0:
109,192,79602,1,0,0:0:0:0:
182,192,79720,1,0,0:0:0:0:
256,192,79780,1,0,0:0:0:0:
402,192,79839,1,0,0:0:0:0:
36,192,79839,1,0,0:0:0:0:
329,192,79839,1,0,0:0:0:0:
182,192,79958,1,0,0:0:0:0:
109,192,80077,1,0,0:0:0:0:
475,192,80077,1,0,0:0:0:0:
329,192,80077,1,0,0:0:0:0:
36,192,80077,1,0,0:0:0:0:
182,192,80195,1,0,0:0:0:0:
256,192,80255,1,0,0:0:0:0:
36,192,80314,1,0,0:0:0:0:
402,192,80314,1,0,0:0:0:0:
329,192,80314,1,0,0:0:0:0:
182,192,80433,1,0,0:0:0:0:
475,192,80552,1,0,0:0:0:0:
329,192,80552,1,0,0:0:0:0:
109,192,80552,1,0,0:0:0:0:
182,192,80670,1,0,0:0:0:0:
256,192,80730,1,0,0:0:0:0:
36,192,80789,1,0,0:0:0:0:
402,192,80789,1,0,0:0:0:0:
329,192,80789,1,0,0:0:0:0:
182,192,80908,1,0,0:0:0:0:
109,192,81026,1,0,0:0:0:0:
475,192,81026,1,0,0:0:0:0:
329,192,81026,1,0,0:0:0:0:
182,192,81145,1,0,0:0:0:0:
256,192,81205,1,0,0:0:0:0:
329,192,81264,1,0,0:0:0:0:
402,192,81264,1,0,0:0:0:0:
36,192,81264,1,0,0:0:0:0:
182,192,81383,1,0,0:0:0:0:
109,192,81501,1,0,0:0:0:0:
329,192,81501,1,0,0:0:0:0:
475,192,81501,1,0,0:0:0:0:
182,192,81620,1,0,0:0:0:0:
256,192,81680,1,0,0:0:0:0:
329,192,81739,1,0,0:0:0:0:
36,192,81739,1,0,0:0:0:0:
402,192,81739,1,0,0:0:0:0:
182,192,81858,1,0,0:0:0:0:
329,192,81976,1,0,0:0:0:0:
475,192,81976,1,0,0:0:0:0:
109,192,81976,1,0,0:0:0:0:
402,192,81976,1,0,0:0:0:0:
182,192,82095,1,0,0:0:0:0:
256,192,82154,1,0,0:0:0:0:
329,192,82214,1,0,0:0:0:0:
402,192,82214,1,0,0:0:0:0:
36,192,82214,1,0,0:0:0:0:
182,192,82333,1,0,0:0:0:0:
109,192,82451,1,0,0:0:0:0:
329,192,82451,1,0,0:0:0:0:
475,192,82451,1,0,0:0:0:0:
182,192,82570,1,0,0:0:0:0:
256,192,82629,1,0,0:0:0:0:
329,192,82689,1,0,0:0:0:0:
402,192,82689,1,0,0:0:0:0:
36,192,82689,1,0,0:0:0:0:
182,192,82808,1,0,0:0:0:0:
329,192,82926,1,0,0:0:0:0:
475,192,82926,1,0,0:0:0:0:
109,192,82926,1,0,0:0:0:0:
182,192,83045,1,0,0:0:0:0:
256,192,83104,1,0,0:0:0:0:
36,192,83164,1,0,0:0:0:0:
402,192,83164,1,0,0:0:0:0:
329,192,83164,1,0,0:0:0:0:
182,192,83282,1,0,0:0:0:0:
475,192,83401,1,0,0:0:0:0:
329,192,83401,1,0,0:0:0:0:
109,192,83401,1,0,0:0:0:0:
182,192,83520,1,0,0:0:0:0:
256,192,83579,1,0,0:0:0:0:
402,192,83639,1,0,0:0:0:0:
36,192,83639,1,0,0:0:0:0:
329,192,83639,1,0,0:0:0:0:
182,192,83757,1,0,0:0:0:0:
109,192,83876,1,0,0:0:0:0:
475,192,83876,1,0,0:0:0:0:
329,192,83876,1,0,0:0:0:0:
36,192,83876,1,0,0:0:0:0:
182,192,83995,1,0,0:0:0:0:
256,192,84054,1,0,0:0:0:0:
36,192,84114,1,0,0:0:0:0:
402,192,84114,1,0,0:0:0:0:
329,192,84114,1,0,0:0:0:0:
182,192,84232,1,0,0:0:0:0:
475,192,84351,1,0,0:0:0:0:
329,192,84351,1,0,0:0:0:0:
109,192,84351,1,0,0:0:0:0:
182,192,84470,1,0,0:0:0:0:
256,192,84529,1,0,0:0:0:0:
36,192,84589,1,0,0:0:0:0:
402,192,84589,1,0,0:0:0:0:
329,192,84589,1,0,0:0:0:0:
182,192,84707,1,0,0:0:0:0:
109,192,84826,1,0,0:0:0:0:
475,192,84826,1,0,0:0:0:0:
329,192,84826,1,0,0:0:0:0:
182,192,84945,1,0,0:0:0:0:
256,192,85004,1,0,0:0:0:0:
329,192,85063,1,0,0:0:0:0:
402,192,85063,1,0,0:0:0:0:
36,192,85063,1,0,0:0:0:0:
182,192,85182,1,0,0:0:0:0:
109,192,85301,1,0,0:0:0:0:
329,192,85301,1,0,0:0:0:0:
475,192,85301,1,0,0:0:0:0:
182,192,85420,1,0,0:0:0:0:
256,192,85479,1,0,0:0:0:0:
329,192,85538,1,0,0:0:0:0:
36,192,85538,1,0,0:0:0:0:
402,192,85538,1,0,0:0:0:0:
182,192,85657,1,0,0:0:0:0:
329,192,85776,1,0,0:0:0:0:
475,192,85776,1,0,0:0:0:0:
109,192,85776,1,0,0:0:0:0:
402,192,85776,1,0,0:0:0:0:
36,192,85776,1,0,0:0:0:0:
182,192,85895,1,0,0:0:0:0:
256,192,85954,1,0,0:0:0:0:
329,192,86013,1,0,0:0:0:0:
402,192,86013,1,0,0:0:0:0:
36,192,86013,1,0,0:0:0:0:
182,192,86132,1,0,0:0:0:0:
109,192,86251,1,0,0:0:0:0:
329,192,86251,1,0,0:0:0:0:
475,192,86251,1,0,0:0:0:0:
182,192,86370,1,0,0:0:0:0:
256,192,86429,1,0,0:0:0:0:
329,192,86488,1,0,0:0:0:0:
402,192,86488,1,0,0:0:0:0:
36,192,86488,1,0,0:0:0:0:
182,192,86607,1,0,0:0:0:0:
329,192,86726,1,0,0:0:0:0:
475,192,86726,1,0,0:0:0:0:
109,192,86726,1,0,0:0:0:0:
182,192,86844,1,0,0:0:0:0:
256,192,86904,1,0,0:0:0:0:
36,192,86963,1,0,0:0:0:0:
402,192,86963,1,0,0:0:0:0:
329,192,86963,1,0,0:0:0:0:
182,192,87082,1,0,0:0:0:0:
475,192,87201,1,0,0:0:0:0:
329,192,87201,1,0,0:0:0:0:
109,192,87201,1,0,0:0:0:0:
182,192,87319,1,0,0:0:0:0:
256,192,87379,1,0,0:0:0:0:
402,192,87438,1,0,0:0:0:0:
36,192,87438,1,0,0:0:0:0:
329,192,87438,1,0,0:0:0:0:
109,192,87438,1,0,0:0:0:0:
475,192,87438,1,0,0:0:0:0:
182,192,87557,1,0,0:0:0:0:
109,192,87676,1,0,0:0:0:0:
475,192,87676,1,0,0:0:0:0:
329,192,87676,1,0,0:0:0:0:
36,192,87676,1,0,0:0:0:0:
182,192,87794,1,0,0:0:0:0:
256,192,87854,1,0,0:0:0:0:
36,192,87913,1,0,0:0:0:0:
402,192,87913,1,0,0:0:0:0:
329,192,87913,1,0,0:0:0:0:
182,192,88032,1,0,0:0:0:0:
475,192,88151,1,0,0:0:0:0:
329,192,88151,1,0,0:0:0:0:
109,192,88151,1,0,0:0:0:0:
182,192,88269,1,0,0:0:0:0:
256,192,88329,1,0,0:0:0:0:
36,192,88388,1,0,0:0:0:0:
402,192,88388,1,0,0:0:0:0:
329,192,88388,1,0,0:0:0:0:
182,192,88507,1,0,0:0:0:0:
109,192,88625,1,0,0:0:0:0:
475,192,88625,1,0,0:0:0:0:
329,192,88625,1,0,0:0:0:0:
182,192,88744,1,0,0:0:0:0:
256,192,88804,1,0,0:0:0:0:
329,192,88863,1,0,0:0:0:0:
402,192,88863,1,0,0:0:0:0:
36,192,88863,1,0,0:0:0:0:
182,192,88982,1,0,0:0:0:0:
109,192,89100,1,0,0:0:0:0:
329,192,89100,1,0,0:0:0:0:
475,192,89100,1,0,0:0:0:0:
182,192,89219,1,0,0:0:0:0:
256,192,89278,1,0,0:0:0:0:
329,192,89338,1,0,0:0:0:0:
36,192,89338,1,0,0:0:0:0:
402,192,89338,1,0,0:0:0:0:
475,192,89338,1,0,0:0:0:0:
109,192,89338,1,0,0:0:0:0:
182,192,89457,1,0,0:0:0:0:
329,192,89575,1,0,0:0:0:0:
475,192,89575,1,0,0:0:0:0:
109,192,89575,1,0,0:0:0:0:
36,192,89575,1,0,0:0:0:0:
182,192,89694,1,0,0:0:0:0:
256,192,89753,1,0,0:0:0:0:
329,192,89813,1,0,0:0:0:0:
402,192,89813,1,0,0:0:0:0:
36,192,89813,1,0,0:0:0:0:
182,192,89932,1,0,0:0:0:0:
109,192,90050,1,0,0:0:0:0:
329,192,90050,1,0,0:0:0:0:
475,192,90050,1,0,0:0:0:0:
182,192,90169,1,0,0:0:0:0:
256,192,90228,1,0,0:0:0:0:
329,192,90288,1,0,0:0:0:0:
402,192,90288,1,0,0:0:0:0:
36,192,90288,1,0,0:0:0:0:
182,192,90406,1,0,0:0:0:0:
329,192,90525,1,0,0:0:0:0:
475,192,90525,1,0,0:0:0:0:
109,192,90525,1,0,0:0:0:0:
182,192,90644,1,0,0:0:0:0:
256,192,90703,1,0,0:0:0:0:
36,192,90763,1,0,0:0:0:0:
402,192,90763,1,0,0:0:0:0:
329,192,90763,1,0,0:0:0:0:
182,192,90881,1,0,0:0:0:0:
475,192,91000,1,0,0:0:0:0:
329,192,91000,1,0,0:0:0:0:
109,192,91000,1,0,0:0:0:0:
182,192,91119,1,0,0:0:0:0:
256,192,91178,1,0,0:0:0:0:
402,192,91238,1,0,0:0:0:0:
36,192,91238,1,0,0:0:0:0:
329,192,91238,1,0,0:0:0:0:
182,192,91356,1,0,0:0:0:0:
109,192,91475,1,0,0:0:0:0:
475,192,91475,1,0,0:0:0:0:
329,192,91475,1,0,0:0:0:0:
256,192,91475,1,0,0:0:0:0:
36,192,91475,1,0,0:0:0:0:
182,192,91594,1,0,0:0:0:0:
256,192,91653,1,0,0:0:0:0:
36,192,91713,1,0,0:0:0:0:
402,192,91713,1,0,0:0:0:0:
329,192,91713,1,0,0:0:0:0:
182,192,91831,1,0,0:0:0:0:
475,192,91950,1,0,0:0:0:0:
329,192,91950,1,0,0:0:0:0:
109,192,91950,1,0,0:0:0:0:
182,192,92069,1,0,0:0:0:0:
256,192,92128,1,0,0:0:0:0:
36,192,92187,1,0,0:0:0:0:
402,192,92187,1,0,0:0:0:0:
329,192,92187,1,0,0:0:0:0:
182,192,92306,1,0,0:0:0:0:
109,192,92425,1,0,0:0:0:0:
475,192,92425,1,0,0:0:0:0:
329,192,92425,1,0,0:0:0:0:
182,192,92544,1,0,0:0:0:0:
256,192,92603,1,0,0:0:0:0:
329,192,92662,1,0,0:0:0:0:
402,192,92662,1,0,0:0:0:0:
36,192,92662,1,0,0:0:0:0:
182,192,92781,1,0,0:0:0:0:
475,192,92781,1,0,0:0:0:0:
109,192,92900,1,0,0:0:0:0:
329,192,92900,1,0,0:0:0:0:
402,192,92900,1,0,0:0:0:0:
182,192,93019,1,0,0:0:0:0:
475,192,93019,1,0,0:0:0:0:
256,192,93078,1,0,0:0:0:0:
329,192,93137,1,0,0:0:0:0:
36,192,93137,1,0,0:0:0:0:
402,192,93137,1,0,0:0:0:0:
182,192,93256,1,0,0:0:0:0:
329,192,93375,1,0,0:0:0:0:
475,192,93375,1,0,0:0:0:0:
109,192,93375,1,0,0:0:0:0:
256,192,93375,1,0,0:0:0:0:
36,192,93375,1,0,0:0:0:0:
402,192,93375,1,0,0:0:0:0:
182,192,93494,1,0,0:0:0:0:
256,192,93553,1,0,0:0:0:0:
329,192,93612,1,0,0:0:0:0:
402,192,93612,1,0,0:0:0:0:
36,192,93612,1,0,0:0:0:0:
182,192,93731,1,0,0:0:0:0:
109,192,93850,1,0,0:0:0:0:
329,192,93850,1,0,0:0:0:0:
475,192,93850,1,0,0:0:0:0:
182,192,93968,1,0,0:0:0:0:
256,192,94028,1,0,0:0:0:0:
329,192,94087,1,0,0:0:0:0:
402,192,94087,1,0,0:0:0:0:
36,192,94087,1,0,0:0:0:0:
182,192,94206,1,0,0:0:0:0:
329,192,94325,1,0,0:0:0:0:
475,192,94325,1,0,0:0:0:0:
109,192,94325,1,0,0:0:0:0:
182,192,94443,1,0,0:0:0:0:
256,192,94503,1,0,0:0:0:0:
36,192,94562,1,0,0:0:0:0:
402,192,94562,1,0,0:0:0:0:
329,192,94562,1,0,0:0:0:0:
182,192,94681,1,0,0:0:0:0:
475,192,94800,1,0,0:0:0:0:
329,192,94800,1,0,0:0:0:0:
109,192,94800,1,0,0:0:0:0:
182,192,94918,1,0,0:0:0:0:
256,192,94978,1,0,0:0:0:0:
402,192,95037,1,0,0:0:0:0:
36,192,95037,1,0,0:0:0:0:
329,192,95037,1,0,0:0:0:0:
109,192,95037,1,0,0:0:0:0:
475,192,95037,1,0,0:0:0:0:
182,192,95156,1,0,0:0:0:0:
109,192,95275,1,0,0:0:0:0:
475,192,95275,1,0,0:0:0:0:
329,192,95275,1,0,0:0:0:0:
36,192,95275,1,0,0:0:0:0:
182,192,95393,1,0,0:0:0:0:
256,192,95453,1,0,0:0:0:0:
36,192,95512,1,0,0:0:0:0:
402,192,95512,1,0,0:0:0:0:
329,192,95512,1,0,0:0:0:0:
182,192,95631,1,0,0:0:0:0:
475,192,95749,1,0,0:0:0:0:
329,192,95749,1,0,0:0:0:0:
109,192,95749,1,0,0:0:0:0:
182,192,95868,1,0,0:0:0:0:
256,192,95928,1,0,0:0:0:0:
36,192,95987,1,0,0:0:0:0:
402,192,95987,1,0,0:0:0:0:
329,192,95987,1,0,0:0:0:0:
182,192,96106,1,0,0:0:0:0:
109,192,96224,1,0,0:0:0:0:
475,192,96224,1,0,0:0:0:0:
329,192,96224,1,0,0:0:0:0:
182,192,96343,1,0,0:0:0:0:
256,192,96403,1,0,0:0:0:0:
329,192,96462,1,0,0:0:0:0:
402,192,96462,1,0,0:0:0:0:
36,192,96462,1,0,0:0:0:0:
182,192,96581,1,0,0:0:0:0:
109,192,96699,1,0,0:0:0:0:
329,192,96699,1,0,0:0:0:0:
475,192,96699,1,0,0:0:0:0:
182,192,96818,1,0,0:0:0:0:
256,192,96877,1,0,0:0:0:0:
329,192,96937,1,0,0:0:0:0:
36,192,96937,1,0,0:0:0:0:
402,192,96937,1,0,0:0:0:0:
182,192,97056,1,0,0:0:0:0:
329,192,97174,1,0,0:0:0:0:
475,192,97174,1,0,0:0:0:0:
109,192,97174,1,0,0:0:0:0:
36,192,97174,1,0,0:0:0:0:
182,192,97293,1,0,0:0:0:0:
256,192,97352,1,0,0:0:0:0:
329,192,97412,1,0,0:0:0:0:
402,192,97412,1,0,0:0:0:0:
36,192,97412,1,0,0:0:0:0:
182,192,97531,1,0,0:0:0:0:
109,192,97649,1,0,0:0:0:0:
329,192,97649,1,0,0:0:0:0:
475,192,97649,1,0,0:0:0:0:
182,192,97768,1,0,0:0:0:0:
256,192,97827,1,0,0:0:0:0:
329,192,97887,1,0,0:0:0:0:
402,192,97887,1,0,0:0:0:0:
36,192,97887,1,0,0:0:0:0:
182,192,98005,1,0,0:0:0:0:
329,192,98124,1,0,0:0:0:0:
475,192,98124,1,0,0:0:0:0:
109,192,98124,1,0,0:0:0:0:
182,192,98243,1,0,0:0:0:0:
256,192,98302,1,0,0:0:0:0:
36,192,98362,1,0,0:0:0:0:
402,192,98362,1,0,0:0:0:0:
329,192,98362,1,0,0:0:0:0:
182,192,98480,1,0,0:0:0:0:
475,192,98599,1,0,0:0:0:0:
329,192,98599,1,0,0:0:0:0:
109,192,98599,1,0,0:0:0:0:
182,192,98718,1,0,0:0:0:0:
256,192,98777,1,0,0:0:0:0:
402,192,98837,1,0,0:0:0:0:
36,192,98837,1,0,0:0:0:0:
329,192,98837,1,0,0:0:0:0:
182,192,98955,1,0,0:0:0:0:
109,192,99074,1,0,0:0:0:0:
475,192,99074,1,0,0:0:0:0:
329,192,99074,1,0,0:0:0:0:
402,192,99074,1,0,0:0:0:0:
182,192,99193,1,0,0:0:0:0:
256,192,99252,1,0,0:0:0:0:
36,192,99312,1,0,0:0:0:0:
402,192,99312,1,0,0:0:0:0:
329,192,99312,1,0,0:0:0:0:
182,192,99430,1,0,0:0:0:0:
475,192,99549,1,0,0:0:0:0:
329,192,99549,1,0,0:0:0:0:
109,192,99549,1,0,0:0:0:0:
182,192,99668,1,0,0:0:0:0:
256,192,99727,1,0,0:0:0:0:
36,192,99786,1,0,0:0:0:0:
402,192,99786,1,0,0:0:0:0:
329,192,99786,1,0,0:0:0:0:
182,192,99905,1,0,0:0:0:0:
109,192,100024,1,0,0:0:0:0:
475,192,100024,1,0,0:0:0:0:
329,192,100024,1,0,0:0:0:0:
182,192,100143,1,0,0:0:0:0:
256,192,100202,1,0,0:0:0:0:
329,192,100261,1,0,0:0:0:0:
402,192,100261,1,0,0:0:0:0:
36,192,100261,1,0,0:0:0:0:
475,192,100261,1,0,0:0:0:0:
182,192,100380,1,0,0:0:0:0:
109,192,100499,1,0,0:0:0:0:
329,192,100499,1,0,0:0:0:0:
475,192,100499,1,0,0:0:0:0:
182,192,100618,1,0,0:0:0:0:
256,192,100677,1,0,0:0:0:0:
329,192,100736,1,0,0:0:0:0:
36,192,100736,1,0,0:0:0:0:
402,192,100736,1,0,0:0:0:0:
475,192,100736,1,0,0:0:0:0:
182,192,100855,1,0,0:0:0:0:
256,192,100974,1,0,0:0:0:0:
36,192,100974,1,0,0:0:0:0:
402,192,100974,1,0,0:0:0:0:
329,192,101093,1,0,0:0:0:0:
256,192,101211,1,0,0:0:0:0:
109,192,101211,1,0,0:0:0:0:
475,192,101211,1,0,0:0:0:0:
329,192,101330,1,0,0:0:0:0:
182,192,101330,1,0,0:0:0:0:
402,192,101449,1,0,0:0:0:0:
256,192,101449,1,0,0:0:0:0:
36,192,101449,1,0,0:0:0:0:
329,192,101567,1,0,0:0:0:0:
256,192,101686,1,0,0:0:0:0:
109,192,101686,1,0,0:0:0:0:
475,192,101686,1,0,0:0:0:0:
329,192,101805,1,0,0:0:0:0:
256,192,101924,1,0,0:0:0:0:
36,192,101924,1,0,0:0:0:0:
402,192,101924,1,0,0:0:0:0:
329,192,102042,1,0,0:0:0:0:
475,192,102161,1,0,0:0:0:0:
109,192,102161,1,0,0:0:0:0:
256,192,102161,1,0,0:0:0:0:
329,192,102280,1,0,0:0:0:0:
182,192,102280,1,0,0:0:0:0:
36,192,102399,1,0,0:0:0:0:
256,192,102399,1,0,0:0:0:0:
402,192,102399,1,0,0:0:0:0:
109,192,102399,128,0,102458:0:0:0:0:
329,192,102517,1,0,0:0:0:0:
182,192,102636,128,0,102695:0:0:0:0:
109,192,102636,1,0,0:0:0:0:
475,192,102636,1,0,0:0:0:0:
256,192,102636,1,0,0:0:0:0:
256,192,102874,1,0,0:0:0:0:
402,192,102874,1,0,0:0:0:0:
36,192,102874,1,0,0:0:0:0:
182,192,102992,1,0,0:0:0:0:
475,192,103111,1,0,0:0:0:0:
109,192,103111,1,0,0:0:0:0:
256,192,103111,1,0,0:0:0:0:
182,192,103230,1,0,0:0:0:0:
329,192,103230,1,0,0:0:0:0:
402,192,103348,1,0,0:0:0:0:
36,192,103348,1,0,0:0:0:0:
256,192,103348,1,0,0:0:0:0:
182,192,103467,1,0,0:0:0:0:
109,192,103586,1,0,0:0:0:0:
256,192,103586,1,0,0:0:0:0:
475,192,103586,1,0,0:0:0:0:
182,192,103705,1,0,0:0:0:0:
36,192,103823,1,0,0:0:0:0:
256,192,103823,1,0,0:0:0:0:
402,192,103823,1,0,0:0:0:0:
182,192,103942,1,0,0:0:0:0:
109,192,104061,1,0,0:0:0:0:
256,192,104061,1,0,0:0:0:0:
475,192,104061,1,0,0:0:0:0:
329,192,104180,1,0,0:0:0:0:
182,192,104180,1,0,0:0:0:0:
256,192,104298,1,0,0:0:0:0:
402,192,104298,1,0,0:0:0:0:
36,192,104298,1,0,0:0:0:0:
182,192,104417,1,0,0:0:0:0:
475,192,104536,1,0,0:0:0:0:
256,192,104536,1,0,0:0:0:0:
109,192,104536,1,0,0:0:0:0:
182,192,104655,1,0,0:0:0:0:
36,192,104773,1,0,0:0:0:0:
402,192,104773,1,0,0:0:0:0:
256,192,104773,1,0,0:0:0:0:
329,192,104892,1,0,0:0:0:0:
256,192,105011,1,0,0:0:0:0:
109,192,105011,1,0,0:0:0:0:
475,192,105011,1,0,0:0:0:0:
182,192,105129,1,0,0:0:0:0:
329,192,105129,1,0,0:0:0:0:
256,192,105248,1,0,0:0:0:0:
36,192,105248,1,0,0:0:0:0:
402,192,105248,1,0,0:0:0:0:
329,192,105367,1,0,0:0:0:0:
475,192,105486,1,0,0:0:0:0:
256,192,105486,1,0,0:0:0:0:
109,192,105486,1,0,0:0:0:0:
329,192,105604,1,0,0:0:0:0:
402,192,105723,1,0,0:0:0:0:
256,192,105723,1,0,0:0:0:0:
36,192,105723,1,0,0:0:0:0:
329,192,105842,1,0,0:0:0:0:
475,192,105961,1,0,0:0:0:0:
256,192,105961,1,0,0:0:0:0:
109,192,105961,1,0,0:0:0:0:
329,192,106079,1,0,0:0:0:0:
182,192,106079,1,0,0:0:0:0:
36,192,106198,1,0,0:0:0:0:
402,192,106198,1,0,0:0:0:0:
256,192,106198,1,0,0:0:0:0:
109,192,106198,128,0,106257:0:0:0:0:
329,192,106317,1,0,0:0:0:0:
182,192,106436,128,0,106495:0:0:0:0:
109,192,106436,1,0,0:0:0:0:
256,192,106436,1,0,0:0:0:0:
475,192,106436,1,0,0:0:0:0:
256,192,106673,1,0,0:0:0:0:
402,192,106673,1,0,0:0:0:0:
36,192,106673,1,0,0:0:0:0:
329,192,106910,1,0,0:0:0:0:
256,192,106910,1,0,0:0:0:0:
475,192,106910,1,0,0:0:0:0:
109,192,106910,1,0,0:0:0:0:
182,192,107148,1,0,0:0:0:0:
402,192,107148,1,0,0:0:0:0:
36,192,107148,1,0,0:0:0:0:
256,192,107385,1,0,0:0:0:0:
182,192,107385,1,0,0:0:0:0:
109,192,107385,1,0,0:0:0:0:
475,192,107385,1,0,0:0:0:0:
329,192,107623,1,0,0:0:0:0:
36,192,107623,1,0,0:0:0:0:
402,192,107623,1,0,0:0:0:0:
109,192,107860,1,0,0:0:0:0:
475,192,107860,1,0,0:0:0:0:
256,192,107860,1,0,0:0:0:0:
329,192,107860,1,0,0:0:0:0:
329,192,107979,1,0,0:0:0:0:
256,192,107979,1,0,0:0:0:0:
182,192,107979,1,0,0:0:0:0:
402,192,108098,1,0,0:0:0:0:
36,192,108098,1,0,0:0:0:0:
182,192,108217,1,0,0:0:0:0:
256,192,108217,1,0,0:0:0:0:
475,192,108335,1,0,0:0:0:0:
109,192,108335,1,0,0:0:0:0:
329,192,108335,1,0,0:0:0:0:
256,192,108335,1,0,0:0:0:0:
182,192,108335,1,0,0:0:0:0:
256,192,108454,1,0,0:0:0:0:
475,192,108573,5,0,0:0:0:0:
109,192,108573,1,0,0:0:0:0:
329,192,108573,1,0,0:0:0:0:
182,192,108691,1,0,0:0:0:0:
256,192,108751,1,0,0:0:0:0:
329,192,108810,1,0,0:0:0:0:
402,192,108810,1,0,0:0:0:0:
36,192,108810,1,0,0:0:0:0:
182,192,108929,1,0,0:0:0:0:
475,192,109048,1,0,0:0:0:0:
329,192,109048,1,0,0:0:0:0:
109,192,109048,1,0,0:0:0:0:
36,192,109166,1,0,0:0:0:0:
402,192,109166,1,0,0:0:0:0:
182,192,109166,1,0,0:0:0:0:
256,192,109226,1,0,0:0:0:0:
475,192,109285,1,0,0:0:0:0:
329,192,109285,1,0,0:0:0:0:
109,192,109285,1,0,0:0:0:0:
182,192,109404,1,0,0:0:0:0:
402,192,109404,1,0,0:0:0:0:
36,192,109404,1,0,0:0:0:0:
329,192,109523,1,0,0:0:0:0:
475,192,109523,1,0,0:0:0:0:
109,192,109523,1,0,0:0:0:0:
36,192,109641,1,0,0:0:0:0:
182,192,109641,1,0,0:0:0:0:
402,192,109641,1,0,0:0:0:0:
256,192,109701,1,0,0:0:0:0:
475,192,109760,5,0,0:0:0:0:
329,192,109760,1,0,0:0:0:0:
109,192,109760,1,0,0:0:0:0:
36,192,109879,1,0,0:0:0:0:
182,192,109879,1,0,0:0:0:0:
402,192,109879,1,0,0:0:0:0:
475,192,109998,1,0,0:0:0:0:
109,192,109998,1,0,0:0:0:0:
329,192,109998,1,0,0:0:0:0:
182,192,110116,1,0,0:0:0:0:
36,192,110116,1,0,0:0:0:0:
402,192,110116,1,0,0:0:0:0:
256,192,110176,1,0,0:0:0:0:
475,192,110235,1,0,0:0:0:0:
109,192,110235,1,0,0:0:0:0:
329,192,110235,1,0,0:0:0:0:
182,192,110354,1,0,0:0:0:0:
36,192,110354,1,0,0:0:0:0:
402,192,110354,1,0,0:0:0:0:
475,192,110472,1,0,0:0:0:0:
329,192,110472,1,0,0:0:0:0:
109,192,110472,1,0,0:0:0:0:
402,192,110591,1,0,0:0:0:0:
182,192,110591,1,0,0:0:0:0:
36,192,110591,1,0,0:0:0:0:
256,192,110651,1,0,0:0:0:0:
329,192,110710,1,0,0:0:0:0:
109,192,110710,1,0,0:0:0:0:
475,192,110710,1,0,0:0:0:0:
402,192,110829,1,0,0:0:0:0:
182,192,110829,1,0,0:0:0:0:
36,192,110829,1,0,0:0:0:0:
329,192,110947,1,0,0:0:0:0:
109,192,110947,1,0,0:0:0:0:
475,192,110947,1,0,0:0:0:0:
402,192,111066,1,0,0:0:0:0:
182,192,111066,1,0,0:0:0:0:
36,192,111066,1,0,0:0:0:0:
256,192,111126,1,0,0:0:0:0:
475,192,111185,1,0,0:0:0:0:
329,192,111185,1,0,0:0:0:0:
109,192,111185,1,0,0:0:0:0:
402,192,111304,1,0,0:0:0:0:
182,192,111304,1,0,0:0:0:0:
36,192,111304,1,0,0:0:0:0:
475,192,111422,1,0,0:0:0:0:
329,192,111422,1,0,0:0:0:0:
109,192,111422,1,0,0:0:0:0:
36,192,111541,1,0,0:0:0:0:
402,192,111541,1,0,0:0:0:0:
182,192,111541,1,0,0:0:0:0:
256,192,111600,1,0,0:0:0:0:
475,192,111660,1,0,0:0:0:0:
109,192,111660,1,0,0:0:0:0:
329,192,111660,1,0,0:0:0:0:
36,192,111779,1,0,0:0:0:0:
402,192,111779,1,0,0:0:0:0:
182,192,111779,1,0,0:0:0:0:
329,192,111897,1,0,0:0:0:0:
109,192,111897,1,0,0:0:0:0:
475,192,111897,1,0,0:0:0:0:
36,192,112016,1,0,0:0:0:0:
182,192,112016,1,0,0:0:0:0:
402,192,112016,1,0,0:0:0:0:
256,192,112075,1,0,0:0:0:0:
109,192,112135,1,0,0:0:0:0:
329,192,112135,1,0,0:0:0:0:
475,192,112135,1,0,0:0:0:0:
36,192,112253,1,0,0:0:0:0:
402,192,112253,1,0,0:0:0:0:
182,192,112253,1,0,0:0:0:0:
329,192,112372,1,0,0:0:0:0:
109,192,112372,1,0,0:0:0:0:
475,192,112372,1,0,0:0:0:0:
36,192,112491,1,0,0:0:0:0:
182,192,112491,1,0,0:0:0:0:
402,192,112491,1,0,0:0:0:0:
256,192,112550,1,0,0:0:0:0:
109,192,112610,1,0,0:0:0:0:
475,192,112610,1,0,0:0:0:0:
329,192,112610,1,0,0:0:0:0:
182,192,112728,1,0,0:0:0:0:
36,192,112728,1,0,0:0:0:0:
402,192,112728,1,0,0:0:0:0:
475,192,112847,1,0,0:0:0:0:
329,192,112847,1,0,0:0:0:0:
109,192,112847,1,0,0:0:0:0:
36,192,112966,1,0,0:0:0:0:
402,192,112966,1,0,0:0:0:0:
182,192,112966,1,0,0:0:0:0:
256,192,113025,1,0,0:0:0:0:
475,192,113085,1,0,0:0:0:0:
109,192,113085,1,0,0:0:0:0:
329,192,113085,1,0,0:0:0:0:
182,192,113203,1,0,0:0:0:0:
36,192,113203,1,0,0:0:0:0:
402,192,113203,1,0,0:0:0:0:
329,192,113322,1,0,0:0:0:0:
475,192,113322,1,0,0:0:0:0:
109,192,113322,1,0,0:0:0:0:
182,192,113441,1,0,0:0:0:0:
402,192,113441,1,0,0:0:0:0:
36,192,113441,1,0,0:0:0:0:
256,192,113500,1,0,0:0:0:0:
475,192,113560,1,0,0:0:0:0:
109,192,113560,1,0,0:0:0:0:
329,192,113560,1,0,0:0:0:0:
182,192,113678,1,0,0:0:0:0:
402,192,113678,1,0,0:0:0:0:
36,192,113678,1,0,0:0:0:0:
109,192,113797,1,0,0:0:0:0:
475,192,113797,1,0,0:0:0:0:
329,192,113797,1,0,0:0:0:0:
402,192,113916,1,0,0:0:0:0:
36,192,113916,1,0,0:0:0:0:
182,192,113916,1,0,0:0:0:0:
256,192,113975,1,0,0:0:0:0:
329,192,114035,1,0,0:0:0:0:
109,192,114035,1,0,0:0:0:0:
475,192,114035,1,0,0:0:0:0:
402,192,114153,1,0,0:0:0:0:
36,192,114153,1,0,0:0:0:0:
182,192,114153,1,0,0:0:0:0:
475,192,114272,1,0,0:0:0:0:
109,192,114272,1,0,0:0:0:0:
329,192,114272,1,0,0:0:0:0:
402,192,114391,1,0,0:0:0:0:
182,192,114391,1,0,0:0:0:0:
36,192,114391,1,0,0:0:0:0:
256,192,114450,1,0,0:0:0:0:
329,192,114509,1,0,0:0:0:0:
475,192,114509,1,0,0:0:0:0:
109,192,114509,1,0,0:0:0:0:
402,192,114628,1,0,0:0:0:0:
36,192,114628,1,0,0:0:0:0:
182,192,114628,1,0,0:0:0:0:
109,192,114747,1,0,0:0:0:0:
329,192,114747,1,0,0:0:0:0:
475,192,114747,1,0,0:0:0:0:
182,192,114866,1,0,0:0:0:0:
402,192,114866,1,0,0:0:0:0:
36,192,114866,1,0,0:0:0:0:
256,192,114925,1,0,0:0:0:0:
329,192,114984,1,0,0:0:0:0:
109,192,114984,1,0,0:0:0:0:
475,192,114984,1,0,0:0:0:0:
402,192,115103,1,0,0:0:0:0:
36,192,115103,1,0,0:0:0:0:
182,192,115103,1,0,0:0:0:0:
109,192,115222,1,0,0:0:0:0:
475,192,115222,1,0,0:0:0:0:
329,192,115222,1,0,0:0:0:0:
36,192,115341,1,0,0:0:0:0:
402,192,115341,1,0,0:0:0:0:
182,192,115341,1,0,0:0:0:0:
256,192,115400,1,0,0:0:0:0:
329,192,115459,1,0,0:0:0:0:
109,192,115459,1,0,0:0:0:0:
475,192,115459,1,0,0:0:0:0:
36,192,115578,1,0,0:0:0:0:
402,192,115578,1,0,0:0:0:0:
182,192,115578,1,0,0:0:0:0:
329,192,115697,1,0,0:0:0:0:
475,192,115697,1,0,0:0:0:0:
109,192,115697,1,0,0:0:0:0:
182,192,115816,1,0,0:0:0:0:
36,192,115816,1,0,0:0:0:0:
402,192,115816,1,0,0:0:0:0:
256,192,115875,1,0,0:0:0:0:
475,192,115934,1,0,0:0:0:0:
109,192,115934,1,0,0:0:0:0:
329,192,115934,1,0,0:0:0:0:
182,192,116053,1,0,0:0:0:0:
36,192,116053,1,0,0:0:0:0:
402,192,116053,1,0,0:0:0:0:
329,192,116172,1,0,0:0:0:0:
109,192,116172,1,0,0:0:0:0:
475,192,116172,1,0,0:0:0:0:
256,192,116172,1,0,0:0:0:0:
36,192,116290,1,0,0:0:0:0:
182,192,116290,1,0,0:0:0:0:
402,192,116290,1,0,0:0:0:0:
109,192,116409,1,0,0:0:0:0:
475,192,116409,1,0,0:0:0:0:
329,192,116409,1,0,0:0:0:0:
182,192,116528,1,0,0:0:0:0:
36,192,116528,1,0,0:0:0:0:
402,192,116528,1,0,0:0:0:0:
475,192,116647,1,0,0:0:0:0:
329,192,116647,1,0,0:0:0:0:
109,192,116647,1,0,0:0:0:0:
256,192,116647,1,0,0:0:0:0:
36,192,116765,1,0,0:0:0:0:
402,192,116765,1,0,0:0:0:0:
182,192,116765,1,0,0:0:0:0:
475,192,116884,1,0,0:0:0:0:
109,192,116884,1,0,0:0:0:0:
329,192,116884,1,0,0:0:0:0:
256,192,116884,1,0,0:0:0:0:
182,192,117003,1,0,0:0:0:0:
36,192,117003,1,0,0:0:0:0:
402,192,117003,1,0,0:0:0:0:
329,192,117122,1,0,0:0:0:0:
475,192,117122,1,0,0:0:0:0:
109,192,117122,1,0,0:0:0:0:
256,192,117122,1,0,0:0:0:0:
182,192,117240,1,0,0:0:0:0:
402,192,117240,1,0,0:0:0:0:
36,192,117240,1,0,0:0:0:0:
475,192,117359,1,0,0:0:0:0:
109,192,117359,1,0,0:0:0:0:
329,192,117359,1,0,0:0:0:0:
256,192,117359,1,0,0:0:0:0:
182,192,117478,1,0,0:0:0:0:
402,192,117478,1,0,0:0:0:0:
36,192,117478,1,0,0:0:0:0:
109,192,117597,1,0,0:0:0:0:
475,192,117597,1,0,0:0:0:0:
329,192,117597,1,0,0:0:0:0:
256,192,117597,1,0,0:0:0:0:
402,192,117715,1,0,0:0:0:0:
36,192,117715,1,0,0:0:0:0:
182,192,117715,1,0,0:0:0:0:
256,192,117715,1,0,0:0:0:0:
329,192,117834,1,0,0:0:0:0:
109,192,117834,1,0,0:0:0:0:
475,192,117834,1,0,0:0:0:0:
256,192,117834,1,0,0:0:0:0:
402,192,117953,1,0,0:0:0:0:
36,192,117953,1,0,0:0:0:0:
182,192,117953,1,0,0:0:0:0:
256,192,117953,1,0,0:0:0:0:
475,192,118071,1,0,0:0:0:0:
109,192,118071,1,0,0:0:0:0:
329,192,118071,1,0,0:0:0:0:
256,192,118071,1,0,0:0:0:0:
182,192,118190,1,0,0:0:0:0:
256,192,118250,1,0,0:0:0:0:
329,192,118309,1,0,0:0:0:0:
402,192,118309,1,0,0:0:0:0:
36,192,118309,1,0,0:0:0:0:
182,192,118428,1,0,0:0:0:0:
475,192,118546,1,0,0:0:0:0:
329,192,118546,1,0,0:0:0:0:
109,192,118546,1,0,0:0:0:0:
36,192,118665,1,0,0:0:0:0:
402,192,118665,1,0,0:0:0:0:
182,192,118665,1,0,0:0:0:0:
256,192,118724,1,0,0:0:0:0:
475,192,118784,1,0,0:0:0:0:
329,192,118784,1,0,0:0:0:0:
109,192,118784,1,0,0:0:0:0:
182,192,118903,1,0,0:0:0:0:
402,192,118903,1,0,0:0:0:0:
36,192,118903,1,0,0:0:0:0:
329,192,119021,1,0,0:0:0:0:
475,192,119021,1,0,0:0:0:0:
109,192,119021,1,0,0:0:0:0:
36,192,119140,1,0,0:0:0:0:
182,192,119140,1,0,0:0:0:0:
402,192,119140,1,0,0:0:0:0:
256,192,119199,1,0,0:0:0:0:
475,192,119259,1,0,0:0:0:0:
329,192,119259,1,0,0:0:0:0:
109,192,119259,1,0,0:0:0:0:
36,192,119378,1,0,0:0:0:0:
182,192,119378,1,0,0:0:0:0:
402,192,119378,1,0,0:0:0:0:
475,192,119496,1,0,0:0:0:0:
109,192,119496,1,0,0:0:0:0:
329,192,119496,1,0,0:0:0:0:
182,192,119615,1,0,0:0:0:0:
36,192,119615,1,0,0:0:0:0:
402,192,119615,1,0,0:0:0:0:
256,192,119674,1,0,0:0:0:0:
475,192,119734,1,0,0:0:0:0:
109,192,119734,1,0,0:0:0:0:
329,192,119734,1,0,0:0:0:0:
182,192,119852,1,0,0:0:0:0:
36,192,119852,1,0,0:0:0:0:
402,192,119852,1,0,0:0:0:0:
475,192,119971,1,0,0:0:0:0:
329,192,119971,1,0,0:0:0:0:
109,192,119971,1,0,0:0:0:0:
402,192,120090,1,0,0:0:0:0:
182,192,120090,1,0,0:0:0:0:
36,192,120090,1,0,0:0:0:0:
256,192,120149,1,0,0:0:0:0:
329,192,120209,1,0,0:0:0:0:
109,192,120209,1,0,0:0:0:0:
475,192,120209,1,0,0:0:0:0:
402,192,120327,1,0,0:0:0:0:
182,192,120327,1,0,0:0:0:0:
36,192,120327,1,0,0:0:0:0:
329,192,120446,1,0,0:0:0:0:
109,192,120446,1,0,0:0:0:0:
475,192,120446,1,0,0:0:0:0:
402,192,120565,1,0,0:0:0:0:
182,192,120565,1,0,0:0:0:0:
36,192,120565,1,0,0:0:0:0:
256,192,120624,1,0,0:0:0:0:
475,192,120684,1,0,0:0:0:0:
329,192,120684,1,0,0:0:0:0:
109,192,120684,1,0,0:0:0:0:
402,192,120802,1,0,0:0:0:0:
182,192,120802,1,0,0:0:0:0:
36,192,120802,1,0,0:0:0:0:
475,192,120921,1,0,0:0:0:0:
329,192,120921,1,0,0:0:0:0:
109,192,120921,1,0,0:0:0:0:
36,192,121040,1,0,0:0:0:0:
402,192,121040,1,0,0:0:0:0:
182,192,121040,1,0,0:0:0:0:
256,192,121099,1,0,0:0:0:0:
475,192,121159,1,0,0:0:0:0:
109,192,121159,1,0,0:0:0:0:
329,192,121159,1,0,0:0:0:0:
36,192,121277,1,0,0:0:0:0:
402,192,121277,1,0,0:0:0:0:
182,192,121277,1,0,0:0:0:0:
329,192,121396,1,0,0:0:0:0:
109,192,121396,1,0,0:0:0:0:
475,192,121396,1,0,0:0:0:0:
36,192,121515,1,0,0:0:0:0:
182,192,121515,1,0,0:0:0:0:
402,192,121515,1,0,0:0:0:0:
256,192,121574,1,0,0:0:0:0:
109,192,121633,1,0,0:0:0:0:
329,192,121633,1,0,0:0:0:0:
475,192,121633,1,0,0:0:0:0:
36,192,121752,1,0,0:0:0:0:
402,192,121752,1,0,0:0:0:0:
182,192,121752,1,0,0:0:0:0:
329,192,121871,1,0,0:0:0:0:
109,192,121871,1,0,0:0:0:0:
475,192,121871,1,0,0:0:0:0:
36,192,121990,1,0,0:0:0:0:
182,192,121990,1,0,0:0:0:0:
402,192,121990,1,0,0:0:0:0:
256,192,122049,1,0,0:0:0:0:
109,192,122108,1,0,0:0:0:0:
475,192,122108,1,0,0:0:0:0:
329,192,122108,1,0,0:0:0:0:
182,192,122227,1,0,0:0:0:0:
36,192,122227,1,0,0:0:0:0:
402,192,122227,1,0,0:0:0:0:
475,192,122346,1,0,0:0:0:0:
329,192,122346,1,0,0:0:0:0:
109,192,122346,1,0,0:0:0:0:
36,192,122465,1,0,0:0:0:0:
402,192,122465,1,0,0:0:0:0:
182,192,122465,1,0,0:0:0:0:
256,192,122524,1,0,0:0:0:0:
475,192,122583,1,0,0:0:0:0:
109,192,122583,1,0,0:0:0:0:
329,192,122583,1,0,0:0:0:0:
182,192,122702,1,0,0:0:0:0:
36,192,122702,1,0,0:0:0:0:
402,192,122702,1,0,0:0:0:0:
329,192,122821,1,0,0:0:0:0:
475,192,122821,1,0,0:0:0:0:
109,192,122821,1,0,0:0:0:0:
182,192,122940,1,0,0:0:0:0:
402,192,122940,1,0,0:0:0:0:
36,192,122940,1,0,0:0:0:0:
256,192,122999,1,0,0:0:0:0:
475,192,123058,1,0,0:0:0:0:
109,192,123058,1,0,0:0:0:0:
329,192,123058,1,0,0:0:0:0:
182,192,123177,1,0,0:0:0:0:
402,192,123177,1,0,0:0:0:0:
36,192,123177,1,0,0:0:0:0:
109,192,123296,1,0,0:0:0:0:
475,192,123296,1,0,0:0:0:0:
329,192,123296,1,0,0:0:0:0:
402,192,123414,1,0,0:0:0:0:
36,192,123414,1,0,0:0:0:0:
182,192,123414,1,0,0:0:0:0:
256,192,123474,1,0,0:0:0:0:
329,192,123533,1,0,0:0:0:0:
109,192,123533,1,0,0:0:0:0:
475,192,123533,1,0,0:0:0:0:
402,192,123652,1,0,0:0:0:0:
36,192,123652,1,0,0:0:0:0:
182,192,123652,1,0,0:0:0:0:
475,192,123771,1,0,0:0:0:0:
109,192,123771,1,0,0:0:0:0:
329,192,123771,1,0,0:0:0:0:
402,192,123889,1,0,0:0:0:0:
182,192,123889,1,0,0:0:0:0:
36,192,123889,1,0,0:0:0:0:
256,192,123949,1,0,0:0:0:0:
329,192,124008,1,0,0:0:0:0:
475,192,124008,1,0,0:0:0:0:
109,192,124008,1,0,0:0:0:0:
402,192,124127,1,0,0:0:0:0:
36,192,124127,1,0,0:0:0:0:
182,192,124127,1,0,0:0:0:0:
109,192,124246,1,0,0:0:0:0:
329,192,124246,1,0,0:0:0:0:
475,192,124246,1,0,0:0:0:0:
182,192,124364,1,0,0:0:0:0:
402,192,124364,1,0,0:0:0:0:
36,192,124364,1,0,0:0:0:0:
256,192,124424,1,0,0:0:0:0:
329,192,124483,1,0,0:0:0:0:
109,192,124483,1,0,0:0:0:0:
475,192,124483,1,0,0:0:0:0:
402,192,124602,1,0,0:0:0:0:
36,192,124602,1,0,0:0:0:0:
182,192,124602,1,0,0:0:0:0:
109,192,124721,1,0,0:0:0:0:
475,192,124721,1,0,0:0:0:0:
329,192,124721,1,0,0:0:0:0:
36,192,124839,1,0,0:0:0:0:
402,192,124839,1,0,0:0:0:0:
182,192,124839,1,0,0:0:0:0:
256,192,124899,1,0,0:0:0:0:
329,192,124958,1,0,0:0:0:0:
109,192,124958,1,0,0:0:0:0:
475,192,124958,1,0,0:0:0:0:
36,192,125077,1,0,0:0:0:0:
402,192,125077,1,0,0:0:0:0:
182,192,125077,1,0,0:0:0:0:
329,192,125195,1,0,0:0:0:0:
475,192,125195,1,0,0:0:0:0:
109,192,125195,1,0,0:0:0:0:
182,192,125314,1,0,0:0:0:0:
36,192,125314,1,0,0:0:0:0:
402,192,125314,1,0,0:0:0:0:
256,192,125374,1,0,0:0:0:0:
475,192,125433,1,0,0:0:0:0:
109,192,125433,1,0,0:0:0:0:
329,192,125433,1,0,0:0:0:0:
182,192,125552,1,0,0:0:0:0:
36,192,125552,1,0,0:0:0:0:
402,192,125552,1,0,0:0:0:0:
329,192,125670,1,0,0:0:0:0:
109,192,125670,1,0,0:0:0:0:
475,192,125670,1,0,0:0:0:0:
256,192,125670,1,0,0:0:0:0:
36,192,125789,1,0,0:0:0:0:
182,192,125789,1,0,0:0:0:0:
402,192,125789,1,0,0:0:0:0:
109,192,125908,1,0,0:0:0:0:
475,192,125908,1,0,0:0:0:0:
329,192,125908,1,0,0:0:0:0:
256,192,125908,1,0,0:0:0:0:
182,192,126027,1,0,0:0:0:0:
36,192,126027,1,0,0:0:0:0:
402,192,126027,1,0,0:0:0:0:
475,192,126145,1,0,0:0:0:0:
329,192,126145,1,0,0:0:0:0:
109,192,126145,1,0,0:0:0:0:
256,192,126145,1,0,0:0:0:0:
36,192,126264,1,0,0:0:0:0:
402,192,126264,1,0,0:0:0:0:
182,192,126264,1,0,0:0:0:0:
475,192,126383,1,0,0:0:0:0:
109,192,126383,1,0,0:0:0:0:
329,192,126383,1,0,0:0:0:0:
256,192,126383,1,0,0:0:0:0:
182,192,126502,1,0,0:0:0:0:
36,192,126502,1,0,0:0:0:0:
402,192,126502,1,0,0:0:0:0:
329,192,126620,1,0,0:0:0:0:
475,192,126620,1,0,0:0:0:0:
109,192,126620,1,0,0:0:0:0:
256,192,126620,1,0,0:0:0:0:
182,192,126739,1,0,0:0:0:0:
402,192,126739,1,0,0:0:0:0:
36,192,126739,1,0,0:0:0:0:
475,192,126858,1,0,0:0:0:0:
109,192,126858,1,0,0:0:0:0:
329,192,126858,1,0,0:0:0:0:
256,192,126858,1,0,0:0:0:0:
182,192,126976,1,0,0:0:0:0:
402,192,126976,1,0,0:0:0:0:
36,192,126976,1,0,0:0:0:0:
256,192,126976,1,0,0:0:0:0:
109,192,127095,1,0,0:0:0:0:
475,192,127095,1,0,0:0:0:0:
329,192,127095,1,0,0:0:0:0:
256,192,127095,1,0,0:0:0:0:
402,192,127214,1,0,0:0:0:0:
36,192,127214,1,0,0:0:0:0:
182,192,127214,1,0,0:0:0:0:
329,192,127333,1,0,0:0:0:0:
109,192,127333,1,0,0:0:0:0:
475,192,127333,1,0,0:0:0:0:
256,192,127333,1,0,0:0:0:0:
402,192,127451,1,0,0:0:0:0:
36,192,127451,1,0,0:0:0:0:
182,192,127451,1,0,0:0:0:0:
256,192,127451,1,0,0:0:0:0:
256,192,127570,1,0,0:0:0:0:
329,192,127808,1,0,0:0:0:0:
475,192,127808,1,0,0:0:0:0:
256,192,128045,1,0,0:0:0:0:
329,192,128283,1,0,0:0:0:0:
475,192,128283,1,0,0:0:0:0:
256,192,128401,1,0,0:0:0:0:
256,192,128639,1,0,0:0:0:0:
329,192,128757,1,0,0:0:0:0:
475,192,128757,1,0,0:0:0:0:
256,192,128995,1,0,0:0:0:0:
329,192,129232,1,0,0:0:0:0:
475,192,129232,1,0,0:0:0:0:
256,192,129470,1,0,0:0:0:0:
329,192,129707,1,0,0:0:0:0:
182,192,129707,1,0,0:0:0:0:
256,192,129945,1,0,0:0:0:0:
329,192,130182,1,0,0:0:0:0:
182,192,130182,1,0,0:0:0:0:
256,192,130301,1,0,0:0:0:0:
256,192,130539,1,0,0:0:0:0:
329,192,130657,1,0,0:0:0:0:
182,192,130657,1,0,0:0:0:0:
256,192,130895,1,0,0:0:0:0:
329,192,131132,1,0,0:0:0:0:
182,192,131132,1,0,0:0:0:0:
256,192,131370,1,0,0:0:0:0:
329,192,131607,1,0,0:0:0:0:
36,192,131607,1,0,0:0:0:0:
256,192,131845,1,0,0:0:0:0:
329,192,132082,1,0,0:0:0:0:
36,192,132082,1,0,0:0:0:0:
256,192,132201,1,0,0:0:0:0:
256,192,132438,1,0,0:0:0:0:
329,192,132557,1,0,0:0:0:0:
36,192,132557,1,0,0:0:0:0:
256,192,132794,1,0,0:0:0:0:
329,192,133032,1,0,0:0:0:0:
36,192,133032,1,0,0:0:0:0:
256,192,133269,1,0,0:0:0:0:
329,192,133507,1,0,0:0:0:0:
182,192,133507,1,0,0:0:0:0:
256,192,133744,1,0,0:0:0:0:
329,192,133982,1,0,0:0:0:0:
182,192,133982,1,0,0:0:0:0:
256,192,134101,1,0,0:0:0:0:
256,192,134338,1,0,0:0:0:0:
329,192,134457,1,0,0:0:0:0:
182,192,134457,1,0,0:0:0:0:
256,192,134694,1,0,0:0:0:0:
329,192,134932,1,0,0:0:0:0:
182,192,134932,1,0,0:0:0:0:
256,192,135169,1,0,0:0:0:0:
329,192,135407,1,0,0:0:0:0:
475,192,135407,1,0,0:0:0:0:
256,192,135644,1,0,0:0:0:0:
329,192,135882,1,0,0:0:0:0:
475,192,135882,1,0,0:0:0:0:
256,192,136000,1,0,0:0:0:0:
256,192,136238,1,0,0:0:0:0:
329,192,136356,1,0,0:0:0:0:
475,192,136356,1,0,0:0:0:0:
256,192,136594,1,0,0:0:0:0:
329,192,136831,1,0,0:0:0:0:
475,192,136831,1,0,0:0:0:0:
256,192,137069,1,0,0:0:0:0:
329,192,137306,1,0,0:0:0:0:
182,192,137306,1,0,0:0:0:0:
256,192,137544,1,0,0:0:0:0:
329,192,137781,1,0,0:0:0:0:
182,192,137781,1,0,0:0:0:0:
256,192,137900,1,0,0:0:0:0:
256,192,138137,1,0,0:0:0:0:
329,192,138256,1,0,0:0:0:0:
182,192,138256,1,0,0:0:0:0:
256,192,138494,1,0,0:0:0:0:
329,192,138731,1,0,0:0:0:0:
182,192,138731,1,0,0:0:0:0:
256,192,138969,1,0,0:0:0:0:
329,192,139206,1,0,0:0:0:0:
36,192,139206,1,0,0:0:0:0:
256,192,139444,1,0,0:0:0:0:
329,192,139681,1,0,0:0:0:0:
36,192,139681,1,0,0:0:0:0:
256,192,139800,1,0,0:0:0:0:
256,192,140037,1,0,0:0:0:0:
329,192,140156,1,0,0:0:0:0:
36,192,140156,1,0,0:0:0:0:
256,192,140393,1,0,0:0:0:0:
329,192,140631,1,0,0:0:0:0:
36,192,140631,1,0,0:0:0:0:
256,192,140868,1,0,0:0:0:0:
329,192,141106,1,0,0:0:0:0:
182,192,141106,1,0,0:0:0:0:
256,192,141343,1,0,0:0:0:0:
329,192,141581,1,0,0:0:0:0:
182,192,141581,1,0,0:0:0:0:
256,192,141699,1,0,0:0:0:0:
256,192,141937,1,0,0:0:0:0:
329,192,142056,1,0,0:0:0:0:
182,192,142056,1,0,0:0:0:0:
256,192,142293,1,0,0:0:0:0:
402,192,142412,1,0,0:0:0:0:
36,192,142412,1,0,0:0:0:0:
329,192,142531,1,0,0:0:0:0:
182,192,142531,1,0,0:0:0:0:
402,192,142531,1,0,0:0:0:0:
36,192,142531,1,0,0:0:0:0:
256,192,142768,1,0,0:0:0:0:
402,192,142768,1,0,0:0:0:0:
36,192,142768,1,0,0:0:0:0:
475,192,142887,1,0,0:0:0:0:
109,192,142887,1,0,0:0:0:0:
329,192,143006,1,0,0:0:0:0:
402,192,143006,1,0,0:0:0:0:
36,192,143006,1,0,0:0:0:0:
182,192,143006,1,0,0:0:0:0:
475,192,143124,1,0,0:0:0:0:
109,192,143124,1,0,0:0:0:0:
256,192,143243,1,0,0:0:0:0:
36,192,143243,1,0,0:0:0:0:
402,192,143243,1,0,0:0:0:0:
109,192,143362,1,0,0:0:0:0:
475,192,143362,1,0,0:0:0:0:
329,192,143480,1,0,0:0:0:0:
36,192,143480,1,0,0:0:0:0:
402,192,143480,1,0,0:0:0:0:
182,192,143480,1,0,0:0:0:0:
256,192,143599,1,0,0:0:0:0:
109,192,143599,1,0,0:0:0:0:
475,192,143599,1,0,0:0:0:0:
36,192,143718,1,0,0:0:0:0:
402,192,143718,1,0,0:0:0:0:
256,192,143837,1,0,0:0:0:0:
109,192,143837,1,0,0:0:0:0:
475,192,143837,1,0,0:0:0:0:
329,192,143955,1,0,0:0:0:0:
36,192,143955,1,0,0:0:0:0:
402,192,143955,1,0,0:0:0:0:
182,192,143955,1,0,0:0:0:0:
109,192,144074,1,0,0:0:0:0:
475,192,144074,1,0,0:0:0:0:
256,192,144193,1,0,0:0:0:0:
36,192,144193,1,0,0:0:0:0:
402,192,144193,1,0,0:0:0:0:
109,192,144312,1,0,0:0:0:0:
475,192,144312,1,0,0:0:0:0:
329,192,144430,1,0,0:0:0:0:
402,192,144430,1,0,0:0:0:0:
36,192,144430,1,0,0:0:0:0:
182,192,144430,1,0,0:0:0:0:
475,192,144549,1,0,0:0:0:0:
109,192,144549,1,0,0:0:0:0:
256,192,144668,1,0,0:0:0:0:
475,192,144668,1,0,0:0:0:0:
109,192,144668,1,0,0:0:0:0:
402,192,144787,1,0,0:0:0:0:
36,192,144787,1,0,0:0:0:0:
329,192,144905,1,0,0:0:0:0:
182,192,144905,1,0,0:0:0:0:
475,192,144905,1,0,0:0:0:0:
109,192,144905,1,0,0:0:0:0:
402,192,145024,1,0,0:0:0:0:
36,192,145024,1,0,0:0:0:0:
256,192,145143,1,0,0:0:0:0:
475,192,145143,1,0,0:0:0:0:
109,192,145143,1,0,0:0:0:0:
402,192,145261,1,0,0:0:0:0:
36,192,145261,1,0,0:0:0:0:
182,192,145380,1,0,0:0:0:0:
329,192,145380,1,0,0:0:0:0:
475,192,145380,1,0,0:0:0:0:
109,192,145380,1,0,0:0:0:0:
256,192,145499,1,0,0:0:0:0:
402,192,145499,1,0,0:0:0:0:
36,192,145499,1,0,0:0:0:0:
109,192,145618,1,0,0:0:0:0:
475,192,145618,1,0,0:0:0:0:
36,192,145736,1,0,0:0:0:0:
402,192,145736,1,0,0:0:0:0:
256,192,145736,1,0,0:0:0:0:
109,192,145855,1,0,0:0:0:0:
475,192,145855,1,0,0:0:0:0:
329,192,145855,1,0,0:0:0:0:
182,192,145855,1,0,0:0:0:0:
36,192,145974,1,0,0:0:0:0:
402,192,145974,1,0,0:0:0:0:
109,192,146093,1,0,0:0:0:0:
475,192,146093,1,0,0:0:0:0:
256,192,146093,1,0,0:0:0:0:
36,192,146211,1,0,0:0:0:0:
402,192,146211,1,0,0:0:0:0:
109,192,146330,1,0,0:0:0:0:
475,192,146330,1,0,0:0:0:0:
182,192,146330,1,0,0:0:0:0:
329,192,146330,1,0,0:0:0:0:
36,192,146449,1,0,0:0:0:0:
402,192,146449,1,0,0:0:0:0:
256,192,146568,1,0,0:0:0:0:
36,192,146568,1,0,0:0:0:0:
402,192,146568,1,0,0:0:0:0:
109,192,146686,1,0,0:0:0:0:
475,192,146686,1,0,0:0:0:0:
402,192,146805,1,0,0:0:0:0:
182,192,146805,1,0,0:0:0:0:
329,192,146805,1,0,0:0:0:0:
36,192,146805,1,0,0:0:0:0:
475,192,146924,1,0,0:0:0:0:
109,192,146924,1,0,0:0:0:0:
402,192,147043,1,0,0:0:0:0:
256,192,147043,1,0,0:0:0:0:
36,192,147043,1,0,0:0:0:0:
109,192,147161,1,0,0:0:0:0:
475,192,147161,1,0,0:0:0:0:
36,192,147280,1,0,0:0:0:0:
182,192,147280,1,0,0:0:0:0:
329,192,147280,1,0,0:0:0:0:
402,192,147280,1,0,0:0:0:0:
256,192,147399,1,0,0:0:0:0:
475,192,147399,1,0,0:0:0:0:
109,192,147399,1,0,0:0:0:0:
36,192,147517,1,0,0:0:0:0:
402,192,147517,1,0,0:0:0:0:
475,192,147636,1,0,0:0:0:0:
109,192,147636,1,0,0:0:0:0:
256,192,147636,1,0,0:0:0:0:
329,192,147755,1,0,0:0:0:0:
402,192,147755,1,0,0:0:0:0:
36,192,147755,1,0,0:0:0:0:
182,192,147755,1,0,0:0:0:0:
109,192,147874,1,0,0:0:0:0:
475,192,147874,1,0,0:0:0:0:
36,192,147992,1,0,0:0:0:0:
256,192,147992,1,0,0:0:0:0:
402,192,147992,1,0,0:0:0:0:
475,192,148111,1,0,0:0:0:0:
109,192,148111,1,0,0:0:0:0:
182,192,148230,1,0,0:0:0:0:
402,192,148230,1,0,0:0:0:0:
329,192,148230,1,0,0:0:0:0:
36,192,148230,1,0,0:0:0:0:
109,192,148349,1,0,0:0:0:0:
475,192,148349,1,0,0:0:0:0:
109,192,148467,1,0,0:0:0:0:
475,192,148467,1,0,0:0:0:0:
256,192,148467,1,0,0:0:0:0:
402,192,148586,1,0,0:0:0:0:
36,192,148586,1,0,0:0:0:0:
475,192,148705,1,0,0:0:0:0:
182,192,148705,1,0,0:0:0:0:
109,192,148705,1,0,0:0:0:0:
329,192,148705,1,0,0:0:0:0:
36,192,148824,1,0,0:0:0:0:
402,192,148824,1,0,0:0:0:0:
256,192,148942,1,0,0:0:0:0:
109,192,148942,1,0,0:0:0:0:
475,192,148942,1,0,0:0:0:0:
36,192,149061,1,0,0:0:0:0:
402,192,149061,1,0,0:0:0:0:
475,192,149180,1,0,0:0:0:0:
182,192,149180,1,0,0:0:0:0:
329,192,149180,1,0,0:0:0:0:
109,192,149180,1,0,0:0:0:0:
256,192,149298,1,0,0:0:0:0:
36,192,149298,1,0,0:0:0:0:
402,192,149298,1,0,0:0:0:0:
475,192,149417,1,0,0:0:0:0:
109,192,149417,1,0,0:0:0:0:
36,192,149536,1,0,0:0:0:0:
256,192,149536,1,0,0:0:0:0:
402,192,149536,1,0,0:0:0:0:
329,192,149655,1,0,0:0:0:0:
109,192,149655,1,0,0:0:0:0:
182,192,149655,1,0,0:0:0:0:
475,192,149655,1,0,0:0:0:0:
36,192,149773,1,0,0:0:0:0:
402,192,149773,1,0,0:0:0:0:
475,192,149892,1,0,0:0:0:0:
256,192,149892,1,0,0:0:0:0:
109,192,149892,1,0,0:0:0:0:
36,192,150011,1,0,0:0:0:0:
402,192,150011,1,0,0:0:0:0:
475,192,150130,1,0,0:0:0:0:
329,192,150130,1,0,0:0:0:0:
182,192,150130,1,0,0:0:0:0:
109,192,150130,1,0,0:0:0:0:
402,192,150248,1,0,0:0:0:0:
36,192,150248,1,0,0:0:0:0:
402,192,150367,1,0,0:0:0:0:
36,192,150367,1,0,0:0:0:0:
256,192,150367,1,0,0:0:0:0:
475,192,150486,1,0,0:0:0:0:
109,192,150486,1,0,0:0:0:0:
329,192,150605,1,0,0:0:0:0:
36,192,150605,1,0,0:0:0:0:
402,192,150605,1,0,0:0:0:0:
182,192,150605,1,0,0:0:0:0:
109,192,150723,1,0,0:0:0:0:
475,192,150723,1,0,0:0:0:0:
36,192,150842,1,0,0:0:0:0:
256,192,150842,1,0,0:0:0:0:
402,192,150842,1,0,0:0:0:0:
475,192,150961,1,0,0:0:0:0:
109,192,150961,1,0,0:0:0:0:
329,192,151079,1,0,0:0:0:0:
402,192,151079,1,0,0:0:0:0:
36,192,151079,1,0,0:0:0:0:
182,192,151079,1,0,0:0:0:0:
109,192,151198,1,0,0:0:0:0:
475,192,151198,1,0,0:0:0:0:
256,192,151198,1,0,0:0:0:0:
402,192,151317,1,0,0:0:0:0:
36,192,151317,1,0,0:0:0:0:
256,192,151436,1,0,0:0:0:0:
109,192,151436,1,0,0:0:0:0:
475,192,151436,1,0,0:0:0:0:
36,192,151554,1,0,0:0:0:0:
182,192,151554,1,0,0:0:0:0:
329,192,151554,1,0,0:0:0:0:
402,192,151554,1,0,0:0:0:0:
475,192,151673,1,0,0:0:0:0:
109,192,151673,1,0,0:0:0:0:
402,192,151792,1,0,0:0:0:0:
256,192,151792,1,0,0:0:0:0:
36,192,151792,1,0,0:0:0:0:
109,192,151911,1,0,0:0:0:0:
475,192,151911,1,0,0:0:0:0:
329,192,152029,1,0,0:0:0:0:
36,192,152029,1,0,0:0:0:0:
182,192,152029,1,0,0:0:0:0:
402,192,152029,1,0,0:0:0:0:
475,192,152148,1,0,0:0:0:0:
109,192,152148,1,0,0:0:0:0:
256,192,152267,1,0,0:0:0:0:
475,192,152267,1,0,0:0:0:0:
109,192,152267,1,0,0:0:0:0:
36,192,152386,1,0,0:0:0:0:
402,192,152386,1,0,0:0:0:0:
109,192,152504,1,0,0:0:0:0:
329,192,152504,1,0,0:0:0:0:
475,192,152504,1,0,0:0:0:0:
182,192,152504,1,0,0:0:0:0:
402,192,152623,1,0,0:0:0:0:
36,192,152623,1,0,0:0:0:0:
475,192,152742,1,0,0:0:0:0:
109,192,152742,1,0,0:0:0:0:
256,192,152742,1,0,0:0:0:0:
402,192,152860,1,0,0:0:0:0:
36,192,152860,1,0,0:0:0:0:
329,192,152979,1,0,0:0:0:0:
109,192,152979,1,0,0:0:0:0:
475,192,152979,1,0,0:0:0:0:
182,192,152979,1,0,0:0:0:0:
402,192,153098,1,0,0:0:0:0:
36,192,153098,1,0,0:0:0:0:
256,192,153098,1,0,0:0:0:0:
109,192,153217,1,0,0:0:0:0:
475,192,153217,1,0,0:0:0:0:
402,192,153335,1,0,0:0:0:0:
256,192,153335,1,0,0:0:0:0:
36,192,153335,1,0,0:0:0:0:
182,192,153454,1,0,0:0:0:0:
475,192,153454,1,0,0:0:0:0:
329,192,153454,1,0,0:0:0:0:
109,192,153454,1,0,0:0:0:0:
402,192,153573,1,0,0:0:0:0:
36,192,153573,1,0,0:0:0:0:
109,192,153692,1,0,0:0:0:0:
256,192,153692,1,0,0:0:0:0:
475,192,153692,1,0,0:0:0:0:
402,192,153810,1,0,0:0:0:0:
36,192,153810,1,0,0:0:0:0:
182,192,153929,1,0,0:0:0:0:
109,192,153929,1,0,0:0:0:0:
475,192,153929,1,0,0:0:0:0:
329,192,153929,1,0,0:0:0:0:
36,192,154048,1,0,0:0:0:0:
402,192,154048,1,0,0:0:0:0:
256,192,154167,1,0,0:0:0:0:
36,192,154167,1,0,0:0:0:0:
402,192,154167,1,0,0:0:0:0:
109,192,154285,1,0,0:0:0:0:
475,192,154285,1,0,0:0:0:0:
402,192,154404,1,0,0:0:0:0:
182,192,154404,1,0,0:0:0:0:
329,192,154404,1,0,0:0:0:0:
36,192,154404,1,0,0:0:0:0:
475,192,154523,1,0,0:0:0:0:
109,192,154523,1,0,0:0:0:0:
402,192,154641,1,0,0:0:0:0:
256,192,154641,1,0,0:0:0:0:
36,192,154641,1,0,0:0:0:0:
109,192,154760,1,0,0:0:0:0:
475,192,154760,1,0,0:0:0:0:
36,192,154879,1,0,0:0:0:0:
182,192,154879,1,0,0:0:0:0:
329,192,154879,1,0,0:0:0:0:
402,192,154879,1,0,0:0:0:0:
256,192,154998,1,0,0:0:0:0:
475,192,154998,1,0,0:0:0:0:
109,192,154998,1,0,0:0:0:0:
36,192,155116,1,0,0:0:0:0:
402,192,155116,1,0,0:0:0:0:
475,192,155235,1,0,0:0:0:0:
109,192,155235,1,0,0:0:0:0:
256,192,155235,1,0,0:0:0:0:
329,192,155354,1,0,0:0:0:0:
402,192,155354,1,0,0:0:0:0:
36,192,155354,1,0,0:0:0:0:
182,192,155354,1,0,0:0:0:0:
109,192,155473,1,0,0:0:0:0:
475,192,155473,1,0,0:0:0:0:
36,192,155591,1,0,0:0:0:0:
256,192,155591,1,0,0:0:0:0:
402,192,155591,1,0,0:0:0:0:
475,192,155710,1,0,0:0:0:0:
109,192,155710,1,0,0:0:0:0:
182,192,155829,1,0,0:0:0:0:
402,192,155829,1,0,0:0:0:0:
329,192,155829,1,0,0:0:0:0:
36,192,155829,1,0,0:0:0:0:
109,192,155948,1,0,0:0:0:0:
475,192,155948,1,0,0:0:0:0:
109,192,156066,1,0,0:0:0:0:
475,192,156066,1,0,0:0:0:0:
256,192,156066,1,0,0:0:0:0:
402,192,156185,1,0,0:0:0:0:
36,192,156185,1,0,0:0:0:0:
475,192,156304,1,0,0:0:0:0:
182,192,156304,1,0,0:0:0:0:
109,192,156304,1,0,0:0:0:0:
329,192,156304,1,0,0:0:0:0:
36,192,156422,1,0,0:0:0:0:
402,192,156422,1,0,0:0:0:0:
256,192,156541,1,0,0:0:0:0:
109,192,156541,1,0,0:0:0:0:
475,192,156541,1,0,0:0:0:0:
36,192,156660,1,0,0:0:0:0:
402,192,156660,1,0,0:0:0:0:
475,192,156779,1,0,0:0:0:0:
182,192,156779,1,0,0:0:0:0:
329,192,156779,1,0,0:0:0:0:
109,192,156779,1,0,0:0:0:0:
256,192,156897,1,0,0:0:0:0:
36,192,156897,1,0,0:0:0:0:
402,192,156897,1,0,0:0:0:0:
475,192,157016,1,0,0:0:0:0:
109,192,157016,1,0,0:0:0:0:
36,192,157135,1,0,0:0:0:0:
256,192,157135,1,0,0:0:0:0:
402,192,157135,1,0,0:0:0:0:
329,192,157254,1,0,0:0:0:0:
109,192,157254,1,0,0:0:0:0:
182,192,157254,1,0,0:0:0:0:
475,192,157254,1,0,0:0:0:0:
36,192,157372,1,0,0:0:0:0:
402,192,157372,1,0,0:0:0:0:
475,192,157491,1,0,0:0:0:0:
256,192,157491,1,0,0:0:0:0:
109,192,157491,1,0,0:0:0:0:
36,192,157610,1,0,0:0:0:0:
402,192,157610,1,0,0:0:0:0:
475,192,157729,1,0,0:0:0:0:
329,192,157729,1,0,0:0:0:0:
182,192,157729,1,0,0:0:0:0:
109,192,157729,1,0,0:0:0:0:
402,192,157847,1,0,0:0:0:0:
36,192,157847,1,0,0:0:0:0:
402,192,157966,1,0,0:0:0:0:
36,192,157966,1,0,0:0:0:0:
256,192,157966,1,0,0:0:0:0:
475,192,158085,1,0,0:0:0:0:
109,192,158085,1,0,0:0:0:0:
329,192,158203,1,0,0:0:0:0:
36,192,158203,1,0,0:0:0:0:
402,192,158203,1,0,0:0:0:0:
182,192,158203,1,0,0:0:0:0:
109,192,158322,1,0,0:0:0:0:
475,192,158322,1,0,0:0:0:0:
36,192,158441,1,0,0:0:0:0:
256,192,158441,1,0,0:0:0:0:
402,192,158441,1,0,0:0:0:0:
475,192,158560,1,0,0:0:0:0:
109,192,158560,1,0,0:0:0:0:
329,192,158678,1,0,0:0:0:0:
402,192,158678,1,0,0:0:0:0:
36,192,158678,1,0,0:0:0:0:
182,192,158678,1,0,0:0:0:0:
109,192,158797,1,0,0:0:0:0:
475,192,158797,1,0,0:0:0:0:
256,192,158797,1,0,0:0:0:0:
402,192,158916,1,0,0:0:0:0:
36,192,158916,1,0,0:0:0:0:
256,192,159035,1,0,0:0:0:0:
109,192,159035,1,0,0:0:0:0:
475,192,159035,1,0,0:0:0:0:
36,192,159153,1,0,0:0:0:0:
182,192,159153,1,0,0:0:0:0:
329,192,159153,1,0,0:0:0:0:
402,192,159153,1,0,0:0:0:0:
475,192,159272,1,0,0:0:0:0:
109,192,159272,1,0,0:0:0:0:
402,192,159391,1,0,0:0:0:0:
256,192,159391,1,0,0:0:0:0:
36,192,159391,1,0,0:0:0:0:
109,192,159510,1,0,0:0:0:0:
475,192,159510,1,0,0:0:0:0:
329,192,159628,1,0,0:0:0:0:
36,192,159628,1,0,0:0:0:0:
182,192,159628,1,0,0:0:0:0:
402,192,159628,1,0,0:0:0:0:
475,192,159747,1,0,0:0:0:0:
109,192,159747,1,0,0:0:0:0:
256,192,159866,1,0,0:0:0:0:
475,192,159866,1,0,0:0:0:0:
109,192,159866,1,0,0:0:0:0:
36,192,159984,1,0,0:0:0:0:
402,192,159984,1,0,0:0:0:0:
109,192,160103,1,0,0:0:0:0:
329,192,160103,1,0,0:0:0:0:
475,192,160103,1,0,0:0:0:0:
182,192,160103,1,0,0:0:0:0:
402,192,160222,1,0,0:0:0:0:
36,192,160222,1,0,0:0:0:0:
475,192,160341,1,0,0:0:0:0:
109,192,160341,1,0,0:0:0:0:
256,192,160341,1,0,0:0:0:0:
402,192,160459,1,0,0:0:0:0:
36,192,160459,1,0,0:0:0:0:
329,192,160578,1,0,0:0:0:0:
109,192,160578,1,0,0:0:0:0:
475,192,160578,1,0,0:0:0:0:
182,192,160578,1,0,0:0:0:0:
402,192,160697,1,0,0:0:0:0:
36,192,160697,1,0,0:0:0:0:
256,192,160697,1,0,0:0:0:0:
109,192,160816,1,0,0:0:0:0:
475,192,160816,1,0,0:0:0:0:
402,192,160934,1,0,0:0:0:0:
256,192,160934,1,0,0:0:0:0:
36,192,160934,1,0,0:0:0:0:
182,192,161053,1,0,0:0:0:0:
475,192,161053,1,0,0:0:0:0:
329,192,161053,1,0,0:0:0:0:
109,192,161053,1,0,0:0:0:0:
402,192,161172,1,0,0:0:0:0:
36,192,161172,1,0,0:0:0:0:
109,192,161291,1,0,0:0:0:0:
256,192,161291,1,0,0:0:0:0:
475,192,161291,1,0,0:0:0:0:
402,192,161409,1,0,0:0:0:0:
36,192,161409,1,0,0:0:0:0:
182,192,161528,1,0,0:0:0:0:
109,192,161528,1,0,0:0:0:0:
475,192,161528,1,0,0:0:0:0:
329,192,161528,1,0,0:0:0:0:
36,192,161647,1,0,0:0:0:0:
402,192,161647,1,0,0:0:0:0:
256,192,161765,1,0,0:0:0:0:
36,192,161765,1,0,0:0:0:0:
402,192,161765,1,0,0:0:0:0:
109,192,161884,1,0,0:0:0:0:
475,192,161884,1,0,0:0:0:0:
402,192,162003,1,0,0:0:0:0:
182,192,162003,1,0,0:0:0:0:
329,192,162003,1,0,0:0:0:0:
36,192,162003,1,0,0:0:0:0:
475,192,162122,1,0,0:0:0:0:
109,192,162122,1,0,0:0:0:0:
402,192,162240,1,0,0:0:0:0:
256,192,162240,1,0,0:0:0:0:
36,192,162240,1,0,0:0:0:0:
109,192,162359,1,0,0:0:0:0:
475,192,162359,1,0,0:0:0:0:
36,192,162478,1,0,0:0:0:0:
182,192,162478,1,0,0:0:0:0:
329,192,162478,1,0,0:0:0:0:
402,192,162478,1,0,0:0:0:0:
256,192,162597,1,0,0:0:0:0:
475,192,162597,1,0,0:0:0:0:
109,192,162597,1,0,0:0:0:0:
36,192,162715,1,0,0:0:0:0:
402,192,162715,1,0,0:0:0:0:
475,192,162834,1,0,0:0:0:0:
109,192,162834,1,0,0:0:0:0:
256,192,162834,1,0,0:0:0:0:
329,192,162953,1,0,0:0:0:0:
402,192,162953,1,0,0:0:0:0:
36,192,162953,1,0,0:0:0:0:
182,192,162953,1,0,0:0:0:0:
109,192,163072,1,0,0:0:0:0:
475,192,163072,1,0,0:0:0:0:
36,192,163190,1,0,0:0:0:0:
256,192,163190,1,0,0:0:0:0:
402,192,163190,1,0,0:0:0:0:
475,192,163309,1,0,0:0:0:0:
109,192,163309,1,0,0:0:0:0:
182,192,163428,1,0,0:0:0:0:
402,192,163428,1,0,0:0:0:0:
329,192,163428,1,0,0:0:0:0:
36,192,163428,1,0,0:0:0:0:
109,192,163547,1,0,0:0:0:0:
475,192,163547,1,0,0:0:0:0:
109,192,163665,1,0,0:0:0:0:
475,192,163665,1,0,0:0:0:0:
256,192,163665,1,0,0:0:0:0:
402,192,163784,1,0,0:0:0:0:
36,192,163784,1,0,0:0:0:0:
475,192,163903,1,0,0:0:0:0:
182,192,163903,1,0,0:0:0:0:
109,192,163903,1,0,0:0:0:0:
329,192,163903,1,0,0:0:0:0:
36,192,164021,1,0,0:0:0:0:
402,192,164021,1,0,0:0:0:0:
256,192,164140,1,0,0:0:0:0:
109,192,164140,1,0,0:0:0:0:
475,192,164140,1,0,0:0:0:0:
36,192,164259,1,0,0:0:0:0:
402,192,164259,1,0,0:0:0:0:
475,192,164378,1,0,0:0:0:0:
182,192,164378,1,0,0:0:0:0:
329,192,164378,1,0,0:0:0:0:
109,192,164378,1,0,0:0:0:0:
256,192,164496,1,0,0:0:0:0:
36,192,164496,1,0,0:0:0:0:
402,192,164496,1,0,0:0:0:0:
475,192,164615,1,0,0:0:0:0:
109,192,164615,1,0,0:0:0:0:
36,192,164734,1,0,0:0:0:0:
256,192,164734,1,0,0:0:0:0:
402,192,164734,1,0,0:0:0:0:
329,192,164853,1,0,0:0:0:0:
109,192,164853,1,0,0:0:0:0:
182,192,164853,1,0,0:0:0:0:
475,192,164853,1,0,0:0:0:0:
36,192,164971,1,0,0:0:0:0:
402,192,164971,1,0,0:0:0:0:
475,192,165090,1,0,0:0:0:0:
256,192,165090,1,0,0:0:0:0:
109,192,165090,1,0,0:0:0:0:
36,192,165209,1,0,0:0:0:0:
402,192,165209,1,0,0:0:0:0:
475,192,165328,1,0,0:0:0:0:
329,192,165328,1,0,0:0:0:0:
182,192,165328,1,0,0:0:0:0:
109,192,165328,1,0,0:0:0:0:
402,192,165446,1,0,0:0:0:0:
36,192,165446,1,0,0:0:0:0:
402,192,165565,1,0,0:0:0:0:
36,192,165565,1,0,0:0:0:0:
256,192,165565,1,0,0:0:0:0:
475,192,165684,1,0,0:0:0:0:
109,192,165684,1,0,0:0:0:0:
329,192,165802,1,0,0:0:0:0:
36,192,165802,1,0,0:0:0:0:
402,192,165802,1,0,0:0:0:0:
182,192,165802,1,0,0:0:0:0:
109,192,165921,1,0,0:0:0:0:
475,192,165921,1,0,0:0:0:0:
36,192,166040,1,0,0:0:0:0:
256,192,166040,1,0,0:0:0:0:
402,192,166040,1,0,0:0:0:0:
475,192,166159,1,0,0:0:0:0:
109,192,166159,1,0,0:0:0:0:
329,192,166277,1,0,0:0:0:0:
402,192,166277,1,0,0:0:0:0:
36,192,166277,1,0,0:0:0:0:
182,192,166277,1,0,0:0:0:0:
109,192,166396,1,0,0:0:0:0:
475,192,166396,1,0,0:0:0:0:
256,192,166396,1,0,0:0:0:0:
402,192,166515,1,0,0:0:0:0:
36,192,166515,1,0,0:0:0:0:
256,192,166634,1,0,0:0:0:0:
109,192,166634,1,0,0:0:0:0:
475,192,166634,1,0,0:0:0:0:
36,192,166752,1,0,0:0:0:0:
182,192,166752,1,0,0:0:0:0:
329,192,166752,1,0,0:0:0:0:
402,192,166752,1,0,0:0:0:0:
475,192,166871,1,0,0:0:0:0:
109,192,166871,1,0,0:0:0:0:
402,192,166990,1,0,0:0:0:0:
256,192,166990,1,0,0:0:0:0:
36,192,166990,1,0,0:0:0:0:
109,192,167109,1,0,0:0:0:0:
475,192,167109,1,0,0:0:0:0:
329,192,167227,1,0,0:0:0:0:
36,192,167227,1,0,0:0:0:0:
182,192,167227,1,0,0:0:0:0:
402,192,167227,1,0,0:0:0:0:
475,192,167346,1,0,0:0:0:0:
109,192,167346,1,0,0:0:0:0:
256,192,167465,1,0,0:0:0:0:
475,192,167465,1,0,0:0:0:0:
109,192,167465,1,0,0:0:0:0:
36,192,167583,1,0,0:0:0:0:
402,192,167583,1,0,0:0:0:0:
109,192,167702,1,0,0:0:0:0:
329,192,167702,1,0,0:0:0:0:
475,192,167702,1,0,0:0:0:0:
182,192,167702,1,0,0:0:0:0:
402,192,167821,1,0,0:0:0:0:
36,192,167821,1,0,0:0:0:0:
475,192,167940,1,0,0:0:0:0:
109,192,167940,1,0,0:0:0:0:
256,192,167940,1,0,0:0:0:0:
402,192,168058,1,0,0:0:0:0:
36,192,168058,1,0,0:0:0:0:
329,192,168177,1,0,0:0:0:0:
109,192,168177,1,0,0:0:0:0:
475,192,168177,1,0,0:0:0:0:
182,192,168177,1,0,0:0:0:0:
402,192,168296,1,0,0:0:0:0:
36,192,168296,1,0,0:0:0:0:
256,192,168296,1,0,0:0:0:0:
109,192,168415,1,0,0:0:0:0:
475,192,168415,1,0,0:0:0:0:
402,192,168533,1,0,0:0:0:0:
256,192,168533,1,0,0:0:0:0:
36,192,168533,1,0,0:0:0:0:
182,192,168652,1,0,0:0:0:0:
475,192,168652,1,0,0:0:0:0:
329,192,168652,1,0,0:0:0:0:
109,192,168652,1,0,0:0:0:0:
402,192,168771,1,0,0:0:0:0:
36,192,168771,1,0,0:0:0:0:
109,192,168890,1,0,0:0:0:0:
256,192,168890,1,0,0:0:0:0:
475,192,168890,1,0,0:0:0:0:
402,192,169008,1,0,0:0:0:0:
36,192,169008,1,0,0:0:0:0:
182,192,169127,1,0,0:0:0:0:
109,192,169127,1,0,0:0:0:0:
475,192,169127,1,0,0:0:0:0:
329,192,169127,1,0,0:0:0:0:
36,192,169246,1,0,0:0:0:0:
402,192,169246,1,0,0:0:0:0:
256,192,169364,1,0,0:0:0:0:
36,192,169364,1,0,0:0:0:0:
402,192,169364,1,0,0:0:0:0:
109,192,169483,1,0,0:0:0:0:
475,192,169483,1,0,0:0:0:0:
402,192,169602,1,0,0:0:0:0:
182,192,169602,1,0,0:0:0:0:
329,192,169602,1,0,0:0:0:0:
36,192,169602,1,0,0:0:0:0:
475,192,169721,1,0,0:0:0:0:
109,192,169721,1,0,0:0:0:0:
402,192,169839,1,0,0:0:0:0:
256,192,169839,1,0,0:0:0:0:
36,192,169839,1,0,0:0:0:0:
109,192,169958,1,0,0:0:0:0:
475,192,169958,1,0,0:0:0:0:
36,192,170077,1,0,0:0:0:0:
182,192,170077,1,0,0:0:0:0:
329,192,170077,1,0,0:0:0:0:
402,192,170077,1,0,0:0:0:0:
256,192,170196,1,0,0:0:0:0:
475,192,170196,1,0,0:0:0:0:
109,192,170196,1,0,0:0:0:0:
36,192,170314,1,0,0:0:0:0:
402,192,170314,1,0,0:0:0:0:
475,192,170433,1,0,0:0:0:0:
109,192,170433,1,0,0:0:0:0:
256,192,170433,1,0,0:0:0:0:
329,192,170552,1,0,0:0:0:0:
402,192,170552,1,0,0:0:0:0:
36,192,170552,1,0,0:0:0:0:
182,192,170552,1,0,0:0:0:0:
109,192,170671,1,0,0:0:0:0:
475,192,170671,1,0,0:0:0:0:
36,192,170789,1,0,0:0:0:0:
256,192,170789,1,0,0:0:0:0:
402,192,170789,1,0,0:0:0:0:
475,192,170908,1,0,0:0:0:0:
109,192,170908,1,0,0:0:0:0:
182,192,171027,1,0,0:0:0:0:
402,192,171027,1,0,0:0:0:0:
329,192,171027,1,0,0:0:0:0:
36,192,171027,1,0,0:0:0:0:
109,192,171145,1,0,0:0:0:0:
475,192,171145,1,0,0:0:0:0:
109,192,171264,1,0,0:0:0:0:
475,192,171264,1,0,0:0:0:0:
256,192,171264,1,0,0:0:0:0:
402,192,171383,1,0,0:0:0:0:
36,192,171383,1,0,0:0:0:0:
475,192,171502,1,0,0:0:0:0:
109,192,171502,1,0,0:0:0:0:
36,192,171620,1,0,0:0:0:0:
402,192,171620,1,0,0:0:0:0:
109,192,171739,1,0,0:0:0:0:
475,192,171739,1,0,0:0:0:0:
36,192,171858,1,0,0:0:0:0:
402,192,171858,1,0,0:0:0:0:
475,192,171977,1,0,0:0:0:0:
109,192,171977,1,0,0:0:0:0:
36,192,172095,1,0,0:0:0:0:
402,192,172095,1,0,0:0:0:0:
475,192,172214,1,0,0:0:0:0:
109,192,172214,1,0,0:0:0:0:
36,192,172333,1,0,0:0:0:0:
402,192,172333,1,0,0:0:0:0:
109,192,172452,1,0,0:0:0:0:
475,192,172452,1,0,0:0:0:0:
36,192,172570,1,0,0:0:0:0:
402,192,172570,1,0,0:0:0:0:
475,192,172689,1,0,0:0:0:0:
109,192,172689,1,0,0:0:0:0:
36,192,172808,1,0,0:0:0:0:
402,192,172808,1,0,0:0:0:0:
475,192,172926,1,0,0:0:0:0:
109,192,172926,1,0,0:0:0:0:
256,192,172926,1,0,0:0:0:0:
329,192,172926,1,0,0:0:0:0:
182,192,172926,1,0,0:0:0:0:
36,192,173045,1,0,0:0:0:0:
182,192,173164,128,0,173639:0:0:0:0:
475,192,173401,1,0,0:0:0:0:
36,192,173401,1,0,0:0:0:0:
475,192,173876,1,0,0:0:0:0:
36,192,173876,1,0,0:0:0:0:
36,192,174351,1,0,0:0:0:0:
475,192,174351,1,0,0:0:0:0:
329,192,174470,1,0,0:0:0:0:
109,192,174589,128,0,174648:0:0:0:0:
475,192,174826,1,0,0:0:0:0:
36,192,174826,1,0,0:0:0:0:
182,192,174826,128,0,174886:0:0:0:0:
256,192,175064,128,0,175539:0:0:0:0:
36,192,175301,1,0,0:0:0:0:
475,192,175301,1,0,0:0:0:0:
475,192,175776,1,0,0:0:0:0:
36,192,175776,1,0,0:0:0:0:
36,192,176251,1,0,0:0:0:0:
475,192,176251,1,0,0:0:0:0:
329,192,176370,1,0,0:0:0:0:
329,192,176607,1,0,0:0:0:0:
475,192,176726,1,0,0:0:0:0:
36,192,176726,1,0,0:0:0:0:
329,192,176963,128,0,177438:0:0:0:0:
36,192,177201,1,0,0:0:0:0:
475,192,177201,1,0,0:0:0:0:
475,192,177676,1,0,0:0:0:0:
36,192,177676,1,0,0:0:0:0:
475,192,178151,1,0,0:0:0:0:
36,192,178151,1,0,0:0:0:0:
329,192,178269,1,0,0:0:0:0:
109,192,178388,128,0,178448:0:0:0:0:
36,192,178626,1,0,0:0:0:0:
475,192,178626,1,0,0:0:0:0:
182,192,178626,128,0,178685:0:0:0:0:
329,192,178863,1,0,0:0:0:0:
109,192,178863,1,0,0:0:0:0:
402,192,179219,1,0,0:0:0:0:
182,192,179219,1,0,0:0:0:0:
256,192,179576,1,0,0:0:0:0:
475,192,179576,1,0,0:0:0:0:
182,192,179813,1,0,0:0:0:0:
402,192,179813,1,0,0:0:0:0:
256,192,179932,1,0,0:0:0:0:
182,192,180051,1,0,0:0:0:0:
402,192,180051,1,0,0:0:0:0:
256,192,180169,1,0,0:0:0:0:
182,192,180288,1,0,0:0:0:0:
402,192,180288,1,0,0:0:0:0:
256,192,180407,1,0,0:0:0:0:
329,192,180407,1,0,0:0:0:0:
182,192,180407,1,0,0:0:0:0:
329,192,180525,1,0,0:0:0:0:
256,192,180525,1,0,0:0:0:0:
256,192,180644,1,0,0:0:0:0:
109,192,180763,1,0,0:0:0:0:
329,192,180763,1,0,0:0:0:0:
475,192,180763,1,0,0:0:0:0:
182,192,180882,1,0,0:0:0:0:
256,192,180941,1,0,0:0:0:0:
329,192,181000,1,0,0:0:0:0:
402,192,181000,1,0,0:0:0:0:
36,192,181000,1,0,0:0:0:0:
182,192,181119,1,0,0:0:0:0:
109,192,181238,1,0,0:0:0:0:
329,192,181238,1,0,0:0:0:0:
475,192,181238,1,0,0:0:0:0:
402,192,181357,1,0,0:0:0:0:
36,192,181357,1,0,0:0:0:0:
182,192,181357,1,0,0:0:0:0:
256,192,181416,1,0,0:0:0:0:
109,192,181475,1,0,0:0:0:0:
475,192,181475,1,0,0:0:0:0:
329,192,181475,1,0,0:0:0:0:
36,192,181594,1,0,0:0:0:0:
182,192,181594,1,0,0:0:0:0:
402,192,181594,1,0,0:0:0:0:
329,192,181713,1,0,0:0:0:0:
475,192,181713,1,0,0:0:0:0:
109,192,181713,1,0,0:0:0:0:
182,192,181832,1,0,0:0:0:0:
402,192,181832,1,0,0:0:0:0:
36,192,181832,1,0,0:0:0:0:
256,192,181891,1,0,0:0:0:0:
329,192,181950,1,0,0:0:0:0:
475,192,181950,1,0,0:0:0:0:
109,192,181950,1,0,0:0:0:0:
182,192,182069,1,0,0:0:0:0:
402,192,182069,1,0,0:0:0:0:
36,192,182069,1,0,0:0:0:0:
475,192,182188,1,0,0:0:0:0:
329,192,182188,1,0,0:0:0:0:
109,192,182188,1,0,0:0:0:0:
402,192,182306,1,0,0:0:0:0:
36,192,182306,1,0,0:0:0:0:
182,192,182306,1,0,0:0:0:0:
256,192,182366,1,0,0:0:0:0:
329,192,182425,1,0,0:0:0:0:
109,192,182425,1,0,0:0:0:0:
475,192,182425,1,0,0:0:0:0:
402,192,182544,1,0,0:0:0:0:
36,192,182544,1,0,0:0:0:0:
182,192,182544,1,0,0:0:0:0:
109,192,182663,1,0,0:0:0:0:
475,192,182663,1,0,0:0:0:0:
329,192,182663,1,0,0:0:0:0:
402,192,182781,1,0,0:0:0:0:
182,192,182781,1,0,0:0:0:0:
36,192,182781,1,0,0:0:0:0:
256,192,182841,1,0,0:0:0:0:
329,192,182900,1,0,0:0:0:0:
475,192,182900,1,0,0:0:0:0:
109,192,182900,1,0,0:0:0:0:
36,192,183019,1,0,0:0:0:0:
402,192,183019,1,0,0:0:0:0:
182,192,183019,1,0,0:0:0:0:
329,192,183138,1,0,0:0:0:0:
475,192,183138,1,0,0:0:0:0:
109,192,183138,1,0,0:0:0:0:
36,192,183256,1,0,0:0:0:0:
402,192,183256,1,0,0:0:0:0:
182,192,183256,1,0,0:0:0:0:
256,192,183316,1,0,0:0:0:0:
109,192,183375,1,0,0:0:0:0:
329,192,183375,1,0,0:0:0:0:
475,192,183375,1,0,0:0:0:0:
36,192,183494,1,0,0:0:0:0:
182,192,183494,1,0,0:0:0:0:
402,192,183494,1,0,0:0:0:0:
109,192,183613,1,0,0:0:0:0:
475,192,183613,1,0,0:0:0:0:
329,192,183613,1,0,0:0:0:0:
182,192,183731,1,0,0:0:0:0:
36,192,183731,1,0,0:0:0:0:
402,192,183731,1,0,0:0:0:0:
256,192,183791,1,0,0:0:0:0:
329,192,183850,1,0,0:0:0:0:
109,192,183850,1,0,0:0:0:0:
475,192,183850,1,0,0:0:0:0:
182,192,183969,1,0,0:0:0:0:
36,192,183969,1,0,0:0:0:0:
402,192,183969,1,0,0:0:0:0:
475,192,184087,1,0,0:0:0:0:
329,192,184087,1,0,0:0:0:0:
109,192,184087,1,0,0:0:0:0:
36,192,184206,1,0,0:0:0:0:
402,192,184206,1,0,0:0:0:0:
182,192,184206,1,0,0:0:0:0:
256,192,184266,1,0,0:0:0:0:
475,192,184325,1,0,0:0:0:0:
109,192,184325,1,0,0:0:0:0:
329,192,184325,1,0,0:0:0:0:
402,192,184444,1,0,0:0:0:0:
36,192,184444,1,0,0:0:0:0:
182,192,184444,1,0,0:0:0:0:
475,192,184562,1,0,0:0:0:0:
329,192,184562,1,0,0:0:0:0:
109,192,184562,1,0,0:0:0:0:
36,192,184681,1,0,0:0:0:0:
182,192,184681,1,0,0:0:0:0:
402,192,184681,1,0,0:0:0:0:
256,192,184740,1,0,0:0:0:0:
475,192,184800,1,0,0:0:0:0:
109,192,184800,1,0,0:0:0:0:
329,192,184800,1,0,0:0:0:0:
402,192,184919,1,0,0:0:0:0:
182,192,184919,1,0,0:0:0:0:
36,192,184919,1,0,0:0:0:0:
109,192,185037,1,0,0:0:0:0:
329,192,185037,1,0,0:0:0:0:
475,192,185037,1,0,0:0:0:0:
182,192,185156,1,0,0:0:0:0:
36,192,185156,1,0,0:0:0:0:
402,192,185156,1,0,0:0:0:0:
256,192,185215,1,0,0:0:0:0:
109,192,185275,1,0,0:0:0:0:
475,192,185275,1,0,0:0:0:0:
329,192,185275,1,0,0:0:0:0:
182,192,185394,1,0,0:0:0:0:
402,192,185394,1,0,0:0:0:0:
36,192,185394,1,0,0:0:0:0:
475,192,185512,1,0,0:0:0:0:
109,192,185512,1,0,0:0:0:0:
329,192,185512,1,0,0:0:0:0:
402,192,185631,1,0,0:0:0:0:
36,192,185631,1,0,0:0:0:0:
182,192,185631,1,0,0:0:0:0:
256,192,185690,1,0,0:0:0:0:
329,192,185750,1,0,0:0:0:0:
109,192,185750,1,0,0:0:0:0:
475,192,185750,1,0,0:0:0:0:
402,192,185868,1,0,0:0:0:0:
36,192,185868,1,0,0:0:0:0:
182,192,185868,1,0,0:0:0:0:
329,192,185987,1,0,0:0:0:0:
109,192,185987,1,0,0:0:0:0:
475,192,185987,1,0,0:0:0:0:
182,192,186106,1,0,0:0:0:0:
36,192,186106,1,0,0:0:0:0:
402,192,186106,1,0,0:0:0:0:
256,192,186165,1,0,0:0:0:0:
109,192,186225,1,0,0:0:0:0:
475,192,186225,1,0,0:0:0:0:
329,192,186225,1,0,0:0:0:0:
36,192,186343,1,0,0:0:0:0:
402,192,186343,1,0,0:0:0:0:
182,192,186343,1,0,0:0:0:0:
109,192,186462,1,0,0:0:0:0:
329,192,186462,1,0,0:0:0:0:
475,192,186462,1,0,0:0:0:0:
402,192,186581,1,0,0:0:0:0:
182,192,186581,1,0,0:0:0:0:
36,192,186581,1,0,0:0:0:0:
256,192,186640,1,0,0:0:0:0:
329,192,186700,1,0,0:0:0:0:
109,192,186700,1,0,0:0:0:0:
475,192,186700,1,0,0:0:0:0:
36,192,186818,1,0,0:0:0:0:
182,192,186818,1,0,0:0:0:0:
402,192,186818,1,0,0:0:0:0:
475,192,186937,1,0,0:0:0:0:
329,192,186937,1,0,0:0:0:0:
109,192,186937,1,0,0:0:0:0:
402,192,187056,1,0,0:0:0:0:
36,192,187056,1,0,0:0:0:0:
182,192,187056,1,0,0:0:0:0:
256,192,187115,1,0,0:0:0:0:
329,192,187175,1,0,0:0:0:0:
475,192,187175,1,0,0:0:0:0:
109,192,187175,1,0,0:0:0:0:
36,192,187293,1,0,0:0:0:0:
402,192,187293,1,0,0:0:0:0:
182,192,187293,1,0,0:0:0:0:
329,192,187412,1,0,0:0:0:0:
109,192,187412,1,0,0:0:0:0:
475,192,187412,1,0,0:0:0:0:
182,192,187531,1,0,0:0:0:0:
36,192,187531,1,0,0:0:0:0:
402,192,187531,1,0,0:0:0:0:
256,192,187590,1,0,0:0:0:0:
475,192,187649,1,0,0:0:0:0:
109,192,187649,1,0,0:0:0:0:
329,192,187649,1,0,0:0:0:0:
182,192,187768,1,0,0:0:0:0:
36,192,187768,1,0,0:0:0:0:
402,192,187768,1,0,0:0:0:0:
475,192,187887,1,0,0:0:0:0:
109,192,187887,1,0,0:0:0:0:
329,192,187887,1,0,0:0:0:0:
402,192,188006,1,0,0:0:0:0:
36,192,188006,1,0,0:0:0:0:
182,192,188006,1,0,0:0:0:0:
256,192,188065,1,0,0:0:0:0:
329,192,188124,1,0,0:0:0:0:
475,192,188124,1,0,0:0:0:0:
109,192,188124,1,0,0:0:0:0:
182,192,188243,1,0,0:0:0:0:
402,192,188243,1,0,0:0:0:0:
36,192,188243,1,0,0:0:0:0:
475,192,188362,1,0,0:0:0:0:
329,192,188362,1,0,0:0:0:0:
109,192,188362,1,0,0:0:0:0:
256,192,188362,1,0,0:0:0:0:
36,192,188481,1,0,0:0:0:0:
182,192,188481,1,0,0:0:0:0:
402,192,188481,1,0,0:0:0:0:
475,192,188599,1,0,0:0:0:0:
109,192,188599,1,0,0:0:0:0:
329,192,188599,1,0,0:0:0:0:
402,192,188718,1,0,0:0:0:0:
182,192,188718,1,0,0:0:0:0:
36,192,188718,1,0,0:0:0:0:
109,192,188837,1,0,0:0:0:0:
329,192,188837,1,0,0:0:0:0:
475,192,188837,1,0,0:0:0:0:
256,192,188837,1,0,0:0:0:0:
182,192,188956,1,0,0:0:0:0:
36,192,188956,1,0,0:0:0:0:
402,192,188956,1,0,0:0:0:0:
109,192,189074,1,0,0:0:0:0:
475,192,189074,1,0,0:0:0:0:
329,192,189074,1,0,0:0:0:0:
182,192,189193,1,0,0:0:0:0:
402,192,189193,1,0,0:0:0:0:
36,192,189193,1,0,0:0:0:0:
475,192,189312,1,0,0:0:0:0:
109,192,189312,1,0,0:0:0:0:
329,192,189312,1,0,0:0:0:0:
256,192,189312,1,0,0:0:0:0:
402,192,189430,1,0,0:0:0:0:
36,192,189430,1,0,0:0:0:0:
182,192,189430,1,0,0:0:0:0:
329,192,189549,1,0,0:0:0:0:
109,192,189549,1,0,0:0:0:0:
475,192,189549,1,0,0:0:0:0:
256,192,189549,1,0,0:0:0:0:
402,192,189668,1,0,0:0:0:0:
36,192,189668,1,0,0:0:0:0:
182,192,189668,1,0,0:0:0:0:
329,192,189787,1,0,0:0:0:0:
109,192,189787,1,0,0:0:0:0:
475,192,189787,1,0,0:0:0:0:
256,192,189787,1,0,0:0:0:0:
182,192,189905,1,0,0:0:0:0:
36,192,189905,1,0,0:0:0:0:
402,192,189905,1,0,0:0:0:0:
256,192,189905,1,0,0:0:0:0:
109,192,190024,1,0,0:0:0:0:
475,192,190024,1,0,0:0:0:0:
329,192,190024,1,0,0:0:0:0:
256,192,190024,1,0,0:0:0:0:
36,192,190143,1,0,0:0:0:0:
402,192,190143,1,0,0:0:0:0:
182,192,190143,1,0,0:0:0:0:
256,192,190143,1,0,0:0:0:0:
109,192,190262,1,0,0:0:0:0:
329,192,190262,1,0,0:0:0:0:
475,192,190262,1,0,0:0:0:0:
256,192,190262,1,0,0:0:0:0:
182,192,190380,1,0,0:0:0:0:
256,192,190440,1,0,0:0:0:0:
329,192,190499,1,0,0:0:0:0:
402,192,190499,1,0,0:0:0:0:
36,192,190499,1,0,0:0:0:0:
182,192,190618,1,0,0:0:0:0:
109,192,190737,1,0,0:0:0:0:
329,192,190737,1,0,0:0:0:0:
475,192,190737,1,0,0:0:0:0:
402,192,190855,1,0,0:0:0:0:
36,192,190855,1,0,0:0:0:0:
182,192,190855,1,0,0:0:0:0:
256,192,190915,1,0,0:0:0:0:
109,192,190974,1,0,0:0:0:0:
475,192,190974,1,0,0:0:0:0:
329,192,190974,1,0,0:0:0:0:
36,192,191093,1,0,0:0:0:0:
182,192,191093,1,0,0:0:0:0:
402,192,191093,1,0,0:0:0:0:
329,192,191211,1,0,0:0:0:0:
475,192,191211,1,0,0:0:0:0:
109,192,191211,1,0,0:0:0:0:
182,192,191330,1,0,0:0:0:0:
402,192,191330,1,0,0:0:0:0:
36,192,191330,1,0,0:0:0:0:
256,192,191390,1,0,0:0:0:0:
329,192,191449,1,0,0:0:0:0:
475,192,191449,1,0,0:0:0:0:
109,192,191449,1,0,0:0:0:0:
182,192,191568,1,0,0:0:0:0:
402,192,191568,1,0,0:0:0:0:
36,192,191568,1,0,0:0:0:0:
475,192,191686,1,0,0:0:0:0:
329,192,191686,1,0,0:0:0:0:
109,192,191686,1,0,0:0:0:0:
402,192,191805,1,0,0:0:0:0:
36,192,191805,1,0,0:0:0:0:
182,192,191805,1,0,0:0:0:0:
256,192,191865,1,0,0:0:0:0:
329,192,191924,1,0,0:0:0:0:
109,192,191924,1,0,0:0:0:0:
475,192,191924,1,0,0:0:0:0:
402,192,192043,1,0,0:0:0:0:
36,192,192043,1,0,0:0:0:0:
182,192,192043,1,0,0:0:0:0:
109,192,192161,1,0,0:0:0:0:
475,192,192161,1,0,0:0:0:0:
329,192,192161,1,0,0:0:0:0:
402,192,192280,1,0,0:0:0:0:
182,192,192280,1,0,0:0:0:0:
36,192,192280,1,0,0:0:0:0:
256,192,192339,1,0,0:0:0:0:
329,192,192399,1,0,0:0:0:0:
475,192,192399,1,0,0:0:0:0:
109,192,192399,1,0,0:0:0:0:
36,192,192518,1,0,0:0:0:0:
402,192,192518,1,0,0:0:0:0:
182,192,192518,1,0,0:0:0:0:
329,192,192636,1,0,0:0:0:0:
475,192,192636,1,0,0:0:0:0:
109,192,192636,1,0,0:0:0:0:
36,192,192755,1,0,0:0:0:0:
402,192,192755,1,0,0:0:0:0:
182,192,192755,1,0,0:0:0:0:
256,192,192814,1,0,0:0:0:0:
109,192,192874,1,0,0:0:0:0:
329,192,192874,1,0,0:0:0:0:
475,192,192874,1,0,0:0:0:0:
36,192,192992,1,0,0:0:0:0:
182,192,192992,1,0,0:0:0:0:
402,192,192992,1,0,0:0:0:0:
109,192,193111,1,0,0:0:0:0:
475,192,193111,1,0,0:0:0:0:
329,192,193111,1,0,0:0:0:0:
182,192,193230,1,0,0:0:0:0:
36,192,193230,1,0,0:0:0:0:
402,192,193230,1,0,0:0:0:0:
256,192,193289,1,0,0:0:0:0:
329,192,193349,1,0,0:0:0:0:
109,192,193349,1,0,0:0:0:0:
475,192,193349,1,0,0:0:0:0:
182,192,193467,1,0,0:0:0:0:
36,192,193467,1,0,0:0:0:0:
402,192,193467,1,0,0:0:0:0:
475,192,193586,1,0,0:0:0:0:
329,192,193586,1,0,0:0:0:0:
109,192,193586,1,0,0:0:0:0:
36,192,193705,1,0,0:0:0:0:
402,192,193705,1,0,0:0:0:0:
182,192,193705,1,0,0:0:0:0:
256,192,193764,1,0,0:0:0:0:
475,192,193824,1,0,0:0:0:0:
109,192,193824,1,0,0:0:0:0:
329,192,193824,1,0,0:0:0:0:
402,192,193942,1,0,0:0:0:0:
36,192,193942,1,0,0:0:0:0:
182,192,193942,1,0,0:0:0:0:
475,192,194061,1,0,0:0:0:0:
329,192,194061,1,0,0:0:0:0:
109,192,194061,1,0,0:0:0:0:
36,192,194180,1,0,0:0:0:0:
182,192,194180,1,0,0:0:0:0:
402,192,194180,1,0,0:0:0:0:
256,192,194239,1,0,0:0:0:0:
475,192,194299,1,0,0:0:0:0:
109,192,194299,1,0,0:0:0:0:
329,192,194299,1,0,0:0:0:0:
402,192,194417,1,0,0:0:0:0:
182,192,194417,1,0,0:0:0:0:
36,192,194417,1,0,0:0:0:0:
109,192,194536,1,0,0:0:0:0:
329,192,194536,1,0,0:0:0:0:
475,192,194536,1,0,0:0:0:0:
182,192,194655,1,0,0:0:0:0:
36,192,194655,1,0,0:0:0:0:
402,192,194655,1,0,0:0:0:0:
256,192,194714,1,0,0:0:0:0:
109,192,194774,1,0,0:0:0:0:
475,192,194774,1,0,0:0:0:0:
329,192,194774,1,0,0:0:0:0:
182,192,194892,1,0,0:0:0:0:
402,192,194892,1,0,0:0:0:0:
36,192,194892,1,0,0:0:0:0:
475,192,195011,1,0,0:0:0:0:
109,192,195011,1,0,0:0:0:0:
329,192,195011,1,0,0:0:0:0:
402,192,195130,1,0,0:0:0:0:
36,192,195130,1,0,0:0:0:0:
182,192,195130,1,0,0:0:0:0:
256,192,195189,1,0,0:0:0:0:
329,192,195248,1,0,0:0:0:0:
109,192,195248,1,0,0:0:0:0:
475,192,195248,1,0,0:0:0:0:
402,192,195367,1,0,0:0:0:0:
36,192,195367,1,0,0:0:0:0:
182,192,195367,1,0,0:0:0:0:
329,192,195486,1,0,0:0:0:0:
109,192,195486,1,0,0:0:0:0:
475,192,195486,1,0,0:0:0:0:
182,192,195605,1,0,0:0:0:0:
36,192,195605,1,0,0:0:0:0:
402,192,195605,1,0,0:0:0:0:
256,192,195664,1,0,0:0:0:0:
109,192,195723,1,0,0:0:0:0:
475,192,195723,1,0,0:0:0:0:
329,192,195723,1,0,0:0:0:0:
36,192,195842,1,0,0:0:0:0:
402,192,195842,1,0,0:0:0:0:
182,192,195842,1,0,0:0:0:0:
109,192,195961,1,0,0:0:0:0:
329,192,195961,1,0,0:0:0:0:
475,192,195961,1,0,0:0:0:0:
402,192,196080,1,0,0:0:0:0:
182,192,196080,1,0,0:0:0:0:
36,192,196080,1,0,0:0:0:0:
256,192,196139,1,0,0:0:0:0:
329,192,196198,1,0,0:0:0:0:
109,192,196198,1,0,0:0:0:0:
475,192,196198,1,0,0:0:0:0:
36,192,196317,1,0,0:0:0:0:
182,192,196317,1,0,0:0:0:0:
402,192,196317,1,0,0:0:0:0:
475,192,196436,1,0,0:0:0:0:
329,192,196436,1,0,0:0:0:0:
109,192,196436,1,0,0:0:0:0:
402,192,196555,1,0,0:0:0:0:
36,192,196555,1,0,0:0:0:0:
182,192,196555,1,0,0:0:0:0:
256,192,196614,1,0,0:0:0:0:
329,192,196673,1,0,0:0:0:0:
475,192,196673,1,0,0:0:0:0:
109,192,196673,1,0,0:0:0:0:
36,192,196792,1,0,0:0:0:0:
402,192,196792,1,0,0:0:0:0:
182,192,196792,1,0,0:0:0:0:
329,192,196911,1,0,0:0:0:0:
109,192,196911,1,0,0:0:0:0:
475,192,196911,1,0,0:0:0:0:
182,192,197029,1,0,0:0:0:0:
36,192,197029,1,0,0:0:0:0:
402,192,197029,1,0,0:0:0:0:
256,192,197089,1,0,0:0:0:0:
475,192,197148,1,0,0:0:0:0:
109,192,197148,1,0,0:0:0:0:
329,192,197148,1,0,0:0:0:0:
182,192,197267,1,0,0:0:0:0:
36,192,197267,1,0,0:0:0:0:
402,192,197267,1,0,0:0:0:0:
475,192,197386,1,0,0:0:0:0:
109,192,197386,1,0,0:0:0:0:
329,192,197386,1,0,0:0:0:0:
402,192,197504,1,0,0:0:0:0:
36,192,197504,1,0,0:0:0:0:
182,192,197504,1,0,0:0:0:0:
256,192,197564,1,0,0:0:0:0:
329,192,197623,1,0,0:0:0:0:
475,192,197623,1,0,0:0:0:0:
109,192,197623,1,0,0:0:0:0:
182,192,197742,1,0,0:0:0:0:
402,192,197742,1,0,0:0:0:0:
36,192,197742,1,0,0:0:0:0:
475,192,197861,1,0,0:0:0:0:
329,192,197861,1,0,0:0:0:0:
109,192,197861,1,0,0:0:0:0:
256,192,197861,1,0,0:0:0:0:
36,192,197979,1,0,0:0:0:0:
182,192,197979,1,0,0:0:0:0:
402,192,197979,1,0,0:0:0:0:
475,192,198098,1,0,0:0:0:0:
109,192,198098,1,0,0:0:0:0:
329,192,198098,1,0,0:0:0:0:
256,192,198098,1,0,0:0:0:0:
402,192,198217,1,0,0:0:0:0:
182,192,198217,1,0,0:0:0:0:
36,192,198217,1,0,0:0:0:0:
109,192,198336,1,0,0:0:0:0:
329,192,198336,1,0,0:0:0:0:
475,192,198336,1,0,0:0:0:0:
256,192,198336,1,0,0:0:0:0:
182,192,198454,1,0,0:0:0:0:
36,192,198454,1,0,0:0:0:0:
402,192,198454,1,0,0:0:0:0:
256,192,198454,1,0,0:0:0:0:
256,192,198573,1,0,0:0:0:0:
109,192,198573,1,0,0:0:0:0:
475,192,198573,1,0,0:0:0:0:
329,192,198573,1,0,0:0:0:0:
182,192,198692,1,0,0:0:0:0:
402,192,198692,1,0,0:0:0:0:
36,192,198692,1,0,0:0:0:0:
256,192,198692,1,0,0:0:0:0:
475,192,198810,1,0,0:0:0:0:
109,192,198810,1,0,0:0:0:0:
329,192,198810,1,0,0:0:0:0:
256,192,198810,1,0,0:0:0:0:
402,192,198929,1,0,0:0:0:0:
36,192,198929,1,0,0:0:0:0:
182,192,198929,1,0,0:0:0:0:
329,192,199048,1,0,0:0:0:0:
109,192,199048,1,0,0:0:0:0:
475,192,199048,1,0,0:0:0:0:
256,192,199048,1,0,0:0:0:0:
402,192,199167,1,0,0:0:0:0:
36,192,199167,1,0,0:0:0:0:
182,192,199167,1,0,0:0:0:0:
329,192,199285,1,0,0:0:0:0:
109,192,199285,1,0,0:0:0:0:
475,192,199285,1,0,0:0:0:0:
256,192,199285,1,0,0:0:0:0:
182,192,199404,1,0,0:0:0:0:
36,192,199404,1,0,0:0:0:0:
402,192,199404,1,0,0:0:0:0:
256,192,199404,1,0,0:0:0:0:
109,192,199523,1,0,0:0:0:0:
475,192,199523,1,0,0:0:0:0:
329,192,199523,1,0,0:0:0:0:
256,192,199523,1,0,0:0:0:0:
36,192,199642,1,0,0:0:0:0:
402,192,199642,1,0,0:0:0:0:
182,192,199642,1,0,0:0:0:0:
256,192,199642,1,0,0:0:0:0:
475,192,199760,1,0,0:0:0:0:
329,192,199760,1,0,0:0:0:0:
109,192,199760,1,0,0:0:0:0:
256,192,199760,1,0,0:0:0:0:
182,192,199879,1,0,0:0:0:0:
256,192,199938,1,0,0:0:0:0:
36,192,199998,1,0,0:0:0:0:
402,192,199998,1,0,0:0:0:0:
329,192,199998,1,0,0:0:0:0:
182,192,200117,1,0,0:0:0:0:
475,192,200235,1,0,0:0:0:0:
329,192,200235,1,0,0:0:0:0:
109,192,200235,1,0,0:0:0:0:
182,192,200354,1,0,0:0:0:0:
36,192,200354,1,0,0:0:0:0:
402,192,200354,1,0,0:0:0:0:
256,192,200413,1,0,0:0:0:0:
329,192,200473,1,0,0:0:0:0:
475,192,200473,1,0,0:0:0:0:
109,192,200473,1,0,0:0:0:0:
402,192,200591,1,0,0:0:0:0:
182,192,200591,1,0,0:0:0:0:
36,192,200591,1,0,0:0:0:0:
109,192,200710,1,0,0:0:0:0:
475,192,200710,1,0,0:0:0:0:
329,192,200710,1,0,0:0:0:0:
36,192,200829,1,0,0:0:0:0:
402,192,200829,1,0,0:0:0:0:
182,192,200829,1,0,0:0:0:0:
256,192,200888,1,0,0:0:0:0:
109,192,200948,1,0,0:0:0:0:
475,192,200948,1,0,0:0:0:0:
329,192,200948,1,0,0:0:0:0:
36,192,201066,1,0,0:0:0:0:
402,192,201066,1,0,0:0:0:0:
182,192,201066,1,0,0:0:0:0:
109,192,201185,1,0,0:0:0:0:
329,192,201185,1,0,0:0:0:0:
475,192,201185,1,0,0:0:0:0:
182,192,201304,1,0,0:0:0:0:
36,192,201304,1,0,0:0:0:0:
402,192,201304,1,0,0:0:0:0:
256,192,201363,1,0,0:0:0:0:
475,192,201423,1,0,0:0:0:0:
109,192,201423,1,0,0:0:0:0:
329,192,201423,1,0,0:0:0:0:
182,192,201541,1,0,0:0:0:0:
36,192,201541,1,0,0:0:0:0:
402,192,201541,1,0,0:0:0:0:
329,192,201660,1,0,0:0:0:0:
475,192,201660,1,0,0:0:0:0:
109,192,201660,1,0,0:0:0:0:
36,192,201779,1,0,0:0:0:0:
182,192,201779,1,0,0:0:0:0:
402,192,201779,1,0,0:0:0:0:
256,192,201838,1,0,0:0:0:0:
109,192,201898,1,0,0:0:0:0:
475,192,201898,1,0,0:0:0:0:
329,192,201898,1,0,0:0:0:0:
182,192,202016,1,0,0:0:0:0:
402,192,202016,1,0,0:0:0:0:
36,192,202016,1,0,0:0:0:0:
109,192,202135,1,0,0:0:0:0:
475,192,202135,1,0,0:0:0:0:
329,192,202135,1,0,0:0:0:0:
182,192,202254,1,0,0:0:0:0:
402,192,202254,1,0,0:0:0:0:
36,192,202254,1,0,0:0:0:0:
256,192,202313,1,0,0:0:0:0:
475,192,202372,1,0,0:0:0:0:
329,192,202372,1,0,0:0:0:0:
109,192,202372,1,0,0:0:0:0:
402,192,202491,1,0,0:0:0:0:
182,192,202491,1,0,0:0:0:0:
36,192,202491,1,0,0:0:0:0:
329,192,202610,1,0,0:0:0:0:
475,192,202610,1,0,0:0:0:0:
109,192,202610,1,0,0:0:0:0:
402,192,202729,1,0,0:0:0:0:
36,192,202729,1,0,0:0:0:0:
182,192,202729,1,0,0:0:0:0:
256,192,202788,1,0,0:0:0:0:
475,192,202847,1,0,0:0:0:0:
109,192,202847,1,0,0:0:0:0:
329,192,202847,1,0,0:0:0:0:
402,192,202966,1,0,0:0:0:0:
36,192,202966,1,0,0:0:0:0:
182,192,202966,1,0,0:0:0:0:
109,192,203085,1,0,0:0:0:0:
329,192,203085,1,0,0:0:0:0:
475,192,203085,1,0,0:0:0:0:
182,192,203204,1,0,0:0:0:0:
402,192,203204,1,0,0:0:0:0:
36,192,203204,1,0,0:0:0:0:
256,192,203263,1,0,0:0:0:0:
329,192,203322,1,0,0:0:0:0:
109,192,203322,1,0,0:0:0:0:
475,192,203322,1,0,0:0:0:0:
182,192,203441,1,0,0:0:0:0:
36,192,203441,1,0,0:0:0:0:
402,192,203441,1,0,0:0:0:0:
109,192,203560,1,0,0:0:0:0:
329,192,203560,1,0,0:0:0:0:
475,192,203560,1,0,0:0:0:0:
402,192,203679,1,0,0:0:0:0:
182,192,203679,1,0,0:0:0:0:
36,192,203679,1,0,0:0:0:0:
256,192,203738,1,0,0:0:0:0:
329,192,203797,1,0,0:0:0:0:
109,192,203797,1,0,0:0:0:0:
475,192,203797,1,0,0:0:0:0:
36,192,203916,1,0,0:0:0:0:
182,192,203916,1,0,0:0:0:0:
402,192,203916,1,0,0:0:0:0:
475,192,204035,1,0,0:0:0:0:
329,192,204035,1,0,0:0:0:0:
109,192,204035,1,0,0:0:0:0:
402,192,204153,1,0,0:0:0:0:
36,192,204153,1,0,0:0:0:0:
182,192,204153,1,0,0:0:0:0:
256,192,204213,1,0,0:0:0:0:
329,192,204272,1,0,0:0:0:0:
475,192,204272,1,0,0:0:0:0:
109,192,204272,1,0,0:0:0:0:
36,192,204391,1,0,0:0:0:0:
402,192,204391,1,0,0:0:0:0:
182,192,204391,1,0,0:0:0:0:
329,192,204510,1,0,0:0:0:0:
109,192,204510,1,0,0:0:0:0:
475,192,204510,1,0,0:0:0:0:
182,192,204628,1,0,0:0:0:0:
36,192,204628,1,0,0:0:0:0:
402,192,204628,1,0,0:0:0:0:
256,192,204688,1,0,0:0:0:0:
475,192,204747,1,0,0:0:0:0:
109,192,204747,1,0,0:0:0:0:
329,192,204747,1,0,0:0:0:0:
182,192,204866,1,0,0:0:0:0:
36,192,204866,1,0,0:0:0:0:
402,192,204866,1,0,0:0:0:0:
475,192,204985,1,0,0:0:0:0:
109,192,204985,1,0,0:0:0:0:
329,192,204985,1,0,0:0:0:0:
402,192,205103,1,0,0:0:0:0:
36,192,205103,1,0,0:0:0:0:
182,192,205103,1,0,0:0:0:0:
256,192,205163,1,0,0:0:0:0:
329,192,205222,1,0,0:0:0:0:
475,192,205222,1,0,0:0:0:0:
109,192,205222,1,0,0:0:0:0:
182,192,205341,1,0,0:0:0:0:
402,192,205341,1,0,0:0:0:0:
36,192,205341,1,0,0:0:0:0:
256,192,205460,1,0,0:0:0:0:
402,192,209022,1,0,0:0:0:0:
36,192,209022,1,0,0:0:0:0:
182,192,209022,1,0,0:0:0:0:
329,192,209259,5,0,0:0:0:0:
402,192,209259,1,0,0:0:0:0:
109,192,209259,1,0,0:0:0:0:
256,192,209259,1,0,0:0:0:0:
36,192,209259,1,0,0:0:0:0:
182,192,209496,1,0,0:0:0:0:
475,192,209734,1,0,0:0:0:0:
329,192,209734,1,0,0:0:0:0:
402,192,209734,1,0,0:0:0:0:
182,192,209971,1,0,0:0:0:0:
329,192,210209,1,0,0:0:0:0:
36,192,210209,1,0,0:0:0:0:
109,192,210209,1,0,0:0:0:0:
402,192,210209,1,0,0:0:0:0:
182,192,210446,1,0,0:0:0:0:
402,192,210565,1,0,0:0:0:0:
475,192,210565,1,0,0:0:0:0:
329,192,210684,1,0,0:0:0:0:
402,192,210921,1,0,0:0:0:0:
109,192,210921,1,0,0:0:0:0:
182,192,210921,1,0,0:0:0:0:
36,192,211159,1,0,0:0:0:0:
475,192,211159,1,0,0:0:0:0:
402,192,211159,1,0,0:0:0:0:
329,192,211159,1,0,0:0:0:0:
256,192,211159,1,0,0:0:0:0:
182,192,211396,1,0,0:0:0:0:
109,192,211634,1,0,0:0:0:0:
329,192,211634,1,0,0:0:0:0:
402,192,211634,1,0,0:0:0:0:
182,192,211871,1,0,0:0:0:0:
36,192,212109,1,0,0:0:0:0:
329,192,212109,1,0,0:0:0:0:
402,192,212109,1,0,0:0:0:0:
475,192,212109,1,0,0:0:0:0:
182,192,212346,1,0,0:0:0:0:
109,192,212465,1,0,0:0:0:0:
402,192,212465,1,0,0:0:0:0:
329,192,212584,1,0,0:0:0:0:
182,192,212821,1,0,0:0:0:0:
402,192,212821,1,0,0:0:0:0:
475,192,212821,1,0,0:0:0:0:
402,192,213059,1,0,0:0:0:0:
36,192,213059,1,0,0:0:0:0:
329,192,213059,1,0,0:0:0:0:
109,192,213059,1,0,0:0:0:0:
256,192,213059,1,0,0:0:0:0:
182,192,213296,1,0,0:0:0:0:
402,192,213533,1,0,0:0:0:0:
475,192,213533,1,0,0:0:0:0:
329,192,213533,1,0,0:0:0:0:
182,192,213771,1,0,0:0:0:0:
109,192,214008,1,0,0:0:0:0:
402,192,214008,1,0,0:0:0:0:
329,192,214008,1,0,0:0:0:0:
36,192,214008,1,0,0:0:0:0:
182,192,214246,1,0,0:0:0:0:
402,192,214365,1,0,0:0:0:0:
475,192,214365,1,0,0:0:0:0:
329,192,214483,1,0,0:0:0:0:
182,192,214721,1,0,0:0:0:0:
109,192,214721,1,0,0:0:0:0:
402,192,214721,1,0,0:0:0:0:
329,192,214958,5,0,0:0:0:0:
36,192,214958,1,0,0:0:0:0:
256,192,214958,1,0,0:0:0:0:
402,192,214958,1,0,0:0:0:0:
109,192,214958,1,0,0:0:0:0:
182,192,215196,1,0,0:0:0:0:
402,192,215433,1,0,0:0:0:0:
329,192,215433,1,0,0:0:0:0:
475,192,215433,1,0,0:0:0:0:
182,192,215671,1,0,0:0:0:0:
256,192,215671,1,0,0:0:0:0:
109,192,215908,1,0,0:0:0:0:
402,192,215908,1,0,0:0:0:0:
329,192,215908,1,0,0:0:0:0:
36,192,215908,1,0,0:0:0:0:
182,192,215908,1,0,0:0:0:0:
256,192,216027,1,0,0:0:0:0:
182,192,216146,1,0,0:0:0:0:
36,192,216146,1,0,0:0:0:0:
475,192,216264,1,0,0:0:0:0:
402,192,216264,1,0,0:0:0:0:
256,192,216264,1,0,0:0:0:0:
329,192,216383,1,0,0:0:0:0:
36,192,216383,1,0,0:0:0:0:
256,192,216502,1,0,0:0:0:0:
182,192,216621,1,0,0:0:0:0:
109,192,216621,1,0,0:0:0:0:
402,192,216621,1,0,0:0:0:0:
36,192,216621,1,0,0:0:0:0:
256,192,216739,1,0,0:0:0:0:
329,192,216858,1,0,0:0:0:0:
256,192,216858,1,0,0:0:0:0:
402,192,216858,1,0,0:0:0:0:
36,192,216858,1,0,0:0:0:0:
475,192,216858,1,0,0:0:0:0:
182,192,217095,1,0,0:0:0:0:
256,192,217095,1,0,0:0:0:0:
402,192,217333,1,0,0:0:0:0:
329,192,217333,1,0,0:0:0:0:
109,192,217333,1,0,0:0:0:0:
256,192,217333,1,0,0:0:0:0:
182,192,217570,1,0,0:0:0:0:
256,192,217570,1,0,0:0:0:0:
402,192,217808,1,0,0:0:0:0:
475,192,217808,1,0,0:0:0:0:
36,192,217808,1,0,0:0:0:0:
329,192,217808,1,0,0:0:0:0:
256,192,217808,1,0,0:0:0:0:
182,192,218045,1,0,0:0:0:0:
256,192,218045,1,0,0:0:0:0:
402,192,218164,1,0,0:0:0:0:
109,192,218164,1,0,0:0:0:0:
256,192,218164,1,0,0:0:0:0:
329,192,218283,1,0,0:0:0:0:
256,192,218402,1,0,0:0:0:0:
475,192,218520,1,0,0:0:0:0:
402,192,218520,1,0,0:0:0:0:
182,192,218520,1,0,0:0:0:0:
256,192,218520,1,0,0:0:0:0:
109,192,218758,1,0,0:0:0:0:
256,192,218758,1,0,0:0:0:0:
329,192,218758,1,0,0:0:0:0:
402,192,218758,1,0,0:0:0:0:
36,192,218758,1,0,0:0:0:0:
182,192,218995,1,0,0:0:0:0:
256,192,218995,1,0,0:0:0:0:
329,192,219233,1,0,0:0:0:0:
475,192,219233,1,0,0:0:0:0:
402,192,219233,1,0,0:0:0:0:
256,192,219233,1,0,0:0:0:0:
182,192,219470,1,0,0:0:0:0:
256,192,219470,1,0,0:0:0:0:
329,192,219708,1,0,0:0:0:0:
36,192,219708,1,0,0:0:0:0:
109,192,219708,1,0,0:0:0:0:
402,192,219708,1,0,0:0:0:0:
256,192,219708,1,0,0:0:0:0:
182,192,219945,1,0,0:0:0:0:
256,192,219945,1,0,0:0:0:0:
475,192,220064,1,0,0:0:0:0:
402,192,220064,1,0,0:0:0:0:
256,192,220064,1,0,0:0:0:0:
329,192,220183,1,0,0:0:0:0:
256,192,220301,1,0,0:0:0:0:
402,192,220420,1,0,0:0:0:0:
109,192,220420,1,0,0:0:0:0:
182,192,220420,1,0,0:0:0:0:
256,192,220420,1,0,0:0:0:0:
329,192,220657,5,0,0:0:0:0:
402,192,220657,1,0,0:0:0:0:
109,192,220657,1,0,0:0:0:0:
256,192,220657,1,0,0:0:0:0:
36,192,220657,1,0,0:0:0:0:
182,192,220895,1,0,0:0:0:0:
256,192,220895,1,0,0:0:0:0:
475,192,221132,1,0,0:0:0:0:
329,192,221132,1,0,0:0:0:0:
402,192,221132,1,0,0:0:0:0:
256,192,221132,1,0,0:0:0:0:
256,192,221251,1,0,0:0:0:0:
182,192,221370,1,0,0:0:0:0:
256,192,221489,1,0,0:0:0:0:
329,192,221607,1,0,0:0:0:0:
36,192,221607,1,0,0:0:0:0:
109,192,221607,1,0,0:0:0:0:
402,192,221607,1,0,0:0:0:0:
256,192,221607,1,0,0:0:0:0:
182,192,221845,1,0,0:0:0:0:
256,192,221845,1,0,0:0:0:0:
402,192,221964,1,0,0:0:0:0:
475,192,221964,1,0,0:0:0:0:
256,192,221964,1,0,0:0:0:0:
329,192,222082,1,0,0:0:0:0:
256,192,222201,1,0,0:0:0:0:
402,192,222320,1,0,0:0:0:0:
109,192,222320,1,0,0:0:0:0:
182,192,222320,1,0,0:0:0:0:
256,192,222320,1,0,0:0:0:0:
36,192,222557,1,0,0:0:0:0:
475,192,222557,1,0,0:0:0:0:
402,192,222557,1,0,0:0:0:0:
329,192,222557,1,0,0:0:0:0:
256,192,222557,1,0,0:0:0:0:
