osu file format v14

[General]
AudioFilename: audio.mp3
AudioLeadIn: 0
PreviewTime: 10518
Countdown: 0
SampleSet: Soft
StackLeniency: 0.5
Mode: 0
LetterboxInBreaks: 0
WidescreenStoryboard: 1

[Editor]
DistanceSpacing: 1.3
BeatDivisor: 4
GridSize: 16
TimelineZoom: 2.1

[Metadata]
Title:Xian (TV Size)
TitleUnicode:仙 (TV Size)
Artist:Wei Bo En
ArtistUnicode:韦伯恩
Creator:jasontime12345
Version:Xahlt's Normal
Source:仙王的日常生活
Tags:electronic Xahlt yuhdj dora- doraemonelf op 1 one opening xian wang de ri chang sheng huo mandarin chinese anime male vocal bilibili bili the daily life of immortal king
BeatmapID:2351989
BeatmapSetID:1125218

[Difficulty]
HPDrainRate:4
CircleSize:3.3
OverallDifficulty:5
ApproachRate:5.5
SliderMultiplier:1.4
SliderTickRate:1

[Events]
//Background and Video events
0,0,"Xian-Wang-de-Richang-Shenghuo.jpg",0,0
//Break Periods
//Storyboard Layer 0 (Background)
//Storyboard Layer 1 (Fail)
//Storyboard Layer 2 (Pass)
//Storyboard Layer 3 (Foreground)
//Storyboard Layer 4 (Overlay)
//Storyboard Sound Samples

[TimingPoints]
380,652.173913043478,4,2,1,35,1,0
2988,-100,4,2,3,35,0,0
5597,-100,4,2,4,45,0,0
5923,-100,4,2,2,45,0,0
8206,-100,4,2,5,55,0,0
10814,-100,4,2,1,25,0,0
11466,-100,4,2,6,25,0,0
13423,-100,4,2,3,25,0,0
14075,-100,4,2,6,25,0,0
16032,-100,4,2,1,25,0,0
16358,-100,4,2,6,25,0,0
18640,-100,4,2,7,25,0,0
21249,-90.9090909090909,4,2,1,35,0,0
21901,-90.9090909090909,4,2,6,35,0,0
23858,-90.9090909090909,4,2,8,35,0,0
24510,-90.9090909090909,4,2,6,35,0,0
26466,-90.9090909090909,4,2,9,50,0,0
26792,-90.9090909090909,4,2,6,50,0,0
29075,-90.9090909090909,4,2,5,50,0,0
29727,-90.9090909090909,4,2,6,50,0,0
31031,-90.9090909090909,4,2,10,50,0,0
31683,-90.9090909090909,4,2,6,55,0,0
39510,-90.9090909090909,4,2,6,60,0,0
42119,-90.9090909090909,4,2,1,50,0,0
42445,-90.9090909090909,4,2,6,50,0,0
42771,-90.9090909090909,4,2,11,50,0,0
43423,-90.9090909090909,4,2,6,50,0,0
44075,-90.9090909090909,4,2,11,50,0,0
44401,-90.9090909090909,4,2,6,50,0,0
45379,-90.9090909090909,4,2,11,50,0,0
46032,-90.9090909090909,4,2,6,50,0,0
46684,-90.9090909090909,4,2,11,50,0,0
47336,-90.9090909090909,4,2,6,50,0,0
47988,-90.9090909090909,4,2,11,50,0,0
48640,-90.9090909090909,4,2,6,50,0,0
49293,-90.9090909090909,4,2,11,50,0,0
49619,-90.9090909090909,4,2,6,50,0,0
50597,-90.9090909090909,4,2,11,50,0,0
51249,-90.9090909090909,4,2,6,50,0,0
51901,-90.9090909090909,4,2,11,50,0,0
52553,-90.9090909090909,4,2,6,60,0,0
53206,-90.9090909090909,4,2,11,60,0,0
53532,-90.9090909090909,4,2,6,60,0,0
54510,-90.9090909090909,4,2,2,60,0,0
54836,-90.9090909090909,4,2,6,60,0,0
54999,-90.9090909090909,4,2,11,60,0,0
55162,-90.9090909090909,4,2,11,65,0,0
56466,-90.9090909090909,4,2,11,75,0,0
57445,-90.9090909090909,4,2,6,75,0,0
57771,-83.3333333333333,4,2,3,69,0,1
58097,-83.3333333333333,4,2,12,75,0,1
59075,-83.3333333333333,4,2,13,75,0,1
59401,-83.3333333333333,4,2,14,75,0,1
59727,-83.3333333333333,4,2,3,75,0,1
60706,-83.3333333333333,4,2,12,75,0,1
61032,-83.3333333333333,4,2,1,75,0,1
61358,-83.3333333333333,4,2,12,75,0,1
62336,-83.3333333333333,4,2,13,75,0,1
62988,-83.3333333333333,4,2,12,75,0,1
63640,-83.3333333333333,4,2,3,75,0,1
63966,-83.3333333333333,4,2,12,75,0,1
64619,-83.3333333333333,4,2,1,75,0,1
64945,-83.3333333333333,4,2,12,75,0,1
65271,-83.3333333333333,4,2,3,75,0,1
65923,-83.3333333333333,4,2,13,75,0,1
66249,-83.3333333333333,4,2,4,75,0,1
66575,-83.3333333333333,4,2,12,75,0,1
67227,-83.3333333333333,4,2,13,75,0,1
67390,-83.3333333333333,4,2,3,75,0,1
67553,-83.3333333333333,4,2,12,75,0,1
67879,-83.3333333333333,4,2,2,75,0,1
68043,-83.3333333333333,4,2,5,75,0,1
68206,-83.3333333333333,4,2,3,69,0,1
68532,-83.3333333333333,4,2,12,75,0,1
69510,-83.3333333333333,4,2,3,75,0,1
70488,-83.3333333333333,4,2,12,75,0,1
71140,-83.3333333333333,4,2,1,75,0,1
71792,-83.3333333333333,4,2,12,75,0,1
71956,-83.3333333333333,4,2,1,75,0,1
72119,-83.3333333333333,4,2,13,75,0,1
73097,-83.3333333333333,4,2,14,75,0,1
73423,-83.3333333333333,4,2,3,75,0,1
74401,-83.3333333333333,4,2,12,75,0,1
75053,-83.3333333333333,4,2,2,75,0,1
75379,-83.3333333333333,4,2,12,75,0,1
75705,-83.3333333333333,4,2,3,75,0,1
76358,-83.3333333333333,4,2,12,75,0,1
77662,-83.3333333333333,4,2,14,75,0,1
77825,-83.3333333333333,4,2,5,75,0,1
77988,-83.3333333333333,4,2,12,75,0,1
78314,-83.3333333333333,4,2,1,75,0,0
78640,-83.3333333333333,4,2,12,75,0,1
79945,-83.3333333333333,4,2,12,75,0,0
80597,-83.3333333333333,4,2,1,75,0,0
80923,-83.3333333333333,4,2,12,75,0,0
81249,-83.3333333333333,4,2,12,75,0,1
82553,-83.3333333333333,4,2,12,75,0,0
82879,-83.3333333333333,4,2,1,75,0,0
83532,-83.3333333333333,4,2,3,75,0,0
83695,-83.3333333333333,4,2,12,75,0,0
83858,-83.3333333333333,4,2,12,75,0,1
85162,-83.3333333333333,4,2,12,75,0,0
85488,-83.3333333333333,4,2,1,75,0,0
85651,-83.3333333333333,4,2,12,75,0,0
86793,-83.3333333333333,4,2,1,75,0,1
87119,-83.3333333333333,4,2,12,75,0,1
87445,-83.3333333333333,4,2,1,75,0,1
87771,-83.3333333333333,4,2,12,75,0,1
88097,-83.3333333333333,4,2,1,75,0,1
88423,-83.3333333333333,4,2,12,75,0,1
88749,-83.3333333333333,4,2,4,90,0,1
89075,-83.3333333333333,4,2,16,90,0,0
89401,-83.3333333333333,4,2,15,5,0,0

[Colours]
Combo1 : 152,95,194
Combo2 : 160,98,35
Combo3 : 91,142,213

[HitObjects]
53,61,380,5,2,2:0:0:0:
452,349,2988,1,2,2:0:0:0:
306,32,5597,2,0,P|291:69|286:99,1,70,2|2,2:0|2:0,2:0:0:0:
280,368,8206,1,6,2:0:0:0:
82,72,10814,6,0,B|123:68|140:39|140:39|167:65|239:53,2,140,2|2|2,2:0|2:0|2:0,2:0:0:0:
4,221,12771,2,0,P|17:267|23:306,1,70,2|2,2:0|2:0,2:0:0:0:
51,367,13423,2,0,P|120:362|124:292,1,140,2|2,2:0|2:0,2:0:0:0:
94,226,14401,1,2,2:0:0:0:
125,61,15053,5,2,2:0:0:0:
204,33,15379,1,2,2:0:0:0:
251,102,15706,2,0,P|290:97|342:65,1,70,2|2,2:0|2:0,2:0:0:0:
401,78,16358,2,0,P|471:164|308:189,1,350,2|0,2:0|2:0,2:0:0:0:
247,35,18640,1,2,2:0:0:0:
55,257,21249,6,0,P|45:196|12:104,2,154.000004699707,2|10|2,3:2|2:0|3:2,2:0:0:0:
58,349,22879,1,0,2:0:0:0:
141,308,23206,2,0,P|182:304|245:269,1,77.0000023498536,2|2,1:2|2:0,2:0:0:0:
285,350,23858,2,0,P|342:343|441:360,1,154.000004699707,2|2,3:2|3:2,2:0:0:0:
496,288,24836,1,2,2:0:0:0:
506,103,25488,5,2,2:0:0:0:
443,44,25814,1,2,1:2:0:0:
362,89,26140,1,10,2:0:0:0:
291,29,26466,6,0,L|189:17,1,77.0000023498536,6|2,3:2|2:0,2:0:0:0:
132,59,27119,1,8,3:2:0:0:
132,59,27282,2,0,P|151:119|165:191,1,115.50000352478,0|0,2:0|3:0,2:0:0:0:
227,235,28097,2,0,P|208:295|201:335,1,77.0000023498536,0|0,2:0|1:0,2:0:0:0:
190,352,28586,1,0,2:0:0:0:
103,384,28912,1,0,1:0:0:0:
103,384,29075,6,0,P|45:368|53:262,1,154.000004699707,2|10,3:2|3:2,2:0:0:0:
95,216,30053,1,2,2:0:0:0:
176,259,30379,2,0,P|253:269|339:219,2,154.000004699707,2|2|2,3:2|1:2|3:2,2:0:0:0:
95,216,32010,5,2,2:0:0:0:
146,139,32336,2,0,P|141:108|109:44,1,77.0000023498536,2|2,3:2|2:0,2:0:0:0:
201,15,32988,2,0,P|297:22|317:94,1,154.000004699707,2|2,3:2|3:2,2:0:0:0:
432,318,34619,5,2,2:0:0:0:
494,249,34945,2,0,P|496:207|480:164,1,77.0000023498536,2|2,3:2|2:0,2:0:0:0:
414,115,35597,2,0,B|323:106|350:170|252:152,1,154.000004699707,2|2,3:2|3:2,2:0:0:0:
180,130,36575,2,0,L|177:87,2,38.5000011749268,0|0|2,2:0|1:0|3:2,2:0:0:0:
168,221,37227,5,2,2:0:0:0:
100,284,37553,2,0,P|64:283|28:251,1,77.0000023498536,2|2,3:2|2:0,2:0:0:0:
18,167,38206,2,0,L|44:5,1,154.000004699707,2|2,3:2|3:2,2:0:0:0:
227,13,39510,6,0,P|300:25|307:121,1,154.000004699707,2|2,3:2|3:2,2:0:0:0:
215,246,40814,2,0,P|142:234|135:138,1,154.000004699707,2|2,3:2|1:2,2:0:0:0:
169,85,41793,1,2,2:0:0:0:
96,27,42119,6,0,P|57:33|28:58,1,77.0000023498536,4|2,3:2|2:0,2:0:0:0:
47,147,42771,2,0,L|36:236,1,77.0000023498536,2|2,1:2|2:0,2:0:0:0:
81,304,43423,1,2,3:2:0:0:
148,240,43749,1,2,2:0:0:0:
232,278,44075,2,0,P|283:271|334:251,1,77.0000023498536,2|2,1:2|3:2,2:0:0:0:
354,250,44564,1,2,2:0:0:0:
354,250,44727,6,0,P|374:297|366:340,1,77.0000023498536,0|2,3:0|2:0,2:0:0:0:
299,378,45379,2,0,P|262:367|223:363,1,77.0000023498536,2|2,1:2|2:0,2:0:0:0:
132,375,46032,1,2,3:2:0:0:
81,297,46358,1,2,2:0:0:0:
137,223,46684,2,0,P|132:182|117:126,1,77.0000023498536,2|2,1:2|1:2,2:0:0:0:
157,115,47173,1,2,2:0:0:0:
157,115,47336,6,0,P|162:74|177:18,1,77.0000023498536,0|2,3:0|2:0,2:0:0:0:
82,10,47988,2,0,P|41:18|16:60,1,77.0000023498536,2|2,1:2|2:0,2:0:0:0:
12,136,48640,1,2,3:2:0:0:
79,199,48966,1,2,2:0:0:0:
166,167,49293,2,0,L|259:149,1,77.0000023498536,2|2,1:2|3:2,2:0:0:0:
273,119,49782,1,0,2:0:0:0:
273,119,49945,6,0,L|366:137,1,77.0000023498536,2|2,3:2|2:0,2:0:0:0:
402,208,50597,2,0,P|390:257|386:311,1,77.0000023498536,2|0,1:2|2:0,2:0:0:0:
333,358,51249,2,0,P|244:313|261:268,1,154.000004699707,2|2,3:2|1:2,2:0:0:0:
317,215,52227,2,0,P|311:176|303:145,1,38.5000011749268,0|0,1:0|1:0,2:0:0:0:
277,145,52553,6,0,P|285:108|307:58,1,77.0000023498536,0|2,3:0|3:2,2:0:0:0:
230,9,53206,2,0,P|189:8|160:33,1,77.0000023498536,2|2,1:2|3:2,2:0:0:0:
132,117,53858,1,2,3:2:0:0:
188,190,54184,1,2,3:2:0:0:
127,259,54510,2,0,L|136:304,1,38.5000011749268,0|0,1:0|3:0,2:0:0:0:
171,325,54836,2,0,L|162:370,1,38.5000011749268,2|0,3:2|1:0,2:0:0:0:
120,379,55162,5,2,3:2:0:0:
30,356,55488,1,2,3:2:0:0:
5,266,55814,1,2,3:2:0:0:
67,197,56140,1,2,3:2:0:0:
156,220,56466,2,0,L|149:272,2,38.5000011749268,2|0|2,3:2|3:0|3:2,2:0:0:0:
198,197,56956,1,0,3:0:0:0:
198,197,57119,2,0,L|286:209,1,77.0000023498536,2|6,1:2|2:0,2:0:0:0:
363,159,57771,6,0,P|351:124|348:53,1,83.9999974365235,4|2,3:2|2:0,2:0:0:0:
258,27,58423,1,2,2:0:0:0:
177,84,58749,1,2,3:2:0:0:
177,84,58912,1,2,2:0:0:0:
177,84,59075,2,0,P|127:83|75:59,1,83.9999974365235,2|2,1:2|2:0,2:0:0:0:
14,11,59727,1,4,2:3:0:0:
11,111,60053,2,0,P|28:162|34:211,1,83.9999974365235,6|0,2:3|3:0,2:0:0:0:
44,292,60706,5,2,2:0:0:0:
120,225,61032,2,0,P|154:202|208:211,1,83.9999974365235,6|2,2:3|2:0,2:0:0:0:
223,301,61684,2,0,P|189:324|135:315,2,83.9999974365235,2|2|2,1:2|2:0|2:0,2:0:0:0:
321,280,62662,1,2,3:2:0:0:
392,351,62988,6,0,P|433:353|467:330,1,83.9999974365235,2|2,3:2|2:0,2:0:0:0:
448,288,63477,1,2,2:0:0:0:
448,288,63640,2,0,L|462:182,1,83.9999974365235,6|2,3:0|2:0,2:0:0:0:
503,178,64130,1,2,2:0:0:0:
503,178,64293,2,0,L|490:66,1,83.9999974365235,2|10,1:2|2:3,2:0:0:0:
407,41,64945,1,2,2:0:0:0:
332,108,65271,1,6,2:3:0:0:
255,41,65597,5,0,3:0:0:0:
190,118,65923,1,2,2:0:0:0:
261,189,66249,2,0,P|249:237|246:282,1,83.9999974365235,6|2,3:0|2:0,2:0:0:0:
173,341,66901,2,0,P|123:321|117:268,1,83.9999974365235,2|2,1:2|2:0,2:0:0:0:
137,253,67390,1,4,3:0:0:0:
137,253,67553,2,0,P|132:211|122:170,1,83.9999974365235,2|6,2:0|2:3,2:0:0:0:
142,126,68043,1,6,2:3:0:0:
142,126,68206,6,0,P|173:98|230:107,1,83.9999974365235,4|2,3:2|2:0,2:0:0:0:
308,131,68858,2,0,L|300:172,2,41.9999987182618,10|8|10,2:0|2:0|2:0,2:0:0:0:
400,91,69510,2,0,L|367:270,1,167.999994873047,10|4,1:3|2:3,2:0:0:0:
277,279,70488,1,2,1:2:0:0:
277,279,70651,1,0,1:0:0:0:
277,279,70814,6,0,P|296:335|304:366,1,83.9999974365235,0|10,3:0|2:3,2:0:0:0:
352,364,71303,1,8,2:3:0:0:
352,364,71466,2,0,P|396:361|413:318,1,83.9999974365235,6|2,2:3|2:0,2:0:0:0:
418,282,71956,1,4,2:3:0:0:
418,282,72119,1,2,1:2:0:0:
262,154,72771,2,0,P|217:168|156:170,1,83.9999974365235,2|2,2:0|2:0,2:0:0:0:
154,268,73423,6,0,P|109:254|48:252,1,83.9999974365235,0|10,3:0|2:3,2:0:0:0:
12,169,74075,2,0,P|6:138|46:69,1,83.9999974365235,6|2,2:3|2:0,2:0:0:0:
77,92,74564,1,2,2:0:0:0:
77,92,74727,2,0,P|118:87|158:74,1,83.9999974365235,2|2,1:2|2:0,2:0:0:0:
238,13,75379,2,0,P|279:17|319:30,1,83.9999974365235,2|4,2:0|2:3,2:0:0:0:
342,75,75869,1,4,2:3:0:0:
342,75,76032,6,0,L|331:171,1,83.9999974365235,0|2,3:0|2:0,2:0:0:0:
251,218,76684,2,0,L|266:314,1,83.9999974365235,2|2,3:2|2:0,2:0:0:0:
348,356,77336,2,0,P|379:364|438:318,1,83.9999974365235,2|10,1:2|2:0,2:0:0:0:
425,297,77825,1,6,2:3:0:0:
425,297,77988,2,0,L|412:214,1,83.9999974365235,2|4,2:0|2:3,2:0:0:0:
376,186,78477,1,4,2:3:0:0:
376,186,78640,6,0,L|388:103,1,83.9999974365235,2|2,3:2|2:0,2:0:0:0:
315,32,79293,1,2,3:2:0:0:
214,21,79619,1,2,2:0:0:0:
157,104,79945,5,0,1:0:0:0:
193,197,80271,2,0,L|185:264,1,41.9999987182618,2|2,2:0|2:0,2:0:0:0:
215,280,80597,1,6,2:3:0:0:
161,365,80923,2,0,P|137:356|114:354,1,41.9999987182618,2|2,1:2|2:0,2:0:0:0:
76,378,81249,6,0,P|69:349|44:290,1,83.9999974365235,2|2,3:2|2:0,2:0:0:0:
13,204,81901,1,2,3:2:0:0:
52,111,82227,1,2,2:0:0:0:
152,99,82553,5,0,1:0:0:0:
225,168,82879,2,0,L|287:158,1,41.9999987182618,6|6,2:3|2:3,2:0:0:0:
309,188,83206,1,6,2:3:0:0:
413,183,83532,2,0,P|407:161|399:124,1,41.9999987182618,6|2,1:3|2:0,2:0:0:0:
357,119,83858,6,0,P|363:72|363:22,1,83.9999974365235,2|2,3:2|2:0,2:0:0:0:
463,19,84510,1,2,3:2:0:0:
509,108,84836,1,2,2:0:0:0:
444,185,85162,5,0,1:0:0:0:
494,272,85488,2,0,P|487:297|484:323,1,41.9999987182618,6|2,2:3|2:0,2:0:0:0:
435,325,85814,2,0,P|442:350|445:376,1,41.9999987182618,2|2,2:0|2:0,2:0:0:0:
400,384,86140,1,2,1:2:0:0:
400,384,86303,2,0,L|343:375,1,41.9999987182618,2|0,2:0|3:0,2:0:0:0:
282,310,86793,6,0,L|176:299,1,83.9999974365235,6|2,2:3|3:2,2:0:0:0:
161,207,87445,2,0,L|267:218,1,83.9999974365235,6|2,2:3|1:2,2:0:0:0:
339,182,88097,1,4,2:3:0:0:
284,110,88423,1,0,1:0:0:0:
284,110,88586,1,0,1:0:0:0:
284,110,88749,2,0,P|285:91|294:56,1,41.9999987182618,4|0,3:2|2:0,2:0:0:0:
263,25,89075,6,0,P|208:23|181:58,1,83.9999974365235,2|0,2:0|2:0,2:0:0:0:
