osu file format v14

[General]
AudioFilename: audio.mp3
AudioLeadIn: 0
PreviewTime: 10518
Countdown: 0
SampleSet: Soft
StackLeniency: 0.5
Mode: 0
LetterboxInBreaks: 0
WidescreenStoryboard: 1

[Editor]
DistanceSpacing: 1
BeatDivisor: 12
GridSize: 4
TimelineZoom: 3.199999

[Metadata]
Title:Xian (TV Size)
TitleUnicode:仙 (TV Size)
Artist:Wei Bo En
ArtistUnicode:韦伯恩
Creator:jasontime12345
Version:Hard
Source:仙王的日常生活
Tags:electronic Xahlt yuhdj dora- doraemonelf op 1 one opening xian wang de ri chang sheng huo mandarin chinese anime male vocal bilibili bili the daily life of immortal king
BeatmapID:2352268
BeatmapSetID:1125218

[Difficulty]
HPDrainRate:4.5
CircleSize:3.8
OverallDifficulty:6.7
ApproachRate:8
SliderMultiplier:1.8
SliderTickRate:1

[Events]
//Background and Video events
0,0,"Xian-Wang-de-Richang-Shenghuo.jpg",0,0
//Break Periods
//Storyboard Layer 0 (Background)
//Storyboard Layer 1 (Fail)
//Storyboard Layer 2 (Pass)
//Storyboard Layer 3 (Foreground)
//Storyboard Layer 4 (Overlay)
//Storyboard Sound Samples

[TimingPoints]
380,652.173913043478,4,2,1,35,1,0
1738,-133.333333333333,4,2,2,35,0,0
2227,-133.333333333333,4,2,2,5,0,0
2390,-133.333333333333,4,2,2,35,0,0
2824,-133.333333333333,4,2,2,5,0,0
2988,-133.333333333333,4,2,3,35,0,0
4347,-133.333333333333,4,2,2,35,0,0
4836,-133.333333333333,4,2,2,5,0,0
4999,-133.333333333333,4,2,2,35,0,0
5433,-133.333333333333,4,2,2,5,0,0
5597,-133.333333333333,4,2,4,45,0,0
5923,-133.333333333333,4,2,2,45,0,0
8206,-133.333333333333,4,2,5,55,0,0
9510,-200,4,2,5,55,0,0
10814,-117.647058823529,4,2,1,25,0,0
11466,-117.647058823529,4,2,6,25,0,0
13423,-117.647058823529,4,2,3,25,0,0
14075,-117.647058823529,4,2,6,25,0,0
16032,-117.647058823529,4,2,1,25,0,0
16358,-117.647058823529,4,2,6,25,0,0
18640,-117.647058823529,4,2,7,25,0,0
21249,-100,4,2,1,35,0,0
21901,-100,4,2,6,35,0,0
23858,-100,4,2,8,35,0,0
24510,-100,4,2,6,35,0,0
26466,-100,4,2,9,50,0,0
26793,-100,4,2,6,50,0,0
29075,-100,4,2,5,50,0,0
29727,-100,4,2,6,50,0,0
31032,-100,4,2,10,50,0,0
31684,-100,4,2,6,55,0,0
32336,-133.333333333333,4,2,6,55,0,0
39510,-133.333333333333,4,2,6,60,0,0
41466,-100,4,2,6,60,0,0
42119,-80,4,2,1,50,0,0
42771,-80,4,2,11,50,0,0
43423,-80,4,2,6,50,0,0
44075,-80,4,2,11,50,0,0
44401,-80,4,2,6,50,0,0
45379,-80,4,2,11,50,0,0
46032,-80,4,2,6,50,0,0
46684,-80,4,2,11,50,0,0
47336,-80,4,2,6,50,0,0
47988,-80,4,2,11,50,0,0
48640,-80,4,2,6,50,0,0
49293,-80,4,2,11,50,0,0
49619,-80,4,2,6,50,0,0
50597,-80,4,2,11,50,0,0
51249,-80,4,2,6,50,0,0
51901,-80,4,2,11,50,0,0
52553,-80,4,2,6,60,0,0
53206,-80,4,2,11,60,0,0
53858,-80,4,2,6,60,0,0
54510,-80,4,2,2,60,0,0
55162,-80,4,2,11,65,0,0
56466,-80,4,2,11,75,0,0
57119,-117.647058823529,4,2,11,75,0,0
57445,-117.647058823529,4,2,6,75,0,0
57771,-66.6666666666667,4,2,3,69,0,1
58423,-80,4,2,12,75,0,1
59075,-66.6666666666667,4,2,13,75,0,1
59238,-66.6666666666667,4,2,14,75,0,1
59727,-66.6666666666667,4,2,3,75,0,1
61684,-66.6666666666667,4,2,12,75,0,1
62336,-66.6666666666667,4,2,13,75,0,1
62825,-66.6666666666667,4,2,14,75,0,1
62988,-66.6666666666667,4,2,12,75,0,1
63640,-66.6666666666667,4,2,3,75,0,1
63966,-66.6666666666667,4,2,12,75,0,1
64619,-66.6666666666667,4,2,1,75,0,1
64782,-66.6666666666667,4,2,12,75,0,1
64945,-100,4,2,12,75,0,1
65271,-100,4,2,3,75,0,1
65597,-66.6666666666667,4,2,3,75,0,1
65923,-66.6666666666667,4,2,13,75,0,1
66249,-66.6666666666667,4,2,4,75,0,1
66575,-66.6666666666667,4,2,12,75,0,1
67390,-66.6666666666667,4,2,3,75,0,1
67553,-66.6666666666667,4,2,12,75,0,1
67879,-66.6666666666667,4,2,2,75,0,1
68206,-66.6666666666667,4,2,3,69,0,1
68858,-66.6666666666667,4,2,12,75,0,1
69510,-66.6666666666667,4,2,3,75,0,1
69999,-66.6666666666667,4,2,12,75,0,1
70162,-66.6666666666667,4,2,1,75,0,1
70488,-66.6666666666667,4,2,12,75,0,1
71140,-66.6666666666667,4,2,1,75,0,1
72119,-66.6666666666667,4,2,13,75,0,1
72608,-66.6666666666667,4,2,14,75,0,1
72771,-66.6666666666667,4,2,13,75,0,1
73097,-66.6666666666667,4,2,14,75,0,1
73423,-66.6666666666667,4,2,3,75,0,1
74727,-66.6666666666667,4,2,12,75,0,1
75053,-66.6666666666667,4,2,2,75,0,1
75379,-66.6666666666667,4,2,12,75,0,1
75706,-66.6666666666667,4,2,3,75,0,1
76276,-66.6666666666667,4,2,3,5,0,1
76358,-80,4,2,12,75,0,1
76684,-66.6666666666667,4,2,12,75,0,1
76928,-66.6666666666667,4,2,12,5,0,1
77010,-80,4,2,12,75,0,1
77336,-66.6666666666667,4,2,12,75,0,1
77662,-66.6666666666667,4,2,14,75,0,1
77825,-66.6666666666667,4,2,5,75,0,1
77988,-80,4,2,12,75,0,1
78314,-80,4,2,1,75,0,0
78640,-80,4,2,12,75,0,1
79945,-66.6666666666667,4,2,12,75,0,0
80162,-66.6666666666667,4,2,1,75,0,0
80760,-66.6666666666667,4,2,12,75,0,0
81249,-66.6666666666667,4,2,12,75,0,1
82553,-66.6666666666667,4,2,12,75,0,0
82879,-66.6666666666667,4,2,1,75,0,0
83369,-66.6666666666667,4,2,12,75,0,0
83532,-66.6666666666667,4,2,3,75,0,0
83695,-66.6666666666667,4,2,12,75,0,0
83858,-66.6666666666667,4,2,12,75,0,1
85162,-66.6666666666667,4,2,12,75,0,0
86793,-66.6666666666667,4,2,1,75,0,1
87037,-66.6666666666667,4,2,1,5,0,1
87119,-66.6666666666667,4,2,12,75,0,1
87363,-66.6666666666667,4,2,12,5,0,1
87445,-66.6666666666667,4,2,1,75,0,1
87771,-66.6666666666667,4,2,12,75,0,1
88097,-66.6666666666667,4,2,1,75,0,1
88423,-66.6666666666667,4,2,12,75,0,1
88749,-66.6666666666667,4,2,4,90,0,1
88993,-66.6666666666667,4,2,4,5,0,1
89075,-133.333333333333,4,2,17,90,0,0
89401,-133.333333333333,4,2,15,5,0,0

[Colours]
Combo1 : 152,95,194
Combo2 : 160,98,35
Combo3 : 91,142,213

[HitObjects]
91,142,380,5,2,2:0:0:0:
300,300,1738,2,0,L|309:197,1,101.250003862381,2|0,2:0|2:0,2:0:0:0:
289,196,2390,2,0,L|280:287,1,90.0000034332277,2|0,2:0|2:0,2:0:0:0:
222,338,2988,5,2,2:0:0:0:
51,157,4347,2,0,L|157:148,1,101.250003862381,2|0,2:0|2:0,2:0:0:0:
152,129,4999,2,0,L|59:137,1,90.0000034332277,2|0,2:0|2:0,2:0:0:0:
0,73,5597,5,2,2:0:0:0:
0,73,5923,1,2,2:0:0:0:
512,43,8206,1,6,2:0:0:0:
150,338,9510,2,0,B|160:322|160:322|192:335|192:335|216:318|216:318|253:325|253:325|289:317,1,157.5,0|0,2:0|2:0,2:0:0:0:
357,275,10814,6,0,L|338:159,1,114.750002188683,2|0,2:0|2:0,2:0:0:0:
311,126,11466,2,0,L|318:42,1,76.5000014591217,2|0,2:0|2:0,2:0:0:0:
180,159,12119,2,0,P|218:187|260:259,1,114.750002188683,2|0,2:0|2:0,2:0:0:0:
245,321,12771,1,2,2:0:0:0:
245,321,13097,6,0,P|199:332|162:345,2,76.5000014591217,2|2|0,2:0|2:0|2:0,2:0:0:0:
388,366,14075,1,2,2:0:0:0:
478,285,14401,2,0,L|501:199,1,76.5000014591217,2|0,2:0|2:0,2:0:0:0:
444,101,15053,1,2,2:0:0:0:
444,101,15379,1,2,2:0:0:0:
285,65,15706,2,0,P|332:57|361:48,1,76.5000014591217,2|2,2:0|2:0,2:0:0:0:
447,0,16358,1,2,2:0:0:0:
64,366,18640,5,2,2:0:0:0:
64,366,21249,6,0,L|42:220,1,135,2|0,3:2|2:0,2:0:0:0:
75,181,21901,2,0,L|97:80,1,90,10|0,2:0|2:0,2:0:0:0:
228,233,22553,2,0,P|178:255|143:281,1,90,2|0,3:2|2:0,2:0:0:0:
271,349,23206,1,2,1:2:0:0:
224,208,23532,2,0,L|237:148,1,45,2|0,2:0|2:0,2:0:0:0:
272,143,23858,6,0,P|312:140|417:112,1,135,2|0,3:2|2:0,2:0:0:0:
421,138,24510,2,0,P|398:164|369:227,1,90,2|2,3:2|2:0,2:0:0:0:
511,336,25162,2,0,P|466:345|424:357,1,90,0|2,3:0|2:0,2:0:0:0:
305,239,25814,2,0,L|295:297,1,45,2|0,1:2|2:0,2:0:0:0:
296,216,26140,1,10,2:0:0:0:
119,334,26466,6,0,L|163:326,1,45,6|0,3:2|2:0,2:0:0:0:
107,313,26793,2,0,L|151:305,1,45,2|0,2:0|2:0,2:0:0:0:
211,235,27119,1,8,3:2:0:0:
226,258,27282,1,0,2:0:0:0:
226,258,27445,2,0,L|279:271,1,45,0|0,2:0|2:0,2:0:0:0:
337,215,27771,6,0,L|325:163,1,45,0|0,3:0|2:0,2:0:0:0:
300,119,28097,2,0,L|312:67,1,45,0|0,2:0|2:0,2:0:0:0:
349,35,28423,1,0,1:0:0:0:
349,35,28586,1,0,2:0:0:0:
130,104,28912,1,0,1:0:0:0:
153,65,29075,2,0,L|181:212,1,135,2|0,3:2|2:0,2:0:0:0:
130,262,29727,2,0,L|118:308,1,45,10|0,3:2|2:0,2:0:0:0:
112,237,30053,1,2,2:0:0:0:
221,337,30379,6,0,L|361:313,1,135,2|0,3:2|2:0,2:0:0:0:
400,254,31032,1,2,1:2:0:0:
400,254,31195,2,0,P|360:227|341:185,1,90,0|0,2:0|1:0,2:0:0:0:
368,120,31684,5,2,3:2:0:0:
220,187,32010,1,2,2:0:0:0:
87,97,32336,2,0,L|159:110,1,67.5000025749208,2|2,3:2|2:0,2:0:0:0:
81,260,32988,2,0,L|46:202,1,67.5000025749208,2|2,3:2|2:0,2:0:0:0:
200,265,33640,2,0,L|182:341,1,67.5000025749208,2|0,3:2|2:0,2:0:0:0:
281,239,34293,5,2,3:2:0:0:
457,303,34619,1,2,2:0:0:0:
398,182,34945,2,0,L|407:258,1,67.5000025749208,2|2,3:2|2:0,2:0:0:0:
311,110,35597,2,0,L|262:172,1,67.5000025749208,2|2,3:2|2:0,2:0:0:0:
422,69,36249,2,0,L|491:92,1,67.5000025749208,2|0,3:2|2:0,2:0:0:0:
380,0,36901,5,2,3:2:0:0:
246,84,37227,1,2,2:0:0:0:
320,195,37553,2,0,L|304:122,1,67.5000025749208,2|2,3:2|2:0,2:0:0:0:
153,230,38206,2,0,L|210:187,1,67.5000025749208,2|2,3:2|2:0,2:0:0:0:
352,322,38858,2,0,L|245:296,1,101.250003862381,2|0,3:2|1:0,2:0:0:0:
205,323,39510,6,0,L|135:341,1,67.5000025749208,2|2,3:2|3:2,2:0:0:0:
67,283,39999,1,2,2:0:0:0:
67,283,40162,2,0,L|83:178,1,101.250003862381,2|2,3:2|2:0,2:0:0:0:
100,132,40814,2,0,L|94:91,1,33.7500012874604,2|2,3:2|2:0,2:0:0:0:
60,51,41140,1,2,3:2:0:0:
197,141,41466,6,0,L|241:145,2,30,2|0|0,1:2|2:0|2:0,2:0:0:0:
171,170,41793,1,2,2:0:0:0:
171,170,42119,6,0,P|200:241|217:335,1,168.75,4|0,3:2|2:0,2:0:0:0:
241,337,42771,2,0,P|277:309|361:314,1,112.5,2|2,1:2|2:0,2:0:0:0:
453,384,43423,5,2,3:2:0:0:
486,291,43749,1,2,2:0:0:0:
434,208,44075,1,2,1:2:0:0:
494,136,44401,1,2,3:2:0:0:
503,98,44564,1,2,2:0:0:0:
481,63,44727,6,0,P|384:55|303:26,1,168.75,0|0,3:0|2:0,2:0:0:0:
308,61,45379,2,0,P|327:117|304:165,1,112.5,2|2,1:2|2:0,2:0:0:0:
119,136,46032,5,2,3:2:0:0:
76,54,46358,1,2,2:0:0:0:
35,189,46684,1,2,1:2:0:0:
111,300,47010,1,2,1:2:0:0:
118,342,47173,1,2,2:0:0:0:
100,375,47336,6,0,P|92:291|79:200,1,168.75,0|0,3:0|2:0,2:0:0:0:
102,196,47988,2,0,P|134:229|211:232,1,112.5,2|2,1:2|2:0,2:0:0:0:
279,125,48640,5,2,3:2:0:0:
242,4,48966,1,2,2:0:0:0:
372,94,49293,1,2,1:2:0:0:
447,0,49619,1,2,3:2:0:0:
348,101,49945,6,0,P|365:163|434:171,1,112.5,2|2,3:2|2:0,2:0:0:0:
471,312,50597,2,0,P|409:273|358:347,1,168.75,2|0,1:2|2:0,2:0:0:0:
367,359,51249,2,0,L|348:179,1,168.75,2|0,3:2|2:0,2:0:0:0:
279,139,51901,2,0,L|293:63,1,56.25,2|0,1:2|2:0,2:0:0:0:
228,15,52227,1,0,1:0:0:0:
228,15,52390,1,0,1:0:0:0:
139,54,52553,5,0,3:0:0:0:
207,192,53206,5,2,1:2:0:0:
368,61,53858,5,2,3:2:0:0:
96,6,54510,5,0,1:0:0:0:
150,358,55162,5,2,3:2:0:0:
255,315,55488,1,2,3:2:0:0:
216,216,55814,1,2,3:2:0:0:
236,344,56140,1,2,3:2:0:0:
373,368,56466,5,2,3:2:0:0:
407,295,56629,1,0,3:0:0:0:
484,283,56793,1,2,3:2:0:0:
497,206,56956,1,0,3:0:0:0:
502,187,57037,1,0,3:0:0:0:
512,169,57119,6,0,L|504:88,1,76.5000014591217,2|6,1:2|2:0,2:0:0:0:
356,239,57771,6,0,P|308:161|231:209,1,202.500007724762,4|0,3:2|2:0,2:0:0:0:
240,228,58423,6,0,P|245:165|250:99,1,112.5,2|2,2:0|3:2,2:0:0:0:
266,42,58912,1,2,2:0:0:0:
266,42,59075,6,0,P|290:51|341:62,1,67.5000025749208,2|2,1:2|2:0,2:0:0:0:
378,139,59401,2,0,P|447:129|517:124,2,135.000005149842,2|4|6,2:0|2:3|2:3,2:0:0:0:
240,298,60379,6,0,P|198:218|98:272,1,202.500007724762,0|0,3:0|2:0,2:0:0:0:
108,275,61032,5,6,2:3:0:0:
143,170,61249,1,4,2:3:0:0:
247,157,61466,1,4,2:3:0:0:
320,249,61684,6,0,L|403:227,1,67.5000025749208,2|0,1:2|2:0,2:0:0:0:
395,252,62010,2,0,L|329:269,1,67.5000025749208,2|0,2:0|2:0,2:0:0:0:
248,320,62336,2,0,P|174:303|97:292,1,135.000005149842,2|2,2:0|3:2,2:0:0:0:
9,292,62825,1,2,2:0:0:0:
9,292,62988,6,0,B|38:282|38:282|28:245,1,67.5000025749208,2|2,3:2|2:0,2:0:0:0:
4,149,63314,1,2,2:0:0:0:
4,149,63477,1,2,2:0:0:0:
99,86,63640,2,0,B|61:63|61:63|88:165,1,135.000005149842,6|2,3:0|2:0,2:0:0:0:
169,216,64129,1,2,2:0:0:0:
266,164,64293,6,0,P|299:155|350:152,1,67.5000025749208,2|2,1:2|2:0,2:0:0:0:
337,176,64619,2,0,P|303:179|270:188,1,67.5000025749208,10|2,2:3|2:0,2:0:0:0:
244,283,64945,6,0,L|260:389,1,90,2|6,2:0|2:3,2:0:0:0:
444,244,65597,6,0,L|453:175,1,67.5000025749208,0|0,3:0|2:0,2:0:0:0:
462,133,65923,1,2,2:0:0:0:
301,163,66249,2,0,B|300:147|300:147|297:143|297:143|299:138|299:138|295:129|295:129|298:125|298:125|293:114|293:114|295:105|295:105|293:101|293:101|295:94|295:94|293:87,1,67.5000025749208,6|0,3:0|2:0,2:0:0:0:
288,57,66575,1,2,2:0:0:0:
108,173,66901,6,0,P|172:176|243:288,1,202.500007724762,2|4,1:2|3:0,2:0:0:0:
229,316,67553,1,2,2:0:0:0:
229,316,67879,1,6,2:3:0:0:
423,234,68206,6,0,P|388:314|498:350,1,202.500007724762,4|0,3:2|2:0,2:0:0:0:
498,346,68858,2,0,L|505:301,4,33.7500012874604,10|8|8|8|10,2:0|2:0|2:0|2:0|2:0,2:0:0:0:
316,240,69510,6,0,P|303:126|291:36,1,202.500007724762,10|2,1:3|2:0,2:0:0:0:
273,17,70162,1,4,2:3:0:0:
273,17,70488,5,2,1:2:0:0:
194,45,70651,1,0,1:0:0:0:
113,16,70814,2,0,P|130:103|138:168,1,135.000005149842,0|10,3:0|2:3,2:0:0:0:
127,223,71303,1,8,2:3:0:0:
127,223,71466,5,6,2:3:0:0:
189,108,71711,1,4,2:3:0:0:
61,108,71956,1,4,2:3:0:0:
29,183,72119,6,0,P|39:267|47:396,1,202.500007724762,2|2,1:2|2:0,2:0:0:0:
72,384,72771,2,0,P|108:327|186:343,1,135.000005149842,2|2,2:0|2:0,2:0:0:0:
326,241,73423,6,0,P|314:279|306:324,1,67.5000025749208,0|0,3:0|2:0,2:0:0:0:
322,321,73749,2,0,P|329:288|339:255,1,67.5000025749208,10|0,2:3|2:0,2:0:0:0:
421,211,74075,5,6,2:3:0:0:
380,105,74293,1,4,2:3:0:0:
470,27,74510,1,4,2:3:0:0:
360,83,74727,6,0,P|297:97|283:161,1,135.000005149842,2|2,1:2|2:0,2:0:0:0:
178,250,75379,2,0,P|212:255|245:263,1,67.5000025749208,2|0,2:0|2:0,2:0:0:0:
308,326,75706,1,4,2:3:0:0:
308,326,75869,1,4,2:3:0:0:
386,282,76032,6,0,L|373:179,1,101.250003862381,0|0,3:0|2:0,2:0:0:0:
387,174,76358,2,0,L|394:233,1,56.25,2|0,2:0|2:0,2:0:0:0:
302,141,76684,6,0,L|316:22,1,101.250003862381,2|0,3:2|2:0,2:0:0:0:
298,28,77010,2,0,L|290:100,1,56.25,2|0,2:0|2:0,2:0:0:0:
188,161,77336,6,0,P|140:94|77:107,1,135.000005149842,2|10,1:2|2:0,2:0:0:0:
49,157,77825,1,6,2:3:0:0:
49,157,77988,2,0,P|74:173|90:193,1,56.25,2|0,2:0|2:0,2:0:0:0:
94,285,78314,1,4,2:3:0:0:
79,330,78477,1,4,2:3:0:0:
87,355,78640,5,2,3:2:0:0:
214,297,78966,1,2,2:0:0:0:
310,384,79293,1,2,3:2:0:0:
442,348,79619,1,2,2:0:0:0:
442,348,79945,6,0,P|434:284|433:249,2,90.0000034332277,0|4|4,1:0|2:3|2:3,2:0:0:0:
356,264,80597,2,0,P|325:277|308:305,1,67.5000025749208,6|2,2:3|2:0,2:0:0:0:
317,384,80923,5,2,1:2:0:0:
259,366,81086,1,2,2:0:0:0:
232,381,81249,5,2,3:2:0:0:
198,249,81575,1,2,2:0:0:0:
52,287,81901,1,2,3:2:0:0:
0,169,82227,1,2,2:0:0:0:
0,169,82553,6,0,P|17:66|17:20,1,135.000005149842,0|6,1:0|2:3,2:0:0:0:
53,28,83043,1,6,2:3:0:0:
53,28,83206,2,0,P|71:56|107:69,1,67.5000025749208,6|2,2:3|2:0,2:0:0:0:
189,28,83532,1,6,1:3:0:0:
173,78,83695,1,2,2:0:0:0:
175,105,83858,5,2,3:2:0:0:
306,138,84184,1,2,2:0:0:0:
198,280,84510,1,2,3:2:0:0:
321,338,84836,1,2,2:0:0:0:
321,338,85162,6,0,P|333:218|351:126,1,202.500007724762,0|2,1:0|2:0,2:0:0:0:
329,122,85814,2,0,P|300:141|262:136,1,67.5000025749208,2|2,2:0|2:0,2:0:0:0:
207,77,86140,1,2,1:2:0:0:
180,58,86303,1,2,2:0:0:0:
124,72,86466,5,0,3:0:0:0:
93,229,86793,2,0,P|137:205|187:209,1,101.250003862381,6|0,2:3|2:0,2:0:0:0:
203,230,87119,2,0,P|194:281|188:342,1,101.250003862381,2|0,3:2|2:0,2:0:0:0:
200,353,87445,1,6,2:3:0:0:
474,130,87771,6,0,P|416:155|380:104,1,135.000005149842,2|4,1:2|2:3,2:0:0:0:
315,305,88423,1,0,1:0:0:0:
315,305,88586,1,0,1:0:0:0:
315,305,88749,2,0,P|301:250|288:190,1,101.250003862381,4|0,3:2|2:0,2:0:0:0:
278,193,89075,6,0,P|256:217|218:219,1,67.5000025749208,2|0,2:0|2:0,2:0:0:0:
