osu file format v14

[General]
AudioFilename: audio.mp3
AudioLeadIn: 0
PreviewTime: 61107
Countdown: 0
SampleSet: Soft
StackLeniency: 0.7
Mode: 0
LetterboxInBreaks: 0
WidescreenStoryboard: 1

[Editor]
DistanceSpacing: 1
BeatDivisor: 4
GridSize: 32
TimelineZoom: 1.1

[Metadata]
Title:The Good Life
TitleUnicode:The Good Life
Artist:Weezer
ArtistUnicode:Weezer
Creator:attendant
Version:Normal
Source:
Tags:pinkerton english alternative rock
BeatmapID:3357262
BeatmapSetID:1644735

[Difficulty]
HPDrainRate:4
CircleSize:3.5
OverallDifficulty:4
ApproachRate:5.5
SliderMultiplier:1
SliderTickRate:0.5

[Events]
//Background and Video events
0,0,"wp7053431.jpg",0,0
Video,-1450,"video.mp4"
//Break Periods
2,33529,35790
//Storyboard Layer 0 (Background)
//Storyboard Layer 1 (Fail)
//Storyboard Layer 2 (Pass)
//Storyboard Layer 3 (Foreground)
//Storyboard Layer 4 (Overlay)
//Storyboard Sound Samples

[TimingPoints]
352,512.820512820512,4,2,2,35,1,0
864,478.08764940239,4,2,2,40,1,0
1564,444.444444444444,4,2,2,40,1,0
2244,463.320463320463,4,2,2,40,1,0
4081,444.444444444444,4,2,2,40,1,0
5884,454.545454545454,4,2,2,40,1,0
6777,428.571428571429,4,2,2,40,1,0
7676,447.76119402985,4,2,1,50,1,0
9467,444.444444444444,4,2,1,50,1,0
13021,441.176470588235,4,2,1,50,1,0
14785,444.444444444444,4,2,1,50,1,0
16562,442.80442804428,4,2,1,50,1,0
18333,441.176470588235,4,2,1,50,1,0
20097,434.782608695652,4,2,1,50,1,0
21836,447.76119402985,4,2,1,60,1,0
23627,434.782608695652,4,2,1,60,1,0
25366,448.598130841121,4,2,1,60,1,0
27160,447.76119402985,4,2,1,60,1,0
28951,446.096654275092,4,2,1,60,1,0
30709,442.804428044279,6,2,1,60,1,0
33329,462.427745664739,4,2,1,40,1,0
35178,455.407969639467,4,2,1,40,1,0
36089,474.308300395255,4,2,1,40,1,0
36990,445.269016697587,4,2,1,50,1,0
38771,439.560439560439,4,2,1,50,1,0
40529,437.956204379562,4,2,1,50,1,0
42280,442.80442804428,4,2,1,50,1,0
43165,424.028268551236,4,2,1,50,1,0
44051,441.988950276243,4,2,1,50,1,0
45818,434.782608695652,4,2,1,50,1,0
47122,442.80442804428,4,2,1,50,1,0
47564,446.927374301676,4,2,1,50,1,0
49351,437.956204379562,4,2,1,50,1,0
51077,441.176470588235,4,2,1,60,1,0
52841,444.444444444444,4,2,1,60,1,0
54618,435.57168784029,4,2,1,60,1,0
56360,454.545454545455,4,2,1,60,1,0
57269,447.761194029851,4,2,1,60,1,0
57716,434.153400868307,4,2,1,60,1,0
58150,435.571687840292,4,2,1,60,1,0
59892,441.988950276245,6,2,1,60,1,0
61217,-100,6,2,1,55,0,0
61438,-100,6,2,1,50,0,0
61659,-100,6,2,1,45,0,0
61880,-100,6,2,1,40,0,0
62101,-100,6,2,1,35,0,0
62322,-100,6,2,1,30,0,0
62543,447.761194029853,4,2,1,70,1,0
62990,-90.9090909090909,4,2,1,70,0,0
64334,444.444444444447,4,2,1,70,1,0
64778,-90.9090909090909,4,2,1,70,0,0
66111,450.281425891184,4,2,1,70,1,0
66111,-90.9090909090909,4,2,1,70,0,0
67912,440.366972477066,4,2,1,70,1,0
68352,-90.9090909090909,4,2,1,70,0,0
69673,442.804428044282,4,2,1,70,1,0
69673,-90.9090909090909,4,2,1,70,0,0
71001,455.40796963947,4,2,1,70,1,0
71228,-90.9090909090909,4,2,1,70,0,0
71467,441.176470588237,4,2,1,70,1,0
72349,-90.9090909090909,4,2,1,70,0,0
74995,437.956204379564,4,2,1,70,1,0
75432,-90.9090909090909,4,2,1,70,0,0
76746,439.560439560441,4,2,1,70,1,0
76746,-90.9090909090909,4,2,1,70,0,0
78504,444.444444444446,4,2,1,70,1,0
78504,-90.9090909090909,4,2,1,70,0,0
80281,446.927374301678,4,2,1,70,1,0
80281,-90.9090909090909,4,2,1,70,0,0
82068,437.158469945358,4,2,1,70,1,0
82068,-90.9090909090909,4,2,1,70,0,0
83816,433.212996389894,4,2,1,70,1,0
83816,-90.9090909090909,4,2,1,70,0,0
85548,441.176470588238,4,2,1,70,1,0
85878,-100,4,2,1,50,0,0
87312,473.372781065092,4,2,1,50,1,0
87785,441.176470588238,4,2,1,50,1,0
89108,432.432432432435,4,2,1,50,1,0
90837,429.338103756711,4,2,1,50,1,0
92125,433.996383363475,4,2,1,50,1,0
92558,437.956204379565,4,2,1,50,1,0
94309,442.804428044284,4,2,1,50,1,0
96080,445.269016697592,4,2,1,50,1,0
97861,439.560439560443,4,2,1,50,1,0
99619,442.804428044284,4,2,1,50,1,0
101390,437.158469945359,4,2,1,50,1,0
103138,441.988950276247,4,2,1,50,1,0
104905,445.269016697592,4,2,1,50,1,0
106686,430.879712746861,4,2,1,50,1,0
108409,440.366972477067,4,2,1,60,1,0
110170,442.804428044283,4,2,1,60,1,0
113712,456.273764258558,4,2,1,60,1,0
115080,451.127819548872,4,2,1,60,1,0
115531,438.756855575868,4,2,1,60,1,0
117282,436.363636363639,6,2,1,60,1,0
118591,-100,6,2,1,55,0,0
118809,-100,6,2,1,50,0,0
119027,-100,6,2,1,45,0,0
119245,-100,6,2,1,40,0,0
119463,-100,6,2,1,35,0,0
119682,-100,6,2,1,30,0,0
119900,453.686200378075,4,2,1,70,1,0
119900,-90.9090909090909,4,2,1,70,0,0
121714,443.622920517563,4,2,1,70,1,0
122157,-90.9090909090909,4,2,1,70,0,0
123488,458.891013384324,4,2,1,70,1,0
123488,-90.9090909090909,4,2,1,70,0,0
125323,441.176470588238,4,2,1,70,1,0
125323,-90.9090909090909,4,2,1,70,0,0
127087,448.598130841124,4,2,1,70,1,0
128208,-90.9090909090909,4,2,1,70,0,0
128881,440.366972477067,4,2,1,70,1,0
128881,-90.9090909090909,4,2,1,70,0,0
130642,442.804428044283,4,2,1,70,1,0
131527,-90.9090909090909,4,2,1,70,0,0
132413,445.269016697591,4,2,1,70,1,0
133748,-90.9090909090909,4,2,1,70,0,0
135975,441.988950276246,4,2,1,70,1,0
135975,-90.9090909090909,4,2,1,70,0,0
137742,451.977401129946,4,2,1,70,1,0
137742,-90.9090909090909,4,2,1,70,0,0
139549,444.444444444447,4,2,1,70,1,0
139549,-90.9090909090909,4,2,1,70,0,0
141326,433.996383363472,4,2,1,70,1,0
141326,-90.9090909090909,4,2,1,70,0,0
142193,400,4,2,1,70,1,0
142193,-90.9090909090909,4,2,1,70,0,0
142393,441.176470588235,4,2,1,70,1,0
142981,441.176470588235,4,2,1,50,1,0
144804,430.107526881723,4,2,1,70,1,1
145449,-83.3333333333333,4,2,1,70,0,1
146524,417.391304347828,4,2,1,70,1,1
147150,-83.3333333333333,4,2,1,70,0,1
148193,410.958904109591,4,2,1,70,1,1
148809,-83.3333333333333,4,2,1,70,0,1
149836,417.391304347828,4,2,1,70,1,1
149836,-83.3333333333333,4,2,1,70,0,1
151505,402.684563758391,4,2,1,70,1,1
152109,-83.3333333333333,4,2,1,70,0,1
153115,411.663807890225,4,2,1,70,1,1
153115,-83.3333333333333,4,2,1,70,0,1
154761,425.531914893617,4,2,1,70,1,1
154761,-83.3333333333333,4,2,1,70,0,1
156430,428.571428571431,4,2,1,70,1,0
157287,457.142857142861,4,2,1,65,1,0
157744,468.750000000004,4,2,1,60,1,0
158212,544.217687074835,4,2,1,55,1,0
158484,588.235294117653,4,2,1,50,1,0
158778,620.155038759697,4,2,1,45,1,0
159088,683.760683760692,4,2,1,40,1,0
159429,689.655172413802,4,2,1,35,1,0
159773,695.652173913052,4,2,1,30,1,0
160120,725.075528700915,4,2,1,45,1,0
160482,-100,4,2,1,30,0,0
160845,718.562874251506,4,2,1,60,1,0
160934,-100,4,2,1,45,0,0
163719,689.655172413801,4,2,1,45,1,0
166477,701.75438596492,4,2,1,45,1,0
169284,676.056338028176,4,2,1,45,1,0
171988,664.819944598345,4,2,1,45,1,0
174647,659.340659340666,4,2,1,45,1,0
177284,661.157024793395,4,2,1,45,1,0
179928,670.391061452522,4,2,1,45,1,0
180263,-100,4,2,1,20,0,0
182609,638.297872340433,4,2,1,30,1,0
185162,-100,4,2,1,33,0,0
187715,633.245382585759,4,2,1,36,1,0
190247,604.53400503779,4,2,1,39,1,0
192665,589.680589680596,4,2,1,42,1,0
195023,581.113801452791,4,2,1,45,1,0
197347,552.995391705075,4,2,1,48,1,0
199558,545.454545454551,4,2,1,51,1,0
201739,509.554140127394,4,2,1,54,1,0
203777,434.782608695656,4,2,1,57,1,0
203994,-100,4,2,0,50,0,0
205516,451.127819548876,4,2,1,70,1,0
205516,-90.9090909090909,4,2,1,70,0,0
207320,438.756855575872,4,2,1,70,1,0
208636,-90.9090909090909,4,2,1,70,0,0
209075,441.176470588239,4,2,1,70,1,0
209075,-90.9090909090909,4,2,1,70,0,0
210839,424.77876106195,4,2,1,70,1,0
211263,-90.9090909090909,4,2,1,70,0,0
212538,438.756855575872,4,2,1,70,1,0
212976,-90.9090909090909,4,2,1,70,0,0
214293,443.622920517564,4,2,1,70,1,0
215180,-90.9090909090909,4,2,1,70,0,0
217841,441.176470588239,4,2,1,70,1,0
218723,-90.9090909090909,4,2,1,70,0,0
219605,436.36363636364,4,2,1,80,1,0
219605,-83.3333333333333,4,2,1,80,0,0
221350,433.996383363476,4,2,1,80,1,0
221350,-83.3333333333333,4,2,1,80,0,0
224820,431.654676258997,4,2,1,80,1,0
225683,-83.3333333333333,4,2,1,80,0,0
226546,436.36363636364,4,2,1,80,1,0
226546,-83.3333333333333,4,2,1,80,0,0
228291,433.996383363476,4,2,1,80,1,0
228291,-83.3333333333333,4,2,1,80,0,0
230026,431.654676258997,4,2,1,80,1,0
230026,-83.3333333333333,4,2,1,80,0,0
231752,422.53521126761,4,2,1,80,1,0
232174,-83.3333333333333,4,2,1,80,0,0
235132,424.778761061951,4,2,1,80,1,0
235132,-83.3333333333333,4,2,1,80,0,0
236831,474.308300395262,4,2,1,80,1,0
237068,508.474576271192,4,2,1,80,1,0
238593,559.440559440565,4,2,1,80,1,0
239152,559.440559440565,4,2,1,80,1,1
245865,-100,4,2,1,55,0,0
249221,-100,4,2,1,25,0,0

[Colours]
Combo1 : 170,170,185
Combo2 : 220,200,160
Combo3 : 207,152,112

[HitObjects]
476,354,7676,5,8,1:0:0:0:
426,273,8123,1,8,1:2:0:0:
426,273,8347,2,0,L|444:150,1,100,2|2,1:2|1:2,0:0:0:0:
450,130,9019,1,10,1:2:0:0:
373,64,9467,2,0,L|323:76,1,50,2|2,1:2|0:0,0:0:0:0:
284,55,9911,1,8,1:2:0:0:
284,55,10133,2,0,P|241:89|216:143,1,100,2|2,1:2|1:2,0:0:0:0:
208,177,10800,1,10,1:2:0:0:
230,221,11022,1,2,3:2:0:0:
251,267,11244,6,0,P|226:310|186:340,1,100,8|8,1:0|1:2,0:0:0:0:
139,357,11911,1,2,1:2:0:0:
43,351,12355,1,2,1:2:0:0:
43,351,12578,1,10,1:2:0:0:
19,253,13021,6,0,P|34:203|42:136,1,100,2|8,1:2|1:2,0:0:0:0:
38,106,13682,1,2,1:2:0:0:
112,38,14123,1,2,1:2:0:0:
112,38,14344,2,0,L|185:46,1,50,10|2,1:2|3:2,0:0:0:0:
198,77,14785,2,0,P|267:64|337:63,1,100,8|8,1:0|1:2,0:0:0:0:
346,62,15451,1,2,1:2:0:0:
422,134,15896,1,2,1:2:0:0:
422,134,16118,2,0,P|419:178|409:230,1,50,10|2,1:2|3:2,0:0:0:0:
381,218,16562,6,0,L|386:279,1,50,2|0,1:2|0:0,0:0:0:0:
418,304,17004,1,10,1:2:0:0:
397,349,17226,1,2,1:2:0:0:
304,380,17669,1,2,1:2:0:0:
304,380,17890,2,0,P|259:371|210:371,1,50,10|2,1:2|3:2,0:0:0:0:
204,374,18333,1,8,1:0:0:0:
188,276,18774,1,8,1:2:0:0:
188,276,18994,2,0,P|202:215|205:198,2,50,2|2|2,1:2|3:2|1:2,0:0:0:0:
142,289,19656,1,10,1:2:0:0:
142,289,19877,1,2,3:2:0:0:
95,269,20097,6,0,P|69:280|33:346,1,100,2|8,1:2|1:2,0:0:0:0:
62,380,20749,1,2,1:2:0:0:
164,371,21183,1,2,1:1:0:0:
164,371,21401,2,0,L|253:377,1,50,14|0,1:2|3:2,0:0:0:0:
261,366,21836,5,2,1:2:0:0:
309,378,22059,1,2,1:2:0:0:
356,363,22283,2,0,P|361:309|374:236,1,100,14|2,1:0|1:2,0:0:0:0:
329,173,23179,2,0,P|323:119|311:46,1,100.223333333333,14|2,1:0|1:2,0:0:0:0:
284,43,23844,1,2,1:2:0:0:
284,43,24061,2,0,P|234:52|165:51,1,100,14|2,1:0|1:2,0:0:0:0:
147,85,24713,1,0,1:2:0:0:
101,64,24931,1,12,1:0:0:0:
64,153,25366,5,2,1:2:0:0:
44,199,25590,1,2,1:2:0:0:
70,241,25814,2,0,P|67:302|62:353,1,100,14|2,1:0|1:2,0:0:0:0:
110,319,26487,1,0,1:2:0:0:
156,336,26711,1,12,1:0:0:0:
253,360,27160,2,0,L|338:375,1,50,2|2,1:2|1:2,0:0:0:0:
344,342,27607,2,0,L|468:328,1,100,14|2,1:0|1:2,0:0:0:0:
497,328,28279,1,0,1:2:0:0:
505,278,28503,1,12,1:0:0:0:
437,203,28951,6,0,L|427:132,1,50,2|2,1:2|1:2,0:0:0:0:
462,115,29397,2,0,P|461:64|484:-9,1,100,14|2,1:0|1:2,0:0:0:0:
423,8,30066,1,0,1:2:0:0:
376,27,30289,1,14,1:0:0:0:
285,55,30709,2,0,L|208:45,1,50,2|2,1:2|1:2,0:0:0:0:
194,20,31151,2,0,L|131:34,1,50,14|2,1:2|1:2,0:0:0:0:
104,59,31594,1,14,1:2:0:0:
256,192,31816,12,8,33329,1:0:0:0:
211,143,36990,5,8,1:0:0:0:
264,227,37435,1,8,1:2:0:0:
264,227,37657,2,0,P|265:298|261:361,1,100,2|2,1:2|1:2,0:0:0:0:
231,364,38325,2,0,L|176:358,1,50,10|2,1:2|3:2,0:0:0:0:
141,326,38771,1,2,1:2:0:0:
141,326,38990,2,0,L|31:357,1,100,2|2,1:2|1:2,0:0:0:0:
0,263,39869,1,2,1:2:0:0:
0,263,40089,2,0,L|10:199,1,50,10|2,1:2|3:2,0:0:0:0:
20,164,40529,5,8,1:0:0:0:
33,68,40966,1,8,1:2:0:0:
33,68,41185,2,0,L|22:11,2,50,2|2|2,1:2|3:2|1:2,0:0:0:0:
83,102,41842,1,10,1:2:0:0:
134,89,42061,1,2,3:2:0:0:
182,98,42280,2,0,P|263:97|324:105,1,100,2|8,1:2|1:2,0:0:0:0:
331,103,42944,1,2,1:2:0:0:
407,34,43377,1,2,1:2:0:0:
407,34,43589,2,0,P|441:43|465:45,1,50,10|2,1:2|3:2,0:0:0:0:
504,73,44051,5,8,1:0:0:0:
478,171,44492,1,8,1:2:0:0:
478,171,44713,2,0,P|458:232|447:305,1,100,2|2,1:2|1:2,0:0:0:0:
407,291,45376,2,0,L|360:312,1,50,10|2,1:2|3:2,0:0:0:0:
314,292,45818,1,2,1:2:0:0:
314,292,46035,2,0,L|188:277,1,100,2|2,0:0|1:2,0:0:0:0:
117,305,46904,1,2,1:2:0:0:
117,305,47122,1,10,1:2:0:0:
116,206,47564,6,0,P|128:158|131:108,1,100,8|8,1:0|1:2,0:0:0:0:
171,77,48234,1,2,1:2:0:0:
171,77,48457,2,0,L|244:94,1,50,2|2,3:2|1:2,0:0:0:0:
268,75,48904,1,10,1:2:0:0:
307,106,49128,1,2,3:2:0:0:
296,155,49351,2,0,P|284:203|281:253,1,100,2|8,1:2|1:2,0:0:0:0:
241,283,50007,1,2,1:2:0:0:
218,383,50445,1,2,1:1:0:0:
218,383,50664,2,2,P|253:384|285:385,1,50,14|0,1:0|3:2,0:1:0:0:
303,358,51077,5,2,1:2:0:0:
348,377,51297,1,2,1:2:0:0:
395,360,51518,2,0,L|497:376,1,100,14|2,1:0|1:2,0:0:0:0:
489,330,52179,1,0,1:2:0:0:
489,330,52400,1,14,1:0:0:0:
462,234,52841,2,0,L|473:183,1,50,2|2,1:2|1:2,0:0:0:0:
502,145,53285,2,0,L|489:32,1,100,14|2,1:0|1:2,0:0:0:0:
450,25,53952,1,0,1:2:0:0:
450,25,54174,1,14,1:0:0:0:
356,61,54618,6,0,L|274:85,1,50,2|2,1:2|1:2,0:0:0:0:
269,43,55053,2,0,P|215:41|151:70,1,100,14|2,1:0|1:2,0:0:0:0:
134,87,55706,1,0,1:2:0:0:
134,87,55924,1,14,1:0:0:0:
186,167,56360,2,0,L|190:230,1,50,2|2,1:2|1:2,0:0:0:0:
158,256,56814,2,0,P|146:313|146:358,1,100,14|2,1:0|1:2,0:0:0:0:
103,377,57492,1,0,1:2:0:0:
103,377,57716,1,14,1:0:0:0:
21,322,58150,6,0,L|30:247,1,50,2|2,1:2|1:2,0:0:0:0:
57,232,58585,2,0,L|39:116,1,100,12|2,1:0|1:2,0:0:0:0:
65,91,59238,1,0,1:2:0:0:
65,91,59456,1,14,1:0:0:0:
163,81,59892,2,0,L|222:70,1,50,2|0,1:2|1:2,0:0:0:0:
254,46,60333,2,0,L|310:54,1,50,14|2,1:2|1:2,0:0:0:0:
342,84,60775,2,0,L|447:68,2,100,14|14|14,1:2|1:2|1:2,0:0:0:0:
321,131,61880,1,8,1:0:0:0:
321,131,62101,1,14,1:2:0:0:
286,224,62543,5,12,1:0:0:0:
318,328,62990,2,0,P|390:343|436:358,1,110,14|6,1:0|1:2,0:0:0:0:
473,328,63662,1,2,1:2:0:0:
451,277,63886,1,12,1:2:0:0:
466,224,64110,1,2,1:2:0:0:
499,121,64556,1,0,1:2:0:0:
499,121,64778,2,0,L|481:50,2,55,14|2|6,1:2|0:0|1:2,0:0:0:0:
446,148,65445,1,2,1:2:0:0:
446,148,65667,2,0,L|380:161,1,55,14|2,1:2|1:2,0:0:0:0:
351,115,66111,6,0,P|302:117|217:107,1,110,14|14,1:0|1:2,0:0:0:0:
161,202,67011,2,0,L|111:224,2,55,6|2|14,1:2|1:2|1:2,0:0:0:0:
140,150,67686,2,0,P|143:100|138:15,1,109.022836690267,2|0,1:2|1:2,0:0:0:0:
95,11,68352,2,0,L|27:24,1,55,14|2,1:2|0:0,0:0:0:0:
16,68,68792,1,6,1:2:0:0:
38,118,69012,1,2,1:2:0:0:
13,167,69233,2,0,L|0:236,1,55,14|2,1:2|1:2,0:0:0:0:
30,267,69673,6,0,P|26:333|30:399,1,110,14|14,1:0|1:2,0:0:0:0:
139,359,70558,1,6,1:2:0:0:
139,359,70780,2,0,L|207:334,1,55.0000016784668,2|14,1:2|1:2,0:0:0:0:
238,313,71228,2,0,P|287:326|390:326,1,110.966170023601,2|0,1:2|1:2,0:0:0:0:
389,366,71908,1,12,1:2:0:0:
463,284,72349,2,0,L|480:211,1,55,6|2,1:2|1:2,0:0:0:0:
494,181,72790,1,14,1:2:0:0:
494,181,73011,1,0,1:2:0:0:
450,147,73231,6,0,P|395:161|318:171,1,110,14|12,1:0|1:2,0:0:0:0:
291,178,73893,1,2,0:0:0:0:
291,178,74114,2,0,P|181:174|149:181,1,110,14|4,1:2|1:3,0:0:0:0:
128,188,74775,1,14,1:2:0:0:
28,230,75213,1,14,1:2:0:0:
28,230,75432,2,0,L|8:169,1,55,8|4,1:3|1:3,0:0:0:0:
32,129,75870,1,14,1:2:0:0:
32,129,76089,1,2,1:2:0:0:
8,79,76308,2,0,L|26:2,1,55,14|8,1:2|1:2,0:0:0:0:
73,10,76746,6,0,P|126:21|181:23,1,110,14|14,1:0|1:0,0:0:0:0:
283,77,77625,1,6,1:2:0:0:
283,77,77844,1,2,1:2:0:0:
329,47,78064,1,14,1:2:0:0:
422,103,78504,2,0,P|417:163|416:240,1,110,6|12,1:2|1:2,0:0:0:0:
453,252,79170,1,2,0:0:0:0:
453,252,79392,2,0,L|438:322,1,55,6|2,1:2|1:2,0:0:0:0:
456,358,79837,1,14,1:2:0:0:
456,358,80059,1,2,1:2:0:0:
402,370,80281,6,0,P|350:370|290:386,1,110,14|14,1:0|1:2,0:0:0:0:
210,312,81174,2,0,L|156:339,2,55,6|2|14,1:2|1:2|1:2,0:0:0:0:
250,274,81845,1,2,0:0:0:0:
250,274,82068,2,0,P|253:221|253:163,1,110,4|12,1:2|1:2,0:0:0:0:
147,134,82942,2,0,L|81:155,1,55,6|2,1:2|1:2,0:0:0:0:
55,188,83379,1,14,1:2:0:0:
55,188,83598,1,0,1:2:0:0:
11,153,83816,6,0,P|11:122|22:45,1,55,14|0,1:0|1:2,0:0:0:0:
39,49,84249,2,0,P|155:50|264:19,1,220,14|12,1:2|1:2,0:0:0:0:
308,50,85332,1,0,1:2:0:0:
308,50,85548,1,14,1:2:0:0:
308,50,87312,5,4,1:0:0:0:
235,129,87785,1,8,1:2:0:0:
235,129,88005,2,0,P|228:183|225:252,1,100,2|2,1:2|1:2,0:0:0:0:
248,272,88667,1,8,1:2:0:0:
167,334,89108,2,0,P|132:345|73:379,1,100,4|8,1:2|1:2,0:0:0:0:
44,345,89756,1,2,1:2:0:0:
90,258,90189,1,2,1:2:0:0:
90,258,90405,1,8,1:2:0:0:
10,195,90837,6,0,P|8:148|13:68,1,100,4|8,1:2|1:2,0:0:0:0:
18,45,91481,1,2,1:2:0:0:
116,81,91910,1,2,1:2:0:0:
116,81,92125,1,8,1:2:0:0:
190,16,92558,6,0,L|274:29,1,66.6666666666667,4|8,1:2|1:2,0:0:0:0:
306,83,93141,2,0,L|395:69,1,66.6666666666667,8|8,1:3|1:2,0:0:0:0:
422,14,93725,2,0,L|502:28,1,66.6666666666667,12|8,1:3|1:2,0:0:0:0:
511,97,94309,5,8,1:0:0:0:
430,154,94751,1,8,1:2:0:0:
430,154,94973,2,0,P|421:213|408:275,1,100,2|2,1:2|1:2,0:0:0:0:
402,301,95637,1,10,1:2:0:0:
311,335,96080,1,2,1:2:0:0:
311,335,96302,2,0,P|270:324|194:317,1,100,2|2,0:0|1:2,0:0:0:0:
167,328,96970,1,2,3:2:0:0:
167,328,97193,1,2,1:2:0:0:
134,290,97415,2,0,P|135:250|132:212,1,50,10|2,1:2|3:2,0:0:0:0:
160,195,97861,5,8,1:0:0:0:
107,116,98300,1,8,1:2:0:0:
107,116,98520,2,0,P|104:47|89:-7,1,100,2|2,1:2|1:2,0:0:0:0:
53,41,99179,2,0,L|-5:58,1,50,10|2,1:2|3:2,0:0:0:0:
9,104,99619,2,0,P|0:153|0:202,1,100,2|8,1:2|1:2,0:0:0:0:
8,252,100283,1,2,1:2:0:0:
51,347,100726,1,2,1:2:0:0:
51,347,100947,1,10,1:2:0:0:
150,365,101390,5,8,1:0:0:0:
232,307,101827,1,8,1:2:0:0:
232,307,102045,2,0,P|281:312|341:313,1,100,2|2,1:2|1:2,0:0:0:0:
379,296,102701,2,0,P|382:263|391:210,1,50,10|2,1:2|3:2,0:0:0:0:
403,200,103138,1,2,1:2:0:0:
378,156,103358,2,0,P|328:168|260:177,1,100,2|2,0:0|1:2,0:0:0:0:
184,189,104242,1,2,1:2:0:0:
184,189,104463,2,0,L|164:108,1,50,10|2,1:2|3:2,0:0:0:0:
145,98,104905,6,0,P|154:47|160:-14,1,100,8|8,1:0|1:2,0:0:0:0:
212,11,105572,1,2,1:2:0:0:
212,11,105795,2,0,L|272:16,1,50,2|2,3:2|1:2,0:0:0:0:
305,49,106240,1,10,1:2:0:0:
305,49,106463,1,2,3:2:0:0:
351,26,106686,2,0,P|393:52|425:106,1,100,2|8,1:2|1:2,0:0:0:0:
428,142,107332,1,2,1:2:0:0:
485,230,107763,1,2,1:1:0:0:
485,230,107978,2,0,L|469:304,1,50,14|0,1:2|3:2,0:0:0:0:
494,334,108409,5,2,1:2:0:0:
494,334,108629,1,2,1:2:0:0:
494,334,108849,2,0,P|443:351|397:363,1,100,14|2,1:0|1:2,0:0:0:0:
358,342,109509,1,0,1:2:0:0:
358,342,109730,1,14,1:0:0:0:
268,328,110170,1,2,1:2:0:0:
268,328,110391,1,2,1:2:0:0:
268,328,110612,2,0,P|210:344|142:354,1,100,14|2,1:0|1:2,0:0:0:0:
124,349,111277,1,0,1:2:0:0:
124,349,111498,1,14,1:0:0:0:
70,264,111941,6,0,L|78:204,1,50,2|2,1:2|1:2,0:0:0:0:
119,188,112384,2,0,L|111:117,1,50,14|2,1:0|0:0,0:0:0:0:
92,99,112826,1,2,1:2:0:0:
92,99,113048,1,0,1:2:0:0:
119,57,113269,2,0,P|162:66|229:73,1,100.225833333333,14|2,1:0|1:2,0:0:0:0:
271,77,113940,1,2,1:2:0:0:
271,77,114168,1,14,1:0:0:0:
332,155,114624,2,0,P|380:143|437:140,1,100,2|14,1:2|1:0,0:0:0:0:
483,152,115305,1,2,3:2:0:0:
483,152,115531,6,0,L|477:208,1,50,2|2,1:2|1:2,0:0:0:0:
491,249,115969,1,12,1:0:0:0:
491,249,116189,2,0,P|457:266|424:373,1,150,2|14,3:2|1:0,0:0:0:0:
330,325,117282,2,0,L|261:354,1,50,2|0,1:2|1:2,0:0:0:0:
243,373,117718,2,0,L|174:351,1,50,14|2,1:2|1:2,0:0:0:0:
150,335,118154,2,0,L|25:375,2,100,14|14|14,1:2|1:2|1:2,0:0:0:0:
177,294,119245,1,8,1:0:0:0:
177,294,119463,1,14,1:2:0:0:
234,204,119900,6,0,P|241:146|240:73,2,110,12|14|6,1:0|1:0|1:2,0:0:0:0:
264,255,121034,1,2,1:2:0:0:
264,255,121261,2,0,L|271:319,1,55,12|2,1:2|1:2,0:0:0:0:
252,363,121714,1,4,0:0:0:0:
361,363,122157,2,0,L|442:350,1,55,14|2,1:2|0:0,0:0:0:0:
455,316,122601,1,6,1:2:0:0:
476,265,122823,1,2,1:2:0:0:
454,214,123044,1,14,1:2:0:0:
470,161,123266,1,2,1:2:0:0:
458,109,123488,6,0,P|465:49|463:0,1,110,14|14,1:0|1:2,0:0:0:0:
360,39,124405,2,0,L|294:25,1,55,6|2,1:2|1:2,0:0:0:0:
266,64,124864,1,14,1:2:0:0:
266,64,125094,1,2,1:2:0:0:
216,35,125323,2,0,P|173:52|90:67,1,110,4|14,0:0|1:2,0:0:0:0:
65,93,125984,1,2,0:0:0:0:
65,93,126205,2,0,L|54:154,1,55,6|2,1:2|1:2,0:0:0:0:
104,171,126646,2,0,L|111:229,1,55,14|2,1:2|1:2,0:0:0:0:
159,249,127087,5,14,1:0:0:0:
114,346,127535,1,14,1:2:0:0:
20,297,127984,1,6,1:2:0:0:
20,297,128208,2,0,L|13:242,1,55,2|14,1:2|1:2,0:0:0:0:
21,191,128657,1,2,1:2:0:0:
21,191,128881,2,0,P|4:123|4:60,1,110,4|12,0:0|1:2,0:0:0:0:
38,43,129541,1,2,0:0:0:0:
38,43,129761,2,0,L|132:15,1,55,6|2,1:2|1:2,0:0:0:0:
141,49,130202,1,14,1:2:0:0:
245,80,130642,5,14,1:0:0:0:
346,33,131084,1,12,1:2:0:0:
346,33,131306,1,2,0:0:0:0:
374,80,131527,2,0,P|424:100|471:165,1,110,14|4,1:2|1:3,0:0:0:0:
444,193,132191,2,0,P|446:258|408:338,1,110.496836690267,14|14,1:2|1:2,0:0:0:0:
390,332,132858,1,8,1:3:0:0:
390,332,133080,1,4,1:3:0:0:
286,360,133526,1,2,1:2:0:0:
286,360,133748,2,0,L|212:350,1,55,14|8,1:2|1:2,0:0:0:0:
198,309,134194,6,0,P|207:252|204:182,1,110,14|14,1:0|1:0,0:0:0:0:
182,156,134861,1,2,0:0:0:0:
182,156,135084,2,0,L|192:92,1,55,6|2,1:2|1:2,0:0:0:0:
205,48,135529,1,14,1:2:0:0:
312,18,135975,2,0,P|374:34|426:43,1,110,6|12,1:2|1:2,0:0:0:0:
451,93,136637,1,2,0:0:0:0:
451,93,136858,2,0,L|433:163,1,55,6|2,1:2|1:2,0:0:0:0:
421,199,137300,1,14,1:2:0:0:
421,199,137521,1,2,1:2:0:0:
441,248,137742,6,0,P|449:287|449:369,1,110,14|14,1:0|1:2,0:0:0:0:
345,344,138645,1,6,1:2:0:0:
345,344,138871,1,2,1:2:0:0:
293,364,139097,2,0,L|226:355,1,55,14|2,1:2|0:0,0:0:0:0:
185,374,139549,2,0,P|183:303|172:219,1,110,4|12,1:2|1:2,0:0:0:0:
116,180,140437,1,6,1:2:0:0:
116,180,140660,1,2,1:2:0:0:
150,136,140882,2,0,L|156:73,1,55,14|0,1:2|1:2,0:0:0:0:
102,61,141326,6,0,P|53:89|-9:104,1,110,14|14,1:0|1:2,0:0:0:0:
2,222,142193,2,0,P|54:236|102:263,1,115.500003356934,12|12,1:2|1:2,0:0:0:0:
181,224,142981,1,14,1:2:0:0:
181,224,144804,5,14,1:0:0:0:
258,315,145234,1,14,1:2:0:0:
316,325,145449,2,2,B|382:364|382:364|458:352,1,120,14|4,1:0|1:3,0:1:0:0:
485,368,146094,2,0,B|480:322|480:322|494:290,1,60,14|2,1:2|3:2,0:0:0:0:
508,252,146524,1,14,1:0:0:0:
469,205,146732,1,2,3:1:0:0:
500,153,146941,1,14,1:2:0:0:
455,112,147150,2,2,B|434:36|434:36|458:-13,1,120,14|2,1:0|1:0,0:1:0:0:
395,18,147776,1,14,1:2:0:0:
300,112,148193,5,14,1:0:0:0:
260,59,148398,1,2,3:1:0:0:
201,28,148603,1,14,1:2:0:0:
135,18,148809,2,2,B|105:97|105:97|50:126,1,120,14|2,1:0|1:0,0:1:0:0:
8,123,149425,1,14,1:2:0:0:
4,187,149631,1,2,1:0:0:0:
27,247,149836,2,0,B|-1:284|-1:284|-1:323,2,60,14|2|14,1:0|3:1|1:2,0:0:0:0:
90,265,150462,2,2,B|134:329|134:329|184:335,1,120,14|2,1:0|1:0,0:1:0:0:
241,341,151088,1,14,1:2:0:0:
392,371,151505,5,14,1:2:0:0:
452,332,151706,1,14,1:0:0:0:
461,260,151907,1,14,1:2:0:0:
409,209,152109,2,2,B|403:127|403:127|440:95,1,120,14|4,1:0|1:3,0:1:0:0:
475,43,152713,1,14,1:2:0:0:
414,2,152914,1,8,1:3:0:0:
363,55,153115,2,0,B|315:88|315:88|266:50,1,120,14|14,1:0|1:2,0:0:0:0:
209,4,153732,1,14,1:0:0:0:
124,123,154144,1,8,1:3:0:0:
174,177,154349,2,0,B|186:208|186:208|181:234,1,60,14|2,1:2|1:0,0:0:0:0:
111,275,154761,6,0,B|84:309|84:309|111:409,1,120,14|2,1:0|1:0,0:0:0:0:
181,358,155399,2,2,B|226:377|226:377|290:328,1,120,14|4,1:0|1:3,0:1:0:0:
347,284,156037,1,8,1:3:0:0:
409,233,156250,1,14,1:0:0:0:
256,192,156644,12,14,160845,1:0:0:0:
208,242,163000,5,10,1:2:0:0:
292,303,163719,2,2,L|433:289,1,100,6|8,1:0|1:2,0:1:0:0:
435,316,164753,1,0,1:2:0:0:
435,316,165098,2,2,L|469:188,1,100,2|10,0:3|1:2,0:1:0:0:
399,142,166477,2,2,L|299:151,1,100,6|8,1:0|1:2,0:1:0:0:
269,117,167529,1,0,1:2:0:0:
269,117,167880,2,0,L|205:100,2,50,2|2|10,0:3|1:2|1:2,0:0:0:0:
303,80,168933,1,2,0:3:0:0:
303,80,169284,6,2,P|296:29|263:-12,1,100,6|8,1:0|1:2,0:1:0:0:
176,34,170636,2,2,L|55:92,1,100,2|10,0:3|1:2,0:1:0:0:
3,136,171988,1,6,1:0:0:0:
78,209,172652,1,10,1:2:0:0:
78,209,172985,2,2,P|120:263|136:331,1,100,2|0,1:0|1:2,0:1:0:0:
169,324,173982,2,0,P|190:305|215:290,1,50,10|2,1:2|0:3,0:0:0:0:
238,253,174647,2,2,P|284:277|368:290,1,100,6|10,1:0|1:2,0:1:0:0:
374,294,175636,1,2,1:2:0:0:
456,236,176295,1,0,1:2:0:0:
456,236,176625,2,2,P|459:215|464:134,1,100,10|6,1:2|1:0,0:1:0:0:
382,78,177945,5,8,1:2:0:0:
286,107,178606,2,2,L|156:91,1,100,2|10,0:3|1:2,0:1:0:0:
129,14,179928,1,0,1:0:0:0:
129,14,182609,6,0,L|106:128,1,100,2|0,1:0|1:2,0:0:0:0:
69,142,183566,1,0,1:2:0:0:
69,142,183885,2,0,L|84:215,1,50,2|2,1:2|1:2,0:0:0:0:
54,234,184523,2,0,L|69:307,1,50,2|0,1:2|1:2,0:0:0:0:
77,331,185162,1,2,1:0:0:0:
169,368,185800,1,0,1:2:0:0:
266,348,186438,2,0,L|327:334,1,50,2|2,1:2|1:2,0:0:0:0:
362,350,187077,2,0,L|423:336,1,50,2|2,1:0|1:0,0:0:0:0:
459,350,187715,5,2,1:0:0:0:
474,251,188348,2,0,L|484:186,1,50,2|2,1:2|1:2,0:0:0:0:
460,156,188981,2,0,L|470:91,1,50,2|2,1:2|1:2,0:0:0:0:
476,57,189614,1,2,1:2:0:0:
382,9,190247,2,0,B|284:-5|292:67|199:74,1,200,12|2,1:0|1:2,0:0:0:0:
160,103,191758,1,2,1:2:0:0:
160,103,192060,2,0,L|149:164,1,50,2|0,1:2|1:0,0:0:0:0:
182,192,192665,5,2,1:0:0:0:
103,253,193254,2,0,L|110:312,1,50,0|2,1:2|1:2,0:0:0:0:
148,333,193844,2,0,L|155:392,2,50,2|2|2,1:2|1:2|1:2,0:0:0:0:
240,291,195023,2,0,P|304:298|386:297,1,100,2|0,1:0|1:2,0:0:0:0:
383,322,195894,1,2,1:2:0:0:
419,288,196185,2,0,L|432:220,1,50,2|2,1:2|1:2,0:0:0:0:
405,194,196766,2,0,L|418:126,1,50,2|2,1:2|1:2,0:0:0:0:
377,107,197347,2,0,P|313:114|231:113,1,100,2|2,1:0|1:2,0:0:0:0:
191,64,198452,2,0,L|130:50,1,50,2|2,1:2|1:2,0:0:0:0:
101,80,199005,1,2,1:2:0:0:
101,80,199282,1,2,1:2:0:0:
59,109,199558,6,0,P|54:162|57:214,1,100,8|0,1:0|1:2,0:0:0:0:
85,255,200376,1,2,1:2:0:0:
85,255,200648,2,0,L|148:263,1,50,2|2,1:2|1:2,0:0:0:0:
184,270,201194,1,2,1:2:0:0:
273,210,201739,1,6,1:0:0:0:
366,246,202248,2,2,P|382:137|393:24,1,200,2|2,1:0|1:0,0:1:0:0:
397,0,203522,1,0,1:2:0:0:
397,0,203777,5,8,1:0:0:0:
135,126,205516,2,0,P|72:117|10:150,2,110,12|14|6,1:0|1:0|1:2,0:0:0:0:
180,158,206643,1,2,1:2:0:0:
235,151,206869,1,12,1:2:0:0:
274,189,207094,2,0,P|339:210|406:212,1,108.537003356934,2|0,1:2|1:2,0:0:0:0:
431,197,207758,1,14,1:2:0:0:
446,88,208197,1,6,1:2:0:0:
481,46,208416,1,2,1:2:0:0:
438,10,208636,2,0,L|373:23,1,55,14|2,1:2|1:2,0:0:0:0:
330,8,209075,6,0,P|266:16|174:6,1,110,14|14,1:0|1:0,0:0:0:0:
116,48,209957,2,0,L|32:84,1,55,6|2,1:2|1:2,0:0:0:0:
17,97,210398,1,14,1:2:0:0:
18,152,210619,2,0,P|13:210|33:290,1,107.756003356934,2|8,1:2|1:2,0:0:0:0:
56,299,211263,2,0,L|146:321,1,55,2|2,1:2|1:2,0:0:0:0:
163,292,211688,1,14,1:2:0:0:
204,328,211900,1,2,1:2:0:0:
257,316,212113,2,0,L|347:338,1,55,14|2,1:2|1:2,0:0:0:0:
350,364,212538,5,14,1:0:0:0:
457,342,212976,2,0,P|467:307|464:212,1,110,14|6,1:0|1:2,0:0:0:0:
423,202,213634,2,0,L|432:140,1,55,2|14,1:2|1:2,0:0:0:0:
473,111,214073,2,0,P|483:76|480:-19,1,110.752128356934,2|0,1:2|1:2,0:0:0:0:
428,8,214736,1,12,1:2:0:0:
319,28,215180,2,0,L|249:41,1,55,6|2,1:2|1:2,0:0:0:0:
211,51,215623,1,14,1:2:0:0:
161,75,215845,1,0,1:2:0:0:
132,122,216067,6,0,P|115:182|106:272,1,110,14|12,1:0|1:2,0:0:0:0:
126,280,216732,1,2,0:0:0:0:
180,277,216954,2,0,P|236:309|320:309,1,110,14|4,1:2|1:3,0:0:0:0:
321,351,217620,2,0,P|382:338|442:274,1,109.504086690267,14|14,1:2|1:2,0:0:0:0:
429,256,218282,1,12,1:2:0:0:
367,164,218723,2,0,L|385:94,1,55,14|2,1:2|1:2,0:0:0:0:
423,76,219164,1,14,1:2:0:0:
400,25,219385,1,8,1:2:0:0:
340,35,219605,6,0,P|277:43|202:39,2,120,14|14|14,1:0|1:0|1:2,0:0:0:0:
467,68,220914,1,14,1:2:0:0:
398,181,221350,2,0,L|380:273,1,60,14|0,1:0|0:0,0:0:0:0:
438,280,221783,2,0,L|420:372,1,60,14|2,1:0|1:2,0:0:0:0:
360,346,222217,2,0,P|303:347|235:373,1,120,14|14,1:2|1:2,0:0:0:0:
196,329,222868,1,0,1:2:0:0:
134,352,223085,6,0,P|77:372|18:373,1,120,14|14,1:0|1:0,0:0:0:0:
14,240,223953,2,0,L|40:143,1,60,14|2,1:2|1:2,0:0:0:0:
10,118,224387,1,14,1:2:0:0:
68,86,224604,2,0,P|144:89|240:29,1,179.170494506836,2|14,1:2|1:0,0:0:0:0:
359,6,225683,2,0,L|449:27,1,60,14|2,1:2|1:2,0:0:0:0:
426,85,226114,2,0,L|430:198,1,60,14|0,1:2|1:2,0:0:0:0:
389,204,226546,6,0,P|326:195|266:194,1,120,14|14,1:0|1:0,0:0:0:0:
160,287,227418,2,0,L|84:292,1,60,14|2,1:2|1:2,0:0:0:0:
38,251,227855,2,0,L|44:166,1,60,14|0,1:2|1:2,0:0:0:0:
90,135,228291,2,0,P|91:75|100:15,1,120,14|14,1:0|1:0,0:0:0:0:
172,22,228941,1,2,1:2:0:0:
242,41,229158,2,0,L|335:29,1,60,14|2,1:2|1:2,0:0:0:0:
374,21,229592,1,14,1:2:0:0:
400,165,230026,6,0,B|341:148|341:201|289:205,1,119.999996337891,14|14,1:0|1:0,0:0:0:0:
220,186,230673,1,2,1:2:0:0:
167,241,230889,2,0,L|158:315,1,60,14|2,1:2|1:2,0:0:0:0:
212,351,231320,2,0,L|297:363,1,60,14|2,1:2|1:2,0:0:0:0:
342,334,231752,1,14,1:0:0:0:
411,360,231963,1,2,1:2:0:0:
478,332,232174,2,0,L|467:244,1,60,14|2,1:0|1:2,0:0:0:0:
442,204,232597,1,14,1:2:0:0:
469,136,232808,1,2,1:2:0:0:
446,66,233019,1,14,1:2:0:0:
309,11,233442,6,2,B|126:-6|166:137|15:188,1,360,10|10,1:0|1:0,0:0:0:0:
184,170,235132,2,2,B|403:152|328:327|524:384,1,420,10|10,1:0|1:0,0:1:0:0:
511,238,237068,5,14,1:0:0:0:
503,160,237322,1,14,1:0:0:0:
355,109,237830,1,14,1:0:0:0:
308,171,238084,1,14,1:0:0:0:
332,310,238593,1,14,1:0:0:0:
403,340,238872,1,14,1:0:0:0:
393,262,239152,1,14,1:0:0:0:
256,192,239431,12,2,249221,0:1:0:0:
