osu file format v14

[General]
AudioFilename: audio.mp3
AudioLeadIn: 0
PreviewTime: 61107
Countdown: 0
SampleSet: Soft
StackLeniency: 0.5
Mode: 0
LetterboxInBreaks: 0
WidescreenStoryboard: 1

[Editor]
DistanceSpacing: 1.05
BeatDivisor: 4
GridSize: 32
TimelineZoom: 2.999999

[Metadata]
Title:The Good Life
TitleUnicode:The Good Life
Artist:Weezer
ArtistUnicode:Weezer
Creator:attendant
Version:Another
Source:
Tags:pinkerton english alternative rock
BeatmapID:3357259
BeatmapSetID:1644735

[Difficulty]
HPDrainRate:6
CircleSize:4
OverallDifficulty:8
ApproachRate:8
SliderMultiplier:1.5
SliderTickRate:0.5

[Events]
//Background and Video events
0,0,"wp7053431.jpg",0,0
Video,-1450,"video.mp4"
//Break Periods
2,33529,36240
//Storyboard Layer 0 (Background)
//Storyboard Layer 1 (Fail)
//Storyboard Layer 2 (Pass)
//Storyboard Layer 3 (Foreground)
//Storyboard Layer 4 (Overlay)
//Storyboard Sound Samples

[TimingPoints]
352,512.820512820512,4,2,2,35,1,0
864,478.08764940239,4,2,2,35,1,0
1564,444.444444444444,4,2,2,35,1,0
2244,463.320463320463,4,2,2,35,1,0
4081,444.444444444444,4,2,2,35,1,0
5884,454.545454545454,4,2,2,35,1,0
6777,428.571428571429,4,2,2,35,1,0
7676,447.76119402985,4,2,1,50,1,0
9467,444.444444444444,4,2,1,50,1,0
13021,441.176470588235,4,2,1,50,1,0
14785,444.444444444444,4,2,1,50,1,0
16562,442.80442804428,4,2,1,50,1,0
18333,441.176470588235,4,2,1,50,1,0
20097,434.782608695652,4,2,1,50,1,0
21183,-66.6666666666667,4,2,1,50,0,0
21401,-100,4,2,1,50,0,0
21836,447.76119402985,4,2,1,60,1,0
22283,-80,4,2,1,60,0,0
23627,434.782608695652,4,2,1,60,1,0
24061,-80,4,2,1,60,0,0
25366,448.598130841121,4,2,1,60,1,0
25814,-80,4,2,1,60,0,0
27160,447.76119402985,4,2,1,60,1,0
28055,-80,4,2,1,60,0,0
28951,446.096654275092,4,2,1,60,1,0
29397,-80,4,2,1,60,0,0
30709,442.804428044279,6,2,1,60,1,0
30709,-80,6,2,1,60,0,0
32923,-66.6666666666667,6,2,1,60,0,0
33329,462.427745664739,4,2,1,40,1,0
35178,455.407969639467,4,2,1,40,1,0
36089,474.308300395255,4,2,1,40,1,0
36990,445.269016697587,4,2,1,50,1,0
38771,439.560439560439,4,2,1,50,1,0
40529,437.956204379562,4,2,1,50,1,0
42280,442.80442804428,4,2,1,50,1,0
43165,424.028268551236,4,2,1,50,1,0
44051,441.988950276243,4,2,1,50,1,0
45818,434.782608695652,4,2,1,50,1,0
47122,442.80442804428,4,2,1,50,1,0
47564,446.927374301676,4,2,1,50,1,0
49351,437.956204379562,4,2,1,50,1,0
50445,-66.6666666666667,4,2,1,50,0,0
50664,-100,4,2,1,50,0,0
51077,441.176470588235,4,2,1,60,1,0
51077,-80,4,2,1,60,0,0
52841,444.444444444444,4,2,1,60,1,0
52841,-80,4,2,1,60,0,0
54618,435.57168784029,4,2,1,60,1,0
54618,-80,4,2,1,60,0,0
56360,454.545454545455,4,2,1,60,1,0
57269,447.761194029851,4,2,1,60,1,0
57269,-80,4,2,1,60,0,0
57716,434.153400868307,4,2,1,60,1,0
57716,-80,4,2,1,60,0,0
58150,435.571687840292,4,2,1,60,1,0
58585,-80,4,2,1,60,0,0
59892,441.988950276245,6,2,1,60,1,0
60775,-80,6,2,1,60,0,0
61217,-80,6,2,1,55,0,0
61438,-80,6,2,1,50,0,0
61659,-80,6,2,1,45,0,0
61880,-80,6,2,1,40,0,0
62101,-80,6,2,1,35,0,0
62322,-80,6,2,1,30,0,0
62543,447.761194029853,4,2,1,70,1,0
62543,-90.9090909090909,4,2,1,70,0,0
64334,444.444444444447,4,2,1,70,1,0
64334,-90.9090909090909,4,2,1,70,0,0
66111,450.281425891184,4,2,1,70,1,0
66111,-90.9090909090909,4,2,1,70,0,0
67912,440.366972477066,4,2,1,70,1,0
67912,-90.9090909090909,4,2,1,70,0,0
69673,442.804428044282,4,2,1,70,1,0
69673,-90.9090909090909,4,2,1,70,0,0
71001,455.40796963947,4,2,1,70,1,0
71467,441.176470588237,4,2,1,70,1,0
71467,-90.9090909090909,4,2,1,70,0,0
74995,437.956204379564,4,2,1,70,1,0
76746,439.560439560441,4,2,1,70,1,0
76746,-90.9090909090909,4,2,1,70,0,0
78504,444.444444444446,4,2,1,70,1,0
78504,-90.9090909090909,4,2,1,70,0,0
80281,446.927374301678,4,2,1,70,1,0
80281,-90.9090909090909,4,2,1,70,0,0
82068,437.158469945358,4,2,1,70,1,0
82068,-90.9090909090909,4,2,1,70,0,0
83816,433.212996389894,4,2,1,70,1,0
83816,-80,4,2,1,70,0,0
85548,441.176470588238,4,2,1,70,1,0
87312,473.372781065092,4,2,1,50,1,0
87785,441.176470588238,4,2,1,50,1,0
89108,432.432432432435,4,2,1,50,1,0
90837,429.338103756711,4,2,1,50,1,0
92125,433.996383363475,4,2,1,50,1,0
92558,437.956204379565,4,2,1,50,1,0
92849,-90.9090909090909,4,2,1,50,0,0
94309,442.804428044284,4,2,1,50,1,0
96080,445.269016697592,4,2,1,50,1,0
97861,439.560439560443,4,2,1,50,1,0
99619,442.804428044284,4,2,1,50,1,0
101390,437.158469945359,4,2,1,50,1,0
103138,441.988950276247,4,2,1,50,1,0
104905,445.269016697592,4,2,1,50,1,0
106686,430.879712746861,4,2,1,50,1,0
108409,440.366972477067,4,2,1,60,1,0
108849,-80,4,2,1,60,0,0
110170,442.804428044283,4,2,1,60,1,0
110612,-80,4,2,1,60,0,0
113712,456.273764258558,4,2,1,60,1,0
113712,-80,4,2,1,60,0,0
115080,451.127819548872,4,2,1,60,1,0
115531,438.756855575868,4,2,1,60,1,0
115531,-80,4,2,1,60,0,0
117282,436.363636363639,6,2,1,60,1,0
118154,-80,6,2,1,60,0,0
118591,-80,6,2,1,55,0,0
118809,-80,6,2,1,50,0,0
119027,-80,6,2,1,45,0,0
119245,-80,6,2,1,40,0,0
119463,-80,6,2,1,35,0,0
119682,-80,6,2,1,30,0,0
119900,453.686200378075,4,2,1,70,1,0
119900,-90.9090909090909,4,2,1,70,0,0
121714,443.622920517563,4,2,1,70,1,0
123488,458.891013384324,4,2,1,70,1,0
123488,-90.9090909090909,4,2,1,70,0,0
125323,441.176470588238,4,2,1,70,1,0
125323,-90.9090909090909,4,2,1,70,0,0
127087,448.598130841124,4,2,1,70,1,0
127087,-90.9090909090909,4,2,1,70,0,0
128881,440.366972477067,4,2,1,70,1,0
128881,-90.9090909090909,4,2,1,70,0,0
130642,442.804428044283,4,2,1,70,1,0
130642,-90.9090909090909,4,2,1,70,0,0
132413,445.269016697591,4,2,1,70,1,0
132858,-90.9090909090909,4,2,1,70,0,0
135975,441.988950276246,4,2,1,70,1,0
135975,-90.9090909090909,4,2,1,70,0,0
137742,451.977401129946,4,2,1,70,1,0
137742,-90.9090909090909,4,2,1,70,0,0
139549,444.444444444447,4,2,1,70,1,0
139549,-90.9090909090909,4,2,1,70,0,0
141326,433.996383363472,4,2,1,70,1,0
141326,-80,4,2,1,70,0,0
142193,400,4,2,1,70,1,0
142393,441.176470588235,4,2,1,70,1,0
142981,441.176470588235,4,2,1,50,1,0
144804,430.107526881723,4,2,1,70,1,1
144804,-71.4285714285714,4,2,1,70,0,1
146524,417.391304347828,4,2,1,70,1,1
146524,-71.4285714285714,4,2,1,70,0,1
148193,410.958904109591,4,2,1,70,1,1
148193,-71.4285714285714,4,2,1,70,0,1
149836,417.391304347828,4,2,1,70,1,1
149836,-71.4285714285714,4,2,1,70,0,1
151505,402.684563758391,4,2,1,70,1,1
151505,-50,4,2,1,70,0,1
151907,-40,4,2,1,70,0,1
152109,-57.1428571428571,4,2,1,70,0,1
152713,-71.4285714285714,4,2,1,70,0,1
153115,411.663807890225,4,2,1,70,1,1
153732,-71.4285714285714,4,2,1,70,0,1
154349,-57.1428571428571,4,2,1,70,0,1
154761,425.531914893617,4,2,1,70,1,1
154761,-50,4,2,1,70,0,1
155399,-33.3333333333333,4,2,1,70,0,1
155824,-200,4,2,1,70,0,1
156037,-50,4,2,1,70,0,1
156250,-200,4,2,1,70,0,1
156430,428.571428571431,4,2,1,70,1,0
157287,457.142857142861,4,2,1,65,1,0
157744,468.750000000004,4,2,1,60,1,0
158212,544.217687074835,4,2,1,55,1,0
158484,588.235294117653,4,2,1,50,1,0
158778,620.155038759697,4,2,1,45,1,0
159088,683.760683760692,4,2,1,40,1,0
159429,689.655172413802,4,2,1,35,1,0
159773,695.652173913052,4,2,1,30,1,0
160120,725.075528700915,4,2,1,45,1,0
160482,-100,4,2,1,30,0,0
160845,718.562874251506,4,2,1,60,1,0
160845,-50,4,2,1,60,0,0
160934,-50,4,2,1,45,0,0
163000,-100,4,2,1,45,0,0
163719,689.655172413801,4,2,1,45,1,0
166477,701.75438596492,4,2,1,45,1,0
169284,676.056338028176,4,2,1,45,1,0
171988,664.819944598345,4,2,1,45,1,0
174647,659.340659340666,4,2,1,45,1,0
177284,661.157024793395,4,2,1,45,1,0
179928,670.391061452522,4,2,1,45,1,0
179928,-200,4,2,1,45,0,0
180263,-200,4,2,1,20,0,0
182609,638.297872340433,4,2,1,30,1,0
185162,-100,4,2,1,33,0,0
187715,633.245382585759,4,2,1,36,1,0
190247,604.53400503779,4,2,1,39,1,0
190247,-80,4,2,1,39,0,0
192665,589.680589680596,4,2,1,42,1,0
195023,581.113801452791,4,2,1,45,1,0
197347,552.995391705075,4,2,1,48,1,0
199558,545.454545454551,4,2,1,51,1,0
201739,509.554140127394,4,2,1,54,1,0
203777,434.782608695656,4,2,1,57,1,0
205516,451.127819548876,4,2,1,70,1,0
205516,-90.9090909090909,4,2,1,70,0,0
207320,438.756855575872,4,2,1,70,1,0
209075,441.176470588239,4,2,1,70,1,0
209075,-90.9090909090909,4,2,1,70,0,0
210839,424.77876106195,4,2,1,70,1,0
212538,438.756855575872,4,2,1,70,1,0
212538,-90.9090909090909,4,2,1,70,0,0
214293,443.622920517564,4,2,1,70,1,0
214736,-90.9090909090909,4,2,1,70,0,0
217841,441.176470588239,4,2,1,70,1,0
218282,-90.9090909090909,4,2,1,70,0,0
219605,436.36363636364,4,2,1,80,1,0
219605,-83.3333333333333,4,2,1,80,0,0
221350,433.996383363476,4,2,1,80,1,0
223085,-83.3333333333333,4,2,1,80,0,0
224820,431.654676258997,4,2,1,80,1,0
225251,-83.3333333333333,4,2,1,80,0,0
226546,436.36363636364,4,2,1,80,1,0
228291,433.996383363476,4,2,1,80,1,0
230026,431.654676258997,4,2,1,80,1,0
230026,-83.3333333333333,4,2,1,80,0,0
231752,422.53521126761,4,2,1,80,1,0
235132,424.778761061951,4,2,1,80,1,0
236831,474.308300395262,4,2,1,80,1,0
237068,508.474576271192,4,2,1,80,1,0
238593,559.440559440565,4,2,1,80,1,0
239152,559.440559440565,4,2,1,80,1,1
245865,-100,4,2,1,55,0,0
249221,-100,4,2,1,25,0,0

[Colours]
Combo1 : 170,170,185
Combo2 : 220,200,160
Combo3 : 207,152,112

[HitObjects]
457,53,7676,6,0,P|455:130|449:166,1,75,8|0,1:0|2:0,2:0:0:0:
393,3,8123,1,8,1:2:0:0:
395,181,8347,2,0,P|369:228|275:271,1,150,2|2,1:2|1:2,2:0:0:0:
168,169,9019,2,0,P|207:197|228:248,1,75,10|2,1:2|3:2,2:0:0:0:
174,360,9467,5,2,1:2:0:0:
0,270,9689,2,0,P|41:269|96:270,1,75,2|8,2:0|1:2,2:0:0:0:
258,349,10133,1,2,1:2:0:0:
258,349,10578,1,2,1:2:0:0:
294,184,10800,1,10,1:2:0:0:
155,264,11022,1,2,3:2:0:0:
389,331,11244,6,0,P|396:248|393:154,1,150,8|8,1:0|1:2,2:0:0:0:
384,5,11911,1,2,1:2:0:0:
459,59,12133,1,2,3:2:0:0:
300,100,12355,1,2,1:2:0:0:
300,100,12466,2,0,L|247:103,1,37.5,2|8,2:0|1:2,2:0:0:0:
141,41,12689,1,2,2:0:0:0:
141,41,12800,1,2,3:2:0:0:
0,120,13021,6,0,P|3:192|-1:281,1,150,2|8,1:2|1:2,2:0:0:0:
129,350,13682,2,0,L|219:359,1,75,2|0,1:2|3:0,2:0:0:0:
26,383,14123,1,2,1:2:0:0:
129,234,14344,1,10,1:2:0:0:
15,368,14565,1,2,3:2:0:0:
282,381,14785,6,0,P|287:304|278:205,1,150,8|8,1:0|1:2,2:0:0:0:
241,102,15451,1,2,1:2:0:0:
370,64,15673,1,2,3:2:0:0:
406,194,15896,1,2,1:2:0:0:
332,168,16118,1,10,1:2:0:0:
296,38,16340,1,2,3:2:0:0:
427,4,16562,5,2,1:2:0:0:
427,4,16672,1,2,2:0:0:0:
467,144,16894,1,2,2:0:0:0:
467,144,17004,2,0,L|449:84,1,37.5,10|0,1:2|2:0,2:0:0:0:
361,257,17226,2,0,P|360:299|394:392,1,112.5,2|0,1:2|2:0,2:0:0:0:
378,366,17669,1,2,1:2:0:0:
479,237,17890,1,10,1:2:0:0:
332,168,18111,1,2,3:2:0:0:
231,297,18333,1,8,1:0:0:0:
231,297,18774,5,8,1:2:0:0:
165,256,18994,1,2,1:2:0:0:
36,309,19215,2,0,P|76:309|129:319,1,75,2|2,3:2|1:2,2:0:0:0:
331,168,19656,2,0,P|293:173|256:173,1,75,10|2,1:2|3:2,2:0:0:0:
119,35,20097,2,0,P|128:133|128:205,1,150,2|8,1:2|1:2,2:0:0:0:
64,384,20749,1,2,1:2:0:0:
64,384,21183,6,0,L|136:391,1,56.25,2|0,1:0|2:0,2:0:0:0:
191,361,21401,6,2,B|241:335|241:335|292:358,1,112.5,14|0,1:2|2:0,2:1:0:0:
366,332,21836,5,2,1:2:0:0:
366,332,22059,1,2,1:2:0:0:
421,207,22283,2,0,P|436:260|456:309,1,93.75,14|2,1:0|2:0,2:0:0:0:
511,89,22731,2,0,P|467:105|422:118,1,93.75,2|0,1:2|1:2,2:0:0:0:
257,25,23179,2,0,P|187:32|125:64,1,140.625,14|0,1:0|2:0,2:0:0:0:
49,31,23627,5,2,1:2:0:0:
49,31,23735,1,2,2:0:0:0:
49,31,23844,1,2,1:2:0:0:
169,130,24061,2,0,P|131:160|100:196,1,93.75,14|2,1:0|2:0,2:0:0:0:
64,375,24496,1,2,1:2:0:0:
0,268,24713,1,0,1:2:0:0:
156,302,24931,2,0,P|234:315|303:328,1,140.625,12|0,1:0|2:0,2:0:0:0:
382,299,25366,5,2,1:2:0:0:
456,358,25590,1,2,1:2:0:0:
510,225,25814,2,0,P|482:180|454:129,1,93.75,14|2,1:0|2:0,2:0:0:0:
389,0,26263,1,2,1:2:0:0:
344,61,26487,1,0,1:2:0:0:
160,0,26711,2,0,P|196:58|232:124,1,140.625,12|0,1:0|2:0,2:0:0:0:
267,189,27160,5,2,1:2:0:0:
93,157,27383,1,2,1:2:0:0:
177,293,27607,1,14,1:0:0:0:
231,121,27831,1,2,2:0:0:0:
66,233,28055,2,0,P|35:284|12:346,1,93.75,2|0,1:2|1:2,2:0:0:0:
31,31,28503,2,0,P|57:93|111:183,1,140.625,12|2,1:0|2:0,2:0:0:0:
177,179,28951,5,2,1:2:0:0:
177,179,29062,1,2,2:0:0:0:
177,179,29174,1,2,1:2:0:0:
335,227,29397,2,0,L|436:238,1,93.75,14|2,1:0|3:2,2:0:0:0:
240,349,29843,2,0,P|332:316|369:320,1,93.75,2|0,1:2|1:2,2:0:0:0:
504,104,30289,2,0,P|384:146|336:141,1,140.625,14|0,1:0|2:0,2:0:0:0:
347,123,30709,6,0,P|342:88|345:20,1,93.75,2|2,1:2|1:2,2:0:0:0:
248,3,31151,1,14,1:2:0:0:
248,247,31373,1,2,1:2:0:0:
157,196,31594,2,0,P|162:161|153:22,1,140.625,14|0,1:2|2:0,2:0:0:0:
87,20,32037,5,12,1:2:0:0:
76,253,32258,1,0,1:2:0:0:
0,64,32480,1,12,1:2:0:0:
157,196,32701,1,0,1:2:0:0:
0,334,32923,6,2,B|93:307|76:391|171:385,1,168.75,12|0,1:2|2:0,2:1:0:0:
152,384,33329,1,8,1:0:0:0:
370,131,36990,6,0,P|324:128|265:139,1,75,8|0,1:0|2:0,2:0:0:0:
438,90,37435,1,8,1:2:0:0:
235,85,37657,2,0,P|185:99|113:182,1,150,2|2,1:2|1:2,2:0:0:0:
233,283,38325,1,8,1:2:0:0:
351,231,38548,1,2,3:2:0:0:
434,353,38771,5,2,1:2:0:0:
434,353,38990,2,0,P|440:305|439:249,1,75,2|8,1:2|1:2,2:0:0:0:
438,90,39430,1,2,1:2:0:0:
438,90,39869,1,2,1:2:0:0:
277,203,40089,1,10,1:2:0:0:
441,278,40309,1,2,3:2:0:0:
322,98,40529,6,0,P|260:97|184:137,1,150,8|8,1:0|1:2,2:0:0:0:
208,255,41185,1,2,1:2:0:0:
101,312,41404,2,0,P|95:276|99:219,1,75,2|2,3:2|1:2,2:0:0:0:
184,138,41842,1,10,1:2:0:0:
74,98,42061,1,2,3:2:0:0:
348,54,42280,6,0,P|294:44|189:-15,1,150,2|8,1:2|1:2,2:0:0:0:
62,24,42944,2,0,L|76:110,1,75,2|0,1:2|3:0,2:0:0:0:
0,193,43377,1,2,1:2:0:0:
104,251,43589,1,10,1:2:0:0:
184,161,43801,1,2,3:2:0:0:
1,227,44051,6,0,P|1:268|22:383,1,150,8|8,1:0|1:2,2:0:0:0:
299,304,44713,1,2,1:2:0:0:
159,247,44934,1,2,3:2:0:0:
243,376,45155,1,2,1:2:0:0:
251,218,45376,1,10,1:2:0:0:
246,380,45597,1,2,3:2:0:0:
334,177,45818,5,2,1:2:0:0:
461,278,46035,2,0,P|463:227|468:174,1,75,2|10,2:0|1:2,2:0:0:0:
462,6,46470,2,0,P|398:40|329:51,1,112.5,2|0,1:2|2:0,2:0:0:0:
341,28,46904,1,2,1:2:0:0:
466,106,47122,1,10,1:2:0:0:
334,177,47343,1,2,3:2:0:0:
209,100,47564,6,0,B|137:81|142:150|76:162,1,150,8|8,1:0|1:2,2:0:0:0:
15,336,48234,1,2,1:2:0:0:
176,305,48457,1,2,3:2:0:0:
95,187,48681,2,0,P|89:229|86:282,1,75,2|10,1:2|1:2,2:0:0:0:
15,336,49128,1,2,3:2:0:0:
176,305,49351,6,0,P|261:309|337:331,1,150,2|8,1:2|1:2,2:0:0:0:
471,290,50007,1,2,1:2:0:0:
362,196,50226,1,0,3:0:0:0:
473,109,50445,6,0,L|464:49,1,56.25,2|0,1:0|2:0,2:0:0:0:
442,20,50664,6,2,L|422:148,1,112.5,14|0,1:0|2:0,2:1:0:0:
460,201,51077,6,0,L|505:220,2,46.875,2|0|2,1:2|2:0|1:2,2:0:0:0:
322,134,51518,2,0,P|246:149|163:245,1,187.5,14|2,1:0|1:2,2:0:0:0:
136,361,52179,1,0,1:2:0:0:
15,287,52400,1,14,1:0:0:0:
49,150,52621,1,0,2:0:0:0:
220,306,52841,6,0,L|311:279,1,93.75,2|2,1:2|1:2,2:0:0:0:
473,109,53285,2,0,L|382:82,1,93.75,14|2,1:0|2:0,2:0:0:0:
330,29,53618,1,2,2:0:0:0:
330,29,53729,1,2,1:2:0:0:
426,2,53952,1,0,1:2:0:0:
322,134,54174,2,0,P|265:95|250:14,1,140.625,14|0,1:0|2:0,2:0:0:0:
250,32,54618,6,0,L|204:43,2,46.875,2|2|2,1:2|2:0|1:2,2:0:0:0:
190,129,55053,1,14,1:0:0:0:
190,129,55162,1,2,2:0:0:0:
190,129,55271,1,2,2:0:0:0:
242,286,55489,2,0,P|245:237|244:151,1,93.75,2|0,1:2|1:2,2:0:0:0:
160,320,55924,2,0,P|229:328|291:360,1,140.625,14|0,1:0|2:0,2:0:0:0:
364,327,56360,5,2,1:2:0:0:
364,327,56473,1,2,2:0:0:0:
364,327,56587,1,2,1:2:0:0:
431,187,56814,1,14,1:0:0:0:
435,368,57041,1,2,2:0:0:0:
498,323,57269,2,0,P|496:283|497:221,1,93.75,2|0,1:2|1:2,2:0:0:0:
354,44,57716,2,0,P|355:126|352:186,1,140.625,14|2,1:0|2:0,2:0:0:0:
291,239,58150,5,2,1:2:0:0:
291,239,58258,1,2,2:0:0:0:
291,239,58367,1,2,1:2:0:0:
132,192,58585,2,0,P|73:195|30:204,1,93.75,12|2,1:0|3:2,2:0:0:0:
262,146,59021,1,2,1:2:0:0:
147,279,59238,1,0,1:2:0:0:
3,118,59456,2,0,P|56:75|107:15,1,140.625,14|0,1:0|2:0,2:0:0:0:
181,12,59892,5,2,1:2:0:0:
206,223,60112,1,0,1:2:0:0:
92,57,60333,1,14,1:2:0:0:
262,146,60554,1,2,1:2:0:0:
444,22,60775,6,0,P|388:30|349:47,1,93.75,14|2,1:2|1:2,2:0:0:0:
113,294,61217,5,14,1:2:0:0:
262,146,61438,1,8,1:0:0:0:
454,236,61659,5,14,1:2:0:0:
273,62,61880,1,8,1:0:0:0:
290,234,62101,5,14,1:2:0:0:
453,54,62322,1,8,1:0:0:0:
293,238,62543,6,0,P|252:230|211:229,1,82.5,12|0,1:0|2:0,2:0:0:0:
60,153,62990,2,0,P|39:84|32:25,1,123.75,14|0,1:0|2:0,2:0:0:0:
113,37,63438,1,6,1:2:0:0:
272,62,63662,1,2,1:2:0:0:
141,127,63886,1,12,1:2:0:0:
201,0,64110,1,2,1:2:0:0:
230,142,64334,2,0,P|233:185|230:250,1,82.5,4|0,2:0|1:2,2:0:0:0:
232,306,64667,1,0,1:2:0:0:
232,306,64778,5,14,1:2:0:0:
384,191,65000,1,2,2:0:0:0:
472,380,65222,5,6,1:2:0:0:
374,274,65445,1,2,1:2:0:0:
475,384,65667,1,14,1:2:0:0:
492,114,65889,5,2,1:2:0:0:
492,114,66000,1,8,1:2:0:0:
492,114,66111,2,0,P|441:108|387:113,1,82.5,14|0,1:0|2:0,2:0:0:0:
120,53,66561,2,0,P|191:12|275:12,1,165,14|6,1:2|1:2,2:0:0:0:
312,166,67236,1,2,1:2:0:0:
205,221,67461,1,14,1:2:0:0:
115,164,67686,1,2,1:2:0:0:
39,214,67912,6,0,L|10:292,1,82.5,4|0,2:0|1:2,2:0:0:0:
168,368,68352,2,0,L|86:381,1,82.5,14|2,1:2|2:0,2:0:0:0:
205,221,68792,1,6,1:2:0:0:
313,288,69012,1,2,1:2:0:0:
391,230,69233,1,14,1:2:0:0:
424,252,69453,1,2,1:2:0:0:
497,148,69673,6,0,P|484:103|485:44,1,82.5,14|0,1:0|2:0,2:0:0:0:
308,20,70115,2,0,P|296:109|274:166,1,123.75,14|0,1:2|2:0,2:0:0:0:
268,175,70558,1,6,1:2:0:0:
154,257,70780,1,2,1:2:0:0:
246,362,71001,1,14,1:2:0:0:
358,277,71228,1,2,1:2:0:0:
178,170,71467,6,0,P|133:168|68:171,1,82.5,4|0,2:0|1:2,2:0:0:0:
308,20,71908,1,12,1:2:0:0:
464,120,72128,1,2,1:2:0:0:
464,120,72239,1,8,1:2:0:0:
464,120,72349,1,6,1:2:0:0:
310,45,72569,1,2,1:2:0:0:
472,107,72790,2,0,P|477:148|490:204,1,82.5,14|0,1:2|1:2,2:0:0:0:
290,339,73231,6,0,P|280:245|263:151,1,165,14|12,1:0|1:2,2:0:0:0:
234,51,73893,1,2,2:0:0:0:
397,254,74114,5,14,1:2:0:0:
40,314,74334,2,8,B|126:282|119:371|207:357,1,165,8|14,1:3|1:2,2:0:0:0:
322,28,74995,1,2,3:2:0:0:
203,161,75213,1,14,1:2:0:0:
180,86,75432,1,8,1:3:0:0:
345,103,75651,1,4,1:3:0:0:
208,292,75870,5,14,1:2:0:0:
151,238,76089,1,2,1:2:0:0:
405,161,76308,5,14,1:2:0:0:
376,285,76527,1,8,1:2:0:0:
376,285,76637,1,8,1:2:0:0:
376,285,76746,2,0,P|334:215|332:191,1,82.5,14|0,1:0|2:0,2:0:0:0:
508,246,77185,2,0,P|492:325|430:377,1,165,14|6,1:0|1:2,2:0:0:0:
304,330,77844,1,2,1:2:0:0:
174,362,78064,2,0,L|68:381,1,82.5,14|0,1:2|2:0,2:0:0:0:
0,214,78504,6,0,L|7:296,1,82.5,6|0,1:2|2:0,2:0:0:0:
113,44,78948,2,0,P|116:126|128:196,1,123.75,12|0,1:2|2:0,2:0:0:0:
151,238,79392,1,6,1:2:0:0:
214,11,79615,1,2,1:2:0:0:
42,145,79837,1,14,1:2:0:0:
256,128,80059,1,2,1:2:0:0:
501,158,80281,6,0,P|497:75|486:6,1,123.75,14|0,1:0|2:0,2:0:0:0:
400,2,80727,1,14,1:2:0:0:
432,206,80951,1,2,2:0:0:0:
492,35,81174,1,6,1:2:0:0:
340,165,81398,1,2,1:2:0:0:
495,39,81621,1,14,1:2:0:0:
506,276,81845,5,2,1:2:0:0:
506,276,81956,1,8,1:2:0:0:
506,276,82068,2,0,P|466:295|436:331,1,82.5,4|0,1:2|2:0,2:0:0:0:
176,264,82505,2,0,P|221:325|230:378,1,123.75,12|0,1:2|2:0,2:0:0:0:
307,373,82942,1,6,1:2:0:0:
281,205,83160,1,2,1:2:0:0:
311,70,83379,1,14,1:2:0:0:
273,0,83598,1,0,1:2:0:0:
31,249,83816,6,0,P|63:290|100:348,1,93.75,14|0,1:0|1:2,2:0:0:0:
311,70,84249,5,14,1:2:0:0:
134,217,84465,1,0,1:2:0:0:
156,6,84682,5,12,1:2:0:0:
302,156,84899,1,0,1:2:0:0:
504,10,85115,5,12,1:2:0:0:
380,117,85332,1,0,1:2:0:0:
507,14,85548,1,14,1:2:0:0:
256,0,87312,6,0,P|255:38|251:86,1,75,4|0,1:0|2:0,2:0:0:0:
194,192,87785,1,8,1:2:0:0:
72,144,88005,2,0,P|70:202|80:304,1,150,2|2,1:2|1:2,2:0:0:0:
102,367,88667,1,8,1:2:0:0:
290,283,88887,5,0,1:2:0:0:
290,283,88998,1,8,1:2:0:0:
290,283,89108,2,0,P|330:288|375:302,1,75,4|0,1:2|2:0,2:0:0:0:
206,269,89540,1,8,1:2:0:0:
406,232,89756,2,0,P|458:261|515:347,1,150,2|2,1:2|1:2,2:0:0:0:
445,373,90405,1,8,1:2:0:0:
335,192,90837,6,0,P|334:167|339:111,1,75,4|0,1:2|2:0,2:0:0:0:
415,59,91266,1,8,1:2:0:0:
406,232,91481,2,0,P|403:304|392:395,1,150,2|2,1:2|1:2,2:0:0:0:
243,350,92125,1,8,1:2:0:0:
243,350,92341,1,0,2:0:0:0:
76,202,92558,5,4,1:2:0:0:
76,202,92849,6,0,L|87:148,1,55,8|2,1:2|3:2,2:0:0:0:
436,202,93141,5,8,1:3:0:0:
436,202,93433,6,0,L|425:148,1,55,8|2,1:2|3:2,2:0:0:0:
76,202,93725,5,12,1:3:0:0:
76,202,94017,6,0,L|87:148,1,55,8|2,1:2|3:2,2:0:0:0:
256,32,94309,5,8,1:0:0:0:
256,32,94751,1,8,1:2:0:0:
321,176,94973,1,2,1:2:0:0:
183,103,95194,1,2,3:2:0:0:
340,81,95416,1,2,1:2:0:0:
230,195,95637,1,10,1:2:0:0:
230,195,95858,1,2,3:2:0:0:
316,360,96080,5,2,1:2:0:0:
153,360,96302,2,0,P|196:358|243:358,1,75,2|8,2:0|1:2,2:0:0:0:
472,327,96747,1,2,1:2:0:0:
396,175,96970,1,2,3:2:0:0:
358,243,97193,5,2,1:2:0:0:
511,257,97415,1,10,1:2:0:0:
480,185,97638,1,2,3:2:0:0:
389,320,97861,1,8,1:0:0:0:
389,320,98300,5,8,1:2:0:0:
247,283,98520,1,2,1:2:0:0:
108,301,98740,2,0,L|23:312,1,75,2|2,3:2|1:2,2:0:0:0:
19,154,99179,2,0,L|93:163,1,75,10|2,1:2|3:2,2:0:0:0:
253,44,99619,6,0,P|266:107|263:193,1,150,2|8,1:2|1:2,2:0:0:0:
396,175,100283,2,0,P|406:127|440:76,1,75,2|0,1:2|3:0,2:0:0:0:
351,37,100726,1,2,1:2:0:0:
339,242,100947,1,10,1:2:0:0:
339,242,101168,1,2,3:2:0:0:
175,116,101390,6,0,P|167:81|164:24,1,75,8|0,1:0|2:0,2:0:0:0:
263,192,101827,1,8,1:2:0:0:
74,250,102045,2,0,P|155:264|222:313,1,150,2|2,1:2|1:2,2:0:0:0:
418,373,102701,2,0,P|387:358|350:327,1,75,10|2,1:2|3:2,2:0:0:0:
396,175,103138,5,2,1:2:0:0:
502,325,103358,2,0,P|512:290|509:233,1,75,2|10,2:0|1:2,2:0:0:0:
296,267,103800,2,0,P|284:212|295:93,1,150,2|2,1:2|1:2,2:0:0:0:
313,48,104463,1,10,1:2:0:0:
151,161,104684,1,2,3:2:0:0:
376,85,104905,6,0,L|473:93,1,75,8|0,1:0|2:0,2:0:0:0:
242,21,105350,1,8,1:2:0:0:
8,95,105572,2,0,P|94:83|173:85,1,150,2|2,1:2|1:2,2:0:0:0:
209,240,106240,2,0,L|194:329,1,75,10|2,1:2|3:2,2:0:0:0:
350,214,106686,6,0,B|427:190|426:262|495:255,1,150,2|8,1:2|1:2,2:0:0:0:
450,129,107332,2,0,P|436:103|426:17,1,112.5,2|0,1:2|2:0,2:0:0:0:
351,5,107763,1,2,1:0:0:0:
322,129,107978,1,14,1:2:0:0:
328,13,108194,1,0,3:2:0:0:
346,139,108409,6,0,P|348:185|350:235,1,75,2|2,1:2|1:2,2:0:0:0:
196,309,108849,2,0,P|108:312|52:338,1,140.625,14|0,1:0|2:0,2:0:0:0:
2,382,109289,1,2,1:2:0:0:
261,347,109509,1,0,1:2:0:0:
124,268,109730,2,0,P|115:230|112:167,1,93.75,14|0,1:0|2:0,2:0:0:0:
152,89,110170,5,2,1:2:0:0:
196,309,110391,1,2,1:2:0:0:
223,283,110502,1,2,0:0:0:0:
250,252,110612,2,0,P|248:216|221:97,1,140.625,14|0,1:0|2:0,2:0:0:0:
152,89,111055,1,2,1:2:0:0:
35,168,111277,1,0,1:2:0:0:
250,252,111498,2,0,B|330:232|325:287|418:282,1,140.625,14|0,1:0|2:0,2:0:0:0:
452,246,111941,6,0,P|466:217|465:138,1,93.75,2|2,1:2|1:2,2:0:0:0:
335,57,112384,2,0,P|320:85|322:165,1,93.75,14|2,1:0|2:0,2:0:0:0:
461,77,112826,1,2,1:2:0:0:
280,0,113048,1,0,1:2:0:0:
174,165,113269,1,14,1:0:0:0:
355,242,113491,1,2,3:2:0:0:
151,237,113712,6,0,P|111:251|62:283,1,93.75,2|2,1:2|1:2,2:0:0:0:
0,116,114168,1,14,1:0:0:0:
174,165,114396,1,2,2:0:0:0:
2,240,114624,1,2,1:2:0:0:
107,73,114852,1,0,1:2:0:0:
247,211,115080,1,14,1:0:0:0:
142,378,115305,1,2,3:2:0:0:
83,163,115531,6,0,P|94:103|125:42,1,93.75,2|2,1:2|1:2,2:0:0:0:
309,50,115969,2,0,P|297:109|266:170,1,93.75,12|2,1:0|3:2,2:0:0:0:
202,302,116408,1,2,1:2:0:0:
202,302,116627,1,0,1:2:0:0:
364,277,116847,2,0,B|436:261|438:323|516:319,1,140.625,14|0,1:0|2:0,2:0:0:0:
510,344,117282,5,2,1:2:0:0:
380,179,117500,1,0,1:2:0:0:
401,384,117718,1,14,1:2:0:0:
505,216,117936,1,2,1:2:0:0:
331,293,118154,6,0,P|289:286|232:282,1,93.75,14|2,1:2|1:2,2:0:0:0:
7,296,118591,5,14,1:2:0:0:
205,184,118809,1,8,1:0:0:0:
116,382,119027,5,14,1:2:0:0:
126,128,119245,1,8,1:0:0:0:
307,371,119463,5,14,1:2:0:0:
124,243,119682,1,8,1:0:0:0:
246,68,119900,6,0,P|296:71|342:86,1,82.5,12|0,1:0|2:0,2:0:0:0:
464,254,120353,2,0,P|459:196|434:117,1,123.75,14|0,1:0|2:0,2:0:0:0:
502,86,120807,1,6,1:2:0:0:
361,8,121034,1,2,1:2:0:0:
248,144,121261,1,12,1:2:0:0:
389,222,121487,2,0,P|406:183|413:104,1,82.8636900177003,2|4,1:2|2:0,2:0:0:0:
122,12,121935,5,0,1:2:0:0:
122,12,122046,1,0,1:2:0:0:
122,12,122157,1,14,1:2:0:0:
27,179,122379,1,2,2:0:0:0:
193,91,122601,1,6,1:2:0:0:
13,64,122823,1,2,1:2:0:0:
148,210,123044,1,14,1:2:0:0:
122,12,123266,1,2,1:2:0:0:
10,258,123488,6,0,P|8:305|-1:364,1,82.5,14|0,1:0|2:0,2:0:0:0:
221,367,123946,2,0,P|216:311|223:211,1,123.75,14|0,1:2|2:0,2:0:0:0:
148,210,124405,1,6,1:2:0:0:
377,204,124635,1,2,1:2:0:0:
298,349,124864,1,14,1:2:0:0:
264,113,125094,1,2,1:2:0:0:
301,353,125323,6,0,P|350:351|404:355,1,82.5,4|0,2:0|1:2,2:0:0:0:
458,182,125764,1,14,1:2:0:0:
219,244,125984,1,2,3:2:0:0:
264,113,126205,5,6,1:2:0:0:
424,281,126425,1,2,1:2:0:0:
263,337,126646,5,14,1:2:0:0:
445,159,126867,1,2,1:2:0:0:
266,341,127087,6,0,P|217:339|169:342,1,82.5,14|0,1:0|2:0,2:0:0:0:
30,107,127535,2,0,P|70:111|150:169,1,123.75,14|0,1:2|2:0,2:0:0:0:
157,188,127984,1,6,1:2:0:0:
78,282,128208,1,2,1:2:0:0:
0,236,128432,1,14,1:2:0:0:
73,307,128657,1,2,1:2:0:0:
150,213,128881,6,0,P|226:209|320:284,1,165,4|12,2:0|1:2,2:0:0:0:
346,372,129541,1,2,2:0:0:0:
470,343,129761,1,6,1:2:0:0:
425,223,129981,1,2,1:2:0:0:
398,297,130202,1,14,1:2:0:0:
506,274,130422,1,0,1:2:0:0:
506,274,130532,1,0,1:2:0:0:
506,274,130642,6,0,P|514:183|510:80,1,165,14|12,1:0|1:2,2:0:0:0:
459,28,131306,1,2,2:0:0:0:
219,63,131527,5,14,1:2:0:0:
317,301,131749,2,0,P|324:218|323:136,1,165,8|14,1:3|1:2,2:0:0:0:
300,42,132413,1,2,3:2:0:0:
305,144,132635,1,14,1:2:0:0:
128,92,132858,2,0,P|135:49|139:-6,1,82.5,8|4,1:3|1:3,2:0:0:0:
225,223,133303,5,14,1:2:0:0:
7,188,133526,1,2,1:2:0:0:
203,143,133748,5,14,1:2:0:0:
34,279,133971,1,8,1:2:0:0:
34,279,134082,1,8,1:2:0:0:
34,279,134194,2,0,P|78:290|129:316,1,82.5,14|0,1:0|2:0,2:0:0:0:
323,230,134639,2,0,P|351:156|376:55,1,165,14|6,1:0|1:2,2:0:0:0:
231,17,135307,1,2,1:2:0:0:
409,0,135529,1,14,1:2:0:0:
269,99,135752,1,0,1:0:0:0:
269,99,135863,1,8,1:2:0:0:
269,99,135975,6,0,P|213:95|176:84,1,82.5,6|0,1:2|2:0,2:0:0:0:
7,188,136416,2,0,P|47:178|88:177,1,82.5,12|2,1:2|2:0,2:0:0:0:
284,297,136858,1,6,1:2:0:0:
77,303,137079,1,2,1:2:0:0:
216,175,137300,1,14,1:2:0:0:
177,383,137521,1,2,1:2:0:0:
88,177,137742,6,0,P|87:137|97:43,1,123.75,14|0,1:0|2:0,2:0:0:0:
111,25,138193,2,0,L|211:35,1,82.5,14|2,1:2|2:0,2:0:0:0:
346,96,138645,1,6,1:2:0:0:
503,47,138871,1,2,1:2:0:0:
341,15,139097,1,14,1:2:0:0:
507,135,139323,1,2,1:2:0:0:
507,135,139436,1,8,1:2:0:0:
507,135,139549,6,0,P|494:227|491:315,1,165,4|12,1:2|1:2,2:0:0:0:
305,353,140215,1,2,2:0:0:0:
396,211,140437,1,6,1:2:0:0:
459,371,140660,1,2,1:2:0:0:
299,248,140882,1,14,1:2:0:0:
299,248,141104,1,0,1:2:0:0:
42,368,141326,6,0,P|40:334|18:263,1,93.75,14|0,1:0|1:2,2:0:0:0:
310,103,141759,5,14,1:2:0:0:
127,227,141976,1,0,1:2:0:0:
205,27,142193,5,12,1:2:0:0:
203,270,142393,1,0,1:2:0:0:
65,150,142613,5,12,1:2:0:0:
206,274,142834,1,0,1:2:0:0:
154,336,142981,5,14,1:2:0:0:
459,371,144804,6,2,B|503:338|503:338|459:227,1,157.5,14|0,1:0|2:0,2:1:0:0:
457,240,145234,2,0,L|480:300,1,52.5,14|0,1:2|2:0,1:2:0:0:
290,255,145449,2,2,B|225:244|225:244|192:287|192:287|144:288|144:288|96:329,1,210,14|4,1:0|1:3,2:1:0:0:
6,157,146094,2,2,B|-15:127|-15:127|36:61,1,105,14|0,1:2|1:2,2:1:0:0:
93,35,146416,1,8,1:2:0:0:
93,35,146524,6,2,B|174:52|174:52|142:79,2,105,14|2|14,1:0|3:1|1:2,2:1:0:0:
248,29,147150,2,2,B|327:14|327:14|356:35|356:35|402:25|402:25|491:50,1,210,14|2,1:0|1:0,2:1:0:0:
487,196,147776,2,2,B|520:146|520:146|495:109,1,105,14|4,1:2|1:3,2:1:0:0:
419,112,148089,1,8,1:3:0:0:
419,112,148193,6,0,L|354:185,1,52.5,14|0,1:0|2:0,2:0:0:0:
313,176,148398,2,0,L|248:249,1,52.5,2|0,3:1|2:0,2:0:0:0:
252,287,148603,1,14,1:2:0:0:
487,196,148809,6,2,B|520:146|520:146|503:57|503:57|423:29,1,210,14|2,1:0|1:0,2:1:0:0:
281,104,149425,2,2,B|236:136,1,52.5,14|0,1:2|2:0,2:1:0:0:
148,181,149631,2,2,B|103:213,1,52.5,2|0,1:0|2:0,2:1:0:0:
28,297,149836,2,2,B|22:346|22:346|36:354|36:354|53:302,1,105,14|2,1:0|3:1,2:1:0:0:
105,211,150253,2,0,L|88:145,1,52.5,14|0,1:2|2:0,1:2:0:0:
43,51,150462,6,10,B|47:-12|47:-12|84:132,1,210,14|10,1:0|1:0,2:1:0:0:
150,340,151088,1,14,1:2:0:0:
365,283,151296,6,0,B|339:288,1,26.25,8|0,1:2|2:0,2:0:0:0:
382,288,151401,2,0,B|356:293,1,26.25,8|0,1:2|2:0,2:0:0:0:
397,293,151505,2,2,B|299:315|299:315|311:284|311:284|337:277,1,150,14|14,1:2|1:0,2:1:0:0:
219,289,151907,2,0,B|344:264,1,93.75,14|0,1:2|2:0,2:0:0:0:
481,176,152109,2,2,B|537:69|537:69|514:44|514:44|455:71|455:71|484:101,1,262.5,14|4,1:0|1:3,2:1:0:0:
473,84,152713,2,2,B|444:35|444:35|435:56|435:56|467:80,1,105,14|8,1:2|1:3,2:1:0:0:
481,176,153115,6,0,L|475:224,1,37.5,14|0,1:0|2:0,2:0:0:0:
470,354,153320,1,2,1:0:0:0:
470,354,153423,1,8,1:2:0:0:
470,354,153526,1,14,1:2:0:0:
327,280,153732,2,2,B|257:273|257:273|217:300|217:300|180:296|180:296|159:312|159:312|104:310,1,210,14|8,1:0|1:3,2:1:0:0:
74,156,154349,2,2,B|53:89|53:89|60:150,1,131.25,14|2,1:2|1:0,2:1:0:0:
52,275,154761,6,2,B|40:345|40:345|26:354|26:354|16:287,2,150,14|2|2,1:0|1:0|1:0,2:1:0:0:
144,116,155399,6,2,L|186:11,1,112.5,14|0,1:0|2:0,2:1:0:0:
362,92,155612,2,2,L|299:0,1,112.5,14|0,1:0|2:0,2:1:0:0:
494,70,155824,6,0,L|512:64,1,18.75,4|0,1:3|2:0,2:0:0:0:
503,86,156037,6,0,L|433:112,1,75,8|0,1:3|2:0,2:0:0:0:
262,234,156250,2,0,P|252:229|245:191,1,50.68125,14|0,1:0|2:0,2:0:0:0:
284,251,156644,5,2,1:0:0:0:
342,297,156858,1,2,1:2:0:0:
416,293,157072,1,2,1:2:0:0:
462,235,157287,5,2,1:0:0:0:
459,161,157515,1,2,1:0:0:0:
408,118,157744,1,4,1:2:0:0:
362,92,157978,5,4,1:2:0:0:
348,62,158212,1,8,1:0:0:0:
357,43,158484,1,8,1:2:0:0:
363,41,158778,5,12,1:2:0:0:
384,57,159088,5,4,1:3:0:0:
387,108,159429,5,8,1:3:0:0:
326,150,159773,5,8,1:0:0:0:
240,112,160120,5,14,1:0:0:0:
240,7,160482,5,8,1:0:0:0:
0,357,160845,6,2,P|150:354|312:359,1,300,14|8,1:0|1:2,2:1:0:0:
412,293,161922,1,0,1:2:0:0:
329,242,162282,1,2,2:3:0:0:
412,293,162641,1,0,1:2:0:0:
497,173,163000,2,0,P|465:173|412:177,1,75,10|2,1:2|2:3,2:0:0:0:
246,229,163719,6,2,B|166:211|176:284|94:279,1,150,6|8,1:0|1:2,2:1:0:0:
35,220,164753,1,0,1:2:0:0:
89,167,165098,2,0,P|95:133|101:70,1,75,2|0,2:3|1:2,2:0:0:0:
234,69,165787,2,0,P|227:102|222:166,1,75,10|2,1:2|2:3,2:0:0:0:
297,301,166477,6,2,P|379:331|441:383,1,150,6|8,1:0|1:2,2:1:0:0:
511,320,167529,1,0,1:2:0:0:
404,249,167880,1,2,2:3:0:0:
404,249,168231,1,2,1:2:0:0:
297,301,168582,1,10,1:2:0:0:
274,206,168933,1,2,2:3:0:0:
21,308,169284,6,2,B|104:284|85:364|172:352,1,150,6|8,1:0|1:2,2:1:0:0:
193,285,170298,1,0,1:2:0:0:
193,285,170636,2,0,P|193:243|197:188,1,75,2|0,2:3|1:2,2:0:0:0:
308,137,171312,2,0,P|308:95|304:40,1,75,10|2,1:2|2:3,2:0:0:0:
245,21,171819,1,2,2:3:0:0:
245,21,171988,6,2,P|190:16|106:58,1,150,6|10,1:0|1:2,2:1:0:0:
20,104,172985,2,2,P|30:162|27:263,1,150,2|0,1:0|1:2,2:1:0:0:
60,343,173982,1,10,1:2:0:0:
94,356,174148,1,8,1:2:0:0:
131,355,174314,1,8,1:3:0:0:
165,339,174481,1,4,1:3:0:0:
202,339,174647,6,2,P|264:344|374:374,1,150,6|10,1:0|1:2,2:1:0:0:
450,285,175636,2,2,P|439:209|438:130,1,150,2|0,1:2|1:2,2:1:0:0:
300,27,176625,2,2,P|298:85|282:163,1,112.5,10|0,1:2|2:0,2:1:0:0:
280,172,177284,5,6,1:0:0:0:
280,172,177945,1,8,1:2:0:0:
161,109,178275,1,0,1:2:0:0:
218,228,178606,1,2,2:3:0:0:
246,100,178936,1,0,1:2:0:0:
212,255,179267,1,10,1:2:0:0:
234,347,179598,1,2,2:3:0:0:
219,374,179928,6,2,P|350:371|374:372,2,150,0|2|2,1:0|2:3|1:0,2:0:0:0:
142,379,182928,1,0,1:2:0:0:
68,380,183247,1,0,1:2:0:0:
68,380,183566,1,0,1:2:0:0:
7,219,183885,5,2,1:2:0:0:
81,209,184204,1,2,1:2:0:0:
159,221,184523,1,2,1:2:0:0:
159,221,184843,1,0,1:2:0:0:
508,123,185162,5,2,1:0:0:0:
430,136,185481,1,0,1:2:0:0:
351,129,185800,1,0,1:2:0:0:
273,115,186119,1,2,1:2:0:0:
194,120,186438,1,2,1:2:0:0:
128,144,186757,1,2,1:2:0:0:
102,129,187077,2,0,P|78:122|66:101,1,37.5,2|0,1:0|2:0,1:0:0:0:
9,65,187396,2,0,P|33:72|45:93,1,37.5,2|0,1:0|2:0,1:0:0:0:
267,41,187715,6,0,P|345:42|418:48,1,150,2|2,1:0|1:2,2:0:0:0:
492,41,188664,1,2,1:2:0:0:
499,115,188981,1,2,1:2:0:0:
485,188,189298,1,2,1:2:0:0:
483,262,189614,1,2,1:2:0:0:
493,344,189931,1,2,1:2:0:0:
493,344,190089,1,2,3:1:0:0:
493,344,190247,6,0,L|393:359,1,93.75,12|0,1:0|1:0,2:0:0:0:
270,345,190851,2,0,L|170:360,1,93.75,0|2,1:0|1:2,2:0:0:0:
0,296,191456,1,2,1:2:0:0:
172,247,191758,1,2,1:2:0:0:
66,384,192060,1,2,1:2:0:0:
70,204,192362,1,0,1:0:0:0:
15,92,192665,5,2,1:0:0:0:
85,65,192959,1,0,1:2:0:0:
154,93,193254,1,0,1:2:0:0:
87,57,193549,1,2,1:2:0:0:
17,84,193844,1,2,1:2:0:0:
83,49,194139,1,2,1:2:0:0:
156,81,194434,1,2,1:2:0:0:
156,81,194728,1,0,1:2:0:0:
283,15,195023,6,0,L|375:39,1,75,2|0,1:0|1:2,2:0:0:0:
423,143,195604,2,0,L|515:167,1,75,0|2,1:2|1:2,2:0:0:0:
260,310,196185,5,2,1:2:0:0:
417,272,196475,1,2,1:2:0:0:
315,371,196766,1,2,1:2:0:0:
355,218,197056,1,2,1:2:0:0:
94,340,197347,5,2,1:0:0:0:
94,340,197899,2,0,P|93:298|90:252,1,75,2|2,1:2|1:2,2:0:0:0:
203,187,198452,2,0,P|202:145|199:99,1,75,2|2,1:2|1:2,2:0:0:0:
85,47,199005,1,2,1:2:0:0:
0,145,199282,1,2,1:2:0:0:
0,145,199420,1,0,1:0:0:0:
0,145,199558,5,8,1:0:0:0:
68,179,199830,1,0,1:2:0:0:
198,290,200103,5,0,1:2:0:0:
300,239,200376,1,2,1:2:0:0:
414,138,200648,5,2,1:2:0:0:
512,243,200921,1,2,1:2:0:0:
491,118,201194,1,2,1:2:0:0:
439,268,201467,1,0,1:2:0:0:
256,7,201739,5,6,1:0:0:0:
256,7,201993,1,0,1:2:0:0:
293,32,202248,5,2,1:0:0:0:
304,106,202503,5,0,1:2:0:0:
229,156,202758,5,2,1:0:0:0:
134,109,203012,5,0,1:2:0:0:
29,167,203267,5,2,1:0:0:0:
40,301,203522,5,0,1:2:0:0:
129,336,203777,5,8,1:0:0:0:
129,336,205516,6,0,P|194:335|241:337,1,82.5,12|0,1:0|2:0,2:0:0:0:
484,233,205967,2,0,P|400:232|331:236,1,123.75,14|0,1:0|2:0,2:0:0:0:
284,236,206418,1,6,1:2:0:0:
130,222,206643,1,2,1:2:0:0:
23,246,206869,1,12,1:2:0:0:
23,246,207094,2,0,P|22:207|25:157,1,82.8657525177003,2|4,1:2|2:0,2:0:0:0:
175,29,207539,5,2,1:2:0:0:
175,29,207649,1,0,1:2:0:0:
175,29,207758,1,14,1:2:0:0:
343,100,207978,1,2,2:0:0:0:
164,141,208197,1,6,1:2:0:0:
282,6,208416,1,2,1:2:0:0:
275,194,208636,1,14,1:2:0:0:
275,194,208855,1,2,1:2:0:0:
248,377,209075,6,0,P|248:336|244:261,1,82.5,14|0,1:0|2:0,2:0:0:0:
466,156,209516,2,0,B|403:123|396:201|314:173,1,123.75,14|0,1:0|2:0,2:0:0:0:
275,194,209957,1,6,1:2:0:0:
442,63,210177,1,2,1:2:0:0:
388,264,210398,1,14,1:2:0:0:
311,78,210619,2,0,P|311:39|314:-4,1,82.5000025177003,2|4,1:2|2:0,2:0:0:0:
466,156,211051,5,8,1:2:0:0:
326,312,211263,1,2,1:2:0:0:
509,314,211476,5,2,1:2:0:0:
373,178,211688,1,14,1:2:0:0:
512,318,211900,1,2,1:2:0:0:
195,213,212113,5,14,1:2:0:0:
168,374,212325,1,2,1:2:0:0:
15,126,212538,6,0,P|41:94|77:74,1,82.5,14|0,1:0|2:0,2:0:0:0:
293,179,212976,2,0,P|229:129|161:121,1,123.75,14|0,1:0|2:0,2:0:0:0:
120,162,213415,2,0,P|116:207|117:246,1,82.5,6|2,1:2|1:2,2:0:0:0:
280,374,213854,1,14,1:2:0:0:
375,266,214073,1,2,1:2:0:0:
234,304,214293,1,4,2:0:0:0:
368,353,214514,1,0,1:2:0:0:
294,237,214736,2,0,P|294:198|296:146,1,82.5,12|2,1:2|2:0,2:0:0:0:
461,40,215180,5,6,1:2:0:0:
475,146,215402,1,2,1:2:0:0:
469,228,215623,1,14,1:2:0:0:
491,359,215845,5,0,1:2:0:0:
491,359,215956,1,8,1:2:0:0:
491,359,216067,2,0,P|439:352|345:355,1,123.75,14|0,1:0|2:0,2:0:0:0:
296,328,216511,2,0,P|263:327|195:329,1,82.5,12|2,1:2|2:0,2:0:0:0:
397,273,216954,1,14,1:2:0:0:
157,270,217176,2,0,P|90:294|29:390,1,165,8|14,1:3|1:2,2:0:0:0:
34,366,217841,1,2,3:2:0:0:
34,366,218061,1,14,1:2:0:0:
217,140,218282,6,0,P|220:98|219:30,1,82.5,12|4,1:2|1:3,2:0:0:0:
121,305,218723,5,14,1:2:0:0:
323,234,218943,1,2,1:2:0:0:
216,384,219164,1,14,1:2:0:0:
218,170,219385,1,8,1:2:0:0:
492,269,219605,6,0,P|493:321|490:363,1,90,14|0,1:0|2:0,2:0:0:0:
294,123,220041,2,0,P|353:156|435:160,1,135,14|0,1:0|2:0,2:0:0:0:
470,103,220477,5,14,1:2:0:0:
217,140,220695,1,2,1:2:0:0:
424,241,220914,1,14,1:2:0:0:
298,43,221132,1,0,1:2:0:0:
41,271,221350,5,14,1:0:0:0:
136,140,221566,1,8,1:0:0:0:
5,197,221783,1,14,1:0:0:0:
170,216,222000,1,8,1:0:0:0:
51,126,222217,1,14,1:2:0:0:
126,286,222434,1,2,1:2:0:0:
13,365,222651,5,14,1:2:0:0:
88,205,222868,1,0,1:2:0:0:
17,15,223085,6,0,P|107:38|185:37,1,135,14|0,1:0|2:0,2:0:0:0:
216,118,223519,5,14,1:0:0:0:
286,51,223736,1,2,1:2:0:0:
438,245,223953,5,14,1:2:0:0:
342,161,224170,1,2,1:2:0:0:
209,381,224387,5,14,1:2:0:0:
319,250,224604,1,2,1:2:0:0:
176,301,224820,1,14,1:0:0:0:
352,331,225035,1,8,1:0:0:0:
142,290,225251,6,0,B|74:263|70:328|0:315,1,135,14|0,1:0|2:0,2:0:0:0:
0,285,225683,2,0,P|-2:246|8:172,1,90,14|2,1:2|1:2,2:0:0:0:
111,123,226114,1,14,1:2:0:0:
111,123,226330,1,0,1:2:0:0:
382,334,226546,5,14,1:0:0:0:
512,234,226764,1,8,2:1:0:0:
450,374,226982,1,14,1:0:0:0:
443,200,227200,1,8,1:0:0:0:
253,204,227418,5,14,1:2:0:0:
259,33,227636,1,2,1:2:0:0:
318,154,227855,1,14,1:2:0:0:
197,89,228073,1,0,1:2:0:0:
2,336,228291,5,14,1:0:0:0:
132,236,228507,1,8,1:0:0:0:
70,376,228724,1,14,1:0:0:0:
63,202,228941,1,8,1:0:0:0:
312,355,229158,5,14,1:2:0:0:
184,303,229375,1,2,1:2:0:0:
317,269,229592,1,14,1:2:0:0:
233,375,229809,1,0,1:2:0:0:
227,108,230026,6,0,P|235:160|234:225,1,90,14|0,1:0|2:0,2:0:0:0:
426,70,230457,2,0,P|376:50|321:17,1,90,14|2,1:0|1:2,2:0:0:0:
317,269,230889,1,14,1:2:0:0:
446,207,231105,1,2,1:2:0:0:
339,292,231320,1,14,1:2:0:0:
424,185,231536,1,2,1:2:0:0:
450,321,231752,5,14,1:0:0:0:
322,160,231963,1,8,1:0:0:0:
453,325,232174,1,14,1:0:0:0:
325,164,232385,1,8,1:0:0:0:
164,365,232597,5,14,1:2:0:0:
317,269,232808,1,2,1:2:0:0:
29,107,233019,5,14,1:2:0:0:
154,273,233230,1,2,1:2:0:0:
269,35,233442,5,10,1:0:0:0:
269,35,233653,1,8,1:0:0:0:
256,22,233864,1,8,1:0:0:0:
220,19,234075,1,10,1:0:0:0:
184,50,234287,1,10,1:0:0:0:
190,103,234498,1,10,1:0:0:0:
249,125,234709,1,10,1:0:0:0:
308,79,234921,1,8,1:0:0:0:
200,357,235132,5,10,1:0:0:0:
328,307,235344,5,8,1:0:0:0:
196,272,235556,5,10,1:0:0:0:
280,382,235769,5,10,1:0:0:0:
277,241,235981,5,8,1:0:0:0:
173,373,236193,5,10,1:0:0:0:
352,319,236406,5,10,1:0:0:0:
170,256,236618,5,10,1:0:0:0:
448,64,237068,5,14,1:0:0:0:
64,64,237322,1,14,1:0:0:0:
32,160,237576,5,2,3:2:0:0:
32,160,237703,1,2,3:2:0:0:
32,160,237830,1,14,1:0:0:0:
480,160,238084,1,14,1:0:0:0:
512,256,238593,5,14,1:0:0:0:
0,256,238872,1,14,1:0:0:0:
512,256,239152,1,14,1:0:0:0:
256,192,239221,12,2,249221,2:1:0:0:
