osu file format v14

[General]
AudioFilename: audio.mp3
AudioLeadIn: 0
PreviewTime: 154697
Countdown: 0
SampleSet: Soft
StackLeniency: 0.7
Mode: 0
LetterboxInBreaks: 0
WidescreenStoryboard: 1

[Editor]
DistanceSpacing: 1.4
BeatDivisor: 4
GridSize: 32
TimelineZoom: 0.6

[Metadata]
Title:No Other One
TitleUnicode:No Other One
Artist:Weezer
ArtistUnicode:Weezer
Creator:Ruiz Duchamp
Version:Easy
Source:
Tags:songs from the black hole pinkerton english alternative rock
BeatmapID:4101538
BeatmapSetID:1976124

[Difficulty]
HPDrainRate:3
CircleSize:3
OverallDifficulty:3
ApproachRate:3
SliderMultiplier:1
SliderTickRate:0.5

[Events]
//Background and Video events
0,0,"wp7053431.jpg",0,0
//Break Periods
2,70634,82584
//Storyboard Layer 0 (Background)
//Storyboard Layer 1 (Fail)
//Storyboard Layer 2 (Pass)
//Storyboard Layer 3 (Foreground)
//Storyboard Layer 4 (Overlay)
//Storyboard Sound Samples

[TimingPoints]
10138,566.037735849057,3,2,2,40,1,0
10987,606.060606060606,3,2,2,40,1,0
11744,560.747663551402,3,2,2,40,1,0
12024,588.235294117647,3,2,2,40,1,0
12171,618.556701030928,3,2,2,40,1,0
12480,628.272251308901,3,2,2,60,1,0
13736,603.925515853045,3,2,2,60,1,0
14339,603.925515853045,3,2,2,60,1,0
16151,597.014925373134,3,2,2,60,1,0
17345,603.015075376884,3,2,2,60,1,0
17948,588.235294117647,3,2,2,60,1,0
19712,597.014925373134,3,2,2,60,1,0
20906,600,3,2,2,60,1,0
21506,606.060606060606,3,2,2,60,1,0
22112,576.923076923077,3,2,2,60,1,0
22400,555.555555555556,3,2,2,60,1,0
22677,600,3,2,2,60,1,0
23277,600,3,2,2,60,1,0
24177,550.45871559633,3,2,2,60,1,0
24452,588.235294117647,3,2,2,60,1,0
25040,571.428571428571,3,2,2,50,1,0
25325,579.710144927536,3,2,2,50,1,0
25904,606.060606060606,3,2,2,50,1,0
26207,588.235294117647,3,2,2,50,1,0
26795,588.235294117647,3,2,1,50,1,0
27383,612.244897959184,3,2,1,50,1,0
27995,606.060606060606,3,2,1,50,1,0
29207,597.014925373134,3,2,1,50,1,0
30401,597.014925373134,3,2,1,50,1,0
32192,606.060606060606,3,2,1,50,1,0
33707,582.52427184466,3,2,1,50,1,0
33998,603.015075376884,3,2,1,50,1,0
36410,588.235294117647,3,2,1,50,1,0
37292,600,3,2,1,50,1,0
37592,612.244897959184,3,2,1,50,1,0
38204,594.059405940594,3,2,1,50,1,0
39392,576.923076923077,3,2,1,50,1,0
39968,600,3,2,1,50,1,0
40568,576.923076923077,3,2,1,50,1,0
41144,612.244897959184,3,2,1,50,1,0
41756,618.556701030928,3,2,1,50,1,0
42374,594.059405940594,3,2,1,50,1,0
42968,600,3,2,1,50,1,0
43568,588.235294117647,3,2,1,50,1,0
44744,612.244897959184,3,2,1,50,1,0
45356,594.059405940594,3,2,1,50,1,0
45950,600,3,2,1,50,1,0
46550,588.235294117647,3,2,1,50,1,0
47138,606.060606060606,3,2,1,50,1,0
48350,594.059405940594,3,2,1,50,1,0
51023,612.244897959184,3,2,1,50,1,0
51329,594.059405940594,3,2,1,50,1,0
51923,625,3,2,1,30,1,0
52548,600,3,2,1,40,1,0
53748,576.923076923077,3,2,1,50,1,0
55478,618.556701030928,3,2,2,60,1,0
57333,631.578947368422,3,2,2,60,1,0
57964,582.52427184466,3,2,2,60,1,0
58546,606.060606060606,3,2,2,60,1,0
59152,612.244897959184,3,2,2,60,1,0
62213,550.45871559633,3,2,2,60,1,0
62488,625,3,2,2,60,1,0
62800,625,3,2,2,60,1,0
63425,588.235294117647,3,2,2,60,1,0
63719,638.297872340426,3,2,2,60,1,0
64038,600.000000000001,3,2,2,60,1,0
64638,612.244897959185,3,2,2,60,1,0
65250,594.059405940595,3,2,2,60,1,0
66438,625,3,2,2,60,1,0
67063,606.060606060606,3,2,2,60,1,0
67366,576.923076923077,3,2,2,60,1,0
67942,612.244897959184,3,2,2,60,1,0
68248,594.059405940594,3,2,2,60,1,0
68545,652.173913043478,3,2,2,60,1,0
68871,560.747663551402,3,2,2,60,1,0
69151,530.973451327434,3,2,2,60,1,0
69283,606.060606060606,3,2,2,60,1,0
69434,566.037735849057,3,2,2,60,1,0
69858,582.52427184466,3,2,2,60,1,0
70003,631.578947368421,3,2,2,60,1,0
70634,594.059405940594,3,2,2,60,1,0
71822,625,3,2,2,60,1,0
72447,594.059405940594,3,2,2,60,1,0
73041,606.060606060606,3,2,2,60,1,0
74253,631.578947368421,3,2,2,60,1,0
74568,594.059405940594,3,2,2,60,1,0
74865,606.060606060606,3,2,2,60,1,0
75471,618.556701030928,3,2,2,60,1,0
76089,566.037735849057,3,2,2,60,1,0
77079,689.655172413793,3,2,2,60,1,0
77251,594.059405940594,3,2,2,60,1,0
77845,625,3,2,2,60,1,0
78157,594.059405940594,3,2,2,60,1,0
78454,606.060606060606,3,2,2,60,1,0
79060,600,3,2,2,60,1,0
79960,555.555555555556,3,2,2,60,1,0
80237,600,3,2,2,60,1,0
80837,588.235294117647,3,2,2,60,1,0
81719,566.037735849057,3,2,2,60,1,0
82002,582.52427184466,3,2,2,60,1,0
82584,571.428571428571,3,2,2,60,1,0
82869,594.059405940594,3,2,2,60,1,0
83166,582.52427184466,3,2,2,60,1,0
83457,555.555555555556,3,2,2,60,1,0
83734,560.747663551402,3,2,2,60,1,0
84014,618.556701030928,3,2,2,60,1,0
84323,588.235294117647,3,2,1,40,1,0
84911,594.059405940594,3,2,1,40,1,0
85505,606.060606060606,3,2,1,40,1,0
86111,588.235294117647,3,2,1,40,1,0
87287,631.578947368421,3,2,1,40,1,0
87918,600,3,2,1,40,1,0
88518,576.923076923077,3,2,1,40,1,0
89094,600,3,2,1,40,1,0
89694,594.059405940594,3,2,1,40,1,0
90288,576.923076923077,3,2,1,40,1,0
90864,600,3,2,1,40,1,0
91464,600,3,2,1,40,1,0
92064,576.923076923077,3,2,1,40,1,0
92640,612.244897959184,3,2,1,40,1,0
93252,588.235294117647,3,2,1,40,1,0
93840,576.923076923077,3,2,1,40,1,0
94416,588.235294117647,3,2,1,40,1,0
95004,576.923076923077,3,2,1,40,1,0
96157,594.059405940594,3,2,1,40,1,0
96751,566.037735849057,3,2,1,40,1,0
97883,606.060606060606,3,2,1,40,1,0
98489,576.923076923077,3,2,1,50,1,0
99065,612.244897959184,3,2,1,50,1,0
99677,612.244897959184,3,2,1,50,1,0
100289,594.059405940594,3,2,1,50,1,0
100883,576.923076923077,3,2,1,50,1,0
101459,582.52427184466,3,2,1,50,1,0
102041,594.059405940594,3,2,1,50,1,0
103229,588.235294117647,3,2,1,50,1,0
103817,594.059405940594,3,2,1,50,1,0
104411,571.428571428571,3,2,1,50,1,0
104982,582.52427184466,3,2,1,50,1,0
105564,571.428571428571,3,2,1,50,1,0
106706,594.059405940594,3,2,1,50,1,0
107894,571.428571428571,3,2,1,50,1,0
108465,594.059405940594,3,2,1,50,1,0
109059,540.540540540541,3,2,1,30,1,0
109599,576.923076923077,3,2,1,40,1,0
110175,571.428571428571,3,2,1,50,1,0
110746,576.923076923077,3,2,1,60,1,0
111322,571.428571428571,3,2,1,60,1,0
111893,550.45871559633,3,2,1,60,1,0
112443,600,3,2,2,60,1,0
113043,576.923076923077,3,2,2,60,1,0
114196,612.244897959184,3,2,2,60,1,0
114808,576.923076923077,3,2,2,60,1,0
115384,594.059405940594,3,2,2,60,1,0
115978,606.060606060606,3,2,2,60,1,0
116584,588.235294117647,3,2,2,60,1,0
117760,594.059405940594,3,2,2,60,1,0
118948,576.923076923077,3,2,2,60,1,0
119524,600,3,2,2,60,1,0
122524,576.923076923077,3,2,2,60,1,0
123100,631.578947368421,3,2,2,60,1,0
123731,560.747663551402,3,2,2,60,1,0
124292,582.52427184466,3,2,2,60,1,0
124874,606.060606060606,3,2,2,40,1,0
125177,625,3,2,2,40,1,0
125489,588.235294117647,3,2,2,50,1,0
125783,606.060606060606,3,2,2,50,1,0
126086,612.244897959184,3,2,2,60,1,0
126392,576.923076923077,3,2,2,60,1,0
126680,618.556701030928,3,2,1,50,1,0
127298,594.059405940594,3,2,1,50,1,0
127892,631.578947368422,3,2,1,50,1,0
128523,576.923076923077,3,2,1,50,1,0
129676,600,3,2,2,50,1,0
130876,588.235294117647,3,2,1,50,1,0
132346,555.555555555556,3,2,1,50,1,0
133457,606.060606060606,3,2,1,50,1,0
134366,588.235294117647,3,2,1,50,1,0
134954,594.059405940594,3,2,1,50,1,0
135548,582.52427184466,3,2,1,50,1,0
136130,571.428571428571,3,2,1,50,1,0
136701,588.235294117647,3,2,1,50,1,0
137289,540.540540540541,3,2,1,30,1,0
137559,576.923076923077,3,2,1,30,1,0
137847,535.714285714286,3,2,1,40,1,0
138114,588.235294117647,3,2,1,40,1,0
138408,582.52427184466,3,2,1,50,1,0
138990,571.428571428571,3,2,1,60,1,0
139275,566.037735849057,3,2,2,60,1,0
139841,588.235294117647,3,2,2,70,1,0
140429,612.244897959184,3,2,2,70,1,0
140735,606.060606060606,3,2,2,60,1,0
141341,600,3,2,2,60,1,0
142541,576.923076923077,3,2,2,60,1,0
143117,566.037735849057,3,2,2,60,1,0
143683,588.235294117647,3,2,2,60,1,0
144271,582.52427184466,3,2,2,60,1,0
146018,576.923076923077,3,2,2,60,1,0
146594,571.428571428571,3,2,2,60,1,0
147165,594.059405940594,3,2,2,60,1,0
147759,612.244897959184,3,2,2,60,1,0
148371,606.060606060606,3,2,2,60,1,0
148977,576.923076923077,3,2,2,60,1,0
149553,555.555555555556,3,2,2,60,1,0
150108,582.52427184466,3,2,2,60,1,0
151273,606.060606060606,3,2,2,60,1,0
151879,600,3,2,2,60,1,0
152479,582.52427184466,3,2,2,60,1,0
153061,550.45871559633,3,2,2,60,1,0
153886,582.52427184466,3,2,2,60,1,0
154468,612.244897959184,3,2,2,60,1,0
154774,594.059405940594,3,2,2,70,1,1
154774,-125,3,2,2,70,0,1
155368,588.235294117647,3,2,2,70,1,1
156544,-125,3,2,2,70,0,1
157132,582.52427184466,3,2,2,70,1,1
157714,576.923076923077,3,2,2,70,1,1
158290,606.060606060606,3,2,2,70,1,1
158290,-125,3,2,2,70,0,1
158896,571.428571428571,3,2,2,70,1,1
159467,576.923076923077,3,2,2,70,1,1
160043,571.428571428571,3,2,2,70,1,1
160614,560.747663551402,3,2,2,70,1,1
161174,550.45871559633,3,2,2,70,1,1
161311,681.818181818182,3,2,2,70,1,1
161481,638.297872340426,3,2,2,70,1,1
161800,560.747663551402,3,2,2,70,1,1
161800,-125,3,2,2,70,0,1
162360,576.923076923077,3,2,2,70,1,1
162936,588.235294117647,3,2,2,70,1,1
163524,-125,3,2,2,70,0,1
164112,576.923076923077,3,2,2,70,1,1
164544,530.973451327434,3,2,2,70,1,1
164676,582.52427184466,3,2,2,70,1,1
165258,566.037735849057,3,2,2,50,1,0
165258,-125,3,2,2,50,0,0
165824,535.714285714286,3,2,2,50,1,0
166091,576.923076923077,3,2,2,50,1,0
166956,771.704180064309,3,2,2,50,1,0
167341,-100,3,2,2,30,0,0

[Colours]
Combo1 : 235,84,103
Combo2 : 220,200,160
Combo3 : 207,152,112
Combo4 : 170,170,185
Combo5 : 255,125,106

[HitObjects]
365,172,12480,6,0,L|481:158,2,100,14|8|2,1:0|1:0|1:0,2:0:0:0:
275,216,14339,2,2,L|55:185,1,200,14|14,1:0|1:2,2:1:0:0:
16,106,16151,1,14,1:0:0:0:
94,44,16748,1,8,1:0:0:0:
184,84,17345,1,14,1:2:0:0:
278,44,17948,2,2,P|380:55|488:45,1,200,14|14,1:0|1:2,2:1:0:0:
487,145,19712,6,0,P|482:212|488:254,1,100,14|10,1:0|1:0,2:0:0:0:
425,323,20906,1,14,1:2:0:0:
333,284,21506,2,2,P|295:287|233:280,1,100,14|8,1:0|1:0,2:1:0:0:
155,332,22677,1,14,1:2:0:0:
64,288,23277,2,2,L|58:173,1,100,14|10,1:0|1:0,2:1:0:0:
124,115,24452,1,14,1:2:0:0:
209,172,25040,1,14,1:0:0:0:
209,172,26795,6,2,P|270:176|311:172,1,100,10|2,1:0|1:0,2:1:0:0:
394,224,27995,1,12,1:2:0:0:
342,309,28601,2,2,P|281:305|240:309,1,100,10|2,1:0|1:0,2:1:0:0:
157,255,29804,1,12,1:2:0:0:
209,172,30401,1,10,1:0:0:0:
187,74,30998,2,2,P|126:78|85:74,1,100,10|12,1:0|1:2,2:1:0:0:
35,158,32192,1,10,1:0:0:0:
118,213,32798,1,10,1:0:0:0:
209,172,33404,1,12,1:2:0:0:
292,224,33998,38,2,P|375:199|495:198,1,200,10|12,1:0|1:2,2:1:0:0:
508,99,35807,1,10,1:0:0:0:
430,32,36410,1,10,1:0:0:0:
346,87,36998,1,12,1:2:0:0:
255,50,37592,2,2,P|206:55|151:48,1,100,10|2,1:0|1:0,2:1:0:0:
83,118,38798,1,12,1:2:0:0:
143,201,39392,1,10,1:0:0:0:
143,201,41144,5,10,1:0:0:0:
220,262,41756,1,10,1:0:0:0:
312,215,42374,1,12,1:2:0:0:
367,296,42968,2,2,P|429:293|475:299,1,100,10|2,1:0|1:0,2:1:0:0:
508,206,44156,1,12,1:2:0:0:
457,124,44744,2,2,P|395:127|349:121,1,100,10|2,1:0|1:0,2:1:0:0:
281,58,45950,1,12,1:2:0:0:
198,118,46550,1,10,1:0:0:0:
198,118,48350,6,2,P|197:183|191:233,2,100,10|2|12,1:0|1:0|1:2,2:1:0:0:
110,70,50132,1,10,1:0:0:0:
28,127,50726,1,10,1:0:0:0:
29,228,51329,1,12,1:2:0:0:
107,296,51923,2,2,P|224:321|304:376,1,196,10|12,1:0|1:2,2:1:0:0:
383,326,53748,37,10,1:0:0:0:
285,63,55478,2,2,P|235:67|158:59,1,100,14|10,1:0|1:0,2:1:0:0:
110,129,56715,1,12,1:2:0:0:
169,206,57333,1,14,1:0:0:0:
145,311,57964,2,2,P|195:307|272:315,1,100,10|14,1:0|1:2,2:1:0:0:
330,260,59152,1,14,1:0:0:0:
420,301,59764,1,10,1:0:0:0:
491,231,60376,2,2,P|488:179|493:99,2,100,14|14|10,1:2|1:0|1:0,2:1:0:0:
420,301,62213,1,8,1:3:0:0:
330,260,62800,6,2,P|333:211|330:152,1,100,14|10,1:0|1:0,2:1:0:0:
262,84,64038,1,12,1:2:0:0:
190,151,64638,1,14,1:0:0:0:
104,93,65250,2,2,P|57:99|-1:90,1,100,10|12,1:0|1:2,2:1:0:0:
15,192,66438,1,14,1:0:0:0:
89,253,67063,1,10,1:0:0:0:
82,355,67654,2,2,P|147:351|219:364,1,103.12,12|14,1:2|1:0,2:1:0:0:
274,288,68871,1,12,1:2:0:0:
361,334,69434,1,8,1:2:0:0:
436,285,70003,1,14,1:0:0:0:
436,285,84323,6,0,P|433:241|437:175,1,100,2|2,1:0|1:0,2:0:0:0:
384,101,85505,1,8,1:2:0:0:
293,149,86111,1,2,1:0:0:0:
221,78,86699,2,0,P|129:61|94:31,1,100,2|8,1:0|1:2,2:0:0:0:
49,132,87918,1,2,1:0:0:0:
101,221,88518,1,2,1:0:0:0:
56,305,89094,1,8,1:2:0:0:
140,360,89694,1,2,1:0:0:0:
140,360,91464,37,2,1:0:0:0:
234,316,92064,1,2,1:0:0:0:
325,353,92640,1,8,1:2:0:0:
413,314,93252,2,0,P|417:211|411:96,1,197.96,2|8,1:0|1:2,2:0:0:0:
321,73,95004,2,0,P|271:79|191:74,1,100,2|0,1:0|1:0,2:0:0:0:
175,163,96157,1,8,1:2:0:0:
258,227,96751,1,0,1:0:0:0:
258,227,98489,5,10,1:0:0:0:
342,186,99065,1,10,1:0:0:0:
433,226,99677,1,12,1:2:0:0:
433,329,100289,2,2,P|368:323|311:335,1,100,10|2,1:0|1:0,2:1:0:0:
258,263,101459,1,12,1:2:0:0:
174,313,102041,2,2,P|123:309|43:324,1,100,10|2,1:0|1:0,2:1:0:0:
31,223,103229,1,12,1:2:0:0:
89,143,103817,1,10,1:0:0:0:
27,59,104411,1,10,1:0:0:0:
223,15,105564,6,2,P|276:18|343:13,2,100,10|10|12,1:0|1:0|1:2,2:1:0:0:
184,107,107300,1,10,1:0:0:0:
261,176,107894,1,10,1:0:0:0:
234,268,108465,1,12,1:2:0:0:
301,351,109059,2,2,P|413:345|515:358,1,206.475,10|10,1:0|1:0,2:1:0:0:
479,252,110746,1,10,1:0:0:0:
498,153,111322,1,12,1:2:0:0:
478,62,111893,1,12,1:2:0:0:
388,28,112443,38,2,P|341:32|276:28,1,100,14|10,1:0|1:0,2:1:0:0:
210,92,113619,1,12,1:2:0:0:
130,40,114196,1,14,1:0:0:0:
47,96,114808,2,2,P|48:161|43:222,1,100,10|12,1:0|1:2,2:1:0:0:
109,270,115978,1,14,1:0:0:0:
207,240,116584,2,2,P|278:244|337:229,2,100,10|12|14,1:0|1:2|1:0,2:1:0:0:
109,270,118354,1,10,1:0:0:0:
160,359,118948,1,12,1:2:0:0:
252,333,119524,6,2,P|323:338|366:333,1,100,14|10,1:0|1:0,2:1:0:0:
424,266,120724,1,12,1:2:0:0:
384,174,121324,2,2,P|388:117|382:44,1,100,14|10,1:0|1:0,2:1:0:0:
296,21,122524,1,12,1:2:0:0:
220,71,123100,2,2,P|167:77|108:69,1,100,14|10,1:0|1:0,2:1:0:0:
62,148,124292,1,12,1:2:0:0:
131,214,124874,1,12,1:0:0:0:
63,293,125489,1,14,1:0:0:0:
134,359,126086,1,12,1:2:0:0:
221,318,126680,6,2,P|273:317|327:303,1,100,14|0,1:0|1:0,2:1:0:0:
391,244,127892,1,12,1:2:0:0:
325,169,128523,2,2,P|276:158|227:157,1,100,8|0,1:0|1:0,2:1:0:0:
145,208,129676,1,12,1:2:0:0:
61,152,130276,2,2,P|65:98|62:31,1,100,14|2,1:0|1:0,2:1:0:0:
157,16,131464,1,12,1:2:0:0:
248,57,132052,1,8,1:0:0:0:
248,57,133760,37,14,1:0:0:0:
320,130,134366,2,2,P|316:207|326:276,1,100,8|12,1:0|1:2,2:1:0:0:
247,303,135548,2,2,P|198:290|122:290,1,100,10|2,1:0|1:0,2:1:0:0:
67,235,136701,1,12,1:2:0:0:
123,142,137289,1,8,1:0:0:0:
218,184,137847,1,8,1:0:0:0:
310,132,138408,1,8,1:0:0:0:
405,167,138990,1,12,1:2:0:0:
462,84,139558,1,12,1:2:0:0:
370,49,140135,1,12,1:2:0:0:
310,132,140735,6,2,P|310:202|303:253,1,100,14|10,1:0|1:0,2:1:0:0:
257,319,141941,1,12,1:2:0:0:
172,258,142541,1,14,1:0:0:0:
117,343,143117,2,2,P|77:339|11:344,1,100,10|12,1:0|1:2,2:1:0:0:
1,243,144271,2,2,P|0:199|8:136,1,100,14|10,1:0|1:0,2:1:0:0:
75,71,145436,1,12,1:2:0:0:
156,131,146018,1,14,1:0:0:0:
250,96,146594,2,2,P|311:101|372:92,1,100,10|12,1:0|1:2,2:1:0:0:
429,151,147759,5,14,1:0:0:0:
364,228,148371,1,10,1:0:0:0:
425,313,148977,1,12,1:2:0:0:
333,360,149553,2,2,P|280:355|203:364,1,100,14|10,1:0|1:0,2:1:0:0:
168,282,150690,1,12,1:2:0:0:
225,204,151273,38,2,P|235:149|232:67,1,100,14|8,1:0|1:0,2:1:0:0:
160,46,152479,1,12,1:2:0:0:
78,106,153061,2,2,P|73:212|84:287,1,150,12|12,1:2|1:2,2:1:0:0:
198,343,154774,54,2,P|254:347|309:336,1,80,14|10,1:0|1:0,2:1:0:0:
365,297,155956,1,12,1:2:0:0:
313,213,156544,2,2,P|240:213|151:180,1,159.184,14|12,1:0|1:2,2:1:0:0:
218,105,158290,2,2,P|285:109|319:103,1,80,14|10,1:0|1:0,2:1:0:0:
387,148,159467,1,12,1:2:0:0:
446,66,160043,1,14,1:0:0:0:
248,9,161174,1,10,1:0:0:0:
163,37,161800,54,2,P|117:42|73:36,1,80,14|10,1:0|1:0,2:1:0:0:
38,127,162936,1,12,1:2:0:0:
97,206,163524,2,2,P|98:323|109:381,1,156.736,14|12,1:0|1:2,2:1:0:0:
198,334,165258,22,2,P|249:339|315:333,1,80,12|10,1:2|1:0,2:1:0:0:
356,282,166379,1,14,1:0:0:0:
299,201,166956,1,14,1:0:0:0:
256,192,167341,12,2,173129,2:1:0:0:
