osu file format v14

[General]
AudioFilename: audio.mp3
AudioLeadIn: 0
PreviewTime: 154697
Countdown: 0
SampleSet: Soft
StackLeniency: 0.7
Mode: 0
LetterboxInBreaks: 0
WidescreenStoryboard: 1

[Editor]
DistanceSpacing: 1.4
BeatDivisor: 4
GridSize: 32
TimelineZoom: 1.3

[Metadata]
Title:No Other One
TitleUnicode:No Other One
Artist:Weezer
ArtistUnicode:Weezer
Creator:Ruiz Duchamp
Version:Another
Source:
Tags:songs from the black hole pinkerton english alternative rock
BeatmapID:4101537
BeatmapSetID:1976124

[Difficulty]
HPDrainRate:6
CircleSize:4
OverallDifficulty:7
ApproachRate:8
SliderMultiplier:1.5
SliderTickRate:0.5

[Events]
//Background and Video events
0,0,"wp7053431.jpg",0,0
//Break Periods
//Storyboard Layer 0 (Background)
//Storyboard Layer 1 (Fail)
//Storyboard Layer 2 (Pass)
//Storyboard Layer 3 (Foreground)
//Storyboard Layer 4 (Overlay)
//Storyboard Sound Samples

[TimingPoints]
10138,566.037735849057,3,2,2,40,1,0
10987,606.060606060606,3,2,2,40,1,0
11744,560.747663551402,3,2,2,40,1,0
12024,588.235294117647,3,2,2,40,1,0
12171,618.556701030928,3,2,2,40,1,0
12480,628.272251308901,3,2,2,60,1,0
13657,-100,3,2,11,5,0,0
13736,603.925515853045,3,2,2,60,1,0
14339,603.925515853045,3,2,2,60,1,0
16151,597.014925373134,3,2,2,60,1,0
16673,-100,3,2,11,5,0,0
16748,-100,3,2,2,60,0,0
17345,603.015075376884,3,2,2,60,1,0
17948,588.235294117647,3,2,2,60,1,0
19712,597.014925373134,3,2,2,60,1,0
20234,-100,3,2,11,5,0,0
20309,-100,3,2,2,60,0,0
20906,600,3,2,2,60,1,0
21506,606.060606060606,3,2,2,60,1,0
22112,576.923076923077,3,2,2,60,1,0
22400,555.555555555556,3,2,2,60,1,0
22677,600,3,2,2,60,1,0
23277,600,3,2,2,60,1,0
24177,550.45871559633,3,2,2,60,1,0
24452,588.235294117647,3,2,2,60,1,0
25040,571.428571428571,3,2,2,50,1,0
25325,579.710144927536,3,2,2,50,1,0
25904,606.060606060606,3,2,2,50,1,0
26207,588.235294117647,3,2,2,50,1,0
26795,588.235294117647,3,2,1,50,1,0
27383,612.244897959184,3,2,1,50,1,0
27995,606.060606060606,3,2,1,50,1,0
29207,597.014925373134,3,2,1,50,1,0
30401,597.014925373134,3,2,1,50,1,0
32192,606.060606060606,3,2,1,50,1,0
33707,582.52427184466,3,2,1,50,1,0
33998,603.015075376884,3,2,1,50,1,0
36410,588.235294117647,3,2,1,50,1,0
37292,600,3,2,1,50,1,0
37592,612.244897959184,3,2,1,50,1,0
38204,594.059405940594,3,2,1,50,1,0
39392,576.923076923077,3,2,1,50,1,0
39968,600,3,2,1,50,1,0
40568,576.923076923077,3,2,1,50,1,0
41144,612.244897959184,3,2,1,50,1,0
41756,618.556701030928,3,2,1,50,1,0
42374,594.059405940594,3,2,1,50,1,0
42968,600,3,2,1,50,1,0
43568,588.235294117647,3,2,1,50,1,0
44744,612.244897959184,3,2,1,50,1,0
45356,594.059405940594,3,2,1,50,1,0
45950,600,3,2,1,50,1,0
46550,588.235294117647,3,2,1,50,1,0
47138,606.060606060606,3,2,1,50,1,0
48350,594.059405940594,3,2,1,50,1,0
51023,612.244897959184,3,2,1,50,1,0
51329,594.059405940594,3,2,1,50,1,0
51923,625,3,2,1,30,1,0
52548,600,3,2,1,40,1,0
53748,576.923076923077,3,2,1,50,1,0
55478,618.556701030928,3,2,2,60,1,0
57333,631.578947368422,3,2,2,60,1,0
57964,582.52427184466,3,2,2,60,1,0
58546,606.060606060606,3,2,2,60,1,0
59152,612.244897959184,3,2,2,60,1,0
62213,550.45871559633,3,2,2,60,1,0
62488,625,3,2,2,60,1,0
62800,625,3,2,2,60,1,0
63425,588.235294117647,3,2,2,60,1,0
63719,638.297872340426,3,2,2,60,1,0
64038,600.000000000001,3,2,2,60,1,0
64638,612.244897959185,3,2,2,60,1,0
65250,594.059405940595,3,2,2,60,1,0
66438,625,3,2,2,60,1,0
67063,606.060606060606,3,2,2,60,1,0
67366,576.923076923077,3,2,2,60,1,0
67942,612.244897959184,3,2,2,60,1,0
68248,594.059405940594,3,2,2,60,1,0
68545,652.173913043478,3,2,2,60,1,0
68871,560.747663551402,3,2,2,60,1,0
69151,530.973451327434,3,2,2,60,1,0
69283,606.060606060606,3,2,2,60,1,0
69434,566.037735849057,3,2,2,60,1,0
69858,582.52427184466,3,2,2,60,1,0
70003,631.578947368421,3,2,2,60,1,0
70634,594.059405940594,3,2,2,60,1,0
71822,625,3,2,2,60,1,0
72447,594.059405940594,3,2,2,60,1,0
73041,606.060606060606,3,2,2,60,1,0
74253,631.578947368421,3,2,2,60,1,0
74568,594.059405940594,3,2,2,60,1,0
74865,606.060606060606,3,2,2,60,1,0
75471,618.556701030928,3,2,2,60,1,0
76089,566.037735849057,3,2,2,60,1,0
77079,689.655172413793,3,2,2,60,1,0
77251,594.059405940594,3,2,2,60,1,0
77845,625,3,2,2,60,1,0
78157,594.059405940594,3,2,2,60,1,0
78454,606.060606060606,3,2,2,60,1,0
79060,600,3,2,2,60,1,0
79960,555.555555555556,3,2,2,60,1,0
80237,600,3,2,2,60,1,0
80837,588.235294117647,3,2,2,60,1,0
81719,566.037735849057,3,2,2,60,1,0
82002,582.52427184466,3,2,2,60,1,0
82584,571.428571428571,3,2,2,60,1,0
82869,594.059405940594,3,2,2,60,1,0
83166,582.52427184466,3,2,2,60,1,0
83457,555.555555555556,3,2,2,60,1,0
83734,560.747663551402,3,2,2,60,1,0
84014,618.556701030928,3,2,2,60,1,0
84323,588.235294117647,3,2,1,40,1,0
84911,594.059405940594,3,2,1,40,1,0
85505,606.060606060606,3,2,1,40,1,0
86111,588.235294117647,3,2,1,40,1,0
87287,631.578947368421,3,2,1,40,1,0
87918,600,3,2,1,40,1,0
88518,576.923076923077,3,2,1,40,1,0
89094,600,3,2,1,40,1,0
89694,594.059405940594,3,2,1,40,1,0
90288,576.923076923077,3,2,1,40,1,0
90864,600,3,2,1,40,1,0
91464,600,3,2,1,40,1,0
92064,576.923076923077,3,2,1,40,1,0
92640,612.244897959184,3,2,1,40,1,0
93252,588.235294117647,3,2,1,40,1,0
93840,576.923076923077,3,2,1,40,1,0
94416,588.235294117647,3,2,1,40,1,0
95004,576.923076923077,3,2,1,40,1,0
96157,594.059405940594,3,2,1,40,1,0
96751,566.037735849057,3,2,1,40,1,0
97883,606.060606060606,3,2,2,40,1,0
98489,576.923076923077,3,2,1,50,1,0
99065,612.244897959184,3,2,1,50,1,0
99677,612.244897959184,3,2,1,50,1,0
100289,594.059405940594,3,2,1,50,1,0
100883,576.923076923077,3,2,1,50,1,0
101459,582.52427184466,3,2,1,50,1,0
102041,594.059405940594,3,2,1,50,1,0
103229,588.235294117647,3,2,1,50,1,0
103817,594.059405940594,3,2,1,50,1,0
104411,571.428571428571,3,2,1,50,1,0
104982,582.52427184466,3,2,1,50,1,0
105564,571.428571428571,3,2,1,50,1,0
106706,594.059405940594,3,2,1,50,1,0
107894,571.428571428571,3,2,1,50,1,0
108465,594.059405940594,3,2,1,50,1,0
109059,540.540540540541,3,2,1,30,1,0
109599,576.923076923077,3,2,1,40,1,0
110175,571.428571428571,3,2,1,50,1,0
110746,576.923076923077,3,2,1,60,1,0
111322,571.428571428571,3,2,1,60,1,0
111893,550.45871559633,3,2,1,60,1,0
112443,600,3,2,2,60,1,0
113043,576.923076923077,3,2,2,60,1,0
114196,612.244897959184,3,2,2,60,1,0
114808,576.923076923077,3,2,2,60,1,0
115384,594.059405940594,3,2,2,60,1,0
115978,606.060606060606,3,2,2,60,1,0
116584,588.235294117647,3,2,2,60,1,0
117760,594.059405940594,3,2,2,60,1,0
118948,576.923076923077,3,2,2,60,1,0
119524,600,3,2,2,60,1,0
122524,576.923076923077,3,2,2,60,1,0
123100,631.578947368421,3,2,2,60,1,0
123731,560.747663551402,3,2,2,60,1,0
124292,582.52427184466,3,2,2,60,1,0
124874,606.060606060606,3,2,2,40,1,0
125177,625,3,2,2,40,1,0
125489,588.235294117647,3,2,2,50,1,0
125783,606.060606060606,3,2,2,50,1,0
126086,612.244897959184,3,2,2,60,1,0
126392,576.923076923077,3,2,2,60,1,0
126680,618.556701030928,3,2,1,50,1,0
127298,594.059405940594,3,2,1,50,1,0
127892,631.578947368422,3,2,1,50,1,0
128523,576.923076923077,3,2,1,50,1,0
129676,600,3,2,2,50,1,0
130876,588.235294117647,3,2,1,50,1,0
132346,555.555555555556,3,2,1,50,1,0
133457,606.060606060606,3,2,1,50,1,0
134366,588.235294117647,3,2,1,50,1,0
134954,594.059405940594,3,2,1,50,1,0
135548,582.52427184466,3,2,1,50,1,0
136130,571.428571428571,3,2,1,50,1,0
136701,588.235294117647,3,2,1,50,1,0
137289,540.540540540541,3,2,1,30,1,0
137559,576.923076923077,3,2,1,30,1,0
137847,535.714285714286,3,2,1,40,1,0
138114,588.235294117647,3,2,1,40,1,0
138408,582.52427184466,3,2,1,50,1,0
138990,571.428571428571,3,2,1,60,1,0
139275,566.037735849057,3,2,2,60,1,0
139841,588.235294117647,3,2,2,70,1,0
140429,612.244897959184,3,2,2,70,1,0
140735,606.060606060606,3,2,2,60,1,0
141341,600,3,2,2,60,1,0
142541,576.923076923077,3,2,2,60,1,0
143117,566.037735849057,3,2,2,60,1,0
143683,588.235294117647,3,2,2,60,1,0
144271,582.52427184466,3,2,2,60,1,0
146018,576.923076923077,3,2,2,60,1,0
146594,571.428571428571,3,2,2,60,1,0
147165,594.059405940594,3,2,2,60,1,0
147759,612.244897959184,3,2,2,60,1,0
148371,606.060606060606,3,2,2,60,1,0
148977,576.923076923077,3,2,2,60,1,0
149553,555.555555555556,3,2,2,60,1,0
150108,582.52427184466,3,2,2,60,1,0
151273,606.060606060606,3,2,2,60,1,0
151879,600,3,2,2,60,1,0
152479,582.52427184466,3,2,2,60,1,0
153061,550.45871559633,3,2,2,60,1,0
153886,582.52427184466,3,2,2,60,1,0
154468,612.244897959184,3,2,2,60,1,0
154774,594.059405940594,3,2,2,70,1,1
154774,-200,3,2,2,70,0,1
155220,-200,3,2,11,5,0,1
155368,588.235294117647,3,2,2,70,1,1
155368,-200,3,2,2,70,0,1
155956,-50,3,2,2,70,0,1
156544,-200,3,2,2,70,0,1
156986,-200,3,2,11,5,0,1
157132,582.52427184466,3,2,2,70,1,1
157132,-200,3,2,2,70,0,1
157714,576.923076923077,3,2,2,70,1,1
157714,-50,3,2,2,70,0,1
158290,606.060606060606,3,2,2,70,1,1
158290,-200,3,2,2,70,0,1
158753,-200,3,2,11,5,0,1
158896,571.428571428571,3,2,2,70,1,1
158896,-200,3,2,2,70,0,1
159467,576.923076923077,3,2,2,70,1,1
159467,-50,3,2,2,70,0,1
159899,-50,3,2,11,5,0,1
160043,571.428571428571,3,2,2,70,1,1
160043,-200,3,2,2,70,0,1
160473,-200,3,2,11,5,0,1
160614,560.747663551402,3,2,2,70,1,1
160614,-200,3,2,2,70,0,1
161174,550.45871559633,3,2,2,70,1,1
161311,681.818181818182,3,2,2,70,1,1
161481,638.297872340426,3,2,2,70,1,1
161800,560.747663551402,3,2,2,70,1,1
161800,-200,3,2,2,70,0,1
162215,-200,3,2,11,5,0,1
162360,576.923076923077,3,2,2,70,1,1
162360,-200,3,2,2,70,0,1
162936,588.235294117647,3,2,2,70,1,1
162936,-50,3,2,2,70,0,1
163377,-50,3,2,11,5,0,1
163524,-200,3,2,2,70,0,1
163965,-200,3,2,11,5,0,1
164112,576.923076923077,3,2,2,70,1,1
164112,-200,3,2,2,70,0,1
164544,530.973451327434,3,2,2,70,1,1
164676,582.52427184466,3,2,2,70,1,1
164676,-50,3,2,2,70,0,1
165258,566.037735849057,3,2,2,50,1,0
165824,535.714285714286,3,2,2,50,1,0
166091,576.923076923077,3,2,2,50,1,0
166956,771.704180064309,3,2,2,50,1,0
167052,-100,3,2,2,30,0,0

[Colours]
Combo1 : 235,84,103
Combo2 : 220,200,160
Combo3 : 207,152,112
Combo4 : 170,170,185
Combo5 : 255,125,106

[HitObjects]
356,20,10704,5,8,1:2:0:0:
455,154,10845,1,8,1:2:0:0:
455,154,11138,1,8,1:0:0:0:
297,104,11290,1,8,1:2:0:0:
297,104,11593,1,0,1:0:0:0:
455,52,11744,1,10,1:2:0:0:
358,187,11884,1,8,1:0:0:0:
356,20,12024,1,10,1:2:0:0:
455,154,12171,1,8,1:0:0:0:
455,154,12480,6,0,P|454:216|459:254,1,75,14|0,1:0|0:0,0:0:0:0:
364,323,13108,1,10,1:0:0:0:
364,323,13265,2,0,P|314:306|265:303,1,93.75,2|0,1:0|2:0,0:0:0:0:
242,310,13736,1,10,1:0:0:0:
242,310,14339,6,0,P|237:279|239:236,1,75,14|0,1:0|0:0,0:0:0:0:
158,131,14943,2,0,P|133:133|109:129,1,37.5,12|0,1:0|0:0,0:0:0:0:
310,91,15245,2,0,P|335:93|359:89,1,37.5,8|0,1:0|0:0,0:0:0:0:
135,18,15547,2,2,P|79:25|21:16,1,112.5,14|0,1:2|0:0,0:1:0:0:
240,236,16151,38,2,P|294:217|381:220,1,131.25,14|0,1:0|2:0,0:1:0:0:
410,281,16748,2,0,P|409:322|412:334,1,37.5,12|0,1:0|0:0,0:0:0:0:
299,383,17046,1,8,1:0:0:0:
240,236,17345,2,0,P|244:196|243:154,1,75,14|0,1:2|0:0,0:0:0:0:
453,15,17948,6,2,P|451:90|463:152,1,112.5,14|0,1:0|0:0,0:1:0:0:
367,216,18536,2,0,P|366:245|369:260,1,37.5,8|0,1:0|0:0,0:0:0:0:
231,73,18830,2,0,P|232:44|229:29,1,37.5,8|0,1:0|0:0,0:0:0:0:
62,191,19124,1,14,1:2:0:0:
62,191,19418,1,8,1:3:0:0:
62,191,19712,6,2,P|70:314|78:337,1,131.25,14|0,1:0|2:0,0:1:0:0:
48,353,20309,2,0,P|22:350|6:354,1,37.5,14|0,1:0|0:0,0:0:0:0:
189,264,20607,2,0,P|214:266|230:262,1,37.5,8|0,1:0|0:0,0:0:0:0:
9,73,20906,2,2,P|70:95|123:94,1,112.5,14|0,1:2|0:0,0:1:0:0:
256,8,21506,37,14,1:0:0:0:
256,8,22112,2,0,P|255:50|258:59,1,37.5,12|0,1:0|0:0,0:0:0:0:
140,204,22400,2,0,P|141:162|138:153,1,37.5,8|0,1:0|0:0,0:0:0:0:
93,13,22677,1,14,1:2:0:0:
255,124,22977,1,2,1:0:0:0:
11,352,23277,6,0,P|58:349|92:355,1,75,14|2,1:0|0:1,0:0:0:0:
301,265,23877,2,0,P|253:267|220:262,1,75,14|2,1:0|0:1,0:0:0:0:
388,368,24452,1,14,1:2:0:0:
452,210,24746,1,2,1:0:0:0:
301,265,25040,1,14,1:0:0:0:
191,195,25325,1,8,1:0:0:0:
191,195,25904,1,8,1:0:0:0:
7,272,26207,2,2,P|11:219|9:145,1,112.5,14|0,1:2|0:0,0:1:0:0:
92,55,26795,6,2,P|168:49|217:26,1,112.5,10|0,1:0|0:0,0:1:0:0:
282,87,27383,2,0,L|364:95,1,75,10|2,1:0|0:3,0:0:0:0:
191,195,27995,1,12,1:2:0:0:
191,195,28601,2,0,L|109:203,1,75,10|2,1:0|0:3,0:0:0:0:
267,326,29207,1,10,1:0:0:0:
378,253,29505,1,2,1:3:0:0:
378,253,29654,1,0,1:0:0:0:
378,253,29804,2,0,L|460:261,1,75,12|2,1:2|0:3,0:0:0:0:
172,350,30401,38,2,P|112:354|39:387,1,112.5,10|0,1:0|0:0,0:1:0:0:
6,319,30998,2,0,P|11:276|7:226,1,75,10|2,1:0|0:3,0:0:0:0:
77,134,31595,1,12,1:2:0:0:
191,195,31893,1,2,0:3:0:0:
282,87,32192,2,2,P|331:93|395:86,1,112.5,10|0,1:0|0:0,0:1:0:0:
459,40,32798,1,10,1:0:0:0:
367,222,33101,1,2,1:3:0:0:
367,222,33252,1,0,1:0:0:0:
367,222,33404,1,12,1:2:0:0:
282,87,33707,1,2,0:3:0:0:
491,167,33998,6,0,P|492:217|487:257,1,75,10|2,1:0|0:3,0:0:0:0:
381,317,34601,1,10,1:0:0:0:
283,185,34902,1,2,0:3:0:0:
491,167,35204,2,0,P|452:170|409:165,1,75,12|2,1:2|0:3,0:0:0:0:
281,305,35807,2,2,P|208:313|159:343,1,112.5,10|0,1:0|0:0,0:1:0:0:
117,382,36410,1,10,1:0:0:0:
61,198,36704,1,2,1:3:0:0:
61,198,36851,1,0,1:0:0:0:
61,198,36998,1,12,1:2:0:0:
186,232,37292,1,2,0:3:0:0:
256,117,37592,6,0,P|306:122|357:113,1,75,10|2,1:0|0:3,0:0:0:0:
475,301,38204,2,2,P|422:260|338:246,1,150,10|12,1:0|1:2,0:1:0:0:
428,384,39095,1,2,0:3:0:0:
507,202,39392,2,0,P|512:151|503:100,1,75,10|2,1:0|0:3,0:0:0:0:
383,31,39968,1,10,1:0:0:0:
432,230,40268,1,2,1:3:0:0:
432,230,40418,1,0,1:0:0:0:
432,230,40568,1,12,1:2:0:0:
496,11,40856,1,2,0:3:0:0:
256,117,41144,38,2,P|186:120|128:110,1,112.5,10|0,1:0|0:0,0:1:0:0:
85,195,41756,2,0,L|3:210,1,75,10|2,1:0|0:3,0:0:0:0:
224,292,42374,2,0,L|306:307,1,75,12|2,1:2|0:3,0:0:0:0:
507,202,42968,2,0,L|425:217,1,75,10|2,1:0|0:3,0:0:0:0:
256,117,43568,1,10,1:0:0:0:
305,313,43862,1,2,1:3:0:0:
305,313,44009,1,0,1:0:0:0:
305,313,44156,1,12,1:2:0:0:
387,99,44450,1,2,0:3:0:0:
196,220,44744,6,2,P|125:226|65:253,1,112.5,10|0,1:0|0:0,0:1:0:0:
23,167,45356,2,0,P|28:126|28:90,1,75,10|2,1:0|0:3,0:0:0:0:
196,0,45950,1,12,1:2:0:0:
196,220,46250,1,2,0:3:0:0:
28,92,46550,2,0,P|69:97|111:93,1,75,10|2,1:0|0:3,0:0:0:0:
285,157,47138,1,10,1:0:0:0:
167,322,47441,1,2,1:0:0:0:
167,322,47592,1,0,1:0:0:0:
167,322,47744,2,0,P|124:320|75:329,1,75,12|2,1:2|0:3,0:0:0:0:
346,259,48350,6,2,P|456:272|512:305,1,150,10|10,1:0|1:0,0:1:0:0:
339,377,49241,1,2,0:0:0:0:
285,157,49538,2,0,P|288:118|286:66,1,75,12|2,1:2|0:3,0:0:0:0:
506,6,50132,1,10,1:0:0:0:
423,148,50429,1,2,0:3:0:0:
368,31,50726,1,10,1:0:0:0:
295,90,51023,1,2,1:3:0:0:
295,90,51176,1,0,1:0:0:0:
295,90,51329,2,0,P|256:85|210:89,1,75,12|2,1:2|0:3,0:0:0:0:
0,229,51923,38,2,P|69:186|142:177,1,150,10|10,1:0|1:0,0:1:0:0:
50,313,52848,1,2,0:3:0:0:
15,82,53148,2,0,P|66:86|111:79,1,75,12|2,1:2|0:3,0:0:0:0:
211,200,53748,1,10,1:0:0:0:
136,350,54036,1,2,1:3:0:0:
136,350,54180,1,0,1:0:0:0:
136,350,54324,1,12,1:2:0:0:
9,228,54613,5,8,1:2:0:0:
76,188,54757,1,8,1:2:0:0:
77,267,54901,1,12,1:2:0:0:
207,74,55190,5,8,1:2:0:0:
289,122,55334,1,8,1:2:0:0:
290,27,55478,1,14,1:0:0:0:
290,27,56096,1,14,1:0:0:0:
290,27,56715,2,0,P|266:29|242:26,1,37.5,12|0,1:2|0:0,0:0:0:0:
185,174,57024,1,2,0:3:0:0:
306,286,57333,38,0,P|348:291|409:317,1,75,14|2,1:0|0:3,0:0:0:0:
197,374,57964,1,14,1:0:0:0:
95,291,58255,1,8,1:0:0:0:
6,338,58546,1,14,1:2:0:0:
6,338,59152,6,2,P|9:283|7:212,1,112.5,14|0,1:0|0:0,0:1:0:0:
185,174,59764,2,0,P|184:206|185:231,1,37.5,14|0,1:0|0:0,0:0:0:0:
306,286,60070,2,0,P|307:254|306:229,1,37.5,8|0,1:0|0:0,0:0:0:0:
393,147,60376,2,0,P|436:152|479:144,1,75,14|2,1:2|0:3,0:0:0:0:
306,286,60988,5,14,1:0:0:0:
263,98,61294,1,2,0:3:0:0:
410,231,61600,1,14,1:0:0:0:
276,376,61907,1,2,1:3:0:0:
196,320,62060,1,4,1:3:0:0:
124,354,62213,2,2,P|76:348|40:353,1,75,8|0,1:3|1:0,0:1:0:0:
121,60,62800,38,2,P|183:90|268:97,1,150,14|14,1:0|1:0,0:1:0:0:
408,24,63719,1,8,1:0:0:0:
321,198,64038,1,12,1:2:0:0:
250,12,64338,1,2,0:3:0:0:
161,54,64488,1,0,1:0:0:0:
83,27,64638,6,0,P|47:32|3:27,1,75,14|2,1:0|0:3,0:0:0:0:
122,189,65250,1,14,1:0:0:0:
235,124,65547,1,8,1:0:0:0:
136,295,65844,2,0,P|100:290|56:295,1,75,12|2,1:2|1:0,0:0:0:0:
270,382,66438,6,2,P|346:354|431:356,1,150,14|14,1:0|1:0,0:1:0:0:
292,251,67366,1,8,1:0:0:0:
172,369,67654,1,12,1:2:0:0:
54,308,67942,1,2,1:0:0:0:
256,86,68248,37,14,1:0:0:0:
256,371,68545,1,8,1:2:0:0:
395,157,68871,2,0,P|394:127|402:89,1,37.5,12|0,1:2|0:0,0:0:0:0:
132,299,69151,1,8,0:0:0:0:
161,204,69283,1,8,1:2:0:0:
137,128,69434,2,0,P|116:130|88:128,1,37.5,8|8,1:2|0:0,0:0:0:0:
255,248,69717,1,8,1:2:0:0:
256,86,69858,1,8,1:2:0:0:
161,204,70003,6,0,P|148:283|151:328,1,112.5,14|0,1:0|0:0,0:0:0:0:
414,353,70634,1,14,1:0:0:0:
414,353,71228,1,10,1:0:0:0:
471,273,71376,2,0,P|479:234|481:195,1,75,2|0,1:0|0:0,0:0:0:0:
334,26,71822,6,2,P|330:77|338:141,1,112.5,14|0,1:0|0:0,0:1:0:0:
465,123,72447,2,0,P|468:99|469:74,1,37.5,10|0,1:0|0:0,0:0:0:0:
432,16,72744,1,0,1:0:0:0:
161,204,73041,2,2,P|161:268|173:321,1,112.5,12|0,1:2|0:0,0:1:0:0:
337,138,73647,38,2,P|337:74|325:21,1,112.5,14|0,1:0|0:0,0:1:0:0:
202,55,74253,2,0,P|179:58|148:51,1,37.5,10|0,1:0|0:0,0:0:0:0:
337,138,74568,2,0,P|360:141|391:134,1,37.5,8|0,1:0|0:0,0:0:0:0:
161,204,74865,2,2,P|116:213|49:261,1,112.5,12|0,1:2|0:0,0:1:0:0:
347,310,75471,6,2,P|392:319|459:367,1,112.5,14|0,1:0|0:0,0:1:0:0:
223,345,76089,2,0,P|190:341|129:349,1,75,14|0,1:0|0:0,0:0:0:0:
423,235,76513,1,2,1:3:0:0:
257,232,76655,1,14,1:2:0:0:
423,235,76796,1,2,1:0:0:0:
423,235,77079,1,8,1:2:0:0:
337,138,77251,6,2,P|291:145|214:131,1,112.5,14|0,1:0|0:0,0:1:0:0:
60,248,77845,2,0,L|7:257,1,37.5,8|0,1:0|0:0,0:0:0:0:
223,345,78157,2,0,L|276:354,1,37.5,8|0,1:0|0:0,0:0:0:0:
95,111,78454,1,12,1:2:0:0:
95,111,79060,38,2,P|88:53|96:-22,1,112.5,14|0,1:0|0:0,0:1:0:0:
226,136,79660,2,0,P|226:163|223:192,1,37.5,10|0,1:0|0:0,0:0:0:0:
90,266,79960,2,0,P|90:293|93:322,1,37.5,8|0,1:0|0:0,0:0:0:0:
223,345,80237,1,14,1:2:0:0:
351,309,80537,1,2,1:0:0:0:
95,111,80837,6,0,P|53:113|-4:106,1,75,14|2,1:0|1:0,0:0:0:0:
351,223,81425,2,0,P|393:225|450:218,1,75,14|10,1:0|1:0,0:0:0:0:
223,345,82002,1,14,1:2:0:0:
223,86,82293,1,2,1:0:0:0:
426,222,82584,5,14,1:2:0:0:
370,342,82869,1,8,0:3:0:0:
370,342,83166,1,4,0:3:0:0:
86,162,83457,37,14,1:2:0:0:
142,42,83734,1,8,0:3:0:0:
142,42,84014,1,4,0:3:0:0:
256,192,84323,6,0,P|253:263|257:322,1,112.5,2|0,1:0|0:0,0:0:0:0:
181,368,84911,1,2,1:0:0:0:
86,162,85208,1,0,0:0:0:0:
25,346,85505,2,0,P|55:344|112:349,1,75,8|0,1:2|0:0,0:0:0:0:
334,159,86111,2,0,P|285:161|181:130,1,150,2|2,1:0|1:0,0:0:0:0:
358,35,86993,1,0,1:0:0:0:
424,186,87287,2,0,P|424:253|428:282,1,75,8|0,1:2|0:0,0:0:0:0:
189,134,87918,6,0,P|189:67|185:38,1,75,2|0,1:0|0:0,0:0:0:0:
0,21,88518,1,2,1:0:0:0:
86,162,88806,1,0,1:0:0:0:
272,27,89094,1,8,1:2:0:0:
272,27,89244,2,0,P|321:31|349:27,1,75,0|0,1:0|0:0,0:0:0:0:
436,125,89694,2,0,P|431:196|416:244,1,112.5,2|0,1:0|0:0,0:0:0:0:
302,297,90288,2,0,P|253:293|225:297,1,75,0|0,1:0|1:0,0:0:0:0:
408,366,90864,1,8,1:2:0:0:
321,192,91164,1,0,0:0:0:0:
133,319,91464,38,0,P|77:312|-5:247,1,150,2|2,1:0|1:0,0:0:0:0:
97,127,92352,1,0,1:0:0:0:
239,209,92640,2,0,P|201:204|156:209,1,75,8|0,1:2|0:0,0:0:0:0:
15,38,93252,2,0,P|53:43|98:38,1,75,2|0,1:0|0:0,0:0:0:0:
231,120,93840,1,2,1:0:0:0:
55,197,94128,1,0,1:0:0:0:
162,319,94416,1,8,1:2:0:0:
162,319,95004,6,2,P|260:325|327:347,1,150,2|0,1:0|1:0,0:1:0:0:
421,276,95869,1,0,1:0:0:0:
239,209,96157,2,0,P|286:214|323:208,1,75,8|0,1:2|0:0,0:0:0:0:
380,142,96602,1,0,1:0:0:0:
363,65,96751,1,0,1:0:0:0:
222,132,97175,1,0,1:0:0:0:
239,209,97317,1,2,1:0:0:0:
112,308,97741,1,0,1:0:0:0:
95,231,97883,1,4,1:2:0:0:
95,231,98489,6,0,P|57:234|-2:227,1,75,10|2,1:0|0:3,0:0:0:0:
201,368,99065,1,10,1:0:0:0:
239,209,99371,1,2,0:3:0:0:
37,333,99677,2,0,P|75:330|134:337,1,75,12|2,1:2|0:3,0:0:0:0:
379,249,100289,2,2,P|316:247|234:205,1,150,10|10,1:0|1:0,0:1:0:0:
406,108,101171,1,0,1:0:0:0:
493,283,101459,1,12,1:2:0:0:
447,349,101604,2,0,P|412:344|358:348,1,75,0|0,1:0|0:0,0:0:0:0:
281,303,102041,38,2,P|214:298|168:276,1,112.5,10|0,1:0|0:0,0:1:0:0:
123,196,102635,1,10,1:0:0:0:
259,104,102932,1,2,1:3:0:0:
281,303,103229,2,0,P|279:355|285:395,1,75,12|2,1:2|0:3,0:0:0:0:
37,284,103817,2,2,P|40:228|38:160,1,112.5,10|0,1:0|0:0,0:1:0:0:
97,96,104411,1,10,1:0:0:0:
173,279,104696,1,2,1:0:0:0:
307,183,104982,2,0,P|353:188|398:181,1,75,12|2,1:2|0:3,0:0:0:0:
167,379,105564,6,2,P|112:369|32:306,1,150,10|10,1:0|1:0,0:1:0:0:
190,185,106421,1,2,0:3:0:0:
300,307,106706,2,0,P|299:369|302:391,1,75,12|2,1:2|0:3,0:0:0:0:
91,230,107300,1,10,1:0:0:0:
190,67,107597,1,2,0:3:0:0:
190,289,107894,1,10,1:0:0:0:
91,115,108179,1,2,1:3:0:0:
289,230,108465,1,12,1:2:0:0:
289,230,109059,6,0,P|336:233|388:224,1,75,10|0,1:0|1:0,0:0:0:0:
91,115,109599,2,0,P|44:118|-8:109,1,75,10|0,1:0|1:0,0:0:0:0:
190,289,110175,1,10,1:0:0:0:
289,115,110460,1,2,1:0:0:0:
91,230,110746,1,10,1:0:0:0:
289,230,111034,1,4,1:2:0:0:
190,67,111322,1,12,1:2:0:0:
190,289,111607,37,8,1:2:0:0:
289,230,111750,1,8,1:2:0:0:
190,185,111893,2,0,P|166:186|140:182,1,37.5,12|0,1:2|0:0,0:0:0:0:
289,358,112168,5,8,1:2:0:0:
400,294,112305,1,8,1:2:0:0:
289,230,112443,1,14,1:0:0:0:
289,230,113043,1,14,1:0:0:0:
289,230,113619,2,0,P|290:193|288:180,1,37.5,12|0,1:2|0:0,0:0:0:0:
414,95,113908,2,0,P|413:132|415:145,1,37.5,8|0,1:0|0:0,0:0:0:0:
400,294,114196,5,14,1:0:0:0:
291,95,114502,1,2,0:3:0:0:
153,185,114808,2,0,P|117:181|61:188,1,75,14|8,1:0|1:0,0:0:0:0:
8,40,115384,1,12,1:2:0:0:
8,40,115978,38,2,P|77:36|124:20,1,112.5,14|0,1:0|0:0,0:1:0:0:
173,79,116584,2,0,L|216:83,1,37.5,14|0,1:0|0:0,0:0:0:0:
358,17,116878,2,0,L|401:21,1,37.5,2|0,1:3|0:0,0:0:0:0:
493,121,117172,5,12,1:2:0:0:
400,294,117466,1,2,0:3:0:0:
374,99,117760,1,14,1:0:0:0:
509,241,118057,1,2,0:3:0:0:
315,206,118354,1,14,1:0:0:0:
493,121,118651,5,0,1:0:0:0:
415,195,118799,1,0,1:0:0:0:
374,99,118948,2,0,P|375:73|372:48,1,37.5,12|0,1:2|0:0,0:0:0:0:
196,150,119236,37,8,1:3:0:0:
315,206,119380,1,8,1:3:0:0:
246,274,119524,2,2,P|169:282|118:302,1,112.5,14|0,1:0|0:0,0:1:0:0:
85,209,120124,2,0,P|56:214|-7:203,1,75,14|2,1:0|0:3,0:0:0:0:
117,376,120724,1,12,1:2:0:0:
196,150,121024,1,2,1:3:0:0:
155,65,121174,1,0,1:0:0:0:
196,0,121324,6,0,P|230:1|242:-1,1,37.5,14|0,1:0|0:0,0:0:0:0:
347,131,121624,2,0,P|313:130|301:132,1,37.5,2|0,0:3|0:0,0:0:0:0:
246,274,121924,1,14,1:0:0:0:
336,372,122224,1,8,0:3:0:0:
424,331,122374,1,4,0:3:0:0:
490,371,122524,1,12,1:2:0:0:
490,371,123100,6,2,P|505:326|510:251,1,112.5,14|0,1:0|0:0,0:1:0:0:
446,190,123731,2,0,P|424:192|398:187,1,37.5,14|0,1:0|0:0,0:0:0:0:
246,274,124011,2,0,P|268:276|294:271,1,37.5,2|0,0:3|0:0,0:0:0:0:
424,331,124291,1,12,1:2:0:0:
337,122,124583,1,2,0:3:0:0:
169,223,124874,1,12,1:0:0:0:
230,370,125177,1,10,1:0:0:0:
309,255,125489,1,14,1:0:0:0:
271,165,125783,1,8,1:2:0:0:
75,298,126086,37,12,1:2:0:0:
106,371,126392,1,8,1:0:0:0:
271,165,126680,6,2,P|273:95|257:24,1,112.5,14|0,1:0|0:0,0:1:0:0:
195,24,127298,2,0,P|167:26|143:23,1,37.5,8|0,1:0|0:0,0:0:0:0:
113,89,127595,1,2,0:3:0:0:
113,89,127892,2,2,P|75:95|3:152,1,112.5,12|0,1:2|0:0,0:1:0:0:
51,205,128523,2,2,P|99:201|137:208,1,75,8|2,1:0|0:3,0:1:0:0:
205,306,129099,1,8,1:0:0:0:
91,368,129388,1,2,0:3:0:0:
10,312,129532,1,4,0:3:0:0:
29,236,129676,1,12,1:2:0:0:
29,236,130276,6,2,P|26:199|31:132,1,75,14|2,1:0|0:3,0:1:0:0:
271,165,130876,2,2,P|274:201|269:269,1,75,10|2,1:0|0:3,0:1:0:0:
205,306,131317,1,4,0:3:0:0:
137,265,131464,1,12,1:2:0:0:
137,265,132052,1,8,1:0:0:0:
196,81,132346,1,2,0:0:0:0:
285,38,132484,1,8,1:2:0:0:
355,80,132623,1,8,1:2:0:0:
355,80,132901,2,0,P|353:113|358:142,1,37.5,8|0,1:3|0:0,0:0:0:0:
448,86,133179,1,8,1:2:0:0:
378,196,133318,1,8,0:3:0:0:
274,118,133457,1,8,0:3:0:0:
274,118,133760,38,2,P|213:115|151:89,1,112.5,14|0,1:0|0:0,0:1:0:0:
97,169,134366,2,0,L|19:174,1,75,8|2,1:0|0:3,0:0:0:0:
193,323,134954,1,12,1:2:0:0:
299,249,135251,1,2,0:3:0:0:
463,366,135548,2,2,P|478:301|479:240,1,112.5,10|0,1:0|0:0,0:1:0:0:
411,187,136130,1,10,1:0:0:0:
358,377,136415,1,2,0:3:0:0:
270,336,136558,1,4,0:3:0:0:
194,359,136701,1,12,1:2:0:0:
256,152,137289,5,8,1:0:0:0:
256,231,137559,1,0,1:0:0:0:
333,163,137847,5,8,1:0:0:0:
178,220,138114,1,0,1:0:0:0:
357,239,138408,37,8,1:0:0:0:
154,144,138699,1,8,1:2:0:0:
328,317,138990,5,12,1:2:0:0:
183,66,139275,1,8,1:2:0:0:
259,368,139558,5,12,1:2:0:0:
252,15,139841,1,8,1:2:0:0:
66,321,140135,38,0,P|89:320|109:323,1,37.5,12|0,1:2|0:0,0:0:0:0:
470,187,140429,2,0,P|447:188|427:185,1,37.5,8|0,1:2|0:0,0:0:0:0:
110,35,140735,1,14,1:0:0:0:
110,35,141341,1,14,1:0:0:0:
213,204,141641,1,8,1:0:0:0:
283,143,141791,1,0,1:0:0:0:
360,159,141941,2,0,P|358:110|364:59,1,75,12|2,1:2|0:3,0:0:0:0:
184,0,142541,5,14,1:0:0:0:
92,135,142829,1,2,0:3:0:0:
134,223,142973,1,4,0:3:0:0:
103,292,143117,2,0,P|59:288|14:295,1,75,14|8,1:0|1:0,0:0:0:0:
207,370,143683,1,12,1:2:0:0:
281,344,143830,2,0,P|317:349|365:344,1,75,4|0,0:3|0:0,0:0:0:0:
462,200,144271,6,2,P|419:194|352:151,1,112.5,14|0,1:0|0:0,0:1:0:0:
408,73,144853,1,14,1:0:0:0:
504,276,145144,1,8,1:0:0:0:
437,343,145290,1,0,1:0:0:0:
367,314,145436,2,0,P|329:316|292:311,1,75,12|2,1:2|0:3,0:0:0:0:
107,375,146018,37,14,1:0:0:0:
159,156,146306,1,2,1:3:0:0:
251,188,146450,1,0,1:0:0:0:
323,158,146594,2,0,P|344:160|374:156,1,37.5,14|0,1:0|0:0,0:0:0:0:
256,29,146879,1,8,1:0:0:0:
184,66,147023,1,0,1:0:0:0:
113,44,147165,2,0,P|91:46|62:42,1,37.5,12|0,1:2|0:0,0:0:0:0:
17,158,147462,1,2,1:3:0:0:
17,158,147759,6,2,P|19:222|5:298,1,112.5,14|0,1:0|0:0,0:1:0:0:
104,353,148371,1,14,1:0:0:0:
251,188,148674,1,8,1:0:0:0:
282,284,148825,1,0,1:0:0:0:
272,360,148977,2,0,P|293:358|312:360,1,37.5,12|0,1:2|0:0,0:0:0:0:
420,290,149265,1,2,0:3:0:0:
251,188,149553,5,14,1:0:0:0:
195,378,149830,1,2,1:3:0:0:
104,353,149969,1,4,0:3:0:0:
30,376,150108,2,0,P|7:373|-8:375,1,37.5,14|0,1:0|0:0,0:0:0:0:
102,254,150399,1,8,1:0:0:0:
0,85,150690,38,0,P|66:87|95:81,1,75,12|2,1:2|0:3,0:0:0:0:
251,188,151273,2,0,P|317:185|346:192,1,75,14|2,1:0|0:3,0:0:0:0:
383,110,151727,1,0,1:0:0:0:
333,49,151879,1,12,1:0:0:0:
250,270,152179,1,8,1:0:0:0:
425,192,152479,1,12,1:2:0:0:
250,104,152770,5,2,0:3:0:0:
168,155,152915,1,4,0:3:0:0:
98,126,153061,1,12,1:2:0:0:
98,126,153198,1,4,0:3:0:0:
154,246,153336,2,0,P|133:244|117:246,1,37.5,2|4,0:3|0:3,0:0:0:0:
79,371,153611,2,0,P|100:369|116:371,1,37.5,2|4,0:3|0:3,0:0:0:0:
250,270,153886,1,12,1:2:0:0:
33,202,154177,1,14,1:0:0:0:
116,371,154468,2,0,P|137:369|153:371,1,37.5,12|0,1:2|0:0,0:0:0:0:
425,192,154774,38,2,P|456:197|490:190,1,56.25,14|0,1:0|0:0,0:1:0:0:
287,270,155368,2,2,P|267:273|245:268,1,37.5,14|2,1:0|1:3,0:1:0:0:
344,138,155809,1,4,1:3:0:0:
332,360,155956,2,2,P|266:361|185:385,1,150,12|8,1:2|1:0,0:1:0:0:
186,384,156544,54,2,P|155:388|120:381,1,56.25,14|0,1:0|0:0,0:1:0:0:
420,384,157132,2,2,P|439:387|461:382,1,37.5,14|2,1:0|1:3,0:1:0:0:
250,270,157568,1,4,1:3:0:0:
488,274,157714,1,12,1:2:0:0:
332,274,157858,2,0,P|388:277|427:269,1,75,8|0,1:0|0:0,0:0:0:0:
485,133,158146,1,8,1:2:0:0:
409,30,158290,6,2,P|385:28|341:14,1,56.25,14|0,1:0|0:0,0:1:0:0:
229,128,158896,2,2,P|205:129|179:141,1,37.5,14|2,1:0|1:3,0:1:0:0:
250,18,159324,1,4,1:3:0:0:
315,168,159467,1,12,1:2:0:0:
249,280,159611,2,2,P|214:278|81:290,1,150,8|0,1:0|0:0,0:1:0:0:
33,71,160043,54,2,P|56:69|101:55,1,56.25,14|0,1:0|0:0,0:1:0:0:
100,286,160614,1,14,1:0:0:0:
32,327,160754,1,2,1:3:0:0:
2,310,160894,1,4,1:2:0:0:
0,289,161034,1,2,1:0:0:0:
30,246,161174,1,10,1:0:0:0:
145,356,161311,1,8,1:0:0:0:
253,284,161481,1,12,1:2:0:0:
253,284,161800,6,2,P|298:287|320:283,1,56.25,14|0,1:0|0:0,0:1:0:0:
494,214,162360,2,2,P|471:216|443:210,1,37.5,14|2,1:0|1:3,0:1:0:0:
343,144,162792,1,4,1:3:0:0:
403,292,162936,1,12,1:2:0:0:
475,140,163083,2,2,P|491:82|491:-19,1,150,8|0,1:0|0:0,0:1:0:0:
272,35,163524,54,2,P|271:69|274:93,1,56.25,14|0,1:0|0:0,0:1:0:0:
222,209,164112,2,2,P|220:238|216:260,1,37.5,14|2,1:0|1:3,0:1:0:0:
266,330,164544,1,8,1:0:0:0:
279,42,164676,1,12,1:2:0:0:
279,42,164967,1,6,1:0:0:0:
279,42,165258,22,0,P|254:44|223:38,1,37.5,12|0,1:2|0:0,0:0:0:0:
123,0,165541,2,0,P|98:2|67:-4,1,37.5,10|0,1:0|0:0,0:0:0:0:
9,102,165824,1,10,1:0:0:0:
177,281,166091,6,0,P|202:283|233:277,1,37.5,8|0,1:3|0:0,0:0:0:0:
348,375,166379,2,0,P|373:377|404:371,1,37.5,14|0,1:0|0:0,0:0:0:0:
507,270,166667,1,2,1:0:0:0:
256,192,166956,5,14,1:0:0:0:
256,192,167052,12,2,173129,0:1:0:0:
