osu file format v14

[General]
AudioFilename: audio.mp3
AudioLeadIn: 0
PreviewTime: 75422
Countdown: 0
SampleSet: Soft
StackLeniency: 0.7
Mode: 0
LetterboxInBreaks: 0
WidescreenStoryboard: 1

[Editor]
DistanceSpacing: 1.5
BeatDivisor: 4
GridSize: 32
TimelineZoom: 1.8

[Metadata]
Title:Buddy Holly
TitleUnicode:Buddy Holly
Artist:Weezer
ArtistUnicode:Weezer
Creator:Ruiz Duchamp
Version:Normal
Source:
Tags:blue album english alternative rock
BeatmapID:4212612
BeatmapSetID:2022594

[Difficulty]
HPDrainRate:4
CircleSize:3.5
OverallDifficulty:5
ApproachRate:5.5
SliderMultiplier:1.2
SliderTickRate:0.5

[Events]
//Background and Video events
0,0,"weezer_waifu2x_photo_noise0_scale_tta_1.jpg",0,0
//Break Periods
2,43806,50546
//Storyboard Layer 0 (Background)
//Storyboard Layer 1 (Fail)
//Storyboard Layer 2 (Pass)
//Storyboard Layer 3 (Foreground)
//Storyboard Layer 4 (Overlay)
//Storyboard Sound Samples

[TimingPoints]
151,512.820512820513,4,2,33,60,1,0
658,489.795918367347,4,2,33,60,1,0
1142,512.820512820513,4,2,33,60,1,0
1650,495.867768595041,4,2,33,60,1,0
1898,472.44094488189,4,2,33,60,1,0
2134,472.44094488189,4,2,33,60,1,0
2376,483.870967741935,4,2,33,60,1,0
2618,521.739130434783,4,2,33,60,1,0
2878,468.75,4,2,33,60,1,0
3113,521.739130434783,4,2,33,60,1,0
3374,451.127819548872,4,2,33,60,1,0
3599,521.739130434783,4,2,33,60,1,0
3859,476.190476190476,4,2,33,60,1,0
4097,535.714285714286,4,2,33,60,1,0
4366,476.190476190476,4,2,33,60,1,0
4605,512.820512820513,4,2,33,60,1,0
4862,476.190476190476,4,2,33,60,1,0
5100,517.241379310345,4,2,33,60,1,0
5358,483.870967741935,4,2,33,60,1,0
5599,526.315789473684,4,2,33,60,1,0
5862,458.015267175573,4,2,33,60,1,0
6091,517.241379310345,4,2,33,60,1,0
6350,465.116279069767,4,2,33,60,1,0
6582,465.116279069767,4,2,33,60,1,0
6821,530.973451327434,4,2,33,60,1,0
7086,530.973451327434,4,2,33,60,1,0
7226,437.956204379562,4,2,33,60,1,0
7444,528.63436123348,4,2,33,60,1,0
7576,521.739130434783,4,2,33,60,1,0
7838,476.190476190476,4,2,33,60,1,0
8076,495.867768595041,4,2,33,60,1,0
8571,538.116591928251,4,2,33,60,1,0
8840,476.190476190476,4,2,33,60,1,0
9078,476.190476190476,4,2,33,60,1,0
9559,500,4,2,33,60,1,0
10814,476.190476190476,4,2,33,60,1,0
11052,517.241379310345,4,2,33,60,1,0
11310,495.049504950495,4,2,33,60,1,0
11557,495.049504950495,4,2,33,60,1,0
13533,495.867768595041,4,2,33,60,1,0
14033,504.201680672269,4,2,33,60,1,0
14286,480,4,2,33,60,1,0
14526,480,4,2,33,60,1,0
15246,497.92531120332,4,2,33,60,1,0
15494,508.474576271186,4,2,33,60,1,0
15749,476.190476190476,4,2,33,60,1,0
15987,526.315789473684,4,2,33,60,1,0
16251,489.795918367347,4,2,33,60,1,0
16495,489.795918367347,4,2,33,60,1,0
16747,521.739130434783,4,2,33,60,1,0
17008,487.80487804878,4,2,33,60,1,0
17746,535.714285714286,4,2,33,60,1,0
18014,495.867768595041,4,2,33,60,1,0
18261,458.015267175573,4,2,33,60,1,0
18490,521.739130434783,4,2,33,60,1,0
18750,487.80487804878,4,2,33,60,1,0
18993,487.80487804878,4,2,33,60,1,0
19236,512.820512820513,4,2,33,60,1,0
19492,512.820512820513,4,2,33,60,1,0
19742,490.998363338789,4,2,33,60,1,0
19987,490.998363338789,4,2,33,60,1,0
21463,504.201680672269,4,2,33,60,1,0
22217,491.803278688525,4,2,33,60,1,0
22462,491.803278688525,4,2,33,60,1,0
23444,517.241379310345,4,2,33,60,1,0
23957,487.80487804878,4,2,33,40,1,0
24694,500,4,2,33,40,1,0
24944,500,4,2,33,40,1,0
25439,487.80487804878,4,2,33,60,1,0
25682,-100,4,2,33,65,0,0
25925,-100,4,2,33,70,0,0
26175,504.201680672269,4,2,33,65,1,0
26427,504.201680672269,4,2,33,65,1,0
26932,487.80487804878,4,2,33,70,1,0
27175,-100,4,2,33,75,0,0
27418,-100,4,2,33,60,0,0
27667,508.474576271186,4,2,33,45,1,0
27921,508.474576271186,4,2,33,45,1,0
27921,-100,4,2,33,70,0,0
28173,468.75,4,2,33,70,1,0
28407,508.474576271186,4,2,33,70,1,0
28911,487.80487804878,4,2,33,70,1,0
29404,497.92531120332,4,2,33,70,1,0
31394,491.803278688525,4,2,33,70,1,0
32378,500,4,2,33,70,1,0
32873,496.688741721854,4,2,33,70,1,0
33864,497.92531120332,4,2,33,70,1,0
35109,487.80487804878,4,2,33,70,1,0
35353,521.739130434783,4,2,33,70,1,0
35613,491.803278688525,4,2,33,70,1,0
35858,491.803278688525,4,2,33,70,1,0
36353,500,4,2,33,70,1,0
37101,491.803278688525,4,2,33,70,1,0
37346,491.803278688525,4,2,33,70,1,0
37842,500,4,2,33,70,1,0
38589,487.80487804878,4,2,33,70,1,0
38832,487.80487804878,4,2,33,70,1,0
39323,512.820512820513,4,2,33,70,1,0
39829,495.867768595041,4,2,33,75,1,0
43053,454.545454545455,4,2,33,75,1,0
43281,592.592592592593,4,2,33,75,1,0
43318,451.127819548872,4,2,33,75,1,0
43543,526.315789473684,4,2,33,60,1,0
43806,495.867768595041,4,2,33,60,1,0
45037,517.241379310345,4,2,33,60,1,0
45295,476.190476190476,4,2,33,60,1,0
45533,512.820512820513,4,2,33,60,1,0
45790,476.190476190476,4,2,33,60,1,0
46029,517.241379310345,4,2,33,60,1,0
46287,484.770138159489,4,2,33,60,1,0
47021,495.049504950495,4,2,33,60,1,0
47268,495.049504950495,4,2,33,60,1,0
49500,517.241379310345,4,2,33,60,1,0
49758,480,4,2,33,60,1,0
50120,517.241379310345,4,2,33,60,1,0
50249,500,4,2,33,60,1,0
50999,517.241379310345,4,2,33,60,1,0
51128,495.867768595041,4,2,33,60,1,0
51252,494.845360824742,4,2,33,60,1,0
51746,489.795918367347,4,2,33,60,1,0
52241,535.714285714286,4,2,33,60,1,0
52510,444.444444444444,4,2,33,60,1,0
52733,491.803278688525,4,2,33,60,1,0
53964,495.867768595041,4,2,33,60,1,0
54211,495.867768595041,4,2,33,60,1,0
55452,476.190476190476,4,2,33,60,1,0
55691,508.474576271186,4,2,33,60,1,0
55945,530.973451327434,4,2,33,60,1,0
56210,495.867768595041,4,2,33,60,1,0
57202,495.867768595041,4,2,33,60,1,0
58694,594.059405940594,4,2,33,60,1,0
58842,521.739130434783,4,2,33,60,1,0
58972,461.538461538462,4,2,33,60,1,0
59087,400,4,2,33,60,1,0
59187,465.116279069767,4,2,33,60,1,0
59420,506.329113924051,4,2,33,60,1,0
59673,506.329113924051,4,2,33,60,1,0
60175,495.867768595041,4,2,33,60,1,0
61414,517.241379310345,4,2,33,60,1,0
61672,483.870967741935,4,2,33,60,1,0
62155,500,4,2,33,60,1,0
62901,495.867768595041,4,2,33,60,1,0
63148,495.867768595041,4,2,33,60,1,0
63644,485.82995951417,4,2,33,60,1,0
64135,506.329113924051,4,2,33,60,1,0
64636,480,4,2,33,60,1,0
64876,512.820512820513,4,2,33,60,1,0
65132,512.820512820513,4,2,33,60,1,0
65382,517.241379310345,4,2,33,60,1,0
65640,476.190476190476,4,2,33,60,1,0
66354,508.474576271186,4,2,33,60,1,0
66608,508.474576271186,4,2,33,60,1,0
67349,509.337860780985,4,2,33,60,1,0
67603,509.337860780985,4,2,33,60,1,0
68119,476.190476190476,4,2,33,60,1,0
68357,508.474576271186,4,2,33,60,1,0
68611,508.474576271186,4,2,33,60,1,0
69373,468.75,4,2,33,60,1,0
69607,491.803278688525,4,2,33,60,1,0
71328,508.474576271186,4,2,33,60,1,0
71582,508.474576271186,4,2,33,60,1,0
72090,495.867768595041,4,2,33,60,1,0
72833,483.870967741935,4,2,33,60,1,0
73074,483.870967741935,4,2,33,60,1,0
73316,491.803278688525,4,2,33,60,1,0
73561,491.803278688525,4,2,33,60,1,0
74299,504.201680672269,4,2,33,60,1,0
74551,504.201680672269,4,2,33,60,1,0
75307,491.803278688525,4,2,33,60,1,0
75552,491.803278688525,4,2,33,60,1,0
76044,-100,4,2,33,50,0,0
76294,487.80487804878,4,2,33,45,1,0
76537,487.80487804878,4,2,33,45,1,0
77028,504.201680672269,4,2,33,60,1,0
77280,-100,4,2,33,65,0,0
77532,-100,4,2,33,70,0,0
77779,488.599348534202,4,2,33,65,1,0
78023,488.599348534202,4,2,33,65,1,0
78023,-100,4,2,33,60,0,0
78267,-100,4,2,33,65,0,0
78763,506.329113924051,4,2,33,75,1,0
79016,506.329113924051,4,2,33,75,1,0
79264,489.795918367347,4,2,33,45,1,0
79508,489.795918367347,4,2,33,45,1,0
79508,-100,4,2,33,70,0,0
80003,512.820512820513,4,2,33,70,1,0
80510,495.867768595041,4,2,33,70,1,0
81503,478.08764940239,4,2,33,70,1,0
81987,495.867768595041,4,2,33,70,1,0
84471,517.241379310345,4,2,33,70,1,0
84729,476.190476190476,4,2,33,70,1,0
84967,476.190476190476,4,2,33,70,1,0
85211,500,4,2,33,70,1,0
85461,500,4,2,33,70,1,0
85964,483.870967741935,4,2,33,70,1,0
86450,497.92531120332,4,2,33,70,1,0
87939,495.867768595041,4,2,33,70,1,0
88187,530.973451327434,4,2,33,70,1,0
88452,530.973451327434,4,2,33,70,1,0
88719,465.116279069767,4,2,33,70,1,0
88951,465.116279069767,4,2,33,70,1,0
89179,526.315789473684,4,2,33,70,1,0
89443,495.867768595041,4,2,33,70,1,0
89940,461.538461538462,4,2,33,70,1,0
90171,512.820512820513,4,2,33,70,1,0
90427,512.820512820513,4,2,33,70,1,0
90679,495.867768595041,4,2,33,70,1,0
90926,495.867768595041,4,2,33,70,1,0
91422,-100,4,2,33,75,0,0
92414,508.474576271186,4,2,33,75,1,0
93162,480,4,2,33,75,1,0
93402,480,4,2,33,75,1,0
93889,521.739130434783,4,2,33,75,1,0
94149,478.08764940239,4,2,33,75,1,0
94388,478.08764940239,4,2,33,75,1,0
94633,521.739130434783,4,2,33,75,1,0
94894,468.75,4,2,33,75,1,0
95129,530.973451327434,4,2,33,75,1,0
95395,495.867768595041,4,2,33,80,1,0
96138,500,4,2,33,80,1,0
96388,500,4,2,33,80,1,0
97888,483.870967741935,4,2,33,80,1,0
98866,504.201680672269,4,2,33,80,1,0
99372,478.08764940239,4,2,33,80,1,1
99856,495.867768595041,4,2,33,80,1,1
100351,-83.3333333333333,4,2,33,80,0,1
103327,495.867768595041,4,2,33,80,1,1
104067,480,4,2,33,80,1,1
104307,480,4,2,33,80,1,1
104307,-83.3333333333333,4,2,33,80,0,1
104553,495.867768595041,4,2,33,80,1,1
104800,495.867768595041,4,2,33,80,1,1
105296,-83.3333333333333,4,2,33,80,0,1
107279,495.867768595041,4,2,33,80,1,1
107279,-83.3333333333333,4,2,33,80,0,1
108768,540.540540540541,4,2,33,80,1,1
109038,495.867768595041,4,2,33,80,1,1
109286,451.127819548872,4,2,33,80,1,1
109512,512.820512820513,4,2,33,80,1,1
109768,512.820512820513,4,2,33,80,1,1
109768,-83.3333333333333,4,2,33,80,0,1
110020,495.867768595041,4,2,33,80,1,1
110267,495.867768595041,4,2,33,80,1,1
110763,-83.3333333333333,4,2,33,80,0,1
111012,480,4,2,33,80,1,1
111252,480,4,2,33,80,1,1
111496,495.867768595041,4,2,33,80,1,1
111743,495.867768595041,4,2,33,80,1,1
111743,-83.3333333333333,4,2,33,80,0,1
112736,526.315789473684,4,2,33,80,1,1
113000,484.652665589661,4,2,33,80,1,1
113242,484.652665589661,4,2,33,80,1,1
113976,495.867768595041,4,2,33,80,1,1
114223,495.867768595041,4,2,33,80,1,1
115214,495.867768595041,4,2,33,80,1,1
115214,-100,4,2,33,65,0,0
117448,521.739130434783,4,2,33,65,1,0
117708,521.739130434783,4,2,33,65,1,0
117969,500,4,2,33,65,1,0
118219,476.190476190476,4,2,33,65,1,0
118457,491.803278688525,4,2,33,65,1,0
118702,491.803278688525,4,2,33,65,1,0
118952,500,4,2,33,65,1,0
119202,500,4,2,33,65,1,0
119939,495.867768595041,4,2,33,65,1,0
120186,495.867768595041,4,2,33,65,1,0
120931,480,4,2,33,65,1,0
121171,480,4,2,33,65,1,0
121416,496.688741721854,4,2,33,65,1,0
121664,496.688741721854,4,2,33,65,1,0
122655,535.714285714286,4,2,33,65,1,0
122920,491.803278688525,4,2,33,65,1,0
123042,566.037735849057,4,2,33,65,1,0
123183,566.037735849057,4,2,33,65,1,0
123183,-100,4,2,33,40,0,0
123410,491.803278688525,4,2,33,40,1,0
123655,491.803278688525,4,2,33,40,1,0
123655,-100,4,2,33,50,0,0
123901,-100,4,2,33,55,0,0
124392,-100,4,2,33,54,0,0
124639,-100,4,2,33,47,0,0
124884,-100,4,2,33,40,0,0
125135,526.315789473684,4,2,33,45,1,0
125399,495.867768595041,4,2,33,45,1,0
125646,495.867768595041,4,2,33,45,1,0
125646,-100,4,2,33,55,0,0
125895,465.116279069767,4,2,33,60,1,0
126127,500,4,2,33,60,1,0
126376,555.555555555556,4,2,33,60,1,0
126515,492.610837438424,4,2,33,70,1,0
126638,492.610837438424,4,2,33,70,1,0
126638,-100,4,2,33,75,0,0
126884,-100,4,2,33,80,0,0
127130,492.610837438424,4,2,33,80,1,0
127622,-100,4,2,33,70,0,0
128115,-100,4,2,33,75,0,0
128368,495.867768595041,4,2,33,75,1,0
128615,495.867768595041,4,2,33,75,1,0
128615,-100,4,2,33,80,0,0
129111,451.127819548872,4,2,33,80,1,0
129336,526.315789473684,4,2,33,80,1,0
129600,461.538461538462,4,2,33,80,1,0
129831,491.803278688525,4,2,33,80,1,0
130077,576.230492196879,4,2,33,80,1,0
130095,461.538461538462,4,2,33,80,1,0
130326,512.820512820513,4,2,33,80,1,0
130582,512.820512820513,4,2,33,80,1,0
130833,489.795918367347,4,2,33,80,1,0
131077,489.795918367347,4,2,33,80,1,0
131077,-100,4,2,33,70,0,0
131574,495.867768595041,4,2,33,70,1,0
132814,508.474576271186,4,2,33,70,1,0
133068,508.474576271186,4,2,33,70,1,0
133319,495.867768595041,4,2,33,70,1,0
133566,495.867768595041,4,2,33,70,1,0
137783,504.201680672269,4,2,33,70,1,0
138035,504.201680672269,4,2,33,70,1,0
138534,487.80487804878,4,2,33,70,1,0
139271,496.688741721854,4,2,33,70,1,0
139519,496.688741721854,4,2,33,70,1,0
143239,521.739130434783,4,2,33,70,1,0
143501,493.827160493827,4,2,33,70,1,0
146463,540.540540540541,4,2,33,70,1,0
146734,468.75,4,2,33,70,1,0
146968,468.75,4,2,33,70,1,0
146968,-100,4,2,33,75,0,0
147207,496.688741721854,4,2,33,75,1,0
147455,496.688741721854,4,2,33,75,1,0
150431,495.867768595041,4,2,33,75,1,0
150926,-100,4,2,33,80,0,0
152663,508.474576271186,4,2,33,80,1,0
152917,508.474576271186,4,2,33,80,1,0
153168,483.870967741935,4,2,33,80,1,0
153409,483.870967741935,4,2,33,80,1,0
153655,495.867768595041,4,2,33,80,1,0
153902,495.867768595041,4,2,33,80,1,0
154894,-100,4,2,33,85,0,0
156629,612.244897959184,4,2,33,85,1,0
156782,441.176470588235,4,2,33,85,1,0
156892,508.474576271186,4,2,33,85,1,0
157402,451.127819548872,4,2,33,85,1,0
157628,495.867768595041,4,2,33,85,1,0
157875,495.867768595041,4,2,33,85,1,0
158246,434.782608695652,4,2,33,85,1,0
158355,424.028268551237,4,2,33,85,1,0

[Colours]
Combo1 : 255,217,170
Combo2 : 255,106,106
Combo3 : 245,73,117

[HitObjects]
0,227,151,6,0,P|34:231|78:221,1,60,2|2,1:2|3:2,2:0:0:0:
103,269,658,1,10,1:2:0:0:
103,269,902,2,2,P|177:275|233:252,1,121.715,2|0,3:2|2:0,2:1:0:0:
256,217,1650,1,10,1:2:0:0:
256,107,2134,2,0,P|222:111|178:101,1,61.524,2|2,1:2|3:2,2:0:0:0:
156,146,2618,1,10,1:2:0:0:
156,146,2878,2,2,P|82:152|26:129,1,127.168,2|0,3:2|2:0,2:1:0:0:
5,97,3599,1,8,1:2:0:0:
56,13,4097,6,0,P|90:17|134:7,1,60.448,2|2,1:2|3:2,2:0:0:0:
170,36,4605,1,10,1:2:0:0:
170,36,4862,2,2,P|244:42|300:19,1,125.04,2|0,3:2|2:0,2:1:0:0:
334,3,5599,1,10,1:2:0:0:
429,40,6091,2,2,P|427:116|439:177,1,113.968,2|10,1:2|1:2,2:1:0:0:
499,231,7086,1,2,1:0:0:0:
471,328,7576,1,14,1:2:0:0:
367,298,8076,6,0,P|334:303|297:295,1,60,2|2,1:2|3:2,2:0:0:0:
265,319,8571,1,10,1:2:0:0:
265,319,8840,2,2,P|242:255|248:177,1,120,2|0,3:2|2:0,2:1:0:0:
255,152,9559,1,10,1:2:0:0:
184,69,10059,2,0,P|151:64|114:72,1,60,2|2,1:2|3:2,2:0:0:0:
85,42,10559,1,10,1:2:0:0:
85,42,10814,2,2,P|62:106|68:184,1,125.04,2|0,3:2|2:0,2:1:0:0:
82,211,11557,1,8,1:2:0:0:
80,318,12052,6,0,P|121:316|150:320,1,60,2|2,1:2|3:2,2:0:0:0:
191,346,12547,1,8,1:2:0:0:
191,346,12795,1,2,3:2:0:0:
276,280,13290,1,2,3:2:0:0:
368,342,13780,1,2,3:2:0:0:
368,342,14033,2,2,P|434:352|507:333,1,117.382,6|8,1:2|1:2,2:1:0:0:
509,235,15006,2,2,P|506:209|509:166,1,60,2|0,1:0|2:0,2:1:0:0:
485,127,15494,1,8,1:2:0:0:
509,78,15749,1,2,2:1:0:0:
485,34,15987,5,6,1:0:0:0:
374,18,16495,2,0,P|302:29|245:14,1,125.785,14|0,1:2|1:2,2:0:0:0:
211,52,17251,1,2,1:2:0:0:
163,25,17495,1,10,1:2:0:0:
122,55,17746,2,2,P|121:149|117:171,1,115.412,2|2,3:2|1:3,2:1:0:0:
97,212,18490,1,14,1:2:0:0:
120,257,18750,1,6,1:0:0:0:
221,229,19236,1,2,1:3:0:0:
221,229,19492,2,0,P|259:226|299:235,1,58.596,10|2,1:2|3:0,2:0:0:0:
332,212,19987,5,2,1:0:0:0:
380,235,20232,1,2,1:3:0:0:
429,213,20478,1,14,1:2:0:0:
510,291,20969,1,0,1:2:0:0:
510,291,21214,2,0,P|507:330|511:368,1,60.9776,2|10,1:2|1:2,2:0:0:0:
456,369,21715,2,2,P|412:349|335:341,1,119.524,2|2,3:2|1:3,2:1:0:0:
296,311,22462,1,14,1:2:0:0:
249,338,22708,1,6,1:2:0:0:
163,280,23200,1,2,1:3:0:0:
163,280,23444,2,0,P|131:285|101:280,1,60,10|2,1:2|1:3,2:0:0:0:
65,239,23957,5,6,1:0:0:0:
114,143,24444,1,6,1:2:0:0:
122,151,25439,1,8,1:3:0:0:
122,151,25682,2,0,P|157:156|189:149,1,60,8|14,1:3|1:2,2:0:0:0:
223,118,26175,1,14,1:2:0:0:
300,193,26679,2,0,P|335:198|367:191,1,60.238,12|14,1:3|1:2,2:0:0:0:
388,148,27175,2,0,P|423:153|455:146,1,60,14|14,1:2|1:0,2:0:0:0:
492,185,27667,1,14,1:0:0:0:
492,185,27921,5,6,1:0:0:0:
502,287,28407,1,14,1:2:0:0:
406,343,28911,2,2,P|375:339|334:345,1,60,12|12,1:3|1:3,2:0:0:0:
305,306,29404,1,14,1:2:0:0:
260,336,29652,1,2,3:2:0:0:
219,300,29901,2,0,P|188:304|147:298,1,60,2|2,1:2|1:2,2:0:0:0:
117,334,30399,1,14,1:2:0:0:
117,334,30648,1,2,3:2:0:0:
73,301,30897,1,6,1:0:0:0:
15,208,31394,2,2,P|20:145|14:68,1,120,12|12,1:2|1:3,2:1:0:0:
107,32,32378,5,14,1:2:0:0:
183,108,32873,2,0,P|214:104|255:110,1,60,2|2,1:2|1:2,2:0:0:0:
284,75,33369,1,14,1:2:0:0:
325,109,33618,1,2,3:2:0:0:
374,89,33864,2,0,P|405:93|446:87,1,60,6|2,1:0|1:2,2:0:0:0:
482,123,34361,1,14,1:2:0:0:
482,123,34610,1,2,3:2:0:0:
507,170,34859,2,2,P|505:243|513:295,1,119.277,6|12,1:0|1:2,2:1:0:0:
418,348,35858,5,6,1:0:0:0:
326,289,36353,1,14,1:2:0:0:
234,347,36853,1,2,1:2:0:0:
142,288,37346,2,0,P|108:293|73:288,1,60,14|2,1:2|3:2,2:0:0:0:
34,314,37842,2,2,P|21:268|28:183,1,120,6|14,1:0|1:2,2:1:0:0:
65,160,38589,1,2,3:2:0:0:
113,182,38832,2,0,P|147:187|182:182,1,60,2|2,1:2|1:2,2:0:0:0:
214,150,39323,1,12,1:2:0:0:
285,65,39829,5,6,1:0:0:0:
373,126,40324,1,14,1:2:0:0:
477,89,40820,1,2,1:2:0:0:
477,89,41068,2,2,P|490:161|485:215,1,120,2|2,1:2|3:2,2:1:0:0:
441,237,41812,2,0,P|404:233|366:241,1,60,6|6,1:2|1:2,2:0:0:0:
342,273,42308,1,12,1:2:0:0:
238,303,42804,2,0,P|201:307|163:299,1,60.484,6|6,1:2|1:2,2:0:0:0:
138,343,43281,1,14,1:2:0:0:
0,228,51746,6,0,P|34:232|78:222,1,60,2|2,1:2|3:2,2:0:0:0:
98,269,52241,1,10,1:2:0:0:
98,269,52510,2,2,P|172:275|220:254,1,126.42,2|0,3:2|2:0,2:1:0:0:
254,214,53224,1,10,1:2:0:0:
324,132,53716,1,2,1:2:0:0:
324,132,53964,2,0,P|319:100|325:61,1,60,2|8,3:2|1:2,2:0:0:0:
282,33,54459,2,2,P|232:58|163:57,1,120,2|0,3:2|2:0,2:1:0:0:
121,33,55203,1,10,1:2:0:0:
50,108,55691,5,2,1:2:0:0:
50,108,55945,2,0,P|53:155|48:187,1,60,2|10,3:2|1:2,2:0:0:0:
96,197,56457,2,2,P|82:272|83:323,1,120,2|0,3:2|2:0,2:1:0:0:
98,367,57202,1,10,1:2:0:0:
198,326,57697,2,2,P|275:334|337:319,1,120,2|10,1:2|1:2,2:1:0:0:
373,246,58694,1,2,1:0:0:0:
479,228,59187,1,14,1:2:0:0:
504,138,59673,5,2,1:2:0:0:
504,138,59926,2,0,P|501:108|504:57,1,59.052,2|10,2:0|1:2,2:0:0:0:
463,40,60422,2,2,P|409:69|344:69,1,120,2|0,3:2|2:0,2:1:0:0:
302,46,61166,1,10,1:2:0:0:
213,114,61672,1,2,1:2:0:0:
213,114,61913,2,0,P|210:144|213:195,1,60.248,2|10,3:2|1:2,2:0:0:0:
169,209,62405,2,2,P|114:183|42:184,1,119.5,2|0,3:2|2:0,2:1:0:0:
10,208,63148,1,8,1:2:0:0:
40,315,63644,6,0,P|81:313|123:324,1,60,2|2,1:2|2:0,2:0:0:0:
153,300,64135,1,8,1:2:0:0:
153,300,64388,2,2,P|221:322|271:315,1,115.734,2|0,3:2|2:0,2:1:0:0:
314,292,65132,1,10,1:2:0:0:
314,292,65382,2,2,P|382:314|431:307,1,115.128,2|0,3:2|2:0,2:1:0:0:
472,284,66116,1,14,1:2:0:0:
502,184,66608,2,0,P|498:155|502:109,1,60,2|2,1:0|1:0,2:0:0:0:
461,86,67116,1,14,1:2:0:0:
418,110,67349,1,2,1:0:0:0:
379,71,67603,5,6,1:0:0:0:
285,141,68119,1,14,1:2:0:0:
214,71,68611,1,0,1:2:0:0:
214,71,68865,2,0,P|182:66|150:72,1,60,2|10,1:2|1:2,2:0:0:0:
120,23,69373,2,2,P|54:25|0:61,1,122.816,2|2,3:2|1:3,2:1:0:0:
3,111,70098,1,14,1:2:0:0:
3,111,70344,2,2,P|6:177|-3:249,1,120,6|0,1:0|1:2,2:1:0:0:
29,276,71082,1,14,1:2:0:0:
126,233,71582,6,0,P|162:239|194:233,1,60,2|0,1:2|1:2,2:0:0:0:
217,280,72090,1,10,1:2:0:0:
309,224,72585,1,0,1:2:0:0:
309,224,72833,2,0,P|344:231|378:225,1,60,2|10,1:2|1:2,2:0:0:0:
411,259,73316,2,2,P|441:212|447:141,1,120,2|2,3:2|1:3,2:1:0:0:
413,115,74053,1,14,1:2:0:0:
413,115,74299,2,2,P|344:126|277:108,1,120,6|0,1:0|2:0,2:1:0:0:
254,81,75055,2,0,P|223:87|187:80,1,60,14|2,1:2|3:0,2:0:0:0:
154,117,75552,5,6,1:0:0:0:
199,214,76044,1,4,1:2:0:0:
203,218,77028,1,8,1:3:0:0:
203,218,77280,2,0,P|203:270|205:284,1,60,8|14,1:3|1:2,2:0:0:0:
167,318,77779,2,0,P|115:318|101:320,1,60,14|12,1:2|1:3,2:0:0:0:
63,287,78267,1,12,1:3:0:0:
13,193,78763,1,14,1:2:0:0:
67,98,79264,1,14,1:0:0:0:
67,98,79508,6,2,P|141:108|195:98,1,121.47,6|14,1:0|1:2,2:1:0:0:
241,136,80259,1,0,3:0:0:0:
241,136,80510,2,2,P|315:126|369:136,1,120,12|14,1:3|1:2,2:1:0:0:
401,90,81253,1,2,3:2:0:0:
401,90,81503,2,0,P|438:94|474:86,1,60,2|2,1:2|1:2,2:0:0:0:
499,134,81987,2,0,P|495:171|503:207,1,60,14|2,1:2|3:2,2:0:0:0:
459,243,82482,1,2,1:2:0:0:
471,362,82978,2,2,P|415:354|336:363,1,120,14|12,1:2|1:3,2:1:0:0:
307,327,83722,5,12,1:3:0:0:
307,327,83970,2,0,P|278:333|237:329,1,60,14|0,1:2|2:0,2:0:0:0:
197,362,84471,1,2,1:2:0:0:
154,312,84729,1,2,1:2:0:0:
101,340,84967,2,0,P|70:337|33:343,1,61.512,14|2,1:2|3:2,2:0:0:0:
1,293,85461,2,0,P|4:262|-2:225,1,60,6|2,1:0|1:2,2:0:0:0:
45,190,85964,2,0,P|76:193|113:187,1,60,14|2,1:2|3:2,2:0:0:0:
154,220,86450,2,2,P|224:219|270:189,1,120,6|12,1:0|1:2,2:1:0:0:
335,96,87445,5,6,1:0:0:0:
418,181,87939,1,14,1:2:0:0:
501,100,88452,1,2,1:2:0:0:
412,6,88951,2,0,P|379:10|340:2,1,58.968,14|2,1:2|3:2,2:0:0:0:
315,51,89443,2,2,P|261:28|200:26,1,120.484,6|14,1:0|1:2,2:1:0:0:
164,55,90171,1,2,3:2:0:0:
164,55,90427,2,0,P|166:104|163:128,1,59.064,2|2,1:2|1:2,2:0:0:0:
166,173,90926,1,14,1:2:0:0:
264,240,91422,6,0,P|298:238|332:244,1,60,6|0,1:0|1:2,2:0:0:0:
372,207,91918,1,14,1:2:0:0:
483,243,92414,1,2,1:2:0:0:
469,301,92668,2,0,P|468:352|470:368,1,60,2|12,1:2|1:2,2:0:0:0:
411,375,93162,2,2,P|354:355|286:354,1,120,2|6,3:2|1:2,2:1:0:0:
248,320,93889,1,12,1:2:0:0:
194,357,94149,1,12,1:2:0:0:
144,322,94388,2,0,P|112:326|73:320,1,61.506,6|6,1:2|1:2,2:0:0:0:
29,363,94894,1,12,1:2:0:0:
0,253,95395,6,0,P|3:220|1:191,1,60,6|0,1:0|1:0,2:0:0:0:
38,151,95890,1,12,1:2:0:0:
85,41,96388,1,2,1:2:0:0:
133,77,96638,2,0,P|168:75|200:83,1,60,2|12,1:2|1:2,2:0:0:0:
231,34,97138,2,2,P|299:39|355:68,1,120,2|4,3:2|1:2,2:1:0:0:
396,96,97888,1,12,1:2:0:0:
448,66,98129,1,14,1:2:0:0:
495,102,98371,2,0,P|493:151|500:180,1,60,6|6,1:2|1:2,2:0:0:0:
460,211,98866,1,12,1:2:0:0:
332,161,99372,5,6,1:0:0:0:
243,251,99856,1,10,1:0:0:0:
129,189,100351,2,0,P|92:194|49:184,1,72,6|2,1:2|1:2,2:0:0:0:
0,240,100847,1,10,1:0:0:0:
15,316,101095,1,10,1:0:0:0:
85,350,101343,6,2,P|122:345|165:355,1,72,6|2,1:0|1:2,2:1:0:0:
228,325,101839,1,10,1:0:0:0:
304,354,102087,1,2,1:2:0:0:
304,354,102211,2,0,P|369:357|397:343,1,72,2|2,1:0|1:0,2:0:0:0:
444,319,102707,1,2,1:2:0:0:
444,319,102831,1,10,1:0:0:0:
372,193,103327,5,6,1:0:0:0:
441,67,103822,1,10,1:0:0:0:
304,16,104307,2,0,P|267:19|220:13,1,74.0999978027344,6|2,1:2|1:2,2:0:0:0:
181,72,104800,1,10,1:0:0:0:
210,144,105048,1,10,1:0:0:0:
183,217,105296,6,2,P|146:214|99:220,1,72,2|8,2:1|1:3,2:1:0:0:
68,281,105792,1,10,1:0:0:0:
100,353,106040,1,2,1:0:0:0:
177,339,106288,2,2,P|214:342|261:336,1,72,6|2,1:0|1:0,2:1:0:0:
318,301,106784,1,10,1:0:0:0:
318,301,106908,1,4,1:3:0:0:
389,343,107156,1,4,1:3:0:0:
389,343,107279,6,2,P|431:342|461:346,1,72,6|2,1:0|1:2,2:1:0:0:
510,286,107774,1,10,1:0:0:0:
465,224,108022,1,6,1:2:0:0:
465,224,108146,2,2,P|462:183|466:146,1,72,2|2,1:0|1:0,2:1:0:0:
500,84,108642,1,4,1:3:0:0:
500,84,108766,1,10,1:0:0:0:
438,31,109038,1,10,1:0:0:0:
370,71,109286,5,6,1:2:0:0:
370,71,109398,1,2,2:0:0:0:
370,71,109512,1,2,1:2:0:0:
342,144,109768,2,2,P|345:185|341:222,1,70.8767978027344,14|2,1:0|1:0,2:1:0:0:
287,271,110267,1,6,1:2:0:0:
220,230,110515,1,2,1:2:0:0:
193,157,110763,2,0,P|190:116|194:79,1,72.5807978027344,10|2,1:0|1:2,2:0:0:0:
128,46,111252,5,6,1:0:0:0:
128,46,111372,1,2,1:0:0:0:
128,46,111496,1,2,1:2:0:0:
84,112,111743,2,0,P|61:109|39:112,2,36,10|2|2,1:0|1:0|1:2,2:0:0:0:
85,191,112239,2,0,P|108:188|130:191,2,36,6|2|2,1:2|1:0|1:2,2:0:0:0:
69,267,112735,1,10,1:0:0:0:
105,339,113000,1,10,1:0:0:0:
191,356,113242,5,6,1:0:0:0:
191,356,113363,1,8,1:3:0:0:
191,356,113484,1,2,1:2:0:0:
252,303,113726,1,10,1:0:0:0:
220,230,113976,1,6,1:2:0:0:
269,167,114223,1,10,1:0:0:0:
345,187,114471,1,6,1:2:0:0:
374,265,114719,1,10,1:0:0:0:
374,265,114843,1,12,1:3:0:0:
453,289,115091,1,8,1:3:0:0:
453,289,115215,6,2,P|478:229|483:172,1,120,6|8,1:0|1:2,2:1:0:0:
427,150,115957,2,2,P|402:90|397:33,2,120,6|2|2,1:2|2:0|2:3,2:1:0:0:
380,187,117197,2,0,P|381:233|373:271,1,60,6|0,1:2|2:0,2:0:0:0:
331,282,117708,1,14,1:2:0:0:
277,314,117969,2,2,P|221:291|152:295,1,117.12,6|0,1:0|1:0,2:1:0:0:
113,321,118702,1,8,1:2:0:0:
26,238,119202,6,0,P|29:210|26:160,1,60,6|0,1:0|2:0,2:0:0:0:
74,139,119702,1,10,1:2:0:0:
122,169,119939,1,2,3:1:0:0:
176,144,120186,2,0,P|210:149|241:144,1,60,2|2,1:0|1:0,2:0:0:0:
284,180,120682,2,0,P|318:175|349:180,1,60.484,14|2,1:2|2:3,2:0:0:0:
395,148,121171,1,2,1:0:0:0:
442,184,121416,1,2,1:0:0:0:
506,169,121664,1,14,1:2:0:0:
506,169,121788,1,2,1:0:0:0:
506,169,121912,2,2,P|520:121|515:46,1,120,6|2,1:0|1:0,2:1:0:0:
471,19,122655,2,0,P|438:23|402:16,1,59.552,12|2,1:2|1:0,2:0:0:0:
367,52,123183,5,6,1:0:0:0:
263,13,123655,1,14,1:2:0:0:
263,13,123901,2,2,P|198:20|125:8,1,120,12|12,1:3|1:3,2:1:0:0:
101,55,124639,2,2,P|100:106|93:130,1,60,14|6,1:2|1:2,2:1:0:0:
138,155,125135,1,6,1:0:0:0:
193,133,125399,1,12,1:3:0:0:
243,165,125646,1,6,1:2:0:0:
295,140,125895,6,2,P|299:225|313:266,1,124.128,6|6,1:2|1:0,2:1:0:0:
378,294,126638,1,12,1:3:0:0:
451,268,126884,1,12,1:3:0:0:
469,192,127130,1,14,1:2:0:0:
442,118,127376,1,14,1:2:0:0:
365,103,127622,1,12,1:3:0:0:
295,140,127868,1,12,1:3:0:0:
286,217,128115,1,14,1:2:0:0:
229,270,128368,1,14,1:2:0:0:
149,269,128615,1,14,1:0:0:0:
100,207,128863,1,14,1:0:0:0:
100,207,131077,5,6,1:0:0:0:
14,106,131574,1,14,2:0:0:0:
118,22,132069,2,2,P|183:31|240:20,1,120,12|14,1:3|1:2,2:1:0:0:
282,69,132814,1,2,3:2:0:0:
342,42,133068,2,0,P|384:46|410:39,1,59.292,2|2,1:2|3:2,2:0:0:0:
451,83,133566,1,14,1:2:0:0:
503,122,133814,1,2,3:2:0:0:
480,183,134062,2,2,P|476:285|482:323,2,120,6|14|12,1:0|1:2|1:3,2:1:0:0:
359,127,135550,6,0,P|328:131|290:121,1,60,14|0,1:2|2:0,2:0:0:0:
251,170,136046,2,2,P|179:172|123:140,1,120,2|14,1:2|1:2,2:1:0:0:
79,117,136790,1,2,1:2:0:0:
21,149,137038,2,0,P|22:193|16:233,1,60,6|2,1:0|3:2,2:0:0:0:
74,247,137533,2,0,P|73:291|79:331,1,60.726,14|2,1:2|3:2,2:0:0:0:
126,348,138035,2,2,P|187:328|242:335,1,118.81,6|12,1:0|1:2,2:1:0:0:
314,226,139021,5,6,1:0:0:0:
422,302,139519,1,14,1:2:0:0:
502,197,140016,2,0,P|500:164|503:129,1,60,2|2,1:2|3:2,2:0:0:0:
454,90,140512,1,14,1:2:0:0:
397,124,140761,1,2,3:2:0:0:
343,85,141009,2,2,P|274:82|214:49,1,120,6|14,1:0|1:2,2:1:0:0:
175,22,141754,1,2,3:2:0:0:
125,62,142002,1,2,1:2:0:0:
125,62,142126,1,2,3:2:0:0:
125,62,142251,1,2,3:2:0:0:
126,127,142499,2,0,P|127:172|123:195,1,60,12|2,1:2|3:0,2:0:0:0:
166,237,142996,5,6,1:0:0:0:
280,180,143501,1,14,1:2:0:0:
389,254,143994,1,6,1:0:0:0:
434,301,144241,2,0,P|432:356|438:389,1,60,6|14,1:2|1:2,2:0:0:0:
367,373,144735,2,2,P|319:352|250:349,1,120,2|2,3:2|3:0,2:1:0:0:
192,320,145476,1,14,1:2:0:0:
141,361,145723,1,14,1:2:0:0:
77,344,145970,2,0,P|75:295|83:263,1,60,6|6,1:2|1:2,2:0:0:0:
103,230,146463,1,14,1:2:0:0:
62,177,146734,1,12,1:2:0:0:
93,118,146968,5,6,1:0:0:0:
190,202,147455,1,14,1:2:0:0:
273,99,147952,1,6,1:0:0:0:
323,141,148200,2,0,P|321:181|326:210,1,60,2|12,1:3|1:2,2:0:0:0:
365,252,148697,2,2,P|416:258|486:220,1,120,6|6,3:2|1:0,2:1:0:0:
511,173,149442,1,14,1:2:0:0:
481,114,149690,1,14,1:2:0:0:
498,50,149938,2,0,P|461:55|426:49,1,60,6|6,1:0|1:2,2:0:0:0:
391,6,150431,1,12,1:2:0:0:
335,41,150678,1,12,1:2:0:0:
279,5,150926,5,6,1:0:0:0:
179,91,151422,1,14,1:2:0:0:
238,208,151918,1,6,1:0:0:0:
272,264,152166,2,0,P|309:261|345:270,1,60,6|14,1:2|1:2,2:0:0:0:
378,309,152663,2,2,P|428:314|502:281,1,119.292,6|6,1:2|1:0,2:1:0:0:
510,227,153409,1,14,1:2:0:0:
471,173,153655,1,14,1:2:0:0:
405,186,153902,2,0,P|368:183|332:192,1,60,6|4,1:0|1:2,2:0:0:0:
311,244,154398,1,14,1:2:0:0:
245,233,154646,1,14,1:2:0:0:
217,173,154894,5,6,1:0:0:0:
109,95,155390,1,14,1:2:0:0:
34,204,155886,1,6,1:0:0:0:
15,267,156134,2,0,P|17:311|11:339,1,60,6|14,1:2|1:2,2:0:0:0:
79,373,156629,1,6,1:2:0:0:
145,327,156892,2,0,P|184:326|220:334,1,60,14|10,1:0|1:0,2:0:0:0:
275,287,157402,1,14,1:2:0:0:
275,287,157514,1,14,1:2:0:0:
331,350,157751,1,8,3:2:0:0:
331,350,157875,2,0,P|372:354|404:345,1,60,14|2,1:0|1:0,0:0:0:0:
458,309,158355,1,14,1:2:0:0:
