osu file format v14

[General]
AudioFilename: audio.mp3
AudioLeadIn: 0
PreviewTime: 75422
Countdown: 0
SampleSet: Soft
StackLeniency: 0.7
Mode: 0
LetterboxInBreaks: 0
WidescreenStoryboard: 1

[Editor]
DistanceSpacing: 1.5
BeatDivisor: 4
GridSize: 32
TimelineZoom: 0.7999998

[Metadata]
Title:Buddy Holly
TitleUnicode:Buddy Holly
Artist:Weezer
ArtistUnicode:Weezer
Creator:Ruiz Duchamp
Version:Hyper
Source:
Tags:blue album english alternative rock
BeatmapID:4212611
BeatmapSetID:2022594

[Difficulty]
HPDrainRate:5
CircleSize:4
OverallDifficulty:7
ApproachRate:7.5
SliderMultiplier:1.6
SliderTickRate:0.5

[Events]
//Background and Video events
0,0,"weezer_waifu2x_photo_noise0_scale_tta_1.jpg",0,0
//Break Periods
2,44006,50921
2,129111,130252
//Storyboard Layer 0 (Background)
//Storyboard Layer 1 (Fail)
//Storyboard Layer 2 (Pass)
//Storyboard Layer 3 (Foreground)
//Storyboard Layer 4 (Overlay)
//Storyboard Sound Samples

[TimingPoints]
151,512.820512820513,4,2,33,60,1,0
658,489.795918367347,4,2,33,60,1,0
1142,512.820512820513,4,2,33,60,1,0
1650,495.867768595041,4,2,33,60,1,0
1898,472.44094488189,4,2,33,60,1,0
2134,472.44094488189,4,2,33,60,1,0
2376,483.870967741935,4,2,33,60,1,0
2618,521.739130434783,4,2,33,60,1,0
2878,468.75,4,2,33,60,1,0
3113,521.739130434783,4,2,33,60,1,0
3374,451.127819548872,4,2,33,60,1,0
3599,521.739130434783,4,2,33,60,1,0
3859,476.190476190476,4,2,33,60,1,0
4097,535.714285714286,4,2,33,60,1,0
4366,476.190476190476,4,2,33,60,1,0
4605,512.820512820513,4,2,33,60,1,0
4862,476.190476190476,4,2,33,60,1,0
5100,517.241379310345,4,2,33,60,1,0
5358,483.870967741935,4,2,33,60,1,0
5599,526.315789473684,4,2,33,60,1,0
5862,458.015267175573,4,2,33,60,1,0
6091,517.241379310345,4,2,33,60,1,0
6350,465.116279069767,4,2,33,60,1,0
6582,465.116279069767,4,2,33,60,1,0
6821,530.973451327434,4,2,33,60,1,0
7086,530.973451327434,4,2,33,60,1,0
7226,437.956204379562,4,2,33,60,1,0
7444,528.63436123348,4,2,33,60,1,0
7576,521.739130434783,4,2,33,60,1,0
7838,476.190476190476,4,2,33,60,1,0
8076,495.867768595041,4,2,33,60,1,0
8571,538.116591928251,4,2,33,60,1,0
8840,476.190476190476,4,2,33,60,1,0
9078,476.190476190476,4,2,33,60,1,0
9559,500,4,2,33,60,1,0
10814,476.190476190476,4,2,33,60,1,0
11052,517.241379310345,4,2,33,60,1,0
11310,495.049504950495,4,2,33,60,1,0
11557,495.049504950495,4,2,33,60,1,0
13533,495.867768595041,4,2,33,60,1,0
14033,504.201680672269,4,2,33,60,1,0
14286,480,4,2,33,60,1,0
14526,480,4,2,33,60,1,0
15246,497.92531120332,4,2,33,60,1,0
15494,508.474576271186,4,2,33,60,1,0
15749,476.190476190476,4,2,33,60,1,0
15987,526.315789473684,4,2,33,60,1,0
16251,489.795918367347,4,2,33,60,1,0
16495,489.795918367347,4,2,33,60,1,0
16747,521.739130434783,4,2,33,60,1,0
17008,487.80487804878,4,2,33,60,1,0
17746,535.714285714286,4,2,33,60,1,0
18014,495.867768595041,4,2,33,60,1,0
18261,458.015267175573,4,2,33,60,1,0
18490,521.739130434783,4,2,33,60,1,0
18750,487.80487804878,4,2,33,60,1,0
18993,487.80487804878,4,2,33,60,1,0
19236,512.820512820513,4,2,33,60,1,0
19492,512.820512820513,4,2,33,60,1,0
19742,490.998363338789,4,2,33,60,1,0
19987,490.998363338789,4,2,33,60,1,0
21463,504.201680672269,4,2,33,60,1,0
22217,491.803278688525,4,2,33,60,1,0
22462,491.803278688525,4,2,33,60,1,0
23444,517.241379310345,4,2,33,60,1,0
23957,487.80487804878,4,2,33,40,1,0
24444,-125,4,2,33,40,0,0
24694,500,4,2,33,40,1,0
24944,500,4,2,33,40,1,0
24944,-100,4,2,33,50,0,0
25194,-100,4,2,33,55,0,0
25439,487.80487804878,4,2,33,60,1,0
25682,-125,4,2,33,65,0,0
25925,-125,4,2,33,70,0,0
26175,504.201680672269,4,2,33,65,1,0
26427,504.201680672269,4,2,33,65,1,0
26427,-100,4,2,33,60,0,0
26679,-100,4,2,33,65,0,0
26932,487.80487804878,4,2,33,70,1,0
27175,-100,4,2,33,75,0,0
27419,-100,4,2,33,60,0,0
27667,508.474576271186,4,2,33,45,1,0
27921,508.474576271186,4,2,33,45,1,0
27921,-100,4,2,33,70,0,0
28173,468.75,4,2,33,70,1,0
28407,508.474576271186,4,2,33,70,1,0
28911,487.80487804878,4,2,33,70,1,0
29404,497.92531120332,4,2,33,70,1,0
31394,491.803278688525,4,2,33,70,1,0
32378,500,4,2,33,70,1,0
32873,496.688741721854,4,2,33,70,1,0
33864,497.92531120332,4,2,33,70,1,0
35109,487.80487804878,4,2,33,70,1,0
35353,521.739130434783,4,2,33,70,1,0
35613,491.803278688525,4,2,33,70,1,0
35858,491.803278688525,4,2,33,70,1,0
36353,500,4,2,33,70,1,0
37101,491.803278688525,4,2,33,70,1,0
37346,491.803278688525,4,2,33,70,1,0
37842,500,4,2,33,70,1,0
38589,487.80487804878,4,2,33,70,1,0
38832,487.80487804878,4,2,33,70,1,0
39323,512.820512820513,4,2,33,70,1,0
39829,495.867768595041,4,2,33,75,1,0
43053,454.545454545455,4,2,33,75,1,0
43281,592.592592592593,4,2,33,75,1,0
43318,451.127819548872,4,2,33,75,1,0
43543,526.315789473684,4,2,33,60,1,0
43806,495.867768595041,4,2,33,60,1,0
45037,517.241379310345,4,2,33,60,1,0
45295,476.190476190476,4,2,33,60,1,0
45533,512.820512820513,4,2,33,60,1,0
45790,476.190476190476,4,2,33,60,1,0
46029,517.241379310345,4,2,33,60,1,0
46287,484.770138159489,4,2,33,60,1,0
47021,495.049504950495,4,2,33,60,1,0
47268,495.049504950495,4,2,33,60,1,0
49500,517.241379310345,4,2,33,60,1,0
49758,480,4,2,33,60,1,0
50120,517.241379310345,4,2,33,60,1,0
50249,500,4,2,33,60,1,0
50999,517.241379310345,4,2,33,60,1,0
51128,495.867768595041,4,2,33,60,1,0
51252,494.845360824742,4,2,33,60,1,0
51746,489.795918367347,4,2,33,60,1,0
52241,535.714285714286,4,2,33,60,1,0
52510,444.444444444444,4,2,33,60,1,0
52733,491.803278688525,4,2,33,60,1,0
53964,495.867768595041,4,2,33,60,1,0
54211,495.867768595041,4,2,33,60,1,0
55452,476.190476190476,4,2,33,60,1,0
55691,508.474576271186,4,2,33,60,1,0
55945,530.973451327434,4,2,33,60,1,0
56210,495.867768595041,4,2,33,60,1,0
57202,495.867768595041,4,2,33,60,1,0
58694,594.059405940594,4,2,33,60,1,0
58842,521.739130434783,4,2,33,60,1,0
58972,461.538461538462,4,2,33,60,1,0
59087,400,4,2,33,60,1,0
59187,465.116279069767,4,2,33,60,1,0
59420,506.329113924051,4,2,33,60,1,0
59673,506.329113924051,4,2,33,60,1,0
60175,495.867768595041,4,2,33,60,1,0
61414,517.241379310345,4,2,33,60,1,0
61672,483.870967741935,4,2,33,60,1,0
62155,500,4,2,33,60,1,0
62901,495.867768595041,4,2,33,60,1,0
63148,495.867768595041,4,2,33,60,1,0
63644,485.82995951417,4,2,33,60,1,0
64135,506.329113924051,4,2,33,60,1,0
64636,480,4,2,33,60,1,0
64876,512.820512820513,4,2,33,60,1,0
65132,512.820512820513,4,2,33,60,1,0
65382,517.241379310345,4,2,33,60,1,0
65640,476.190476190476,4,2,33,60,1,0
66354,508.474576271186,4,2,33,60,1,0
66608,508.474576271186,4,2,33,60,1,0
67349,509.337860780985,4,2,33,60,1,0
67603,509.337860780985,4,2,33,60,1,0
68119,476.190476190476,4,2,33,60,1,0
68357,508.474576271186,4,2,33,60,1,0
68611,508.474576271186,4,2,33,60,1,0
69373,468.75,4,2,33,60,1,0
69607,491.803278688525,4,2,33,60,1,0
71328,508.474576271186,4,2,33,60,1,0
71582,508.474576271186,4,2,33,60,1,0
72090,495.867768595041,4,2,33,60,1,0
72833,483.870967741935,4,2,33,60,1,0
73074,483.870967741935,4,2,33,60,1,0
73316,491.803278688525,4,2,33,60,1,0
73561,491.803278688525,4,2,33,60,1,0
74299,504.201680672269,4,2,33,60,1,0
74551,504.201680672269,4,2,33,60,1,0
75307,491.803278688525,4,2,33,60,1,0
75552,491.803278688525,4,2,33,60,1,0
76044,-125,4,2,33,50,0,0
76294,487.80487804878,4,2,33,45,1,0
76537,487.80487804878,4,2,33,45,1,0
76781,-100,4,2,33,55,0,0
77028,504.201680672269,4,2,33,60,1,0
77280,-125,4,2,33,65,0,0
77532,-125,4,2,33,70,0,0
77779,488.599348534202,4,2,33,65,1,0
78023,488.599348534202,4,2,33,65,1,0
78023,-100,4,2,33,60,0,0
78267,-100,4,2,33,65,0,0
78511,-100,4,2,33,70,0,0
78763,506.329113924051,4,2,33,75,1,0
79016,506.329113924051,4,2,33,75,1,0
79016,-100,4,2,33,60,0,0
79264,489.795918367347,4,2,33,45,1,0
79508,489.795918367347,4,2,33,45,1,0
79508,-90.9090909090909,4,2,33,70,0,0
80003,512.820512820513,4,2,33,70,1,0
80003,-90.9090909090909,4,2,33,70,0,0
80510,495.867768595041,4,2,33,70,1,0
81005,-90.9090909090909,4,2,33,70,0,0
81503,478.08764940239,4,2,33,70,1,0
81987,495.867768595041,4,2,33,70,1,0
81987,-90.9090909090909,4,2,33,70,0,0
84471,517.241379310345,4,2,33,70,1,0
84729,476.190476190476,4,2,33,70,1,0
84967,476.190476190476,4,2,33,70,1,0
84967,-90.9090909090909,4,2,33,70,0,0
85211,500,4,2,33,70,1,0
85461,500,4,2,33,70,1,0
85461,-90.9090909090909,4,2,33,70,0,0
85964,483.870967741935,4,2,33,70,1,0
86450,497.92531120332,4,2,33,70,1,0
86450,-90.9090909090909,4,2,33,70,0,0
87939,495.867768595041,4,2,33,70,1,0
87939,-90.9090909090909,4,2,33,70,0,0
88187,530.973451327434,4,2,33,70,1,0
88452,530.973451327434,4,2,33,70,1,0
88719,465.116279069767,4,2,33,70,1,0
88951,465.116279069767,4,2,33,70,1,0
88951,-90.9090909090909,4,2,33,70,0,0
89179,526.315789473684,4,2,33,70,1,0
89443,495.867768595041,4,2,33,70,1,0
89443,-90.9090909090909,4,2,33,70,0,0
89940,461.538461538462,4,2,33,70,1,0
90171,512.820512820513,4,2,33,70,1,0
90427,512.820512820513,4,2,33,70,1,0
90679,495.867768595041,4,2,33,70,1,0
90926,495.867768595041,4,2,33,70,1,0
90926,-90.9090909090909,4,2,33,70,0,0
91422,-90.9090909090909,4,2,33,75,0,0
92414,508.474576271186,4,2,33,75,1,0
93162,480,4,2,33,75,1,0
93402,480,4,2,33,75,1,0
93889,521.739130434783,4,2,33,75,1,0
94149,478.08764940239,4,2,33,75,1,0
94388,478.08764940239,4,2,33,75,1,0
94633,521.739130434783,4,2,33,75,1,0
94894,468.75,4,2,33,75,1,0
94894,-90.9090909090909,4,2,33,75,0,0
95129,530.973451327434,4,2,33,75,1,0
95395,495.867768595041,4,2,33,80,1,0
95395,-90.9090909090909,4,2,33,80,0,0
96138,500,4,2,33,80,1,0
96388,500,4,2,33,80,1,0
97888,483.870967741935,4,2,33,80,1,0
98866,504.201680672269,4,2,33,80,1,0
99372,478.08764940239,4,2,33,80,1,1
99372,-76.9230769230769,4,2,33,80,0,1
99856,495.867768595041,4,2,33,80,1,1
99856,-76.9230769230769,4,2,33,80,0,1
103327,495.867768595041,4,2,33,80,1,1
103327,-76.9230769230769,4,2,33,80,0,1
104067,480,4,2,33,80,1,1
104307,480,4,2,33,80,1,1
104553,495.867768595041,4,2,33,80,1,1
104800,495.867768595041,4,2,33,80,1,1
104800,-76.9230769230769,4,2,33,80,0,1
107279,495.867768595041,4,2,33,80,1,1
107279,-76.9230769230769,4,2,33,80,0,1
108768,540.540540540541,4,2,33,80,1,1
108768,-76.9230769230769,4,2,33,80,0,1
109038,495.867768595041,4,2,33,80,1,1
109286,451.127819548872,4,2,33,80,1,1
109512,512.820512820513,4,2,33,80,1,1
109768,512.820512820513,4,2,33,80,1,1
109768,-76.9230769230769,4,2,33,80,0,1
110020,495.867768595041,4,2,33,80,1,1
110267,495.867768595041,4,2,33,80,1,1
110267,-76.9230769230769,4,2,33,80,0,1
111012,480,4,2,33,80,1,1
111252,480,4,2,33,80,1,1
111496,495.867768595041,4,2,33,80,1,1
111743,495.867768595041,4,2,33,80,1,1
111743,-76.9230769230769,4,2,33,80,0,1
112736,526.315789473684,4,2,33,80,1,1
112736,-76.9230769230769,4,2,33,80,0,1
113000,484.652665589661,4,2,33,80,1,1
113242,484.652665589661,4,2,33,80,1,1
113726,-76.9230769230769,4,2,33,80,0,1
113976,495.867768595041,4,2,33,80,1,1
113976,-76.9230769230769,4,2,33,80,0,1
114223,495.867768595041,4,2,33,80,1,1
114223,-76.9230769230769,4,2,33,80,0,1
115214,495.867768595041,4,2,33,80,1,1
115214,-100,4,2,33,65,0,0
117448,521.739130434783,4,2,33,65,1,0
117708,521.739130434783,4,2,33,65,1,0
117969,500,4,2,33,65,1,0
118219,476.190476190476,4,2,33,65,1,0
118457,491.803278688525,4,2,33,65,1,0
118702,491.803278688525,4,2,33,65,1,0
118952,500,4,2,33,65,1,0
119202,500,4,2,33,65,1,0
119939,495.867768595041,4,2,33,65,1,0
120186,495.867768595041,4,2,33,65,1,0
120931,480,4,2,33,65,1,0
121171,480,4,2,33,65,1,0
121416,496.688741721854,4,2,33,65,1,0
121664,496.688741721854,4,2,33,65,1,0
122655,535.714285714286,4,2,33,65,1,0
122920,491.803278688525,4,2,33,65,1,0
123042,566.037735849057,4,2,33,65,1,0
123183,566.037735849057,4,2,33,65,1,0
123183,-125,4,2,33,40,0,0
123410,491.803278688525,4,2,33,40,1,0
123655,491.803278688525,4,2,33,40,1,0
123655,-100,4,2,33,50,0,0
123901,-125,4,2,33,55,0,0
124146,-125,4,2,33,60,0,0
124393,-125,4,2,33,54,0,0
124639,-125,4,2,33,47,0,0
124885,-125,4,2,33,40,0,0
125135,526.315789473684,4,2,33,45,1,0
125135,-125,4,2,33,45,0,0
125399,495.867768595041,4,2,33,45,1,0
125646,495.867768595041,4,2,33,45,1,0
125646,-100,4,2,33,55,0,0
125895,465.116279069767,4,2,33,60,1,0
125895,-125,4,2,33,60,0,0
126127,500,4,2,33,60,1,0
126376,555.555555555556,4,2,33,60,1,0
126515,492.610837438424,4,2,33,70,1,0
126638,492.610837438424,4,2,33,70,1,0
126638,-100,4,2,33,75,0,0
126884,-100,4,2,33,80,0,0
127130,492.610837438424,4,2,33,80,1,0
127622,-100,4,2,33,70,0,0
128115,-100,4,2,33,75,0,0
128368,495.867768595041,4,2,33,75,1,0
128615,495.867768595041,4,2,33,75,1,0
128615,-100,4,2,33,80,0,0
129111,451.127819548872,4,2,33,80,1,0
129336,526.315789473684,4,2,33,80,1,0
129600,461.538461538462,4,2,33,80,1,0
129831,491.803278688525,4,2,33,80,1,0
130077,576.230492196879,4,2,33,80,1,0
130095,461.538461538462,4,2,33,80,1,0
130326,512.820512820513,4,2,33,80,1,0
130582,512.820512820513,4,2,33,80,1,0
130833,489.795918367347,4,2,33,80,1,0
131077,489.795918367347,4,2,33,80,1,0
131077,-83.3333333333333,4,2,33,70,0,0
131574,495.867768595041,4,2,33,70,1,0
131574,-83.3333333333333,4,2,33,70,0,0
131821,-83.3333333333333,4,2,33,54,0,0
132069,-83.3333333333333,4,2,33,70,0,0
132814,508.474576271186,4,2,33,70,1,0
133068,508.474576271186,4,2,33,70,1,0
133068,-83.3333333333333,4,2,33,70,0,0
133319,495.867768595041,4,2,33,70,1,0
133566,495.867768595041,4,2,33,70,1,0
133566,-83.3333333333333,4,2,33,70,0,0
134805,-83.3333333333333,4,2,33,54,0,0
134930,-83.3333333333333,4,2,33,70,0,0
137783,504.201680672269,4,2,33,70,1,0
138035,504.201680672269,4,2,33,70,1,0
138035,-83.3333333333333,4,2,33,70,0,0
138534,487.80487804878,4,2,33,70,1,0
139021,-83.3333333333333,4,2,33,70,0,0
139271,496.688741721854,4,2,33,70,1,0
139519,496.688741721854,4,2,33,70,1,0
139519,-83.3333333333333,4,2,33,70,0,0
143239,521.739130434783,4,2,33,70,1,0
143501,493.827160493827,4,2,33,70,1,0
143501,-83.3333333333333,4,2,33,70,0,0
146463,540.540540540541,4,2,33,70,1,0
146463,-83.3333333333333,4,2,33,70,0,0
146734,468.75,4,2,33,70,1,0
146734,-83.3333333333333,4,2,33,70,0,0
146968,468.75,4,2,33,70,1,0
146968,-83.3333333333333,4,2,33,75,0,0
147207,496.688741721854,4,2,33,75,1,0
147455,496.688741721854,4,2,33,75,1,0
147455,-83.3333333333333,4,2,33,75,0,0
150431,495.867768595041,4,2,33,75,1,0
150431,-83.3333333333333,4,2,33,75,0,0
150926,-83.3333333333333,4,2,33,80,0,0
152663,508.474576271186,4,2,33,80,1,0
152917,508.474576271186,4,2,33,80,1,0
153168,483.870967741935,4,2,33,80,1,0
153409,483.870967741935,4,2,33,80,1,0
153409,-83.3333333333333,4,2,33,80,0,0
153655,495.867768595041,4,2,33,80,1,0
153655,-83.3333333333333,4,2,33,80,0,0
153902,495.867768595041,4,2,33,80,1,0
153902,-83.3333333333333,4,2,33,80,0,0
154894,-83.3333333333333,4,2,33,85,0,0
156629,612.244897959184,4,2,33,85,1,0
156782,441.176470588235,4,2,33,85,1,0
156892,508.474576271186,4,2,33,85,1,0
157402,451.127819548872,4,2,33,85,1,0
157628,495.867768595041,4,2,33,85,1,0
157875,495.867768595041,4,2,33,85,1,0
157875,-83.3333333333333,4,2,33,85,0,0
158246,434.782608695652,4,2,33,85,1,0
158355,424.028268551237,4,2,33,85,1,0

[Colours]
Combo1 : 255,217,170
Combo2 : 255,106,106
Combo3 : 245,73,117

[HitObjects]
0,227,151,6,0,P|19:229|43:226,1,40,2|0,1:2|2:0,2:0:0:0:
78,254,407,2,0,P|97:256|120:252,1,40,2|0,3:2|2:0,2:0:0:0:
153,221,658,1,10,1:2:0:0:
221,287,902,2,2,P|263:290|384:238,1,162.286666666667,2|0,3:2|3:0,2:1:0:0:
406,213,1526,1,0,3:0:0:0:
406,213,1650,1,10,1:2:0:0:
406,213,2134,6,0,P|425:215|448:211,1,40,2|0,1:2|2:0,2:0:0:0:
482,182,2376,2,0,P|479:162|483:139,1,40,2|0,3:2|0:0,2:0:0:0:
449,107,2618,1,10,1:2:0:0:
351,150,2878,2,2,P|309:153|188:103,1,169.317333333333,2|0,3:2|3:0,2:1:0:0:
168,79,3486,1,0,3:2:0:0:
168,79,3599,1,8,1:2:0:0:
168,79,4097,6,0,P|148:81|125:77,1,40,2|0,1:2|2:0,2:0:0:0:
91,110,4366,2,0,P|71:112|48:108,1,40,2|0,3:2|2:0,2:0:0:0:
19,138,4605,1,10,1:2:0:0:
71,227,4862,2,2,P|143:239|218:301,1,166.976,2|0,3:2|3:0,2:1:0:0:
247,343,5478,1,0,3:0:0:0:
247,343,5599,1,10,1:2:0:0:
247,343,6091,6,0,P|286:338|325:345,1,80.3093333333333,2|0,1:2|3:0,2:0:0:0:
369,321,6466,1,0,3:0:0:0:
369,321,6582,2,0,P|408:325|447:318,1,82.408,10|0,1:2|0:0,2:0:0:0:
500,236,7086,1,2,1:0:0:0:
500,236,7226,1,2,2:3:0:0:
451,169,7444,1,4,1:3:0:0:
451,169,7576,1,14,1:2:0:0:
509,81,7838,1,2,2:3:0:0:
436,24,8076,6,0,P|416:26|393:22,1,40,2|0,1:2|2:0,2:0:0:0:
358,52,8323,2,0,P|338:54|315:50,1,40,2|0,3:2|2:0,2:0:0:0:
282,77,8571,1,10,1:2:0:0:
177,46,8840,2,2,P|180:158|170:227,1,160,2|0,3:2|3:0,2:1:0:0:
178,256,9435,1,0,3:0:0:0:
178,256,9559,1,10,1:2:0:0:
178,256,10059,6,0,P|158:254|135:258,1,40,2|0,1:2|2:0,2:0:0:0:
106,292,10309,2,0,P|86:290|63:294,1,40,2|0,3:2|2:0,2:0:0:0:
28,263,10559,1,10,1:2:0:0:
41,161,10814,2,2,P|142:173|216:157,1,166.976,2|0,3:2|3:0,2:1:0:0:
258,157,11433,1,0,3:0:0:0:
258,157,11557,1,8,1:2:0:0:
258,157,12052,6,0,P|278:159|301:155,1,40,2|0,1:2|2:0,2:0:0:0:
334,187,12300,2,0,P|354:189|377:185,1,40,2|0,3:2|2:0,2:0:0:0:
419,170,12547,1,8,1:2:0:0:
497,114,12795,2,0,P|494:74|499:22,1,80,2|0,3:2|1:2,2:0:0:0:
406,1,13290,2,0,P|409:41|404:93,1,78.7072,2|8,3:2|1:2,2:0:0:0:
419,170,13780,1,2,3:2:0:0:
508,135,14033,6,2,P|507:239|500:304,1,156.509333333333,6|8,1:2|1:2,2:1:0:0:
417,256,14766,1,0,3:0:0:0:
417,256,14886,1,0,3:0:0:0:
417,256,15006,2,2,P|375:260|321:252,1,80,2|0,1:0|3:0,0:1:0:0:
304,291,15370,1,0,3:0:0:0:
304,291,15494,2,2,P|262:287|208:295,1,80.3146666666667,8|2,1:2|2:1,2:1:0:0:
155,237,15987,6,2,P|150:198|158:157,1,80.304,6|0,1:0|3:0,2:1:0:0:
203,138,16373,1,0,3:0:0:0:
203,138,16495,2,2,P|208:99|200:58,1,82.6133333333333,14|0,1:2|0:0,2:1:0:0:
105,13,17008,1,0,1:2:0:0:
26,67,17251,2,0,P|26:101|24:114,1,40,2|0,1:2|2:0,2:0:0:0:
64,135,17495,2,0,P|64:169|66:182,1,40,10|0,1:2|2:0,2:0:0:0:
28,204,17746,6,2,P|26:287|43:359,1,153.882666666667,2|2,3:2|1:3,2:1:0:0:
124,313,18490,2,0,P|151:315|173:310,1,40,14|0,1:2|2:0,2:0:0:0:
209,336,18750,2,2,P|302:328|370:353,1,159.672,6|0,1:0|1:0,2:1:0:0:
409,384,19364,1,0,1:0:0:0:
409,384,19492,1,10,1:2:0:0:
409,384,19987,6,2,P|450:380|495:389,1,80,2|0,1:0|1:0,2:1:0:0:
510,345,20355,1,0,1:0:0:0:
510,345,20478,2,2,P|506:304|515:259,1,80,14|0,1:2|2:0,2:1:0:0:
439,203,20969,1,0,1:2:0:0:
359,257,21214,2,0,P|336:254|308:257,1,40,2|0,1:2|2:0,2:0:0:0:
285,220,21463,2,0,P|262:223|234:220,1,40,10|0,1:2|2:0,2:0:0:0:
213,258,21715,6,2,P|162:244|56:255,1,159.365333333333,2|0,3:2|1:0,2:1:0:0:
20,282,22339,1,0,1:0:0:0:
20,282,22462,1,14,1:2:0:0:
0,189,22708,2,2,P|7:118|0:23,1,160,6|0,1:2|1:0,2:1:0:0:
44,5,23323,1,0,1:0:0:0:
44,5,23444,1,10,1:2:0:0:
211,126,23957,5,6,1:0:0:0:
211,126,24444,2,2,P|298:123|359:136,1,131.4112,6|8,1:2|1:3,2:1:0:0:
410,81,25194,1,4,1:3:0:0:
475,127,25439,1,8,1:3:0:0:
446,199,25682,2,0,P|409:193|361:201,1,64,8|14,1:3|1:2,2:0:0:0:
331,254,26175,1,14,1:2:0:0:
362,325,26427,1,12,1:3:0:0:
441,338,26679,1,12,1:3:0:0:
501,283,26932,1,14,1:2:0:0:
467,200,27175,1,14,1:2:0:0:
372,183,27419,1,14,1:0:0:0:
305,101,27667,1,14,1:0:0:0:
342,1,27921,6,2,P|391:6|446:-3,1,79.3706666666667,6|0,1:0|1:0,2:1:0:0:
490,43,28290,1,0,1:0:0:0:
490,43,28407,2,2,P|470:141|468:214,1,158.741333333333,14|12,1:2|1:3,2:1:0:0:
409,275,29154,1,12,1:3:0:0:
409,275,29276,1,0,1:0:0:0:
409,275,29404,2,0,P|363:268|303:279,1,80,14|0,1:2|0:0,2:0:0:0:
240,235,29901,5,2,1:2:0:0:
196,325,30150,1,2,1:2:0:0:
196,325,30275,1,0,1:0:0:0:
196,325,30399,2,0,P|150:332|90:321,1,80,14|0,1:2|0:0,2:0:0:0:
23,351,30897,2,0,P|26:329|21:285,1,40,6|0,1:0|0:0,2:0:0:0:
77,256,31146,2,0,P|74:234|79:190,1,40,0|0,1:2|0:0,2:0:0:0:
1,193,31394,2,2,P|12:119|6:18,1,160,12|12,1:2|1:3,2:1:0:0:
121,64,32131,5,12,1:3:0:0:
121,64,32254,1,0,1:0:0:0:
121,64,32378,2,0,P|161:68|207:63,1,80,14|0,1:2|2:0,2:0:0:0:
278,118,32873,1,2,1:2:0:0:
323,101,32997,1,2,1:2:0:0:
367,118,33121,1,2,1:2:0:0:
461,101,33369,2,0,P|464:174|471:199,1,80,14|0,1:2|1:0,2:0:0:0:
424,244,33742,1,0,1:0:0:0:
424,244,33864,6,0,P|385:238|337:244,1,80,6|0,1:0|0:0,2:0:0:0:
259,197,34361,1,14,1:2:0:0:
201,273,34610,1,2,3:2:0:0:
116,227,34859,2,0,P|105:194|106:138,1,80.6426666666667,6|0,1:0|0:0,2:0:0:0:
184,95,35353,1,12,1:2:0:0:
259,164,35613,1,4,1:2:0:0:
301,143,35735,1,0,1:2:0:0:
345,162,35858,6,0,P|382:168|437:155,1,80,6|0,1:0|1:0,2:0:0:0:
484,111,36227,1,0,1:0:0:0:
484,111,36353,2,0,P|490:74|477:19,1,80,14|0,1:2|2:0,2:0:0:0:
388,1,36853,1,2,1:2:0:0:
312,61,37101,1,2,1:2:0:0:
269,39,37223,1,0,1:0:0:0:
225,59,37346,2,0,P|186:52|146:58,1,80,14|0,1:2|1:0,2:0:0:0:
92,111,37715,1,0,1:2:0:0:
92,111,37842,6,0,P|85:150|91:190,1,80,6|0,1:0|0:0,2:0:0:0:
175,242,38342,1,14,1:2:0:0:
260,194,38589,1,2,3:2:0:0:
341,243,38832,1,2,1:2:0:0:
384,222,38954,1,2,1:2:0:0:
425,245,39076,1,2,1:2:0:0:
491,175,39323,2,0,P|498:136|492:96,1,80,12|0,1:2|1:0,2:0:0:0:
434,52,39707,1,0,1:0:0:0:
434,52,39829,6,0,P|395:58|344:50,1,80,6|0,1:0|1:3,2:0:0:0:
304,112,40200,1,0,1:0:0:0:
304,112,40324,2,0,P|265:106|214:114,1,80,14|0,1:2|2:0,2:0:0:0:
145,54,40820,1,2,1:2:0:0:
100,72,40944,1,2,1:2:0:0:
54,56,41068,2,0,P|55:105|49:148,1,80,2|12,1:2|1:2,2:0:0:0:
121,201,41564,1,2,3:2:0:0:
43,257,41812,5,6,1:2:0:0:
63,300,41936,1,8,3:0:0:0:
46,345,42060,1,6,1:2:0:0:
135,380,42308,1,12,1:2:0:0:
227,354,42556,1,8,1:3:0:0:
220,258,42804,1,6,1:2:0:0:
200,215,42928,1,8,3:0:0:0:
217,170,43053,1,6,1:2:0:0:
131,125,43281,1,14,1:2:0:0:
43,164,43543,1,8,3:0:0:0:
43,257,43806,5,6,1:2:0:0:
0,227,51746,6,0,P|19:229|43:226,1,40,2|0,1:2|2:0,2:0:0:0:
78,255,51990,2,0,P|97:257|120:253,1,40,2|0,3:2|2:0,2:0:0:0:
152,223,52241,1,10,1:2:0:0:
237,302,52510,2,2,P|279:305|399:255,1,168.56,2|0,3:2|3:0,2:1:0:0:
431,228,53101,1,0,3:0:0:0:
431,228,53224,1,10,1:2:0:0:
431,228,53716,6,0,P|429:209|433:186,1,40,2|0,1:2|2:0,2:0:0:0:
396,155,53964,2,0,P|398:136|394:113,1,40,2|0,3:2|2:0,2:0:0:0:
415,71,54211,1,8,1:2:0:0:
321,91,54459,2,2,P|225:87|155:47,1,160,2|0,3:2|3:0,2:1:0:0:
133,34,55079,1,0,3:0:0:0:
133,34,55203,1,10,1:2:0:0:
133,34,55691,6,0,P|112:37|89:33,1,40,2|0,1:2|2:0,2:0:0:0:
58,64,55945,2,0,P|61:85|57:108,1,40,2|0,3:2|0:2,2:0:0:0:
92,142,56210,1,10,1:2:0:0:
187,132,56457,2,2,P|181:239|157:295,1,160,2|0,3:2|3:0,2:1:0:0:
137,331,57077,1,0,3:0:0:0:
137,331,57202,1,10,1:2:0:0:
137,331,57697,6,0,P|92:325|45:332,1,80,2|0,1:2|3:0,2:0:0:0:
31,294,58069,1,0,3:0:0:0:
31,294,58193,2,0,P|25:249|32:201,1,80,10|0,1:2|0:2,2:0:0:0:
92,142,58694,1,2,1:0:0:0:
92,142,58842,2,0,P|96:124|92:96,1,40,2|2,2:3|3:1,2:0:0:0:
73,56,59087,1,4,1:3:0:0:
73,56,59187,1,14,1:2:0:0:
155,6,59420,1,0,2:0:0:0:
241,48,59673,6,0,P|238:103|241:136,1,80,2|0,1:2|0:0,2:0:0:0:
330,161,60175,1,10,1:2:0:0:
396,93,60422,1,2,3:2:0:0:
396,93,60546,1,0,3:0:0:0:
396,93,60670,2,0,P|440:98|489:85,1,80,2|0,1:2|3:0,2:0:0:0:
512,127,61042,1,0,3:0:0:0:
512,127,61166,2,0,P|517:170|504:220,1,80.3226666666667,10|0,1:2|0:0,2:0:0:0:
412,238,61672,6,0,P|389:235|364:239,1,40,2|0,1:2|2:0,2:0:0:0:
340,272,61913,2,0,P|317:269|292:273,1,40,2|0,3:2|2:0,2:0:0:0:
260,247,62155,1,10,1:2:0:0:
170,281,62405,2,2,P|105:277|23:218,1,159,2|0,3:2|3:0,2:1:0:0:
8,194,63024,1,0,3:0:0:0:
8,194,63148,1,8,1:2:0:0:
8,194,63644,6,0,P|12:167|9:110,1,80,2|2,1:2|2:0,2:0:0:0:
103,146,64135,1,8,1:2:0:0:
159,68,64388,2,2,P|225:99|338:84,1,154.312,2|0,3:2|3:0,2:1:0:0:
353,85,65004,1,0,3:0:0:0:
353,85,65132,1,10,1:2:0:0:
436,144,65382,1,2,3:2:0:0:
436,144,65511,1,0,3:0:0:0:
436,144,65640,6,0,P|431:170|435:228,1,80,2|0,1:2|2:0,2:0:0:0:
361,285,66116,1,14,1:2:0:0:
283,240,66354,1,0,2:0:0:0:
224,315,66608,1,2,1:0:0:0:
302,360,66862,1,2,1:0:0:0:
361,285,67116,1,14,1:2:0:0:
283,240,67349,1,2,1:0:0:0:
224,315,67603,6,0,P|186:309|140:314,1,80,6|0,1:0|3:0,2:0:0:0:
109,287,67985,1,0,3:2:0:0:
109,287,68119,2,2,P|103:249|108:203,1,80.0138666666667,14|0,1:2|0:0,2:1:0:0:
188,166,68611,1,0,1:2:0:0:
276,207,68865,2,0,P|305:206|327:210,1,40,2|0,1:2|0:2,2:0:0:0:
357,183,69119,2,0,P|386:184|408:180,1,40,10|0,1:2|0:0,2:0:0:0:
431,221,69373,2,2,P|468:155|477:67,1,163.754666666667,2|0,3:2|1:0,2:1:0:0:
457,29,69975,1,0,1:0:0:0:
457,29,70098,1,14,1:2:0:0:
364,53,70344,6,2,P|291:63|199:47,1,160,6|0,1:0|1:2,2:1:0:0:
167,76,70959,1,0,1:2:0:0:
167,76,71082,1,14,1:2:0:0:
101,14,71328,1,0,3:0:0:0:
101,14,71455,1,0,3:0:0:0:
101,14,71582,6,0,P|62:20|13:11,1,80,2|0,1:2|1:2,2:0:0:0:
4,60,71963,1,0,1:2:0:0:
4,60,72090,2,2,P|-2:99|7:148,1,80,10|0,1:2|0:0,2:1:0:0:
81,196,72585,1,0,1:2:0:0:
171,158,72833,2,0,P|190:161|210:159,1,40,2|0,1:2|0:2,2:0:0:0:
248,130,73074,2,0,P|245:110|247:90,1,40,10|0,1:2|2:0,2:0:0:0:
286,62,73316,2,2,P|363:105|439:97,1,160,2|0,3:2|1:0,2:1:0:0:
478,81,73930,1,0,1:0:0:0:
478,81,74053,1,14,1:2:0:0:
507,169,74299,6,2,P|501:253|508:331,1,160,6|0,1:0|3:0,2:1:0:0:
477,365,74929,1,0,3:0:0:0:
477,365,75055,1,14,1:2:0:0:
336,239,75552,5,6,1:0:0:0:
336,239,76044,2,2,P|272:245|208:237,1,128.520533333333,4|8,1:2|1:3,2:1:0:0:
155,297,76781,1,4,1:3:0:0:
89,251,77028,1,8,1:3:0:0:
0,292,77280,2,0,P|1:260|0:228,1,64,8|14,1:3|1:2,2:0:0:0:
18,149,77779,5,14,1:2:0:0:
88,111,78023,1,12,1:3:0:0:
161,141,78267,1,12,1:3:0:0:
171,220,78511,1,14,1:2:0:0:
232,283,78763,1,14,1:2:0:0:
328,303,79016,1,14,1:0:0:0:
410,237,79264,1,14,1:0:0:0:
510,314,79508,6,2,P|515:285|512:226,1,88,6|0,1:0|3:0,2:1:0:0:
460,174,79876,1,0,3:0:0:0:
460,174,80003,2,2,P|450:102|464:-6,1,174.284005371094,14|12,1:2|1:3,2:1:0:0:
366,37,80757,1,12,1:3:0:0:
316,18,80881,1,0,1:0:0:0:
265,34,81005,2,0,P|220:39|164:28,1,88,14|0,1:2|0:0,2:0:0:0:
71,2,81503,5,2,1:2:0:0:
9,87,81742,1,2,1:2:0:0:
32,134,81861,1,0,1:2:0:0:
8,182,81987,2,0,P|10:228|2:274,1,88,14|0,1:2|0:0,2:0:0:0:
83,337,82482,2,0,P|106:335|127:338,1,44,2|0,1:2|0:0,2:0:0:0:
168,276,82730,2,0,P|191:278|212:275,1,44,2|0,1:2|0:2,2:0:0:0:
263,333,82978,2,2,P|362:348|436:390,1,176,14|12,1:2|1:3,2:1:0:0:
496,303,83722,5,12,1:3:0:0:
473,255,83846,1,0,1:0:0:0:
496,207,83970,2,0,P|500:172|493:115,1,88,14|0,1:2|2:0,2:0:0:0:
388,115,84471,1,2,1:2:0:0:
338,139,84600,1,2,1:2:0:0:
286,114,84729,1,2,1:2:0:0:
210,188,84967,2,0,P|206:223|214:285,1,90.217602685547,14|0,1:2|1:0,2:0:0:0:
165,338,85336,1,0,1:2:0:0:
165,338,85461,6,0,P|114:329|66:335,1,88,6|2,1:0|1:2,2:0:0:0:
21,242,85964,1,14,1:2:0:0:
56,141,86205,1,2,1:2:0:0:
26,96,86326,1,0,1:2:0:0:
55,52,86450,2,2,P|141:61|228:54,1,176,6|12,1:0|1:2,2:1:0:0:
322,119,87196,1,0,1:2:0:0:
371,100,87321,1,0,1:2:0:0:
416,126,87445,6,0,P|418:191|413:219,1,88,6|0,1:0|1:2,2:0:0:0:
363,272,87819,1,0,1:2:0:0:
363,272,87939,2,0,P|319:264|278:273,1,88.3549360188803,14|0,1:2|0:0,2:0:0:0:
207,351,88452,1,2,1:2:0:0:
118,293,88719,1,0,1:2:0:0:
69,316,88835,1,0,1:2:0:0:
22,292,88951,2,0,P|17:250|32:181,1,86.486402685547,14|0,1:2|1:2,2:0:0:0:
83,154,89310,1,0,1:2:0:0:
83,154,89443,6,0,P|127:162|168:153,1,88,6|0,1:0|0:0,2:0:0:0:
270,189,89940,1,14,1:2:0:0:
323,98,90171,1,2,3:2:0:0:
415,149,90427,1,2,1:2:0:0:
435,197,90555,1,2,1:2:0:0:
415,245,90679,1,2,1:2:0:0:
445,345,90926,2,2,P|394:335|305:344,1,132,14|0,1:2|2:0,2:1:0:0:
245,308,91422,6,0,P|218:311|197:306,1,44,6|0,1:0|2:0,2:0:0:0:
148,363,91670,2,0,P|121:360|100:365,1,44,0|0,1:2|2:0,2:0:0:0:
39,328,91918,2,0,P|34:289|40:240,1,88,14|0,1:2|3:0,2:0:0:0:
78,177,92290,1,0,3:0:0:0:
78,177,92414,1,2,1:2:0:0:
163,238,92668,1,2,1:2:0:0:
252,182,92922,1,12,1:2:0:0:
335,246,93162,1,2,3:2:0:0:
422,186,93402,5,6,1:2:0:0:
447,139,93522,1,0,1:2:0:0:
427,89,93642,1,6,1:2:0:0:
335,36,93889,1,12,1:2:0:0:
239,93,94149,1,12,1:2:0:0:
144,36,94388,1,6,1:2:0:0:
119,83,94507,1,0,1:0:0:0:
139,133,94633,1,6,1:2:0:0:
61,224,94894,2,0,P|64:281|57:330,1,88.3754693522137,12|0,1:2|3:0,2:0:0:0:
122,367,95261,1,0,3:2:0:0:
122,366,95395,6,0,P|165:361|208:369,1,88,6|0,1:0|0:0,2:0:0:0:
289,313,95890,1,12,1:2:0:0:
379,366,96138,1,0,3:0:0:0:
452,290,96388,1,2,1:2:0:0:
476,242,96513,1,0,1:0:0:0:
453,194,96638,1,2,1:2:0:0:
359,243,96888,1,12,1:2:0:0:
264,194,97138,1,2,3:2:0:0:
168,239,97388,5,4,1:2:0:0:
145,191,97513,1,0,1:0:0:0:
169,143,97638,1,4,1:2:0:0:
268,99,97888,1,12,1:2:0:0:
362,145,98129,1,14,1:2:0:0:
453,92,98371,1,6,1:2:0:0:
477,45,98492,1,0,1:0:0:0:
447,0,98613,1,6,1:2:0:0:
340,29,98866,1,12,1:2:0:0:
113,5,99372,6,2,P|62:12|0:3,1,104,6|0,1:0|3:0,2:1:0:0:
41,100,99730,1,0,3:0:0:0:
41,100,99856,2,2,P|37:166|41:206,1,104,14|8,1:0|1:3,2:1:0:0:
149,282,100351,1,6,1:2:0:0:
179,246,100475,1,2,2:0:0:0:
224,234,100599,1,2,1:2:0:0:
266,253,100723,1,2,2:0:0:0:
289,295,100847,2,2,P|287:338|289:348,1,52,10|0,1:0|2:0,2:1:0:0:
380,383,101095,1,10,1:0:0:0:
428,262,101343,5,6,1:0:0:0:
500,237,101467,1,2,1:0:0:0:
508,163,101591,2,2,P|510:120|508:110,1,52,2|0,1:2|2:0,2:1:0:0:
413,91,101839,1,10,1:0:0:0:
323,187,102087,1,2,1:2:0:0:
253,148,102211,2,0,P|239:100|242:32,1,104,2|2,1:0|1:0,2:0:0:0:
107,38,102707,1,0,2:0:0:0:
107,38,102831,2,0,P|105:81|107:91,1,52,10|0,1:0|1:0,2:0:0:0:
39,171,103079,1,6,1:2:0:0:
76,296,103327,6,2,P|127:291|179:296,1,104,6|0,1:0|3:0,2:1:0:0:
256,366,103698,1,0,3:0:0:0:
256,366,103822,2,2,P|307:371|359:366,1,103.161061905925,10|8,1:0|1:3,2:1:0:0:
468,287,104307,1,6,1:2:0:0:
422,270,104427,1,2,2:0:0:0:
399,226,104553,1,2,1:2:0:0:
414,181,104676,1,2,2:0:0:0:
458,163,104800,2,2,P|460:120|458:110,1,52,10|0,1:0|2:0,2:1:0:0:
377,59,105048,1,10,1:0:0:0:
266,128,105296,6,2,P|264:171|266:181,1,52,2|0,2:1|2:0,2:1:0:0:
327,257,105544,1,8,1:3:0:0:
458,163,105792,2,2,P|460:120|458:110,1,52,14|0,1:0|2:0,2:1:0:0:
377,59,106040,1,2,1:0:0:0:
266,128,106288,2,2,P|223:130|213:128,1,52,2|0,1:0|2:0,2:1:0:0:
146,198,106536,2,0,P|103:200|93:198,1,52,2|0,1:0|0:0,2:0:0:0:
47,298,106784,1,10,1:0:0:0:
47,298,106908,2,2,P|102:302|154:325,1,104,4|0,1:3|2:0,2:1:0:0:
237,281,107279,6,2,P|280:283|290:281,1,52,6|0,1:0|2:0,2:1:0:0:
363,347,107526,2,2,P|406:349|416:347,1,52,6|0,1:2|2:0,2:1:0:0:
489,281,107774,1,10,1:0:0:0:
381,208,108022,1,6,1:2:0:0:
381,208,108146,2,2,P|338:210|328:208,1,52,2|0,1:0|0:0,2:1:0:0:
269,127,108394,2,2,P|226:129|216:127,1,52,2|0,1:0|0:0,2:1:0:0:
145,62,108642,1,4,1:3:0:0:
145,62,108768,2,2,P|102:64|92:62,1,52,10|0,1:0|2:0,2:1:0:0:
22,130,109038,1,10,1:0:0:0:
114,223,109286,5,6,1:2:0:0:
50,265,109398,1,2,2:0:0:0:
55,340,109512,1,6,1:2:0:0:
176,372,109768,2,2,P|219:374|229:372,1,52,14|0,1:0|2:0,2:1:0:0:
283,290,110020,1,2,1:0:0:0:
401,361,110267,2,2,P|403:318|401:308,1,52,6|0,1:2|2:0,2:1:0:0:
475,245,110515,2,2,P|473:202|475:192,1,52,6|0,1:2|2:0,2:1:0:0:
406,123,110763,1,10,1:0:0:0:
406,123,110887,2,2,P|410:71|400:13,1,103.161061905925,4|0,1:3|2:0,2:1:0:0:
306,0,111252,5,6,1:0:0:0:
259,12,111372,1,2,1:0:0:0:
241,56,111496,1,2,1:2:0:0:
253,101,111619,1,8,1:3:0:0:
294,123,111743,2,0,P|296:166|294:176,1,52,10|2,1:0|1:0,2:0:0:0:
211,227,111991,2,0,P|209:270|211:280,1,52,2|8,1:2|1:3,2:0:0:0:
272,363,112239,1,6,1:2:0:0:
303,328,112363,1,2,1:0:0:0:
349,319,112487,1,2,1:2:0:0:
390,340,112611,1,8,1:3:0:0:
411,378,112736,2,2,P|454:376|464:378,1,52,10|0,1:0|2:0,2:1:0:0:
512,301,113000,1,10,1:0:0:0:
474,206,113242,5,6,1:0:0:0:
448,246,113363,1,8,1:3:0:0:
401,256,113484,1,2,1:2:0:0:
358,234,113605,1,12,1:3:0:0:
342,192,113726,2,2,P|299:194|289:192,1,52,14|0,1:0|0:0,2:1:0:0:
259,276,113976,2,2,P|216:274|206:276,1,52,2|0,1:2|0:0,2:1:0:0:
172,181,114223,2,0,P|129:183|119:181,1,52,14|0,1:0|0:0,2:0:0:0:
93,290,114470,2,0,P|50:288|40:290,1,52,2|0,1:2|0:0,2:0:0:0:
0,171,114719,1,14,1:0:0:0:
0,170,114842,2,0,P|-1:145|2:119,1,52,12|0,1:3|0:0,2:0:0:0:
103,17,115091,1,8,1:3:0:0:
103,17,115215,6,2,P|137:40|259:36,1,160,6|8,1:0|1:2,2:1:0:0:
330,108,115957,2,2,P|323:197|329:277,2,160,6|2|0,1:2|2:0|3:0,2:1:0:0:
371,75,117073,1,0,3:0:0:0:
371,75,117197,2,0,P|420:80|460:71,1,80.6453333333333,6|0,1:2|2:0,2:0:0:0:
511,159,117708,1,14,1:2:0:0:
441,241,117969,6,2,P|366:247|300:294,1,118.08,6|0,1:0|2:0,2:1:0:0:
301,307,118457,1,0,1:0:0:0:
235,226,118702,2,0,P|186:231|146:222,1,81.6266666666667,8|2,1:2|3:2,2:0:0:0:
115,260,119077,1,0,1:2:0:0:
115,260,119202,6,2,P|83:209|82:106,1,160,6|10,1:0|1:2,2:1:0:0:
164,58,119939,1,2,3:1:0:0:
254,107,120186,2,0,P|273:110|293:107,1,40,2|0,1:0|2:0,2:0:0:0:
336,77,120434,1,2,1:0:0:0:
423,133,120682,2,0,P|421:184|430:228,1,80.6453333333333,14|2,1:2|2:3,2:0:0:0:
355,289,121171,1,2,1:0:0:0:
271,227,121416,1,2,1:0:0:0:
203,308,121664,1,14,1:2:0:0:
156,284,121788,1,2,1:0:0:0:
108,305,121912,6,2,P|88:256|93:157,1,120,6|0,1:0|0:0,2:1:0:0:
108,143,122409,1,2,1:0:0:0:
89,94,122533,1,4,1:3:0:0:
118,57,122655,2,0,P|137:60|157:57,1,40,12|2,1:2|2:1,2:0:0:0:
200,20,122920,1,2,1:0:0:0:
272,74,123183,6,2,P|347:84|391:73,1,106.798933333333,6|14,1:0|1:2,2:1:0:0:
443,128,123901,2,2,P|443:186|447:203,1,64,4|0,1:0|1:0,2:1:0:0:
404,261,124393,1,12,1:3:0:0:
404,261,124516,1,2,0:2:0:0:
404,261,124639,1,14,1:2:0:0:
323,210,124885,1,6,1:2:0:0:
266,265,125135,6,2,P|235:260|197:264,1,64.2432,6|12,1:0|1:3,2:1:0:0:
162,174,125646,1,6,1:2:0:0:
88,203,125895,2,2,P|70:156|81:66,1,132.642133333333,6|2,1:2|1:0,2:1:0:0:
162,36,126638,1,12,1:3:0:0:
244,84,126884,1,12,1:3:0:0:
328,39,127130,6,2,P|404:56|496:38,1,160,14|12,1:2|1:3,2:1:0:0:
450,137,127868,1,12,1:3:0:0:
502,217,128115,2,2,P|498:284|501:308,1,82.2736,14|14,1:2|1:2,2:1:0:0:
416,349,128615,1,14,1:0:0:0:
332,302,128863,1,14,1:0:0:0:
332,301,131077,6,0,P|379:297|427:305,1,96,6|0,1:0|3:0,2:0:0:0:
492,259,131445,1,0,3:0:0:0:
492,259,131574,2,2,P|498:211|493:164,1,96,14|0,2:0|2:0,2:1:0:0:
421,59,132069,2,2,P|349:68|278:58,1,144,12|0,1:3|2:0,2:0:0:0:
222,110,132565,1,14,1:2:0:0:
299,195,132814,1,2,3:2:0:0:
271,246,132941,1,0,3:2:0:0:
300,295,133068,6,0,P|297:329|299:343,1,48,2|0,1:2|0:0,2:0:0:0:
235,384,133319,1,2,3:2:0:0:
170,289,133566,2,0,P|173:254|171:241,1,48,14|0,1:2|2:0,2:0:0:0:
221,182,133814,1,2,3:2:0:0:
149,93,134062,2,0,P|114:96|101:94,1,48,6|0,1:0|2:0,2:0:0:0:
67,161,134310,2,0,P|32:158|19:160,1,48,0|0,1:0|0:2,2:0:0:0:
0,234,134558,2,2,P|-1:290|9:336,1,96,14|2,1:2|2:0,2:1:0:0:
77,367,134930,1,2,2:0:0:0:
77,367,135054,5,12,1:3:0:0:
271,246,135550,2,0,P|322:254|381:245,1,96,14|0,1:2|3:0,2:0:0:0:
432,205,135922,1,0,3:0:0:0:
432,205,136046,2,0,P|440:154|431:95,1,96,2|0,1:2|0:2,2:0:0:0:
331,34,136542,1,14,1:2:0:0:
278,58,136666,1,0,1:0:0:0:
225,34,136790,1,2,1:2:0:0:
123,89,137038,6,0,P|124:136|120:154,1,48,6|0,1:0|2:0,2:0:0:0:
179,186,137285,2,0,P|178:233|182:251,1,48,2|0,3:2|0:2,2:0:0:0:
141,299,137533,1,14,1:2:0:0:
48,365,137783,1,2,3:2:0:0:
0,260,138035,2,0,P|-3:200|9:136,1,96,6|0,1:0|1:2,2:0:0:0:
46,102,138413,1,0,1:2:0:0:
46,102,138534,1,12,1:2:0:0:
151,160,138777,1,0,3:2:0:0:
208,60,139021,6,0,P|258:69|323:55,1,98.7551970703126,6|0,1:0|3:0,2:0:0:0:
362,117,139395,1,0,3:0:0:0:
362,117,139519,2,0,P|412:108|477:122,1,96,14|0,1:2|0:0,2:0:0:0:
499,221,140016,1,2,1:2:0:0:
474,273,140140,1,0,1:0:0:0:
498,325,140264,1,2,3:2:0:0:
395,377,140512,2,0,P|347:370|299:374,1,96,14|0,1:2|1:2,2:0:0:0:
242,322,140885,1,0,1:2:0:0:
242,322,141009,6,0,P|194:328|147:321,1,96,6|0,1:0|0:2,2:0:0:0:
76,229,141506,2,0,P|78:205|75:166,1,48,14|0,1:2|2:0,2:0:0:0:
138,132,141754,1,2,3:2:0:0:
234,193,142002,1,2,1:2:0:0:
286,169,142126,1,2,3:2:0:0:
336,197,142251,1,2,3:2:0:0:
420,119,142499,1,12,1:2:0:0:
216,10,142996,6,0,P|168:16|118:9,1,94.0671970703126,6|2,1:0|3:2,2:0:0:0:
67,66,143369,1,0,3:0:0:0:
67,66,143501,2,0,P|73:113|66:163,1,96,14|0,1:2|0:0,2:0:0:0:
156,233,143994,2,0,P|154:275|159:297,1,48,6|0,1:0|2:0,2:0:0:0:
195,347,144241,2,0,P|237:345|259:350,1,48,6|0,1:2|2:0,2:0:0:0:
309,307,144488,1,14,1:2:0:0:
406,369,144735,1,2,3:2:0:0:
497,298,144982,5,6,1:0:0:0:
471,246,145105,1,2,1:2:0:0:
497,194,145229,1,2,3:0:0:0:
420,107,145476,2,0,P|396:109|372:107,1,48,14|0,1:2|2:0,2:0:0:0:
328,169,145723,2,0,P|304:166|280:168,1,48,14|0,1:2|0:0,2:0:0:0:
222,121,145970,1,6,1:2:0:0:
170,147,146093,1,8,3:0:0:0:
118,121,146217,1,6,1:2:0:0:
53,203,146463,2,0,P|55:226|53:250,1,48,14|0,1:2|2:0,2:0:0:0:
116,292,146734,2,0,P|113:315|115:339,1,48,12|0,1:2|0:2,2:0:0:0:
183,377,146968,6,0,P|232:363|279:368,1,98.0479970703126,6|0,1:0|1:0,2:0:0:0:
342,324,147331,1,0,1:0:0:0:
342,324,147455,2,0,P|391:337|438:333,1,96,14|0,1:2|0:0,2:0:0:0:
504,240,147952,2,0,P|501:216|503:192,1,48,6|0,1:0|2:0,2:0:0:0:
449,140,148200,2,0,P|451:116|449:92,1,48,2|0,1:3|0:0,2:0:0:0:
497,32,148448,1,12,1:2:0:0:
385,2,148697,1,6,3:2:0:0:
324,100,148945,5,6,1:0:0:0:
272,74,149069,1,0,1:0:0:0:
220,100,149193,1,2,1:0:0:0:
126,31,149442,2,0,P|102:33|78:31,1,48,14|0,1:2|2:0,2:0:0:0:
25,88,149690,2,0,P|27:111|25:135,1,48,14|0,1:2|1:2,2:0:0:0:
72,197,149938,1,6,1:0:0:0:
124,171,150062,1,8,3:0:0:0:
176,197,150187,1,6,1:2:0:0:
254,279,150431,2,0,P|277:276|301:278,1,48,12|0,1:2|2:0,2:0:0:0:
355,220,150678,2,0,P|352:196|354:172,1,48,12|0,1:2|2:0,2:0:0:0:
323,100,150926,6,0,P|276:106|229:98,1,96,6|0,1:0|1:0,2:0:0:0:
192,168,151298,1,0,1:0:0:0:
192,168,151422,2,0,P|144:161|97:169,1,96,14|14,1:2|1:2,2:0:0:0:
28,262,151918,2,0,P|30:285|28:309,1,48,6|0,1:0|2:0,2:0:0:0:
78,366,152166,2,0,P|101:363|125:365,1,48,6|0,1:2|2:0,2:0:0:0:
186,318,152414,1,14,1:2:0:0:
283,375,152663,1,6,1:2:0:0:
362,292,152917,5,6,1:0:0:0:
412,318,153044,1,0,1:0:0:0:
466,294,153168,1,6,1:0:0:0:
511,189,153409,2,0,P|508:165|510:141,1,48,14|0,1:2|0:0,2:0:0:0:
454,93,153655,2,0,P|456:69|454:45,1,48,14|0,1:2|0:0,2:0:0:0:
387,14,153902,1,6,1:0:0:0:
334,41,154026,1,8,3:0:0:0:
281,16,154150,1,4,1:2:0:0:
201,97,154397,2,0,P|177:94|153:96,1,48,14|0,1:2|0:0,2:0:0:0:
106,38,154645,2,0,P|82:40|58:38,1,48,14|2,1:2|0:0,2:0:0:0:
11,97,154894,6,0,P|14:150|5:206,1,96,6|0,1:0|1:0,2:0:0:0:
42,265,155266,1,0,1:0:0:0:
42,265,155390,2,0,P|95:262|151:271,1,96,14|4,1:2|1:2,2:0:0:0:
247,230,155886,2,0,P|270:232|294:230,1,48,6|0,1:0|2:0,2:0:0:0:
333,297,156134,2,0,P|356:294|380:296,1,48,6|0,1:2|2:0,2:0:0:0:
449,260,156382,2,0,P|465:220|467:158,1,95.9999970703126,14|6,1:2|1:2,2:0:0:0:
412,118,156782,5,8,1:3:0:0:
412,118,156892,1,14,1:0:0:0:
290,154,157146,1,14,1:0:0:0:
235,39,157402,1,14,1:2:0:0:
235,39,157514,1,14,1:2:0:0:
357,3,157751,1,8,3:2:0:0:
357,3,157875,2,0,P|358:40|353:65,1,48,14|14,1:0|1:2,2:0:0:0:
412,118,158123,1,6,3:1:0:0:
412,118,158246,1,12,1:3:0:0:
412,118,158355,1,14,1:2:0:0:
