osu file format v14

[General]
AudioFilename: audio.mp3
AudioLeadIn: 0
PreviewTime: 75422
Countdown: 0
SampleSet: Soft
StackLeniency: 0.4
Mode: 0
LetterboxInBreaks: 0
WidescreenStoryboard: 1

[Editor]
DistanceSpacing: 1.5
BeatDivisor: 4
GridSize: 32
TimelineZoom: 0.8999996

[Metadata]
Title:Buddy Holly
TitleUnicode:Buddy Holly
Artist:Weezer
ArtistUnicode:Weezer
Creator:Ruiz Duchamp
Version:Extra (2021)
Source:
Tags:blue album english alternative rock
BeatmapID:4212610
BeatmapSetID:2022594

[Difficulty]
HPDrainRate:6
CircleSize:4
OverallDifficulty:9
ApproachRate:9.2
SliderMultiplier:2.5
SliderTickRate:0.5

[Events]
//Background and Video events
0,0,"weezer_waifu2x_photo_noise0_scale_tta_1.jpg",0,0
//Break Periods
2,129186,130507
//Storyboard Layer 0 (Background)
//Storyboard Layer 1 (Fail)
//Storyboard Layer 2 (Pass)
//Storyboard Layer 3 (Foreground)
//Storyboard Layer 4 (Overlay)
//Storyboard Sound Samples

[TimingPoints]
151,512.820512820513,4,2,33,60,1,0
151,-133.333333333333,4,2,33,60,0,0
658,489.795918367347,4,2,33,60,1,0
658,-133.333333333333,4,2,33,60,0,0
1142,512.820512820513,4,2,33,60,1,0
1142,-133.333333333333,4,2,33,60,0,0
1650,495.867768595041,4,2,33,60,1,0
1650,-133.333333333333,4,2,33,60,0,0
1898,472.44094488189,4,2,33,60,1,0
2134,472.44094488189,4,2,33,60,1,0
2134,-133.333333333333,4,2,33,60,0,0
2376,483.870967741935,4,2,33,60,1,0
2376,-133.333333333333,4,2,33,60,0,0
2618,521.739130434783,4,2,33,60,1,0
2618,-133.333333333333,4,2,33,60,0,0
2878,468.75,4,2,33,60,1,0
3113,521.739130434783,4,2,33,60,1,0
3113,-133.333333333333,4,2,33,60,0,0
3374,451.127819548872,4,2,33,60,1,0
3599,521.739130434783,4,2,33,60,1,0
3599,-80,4,2,33,60,0,0
3859,476.190476190476,4,2,33,60,1,0
4097,535.714285714286,4,2,33,60,1,0
4097,-133.333333333333,4,2,33,60,0,0
4366,476.190476190476,4,2,33,60,1,0
4605,512.820512820513,4,2,33,60,1,0
4862,476.190476190476,4,2,33,60,1,0
4862,-133.333333333333,4,2,33,60,0,0
5100,517.241379310345,4,2,33,60,1,0
5100,-133.333333333333,4,2,33,60,0,0
5358,483.870967741935,4,2,33,60,1,0
5599,526.315789473684,4,2,33,60,1,0
5599,-133.333333333333,4,2,33,60,0,0
5862,458.015267175573,4,2,33,60,1,0
6091,517.241379310345,4,2,33,60,1,0
6091,-133.333333333333,4,2,33,60,0,0
6350,465.116279069767,4,2,33,60,1,0
6582,465.116279069767,4,2,33,60,1,0
6582,-133.333333333333,4,2,33,60,0,0
6821,530.973451327434,4,2,33,60,1,0
7086,530.973451327434,4,2,33,60,1,0
7086,-133.333333333333,4,2,33,60,0,0
7226,437.956204379562,4,2,33,60,1,0
7444,528.63436123348,4,2,33,60,1,0
7576,521.739130434783,4,2,33,60,1,0
7576,-133.333333333333,4,2,33,60,0,0
7838,476.190476190476,4,2,33,60,1,0
8076,495.867768595041,4,2,33,60,1,0
8076,-133.333333333333,4,2,33,60,0,0
8571,538.116591928251,4,2,33,60,1,0
8840,476.190476190476,4,2,33,60,1,0
8840,-133.333333333333,4,2,33,60,0,0
9078,476.190476190476,4,2,33,60,1,0
9078,-133.333333333333,4,2,33,60,0,0
9559,500,4,2,33,60,1,0
9559,-133.333333333333,4,2,33,60,0,0
10814,476.190476190476,4,2,33,60,1,0
10814,-133.333333333333,4,2,33,60,0,0
11052,517.241379310345,4,2,33,60,1,0
11052,-133.333333333333,4,2,33,60,0,0
11310,495.049504950495,4,2,33,60,1,0
11557,495.049504950495,4,2,33,60,1,0
11557,-80,4,2,33,60,0,0
12052,-133.333333333333,4,2,33,60,0,0
13533,495.867768595041,4,2,33,60,1,0
13780,-133.333333333333,4,2,33,60,0,0
14033,504.201680672269,4,2,33,60,1,0
14033,-133.333333333333,4,2,33,60,0,0
14286,480,4,2,33,60,1,0
14526,480,4,2,33,60,1,0
15006,-133.333333333333,4,2,33,60,0,0
15246,497.92531120332,4,2,33,60,1,0
15494,508.474576271186,4,2,33,60,1,0
15749,476.190476190476,4,2,33,60,1,0
15987,526.315789473684,4,2,33,60,1,0
15987,-114.285714285714,4,2,33,60,0,0
16251,489.795918367347,4,2,33,60,1,0
16495,489.795918367347,4,2,33,60,1,0
16495,-114.285714285714,4,2,33,60,0,0
16747,521.739130434783,4,2,33,60,1,0
17008,487.80487804878,4,2,33,60,1,0
17008,-114.285714285714,4,2,33,60,0,0
17746,535.714285714286,4,2,33,60,1,0
17746,-114.285714285714,4,2,33,60,0,0
18014,495.867768595041,4,2,33,60,1,0
18261,458.015267175573,4,2,33,60,1,0
18490,521.739130434783,4,2,33,60,1,0
18490,-114.285714285714,4,2,33,60,0,0
18750,487.80487804878,4,2,33,60,1,0
18750,-114.285714285714,4,2,33,60,0,0
18993,487.80487804878,4,2,33,60,1,0
19236,512.820512820513,4,2,33,60,1,0
19492,512.820512820513,4,2,33,60,1,0
19492,-114.285714285714,4,2,33,60,0,0
19742,490.998363338789,4,2,33,60,1,0
19742,-114.285714285714,4,2,33,60,0,0
19987,490.998363338789,4,2,33,60,1,0
19987,-114.285714285714,4,2,33,60,0,0
21463,504.201680672269,4,2,33,60,1,0
21715,-114.285714285714,4,2,33,60,0,0
22217,491.803278688525,4,2,33,60,1,0
22462,491.803278688525,4,2,33,60,1,0
22462,-114.285714285714,4,2,33,60,0,0
23444,517.241379310345,4,2,33,60,1,0
23444,-114.285714285714,4,2,33,60,0,0
23957,487.80487804878,4,2,33,40,1,0
23957,-200,4,2,33,40,0,0
24694,500,4,2,33,40,1,0
24944,500,4,2,33,50,1,0
25194,-100,4,2,33,55,0,0
25439,487.80487804878,4,2,33,60,1,0
25682,-160,4,2,33,65,0,0
26175,504.201680672269,4,2,33,65,1,0
26427,504.201680672269,4,2,33,60,1,0
26679,-160,4,2,33,65,0,0
26932,487.80487804878,4,2,33,70,1,0
27175,-133.333333333333,4,2,33,75,0,0
27418,-133.333333333333,4,2,33,60,0,0
27667,508.474576271186,4,2,33,45,1,0
27921,508.474576271186,4,2,33,70,1,0
27921,-133.333333333333,4,2,33,70,0,0
28173,468.75,4,2,33,70,1,0
28407,508.474576271186,4,2,33,70,1,0
28407,-80,4,2,33,70,0,0
28911,487.80487804878,4,2,33,70,1,0
28911,-80,4,2,33,70,0,0
29404,497.92531120332,4,2,33,70,1,0
29901,-80,4,2,33,70,0,0
31394,491.803278688525,4,2,33,70,1,0
31394,-80,4,2,33,70,0,0
31455,-80,4,2,33,30,0,0
31516,-80,4,2,33,38,0,0
31578,-80,4,2,33,46,0,0
31639,-80,4,2,33,54,0,0
31701,-80,4,2,33,62,0,0
31762,-80,4,2,33,70,0,0
31885,-133.333333333333,4,2,33,70,0,0
32378,500,4,2,33,70,1,0
32378,-80,4,2,33,70,0,0
32873,496.688741721854,4,2,33,70,1,0
33369,-80,4,2,33,70,0,0
33864,497.92531120332,4,2,33,70,1,0
33864,-80,4,2,33,70,0,0
35109,487.80487804878,4,2,33,70,1,0
35353,521.739130434783,4,2,33,70,1,0
35353,-80,4,2,33,70,0,0
35613,491.803278688525,4,2,33,70,1,0
35613,-80,4,2,33,70,0,0
35858,491.803278688525,4,2,33,70,1,0
35858,-80,4,2,33,70,0,0
36353,500,4,2,33,70,1,0
36353,-80,4,2,33,70,0,0
37101,491.803278688525,4,2,33,70,1,0
37346,491.803278688525,4,2,33,70,1,0
37346,-80,4,2,33,70,0,0
37842,500,4,2,33,70,1,0
37842,-80,4,2,33,70,0,0
38589,487.80487804878,4,2,33,70,1,0
38832,487.80487804878,4,2,33,70,1,0
39323,512.820512820513,4,2,33,70,1,0
39323,-80,4,2,33,70,0,0
39829,495.867768595041,4,2,33,75,1,0
39829,-80,4,2,33,75,0,0
43053,454.545454545455,4,2,33,75,1,0
43053,-80,4,2,33,75,0,0
43281,592.592592592593,4,2,33,75,1,0
43281,-200,4,2,33,75,0,0
43318,451.127819548872,4,2,33,75,1,0
43543,526.315789473684,4,2,33,60,1,0
43806,495.867768595041,4,2,33,60,1,0
43806,-200,4,2,33,60,0,0
45037,517.241379310345,4,2,33,60,1,0
45295,476.190476190476,4,2,33,60,1,0
45533,512.820512820513,4,2,33,60,1,0
45790,476.190476190476,4,2,33,60,1,0
46029,517.241379310345,4,2,33,60,1,0
46287,484.770138159489,4,2,33,60,1,0
46529,-200,4,2,33,60,0,0
47021,495.049504950495,4,2,33,60,1,0
47268,495.049504950495,4,2,33,60,1,0
47268,-200,4,2,33,60,0,0
49500,517.241379310345,4,2,33,60,1,0
49758,480,4,2,33,60,1,0
50120,517.241379310345,4,2,33,60,1,0
50249,500,4,2,33,60,1,0
50249,-200,4,2,33,60,0,0
50999,517.241379310345,4,2,33,60,1,0
51128,495.867768595041,4,2,33,60,1,0
51252,494.845360824742,4,2,33,60,1,0
51746,489.795918367347,4,2,33,60,1,0
51746,-133.333333333333,4,2,33,60,0,0
52241,535.714285714286,4,2,33,60,1,0
52510,444.444444444444,4,2,33,60,1,0
52510,-133.333333333333,4,2,33,60,0,0
52733,491.803278688525,4,2,33,60,1,0
53224,-133.333333333333,4,2,33,60,0,0
53964,495.867768595041,4,2,33,60,1,0
54211,495.867768595041,4,2,33,60,1,0
54458,-133.333333333333,4,2,33,60,0,0
55202,-80,4,2,33,60,0,0
55452,476.190476190476,4,2,33,60,1,0
55691,508.474576271186,4,2,33,60,1,0
55691,-133.333333333333,4,2,33,60,0,0
55945,530.973451327434,4,2,33,60,1,0
56210,495.867768595041,4,2,33,60,1,0
56457,-133.333333333333,4,2,33,60,0,0
57202,495.867768595041,4,2,33,60,1,0
57202,-133.333333333333,4,2,33,60,0,0
58694,594.059405940594,4,2,33,60,1,0
58694,-133.333333333333,4,2,33,60,0,0
58842,521.739130434783,4,2,33,60,1,0
58972,461.538461538462,4,2,33,60,1,0
59087,400,4,2,33,60,1,0
59187,465.116279069767,4,2,33,60,1,0
59187,-133.333333333333,4,2,33,60,0,0
59420,506.329113924051,4,2,33,60,1,0
59673,506.329113924051,4,2,33,60,1,0
59673,-133.333333333333,4,2,33,60,0,0
60175,495.867768595041,4,2,33,60,1,0
60422,-133.333333333333,4,2,33,60,0,0
61414,517.241379310345,4,2,33,60,1,0
61672,483.870967741935,4,2,33,60,1,0
61672,-133.333333333333,4,2,33,60,0,0
62155,500,4,2,33,60,1,0
62405,-133.333333333333,4,2,33,60,0,0
62901,495.867768595041,4,2,33,60,1,0
63148,495.867768595041,4,2,33,60,1,0
63148,-80,4,2,33,60,0,0
63644,485.82995951417,4,2,33,60,1,0
63644,-133.333333333333,4,2,33,60,0,0
64135,506.329113924051,4,2,33,60,1,0
64388,-133.333333333333,4,2,33,60,0,0
64636,480,4,2,33,60,1,0
64636,-133.333333333333,4,2,33,60,0,0
64876,512.820512820513,4,2,33,60,1,0
65132,512.820512820513,4,2,33,60,1,0
65132,-133.333333333333,4,2,33,60,0,0
65382,517.241379310345,4,2,33,60,1,0
65382,-133.333333333333,4,2,33,60,0,0
65640,476.190476190476,4,2,33,60,1,0
65640,-133.333333333333,4,2,33,60,0,0
66354,508.474576271186,4,2,33,60,1,0
66608,508.474576271186,4,2,33,60,1,0
66608,-133.333333333333,4,2,33,60,0,0
67349,509.337860780985,4,2,33,60,1,0
67603,509.337860780985,4,2,33,60,1,0
67603,-114.285714285714,4,2,33,60,0,0
68119,476.190476190476,4,2,33,60,1,0
68119,-114.285714285714,4,2,33,60,0,0
68357,508.474576271186,4,2,33,60,1,0
68611,508.474576271186,4,2,33,60,1,0
68611,-114.285714285714,4,2,33,60,0,0
69373,468.75,4,2,33,60,1,0
69373,-114.285714285714,4,2,33,60,0,0
69607,491.803278688525,4,2,33,60,1,0
69607,-114.285714285714,4,2,33,60,0,0
71328,508.474576271186,4,2,33,60,1,0
71582,508.474576271186,4,2,33,60,1,0
71582,-114.285714285714,4,2,33,60,0,0
72090,495.867768595041,4,2,33,60,1,0
72090,-114.285714285714,4,2,33,60,0,0
72833,483.870967741935,4,2,33,60,1,0
72833,-114.285714285714,4,2,33,60,0,0
73074,483.870967741935,4,2,33,60,1,0
73074,-114.285714285714,4,2,33,60,0,0
73316,491.803278688525,4,2,33,60,1,0
73561,491.803278688525,4,2,33,60,1,0
73561,-114.285714285714,4,2,33,60,0,0
74299,504.201680672269,4,2,33,60,1,0
74299,-114.285714285714,4,2,33,60,0,0
74551,504.201680672269,4,2,33,60,1,0
74551,-114.285714285714,4,2,33,60,0,0
75307,491.803278688525,4,2,33,60,1,0
75552,491.803278688525,4,2,33,60,1,0
75552,-200,4,2,33,60,0,0
75797,-200,4,2,33,55,0,0
76043,-200,4,2,33,50,0,0
76294,487.80487804878,4,2,33,45,1,0
76537,487.80487804878,4,2,33,50,1,0
76780,-100,4,2,33,55,0,0
77028,504.201680672269,4,2,33,60,1,0
77280,-160,4,2,33,65,0,0
77532,-160,4,2,33,70,0,0
77779,488.599348534202,4,2,33,65,1,0
77779,-160,4,2,33,65,0,0
78023,488.599348534202,4,2,33,60,1,0
78267,-100,4,2,33,65,0,0
78511,-100,4,2,33,70,0,0
78763,506.329113924051,4,2,33,75,1,0
79016,506.329113924051,4,2,33,60,1,0
79264,489.795918367347,4,2,33,45,1,0
79508,489.795918367347,4,2,33,70,1,0
79508,-133.333333333333,4,2,33,70,0,0
80003,512.820512820513,4,2,33,70,1,0
80003,-80,4,2,33,70,0,0
80510,495.867768595041,4,2,33,70,1,0
80510,-80,4,2,33,70,0,0
81503,478.08764940239,4,2,33,70,1,0
81503,-80,4,2,33,70,0,0
81987,495.867768595041,4,2,33,70,1,0
81987,-80,4,2,33,70,0,0
83039,-80,4,2,33,30,0,0
83101,-80,4,2,33,38,0,0
83163,-80,4,2,33,46,0,0
83225,-80,4,2,33,54,0,0
83287,-80,4,2,33,62,0,0
83349,-80,4,2,33,70,0,0
83474,-133.333333333333,4,2,33,70,0,0
83970,-80,4,2,33,70,0,0
84471,517.241379310345,4,2,33,70,1,0
84729,476.190476190476,4,2,33,70,1,0
84729,-80,4,2,33,70,0,0
84967,476.190476190476,4,2,33,70,1,0
84967,-80,4,2,33,70,0,0
85211,500,4,2,33,70,1,0
85211,-80,4,2,33,70,0,0
85461,500,4,2,33,70,1,0
85461,-80,4,2,33,70,0,0
85964,483.870967741935,4,2,33,70,1,0
86205,-80,4,2,33,70,0,0
86450,497.92531120332,4,2,33,70,1,0
86450,-80,4,2,33,70,0,0
87939,495.867768595041,4,2,33,70,1,0
87939,-80,4,2,33,70,0,0
88187,530.973451327434,4,2,33,70,1,0
88452,530.973451327434,4,2,33,70,1,0
88719,465.116279069767,4,2,33,70,1,0
88951,465.116279069767,4,2,33,70,1,0
88951,-80,4,2,33,70,0,0
89179,526.315789473684,4,2,33,70,1,0
89443,495.867768595041,4,2,33,70,1,0
89443,-80,4,2,33,70,0,0
89940,461.538461538462,4,2,33,70,1,0
89940,-80,4,2,33,70,0,0
90171,512.820512820513,4,2,33,70,1,0
90427,512.820512820513,4,2,33,70,1,0
90427,-80,4,2,33,70,0,0
90679,495.867768595041,4,2,33,70,1,0
90679,-80,4,2,33,70,0,0
90926,495.867768595041,4,2,33,70,1,0
90926,-80,4,2,33,70,0,0
91421,-80,4,2,33,75,0,0
92414,508.474576271186,4,2,33,75,1,0
92414,-80,4,2,33,75,0,0
93162,480,4,2,33,75,1,0
93402,480,4,2,33,75,1,0
93402,-80,4,2,33,75,0,0
93889,521.739130434783,4,2,33,75,1,0
93889,-80,4,2,33,75,0,0
94149,478.08764940239,4,2,33,75,1,0
94388,478.08764940239,4,2,33,75,1,0
94633,521.739130434783,4,2,33,75,1,0
94894,468.75,4,2,33,75,1,0
94894,-80,4,2,33,75,0,0
95129,530.973451327434,4,2,33,75,1,0
95395,495.867768595041,4,2,33,80,1,0
95395,-80,4,2,33,80,0,0
96138,500,4,2,33,80,1,0
96388,500,4,2,33,80,1,0
96388,-80,4,2,33,80,0,0
97888,483.870967741935,4,2,33,80,1,0
97888,-80,4,2,33,80,0,0
98866,504.201680672269,4,2,33,80,1,0
99372,478.08764940239,4,2,33,80,1,1
99372,-66.6666666666667,4,2,33,80,0,1
99856,495.867768595041,4,2,33,80,1,1
99856,-66.6666666666667,4,2,33,80,0,1
103327,495.867768595041,4,2,33,80,1,1
103327,-200,4,2,33,80,0,1
103822,-66.6666666666667,4,2,33,80,0,1
104067,480,4,2,33,80,1,1
104307,480,4,2,33,80,1,1
104553,495.867768595041,4,2,33,80,1,1
104553,-66.6666666666667,4,2,33,80,0,1
104800,495.867768595041,4,2,33,80,1,1
104800,-66.6666666666667,4,2,33,80,0,1
105295,-200,4,2,33,80,0,1
105543,-66.6666666666667,4,2,33,80,0,1
107279,495.867768595041,4,2,33,80,1,1
107279,-66.6666666666667,4,2,33,80,0,1
108768,540.540540540541,4,2,33,80,1,1
108768,-66.6666666666667,4,2,33,80,0,1
109038,495.867768595041,4,2,33,80,1,1
109286,451.127819548872,4,2,33,80,1,1
109286,-66.6666666666667,4,2,33,80,0,1
109512,512.820512820513,4,2,33,80,1,1
109768,512.820512820513,4,2,33,80,1,1
109768,-66.6666666666667,4,2,33,80,0,1
110020,495.867768595041,4,2,33,80,1,1
110267,495.867768595041,4,2,33,80,1,1
110267,-66.6666666666667,4,2,33,80,0,1
111012,480,4,2,33,80,1,1
111252,480,4,2,33,80,1,1
111496,495.867768595041,4,2,33,80,1,1
111743,495.867768595041,4,2,33,80,1,1
112736,526.315789473684,4,2,33,80,1,1
112736,-66.6666666666667,4,2,33,80,0,1
113000,484.652665589661,4,2,33,80,1,1
113242,484.652665589661,4,2,33,80,1,1
113726,-57.1428571428571,4,2,33,80,0,1
113976,495.867768595041,4,2,33,80,1,1
114223,495.867768595041,4,2,33,80,1,1
114966,-50,4,2,33,80,0,1
115214,495.867768595041,4,2,33,65,1,0
117448,521.739130434783,4,2,33,65,1,0
117708,521.739130434783,4,2,33,65,1,0
117969,500,4,2,33,65,1,0
118219,476.190476190476,4,2,33,65,1,0
118457,491.803278688525,4,2,33,65,1,0
118702,491.803278688525,4,2,33,65,1,0
118952,500,4,2,33,65,1,0
119202,500,4,2,33,65,1,0
119939,495.867768595041,4,2,33,65,1,0
120186,495.867768595041,4,2,33,65,1,0
120931,480,4,2,33,65,1,0
121171,480,4,2,33,65,1,0
121416,496.688741721854,4,2,33,65,1,0
121664,496.688741721854,4,2,33,65,1,0
122655,535.714285714286,4,2,33,65,1,0
122920,491.803278688525,4,2,33,65,1,0
123042,566.037735849057,4,2,33,65,1,0
123183,566.037735849057,4,2,33,40,1,0
123183,-200,4,2,33,40,0,0
123410,491.803278688525,4,2,33,40,1,0
123655,491.803278688525,4,2,33,40,1,0
123900,-200,4,2,33,55,0,0
124391,-200,4,2,33,54,0,0
124638,-200,4,2,33,47,0,0
124884,-200,4,2,11,40,0,0
125135,526.315789473684,4,2,33,45,1,0
125135,-160,4,2,33,45,0,0
125399,495.867768595041,4,2,33,45,1,0
125646,495.867768595041,4,2,33,55,1,0
125895,465.116279069767,4,2,33,60,1,0
125895,-160,4,2,33,60,0,0
126127,500,4,2,33,60,1,0
126376,555.555555555556,4,2,33,60,1,0
126515,492.610837438424,4,2,33,70,1,0
126638,492.610837438424,4,2,33,75,1,0
126638,-160,4,2,33,75,0,0
126884,-160,4,2,33,80,0,0
127130,492.610837438424,4,2,33,80,1,0
127130,-133.333333333333,4,2,33,80,0,0
127253,-133.333333333333,4,2,11,5,0,0
127376,-133.333333333333,4,2,33,80,0,0
127499,-133.333333333333,4,2,11,5,0,0
127622,-100,4,2,33,70,0,0
127745,-100,4,2,11,5,0,0
127868,-100,4,2,33,70,0,0
127991,-100,4,2,11,5,0,0
128115,-80,4,2,33,75,0,0
128238,-80,4,2,11,5,0,0
128368,495.867768595041,4,2,33,75,1,0
128368,-80,4,2,33,75,0,0
128491,-80,4,2,11,5,0,0
128615,495.867768595041,4,2,33,80,1,0
128615,-66.6666666666667,4,2,33,80,0,0
128738,-66.6666666666667,4,2,11,5,0,0
128862,-66.6666666666667,4,2,33,80,0,0
128986,-66.6666666666667,4,2,11,5,0,0
129111,451.127819548872,4,2,33,80,1,0
129336,526.315789473684,4,2,33,80,1,0
129600,461.538461538462,4,2,33,80,1,0
129831,491.803278688525,4,2,33,80,1,0
130077,576.230492196879,4,2,33,80,1,0
130095,461.538461538462,4,2,33,80,1,0
130326,512.820512820513,4,2,33,80,1,0
130582,512.820512820513,4,2,33,80,1,0
130833,489.795918367347,4,2,33,80,1,0
131077,489.795918367347,4,2,33,70,1,0
131077,-133.333333333333,4,2,33,70,0,0
131574,495.867768595041,4,2,33,70,1,0
131574,-80,4,2,33,70,0,0
132814,508.474576271186,4,2,33,70,1,0
133068,508.474576271186,4,2,33,70,1,0
133068,-80,4,2,33,70,0,0
133319,495.867768595041,4,2,33,70,1,0
133319,-80,4,2,33,70,0,0
133566,495.867768595041,4,2,33,70,1,0
133566,-80,4,2,33,70,0,0
134619,-80,4,2,33,30,0,0
134681,-80,4,2,33,38,0,0
134743,-80,4,2,33,46,0,0
134805,-80,4,2,33,54,0,0
134867,-80,4,2,33,62,0,0
134929,-80,4,2,33,70,0,0
135053,-133.333333333333,4,2,33,70,0,0
135549,-80,4,2,33,70,0,0
137783,504.201680672269,4,2,33,70,1,0
137783,-80,4,2,33,70,0,0
138035,504.201680672269,4,2,33,70,1,0
138035,-80,4,2,33,70,0,0
138534,487.80487804878,4,2,33,70,1,0
138534,-80,4,2,33,70,0,0
139271,496.688741721854,4,2,33,70,1,0
139519,496.688741721854,4,2,33,70,1,0
139519,-80,4,2,33,70,0,0
143239,521.739130434783,4,2,33,70,1,0
143501,493.827160493827,4,2,33,70,1,0
143501,-80,4,2,33,70,0,0
146463,540.540540540541,4,2,33,70,1,0
146463,-80,4,2,33,70,0,0
146734,468.75,4,2,33,70,1,0
146734,-80,4,2,33,70,0,0
146968,468.75,4,2,33,75,1,0
146968,-72.7272727272727,4,2,33,75,0,0
147207,496.688741721854,4,2,33,75,1,0
147455,496.688741721854,4,2,33,75,1,0
147455,-72.7272727272727,4,2,33,75,0,0
150431,495.867768595041,4,2,33,75,1,0
150431,-72.7272727272727,4,2,33,75,0,0
150926,-66.6666666666667,4,2,33,80,0,0
152663,508.474576271186,4,2,33,80,1,0
152917,508.474576271186,4,2,33,80,1,0
152917,-66.6666666666667,4,2,33,80,0,0
153168,483.870967741935,4,2,33,80,1,0
153168,-66.6666666666667,4,2,33,80,0,0
153409,483.870967741935,4,2,33,80,1,0
153409,-66.6666666666667,4,2,33,80,0,0
153655,495.867768595041,4,2,33,80,1,0
153902,495.867768595041,4,2,33,80,1,0
154397,-66.6666666666667,4,2,33,80,0,0
154893,-61.5384615384615,4,2,33,85,0,0
156629,612.244897959184,4,2,33,85,1,0
156782,441.176470588235,4,2,33,85,1,0
156892,508.474576271186,4,2,33,85,1,0
157402,451.127819548872,4,2,33,85,1,0
157628,495.867768595041,4,2,33,85,1,0
157875,495.867768595041,4,2,33,85,1,0
158246,434.782608695652,4,2,33,85,1,0
158355,424.028268551237,4,2,33,85,1,0

[Colours]
Combo1 : 255,217,170
Combo2 : 255,106,106
Combo3 : 245,73,117

[HitObjects]
328,311,151,6,0,L|411:291,1,46.8750000000001,2|0,1:2|2:0,2:0:0:0:
463,340,407,1,2,3:2:0:0:
463,340,535,1,0,3:0:0:0:
493,256,658,2,0,P|496:221|489:151,1,93.7500000000002,10|2,1:2|3:2,2:0:0:0:
467,92,1025,1,0,3:2:0:0:
386,159,1142,2,2,B|321:133|321:133|240:163,1,140.625,0|0,1:2|2:0,2:1:0:0:
175,106,1650,2,0,L|202:-7,1,94.1281250000002,10|0,1:2|3:0,2:0:0:0:
48,190,2134,6,0,L|129:172,1,46.8750000000001,2|0,1:2|2:0,2:0:0:0:
170,246,2376,2,0,L|215:256,1,46.8750000000001,2|0,3:2|2:0,2:0:0:0:
381,363,2618,2,0,P|347:339|281:334,1,93.7500035762788,10|2,1:2|3:2,2:0:0:0:
219,345,2995,1,0,3:0:0:0:
324,241,3113,2,0,B|391:267|391:267|468:236,1,134.156255364418,0|0,1:2|2:0,2:0:0:0:
497,159,3599,6,2,P|401:105|282:170,1,227.1875,8|0,1:2|2:0,2:1:0:0:
219,163,4097,6,0,P|214:218|217:263,1,94.4500035762788,2|2,1:2|3:2,2:0:0:0:
195,89,4605,1,10,1:2:0:0:
195,89,4733,1,0,3:2:0:0:
195,89,4862,2,0,L|201:27,1,46.8750000000001,2|0,3:2|2:0,2:0:0:0:
30,129,5100,2,2,P|112:153|140:212,1,137.0930375,0|0,1:2|2:0,2:1:0:0:
66,259,5599,2,0,L|0:262,1,46.8750000000001,10|0,1:2|3:2,2:0:0:0:
148,312,5862,1,2,3:0:0:0:
148,312,5976,1,0,3:0:0:0:
216,256,6091,6,2,P|281:265|350:310,1,135.95901875,2|0,1:2|2:0,2:1:0:0:
399,355,6582,2,0,L|492:335,1,96.6974687500002,10|0,1:2|3:0,2:0:0:0:
316,155,7086,6,0,L|321:103,1,49.7449750000001,2|2,1:0|2:3,2:0:0:0:
337,33,7335,1,2,3:1:0:0:
337,33,7444,1,4,1:3:0:0:
438,127,7576,2,0,P|433:209|415:274,1,137.19893125,14|0,1:2|2:0,2:0:0:0:
344,304,8076,6,0,B|302:285|302:285|258:303,2,93.7500593750002,2|2|10,1:2|3:2|1:2,2:0:0:0:
231,221,8840,2,0,L|179:233,1,46.8750000000001,2|0,3:2|2:0,2:0:0:0:
87,302,9078,2,0,P|75:247|79:169,1,93.75,2|0,1:0|2:0,2:0:0:0:
170,118,9435,1,0,3:0:0:0:
170,118,9559,2,0,L|268:141,1,93.7500000000002,10|0,1:2|3:0,2:0:0:0:
346,93,9934,1,0,3:0:0:0:
402,144,10059,6,0,P|407:180|399:250,2,93.7500000000002,2|2|10,1:2|3:2|1:2,2:0:0:0:
194,105,10814,2,0,L|118:123,1,46.8750000000001,2|0,3:2|2:0,2:0:0:0:
88,221,11052,2,0,B|155:247|155:247|232:216,1,138.22705625,0|0,1:2|2:0,2:0:0:0:
261,139,11557,6,2,P|165:85|46:150,1,234.375,8|0,1:2|2:0,2:1:0:0:
10,228,12052,6,0,P|12:277|8:343,2,93.7500000000002,2|2|8,1:2|3:2|1:2,2:0:0:0:
180,318,12794,2,0,P|227:316|292:328,1,93.7500000000002,2|0,3:2|1:2,2:0:0:0:
273,322,13165,1,0,3:0:0:0:
358,281,13289,2,0,L|370:176,1,92.6174687500002,2|8,3:2|1:2,2:0:0:0:
419,129,13656,1,0,3:2:0:0:
419,129,13780,2,0,L|410:63,1,46.8750000000001,2|0,3:2|2:0,2:0:0:0:
337,0,14033,6,2,P|301:21|259:177,1,183.39098125,6|8,1:2|1:2,2:1:0:0:
252,147,14766,1,2,3:0:0:0:
33,272,15006,6,2,B|133:244|106:348|233:343,1,190.625007152558,2|8,1:0|1:2,2:1:0:0:
200,341,15749,1,2,2:1:0:0:
434,291,15987,6,2,L|451:196,2,54.8651760416668,6|2|0,1:0|3:2|2:0,2:1:0:0:
420,366,16373,1,0,3:0:0:0:
324,283,16495,2,2,P|270:251|177:254,1,112.919880208333,14|2,1:2|3:0,2:1:0:0:
221,244,16877,1,0,3:2:0:0:
367,189,17008,6,0,L|381:90,1,54.6875000000001,0|0,1:2|2:0,2:0:0:0:
270,135,17251,2,0,L|271:32,1,54.6875000000001,2|0,1:2|2:0,2:0:0:0:
172,178,17495,2,0,L|163:87,1,54.6875000000001,10|0,1:2|2:0,2:0:0:0:
53,222,17746,2,2,P|45:148|56:92,1,109.783334376415,2|2,3:2|1:3,2:1:0:0:
80,42,18137,1,0,3:0:0:0:
80,42,18261,1,2,1:3:0:0:
53,222,18490,2,0,L|43:295,1,54.6875000000001,14|0,1:2|2:0,2:0:0:0:
139,363,18750,6,2,B|239:320|239:320|341:359,1,218.375864583334,6|2,1:0|1:3,2:1:0:0:
341,359,19364,1,0,3:2:0:0:
416,326,19492,2,0,L|427:261,1,54.6875000000001,10|0,1:2|2:0,2:0:0:0:
363,202,19742,2,0,L|374:137,1,54.6875000000001,2|0,3:0|2:0,2:0:0:0:
491,109,19987,6,2,P|450:68|409:61,1,54.6875005215406,2|0,1:0|2:0,2:1:0:0:
377,65,20232,1,2,1:3:0:0:
377,65,20355,1,0,3:0:0:0:
468,184,20477,2,2,P|407:184|330:229,1,109.375,14|0,1:2|2:0,2:1:0:0:
307,258,20846,1,0,3:2:0:0:
210,89,20968,2,0,P|210:169|207:231,2,109.375,0|2|10,1:2|1:2|1:2,2:0:0:0:
91,222,21589,1,0,3:0:0:0:
91,222,21715,2,0,L|141:248,1,54.6875000000001,2|0,3:2|2:0,2:0:0:0:
307,258,21967,6,0,P|270:260|200:297,1,108.521597916666,2|2,1:3|1:3,2:0:0:0:
163,355,22339,1,0,3:2:0:0:
260,383,22462,2,0,L|335:385,1,54.6875000000001,14|0,1:2|2:0,2:0:0:0:
463,322,22707,6,2,P|461:228|426:131,1,164.0625,6|0,1:2|2:0,2:1:0:0:
385,110,23199,2,0,L|401:45,1,54.6875000000001,2|0,1:3|2:0,2:0:0:0:
299,156,23444,2,0,B|248:142|248:142|189:155,1,109.375,10|2,1:2|1:3,2:0:0:0:
121,176,23831,1,0,3:0:0:0:
29,112,23957,6,2,P|29:79|27:36,1,62.5,6|0,1:0|2:0,2:1:0:0:
153,2,24444,2,0,P|152:34|155:78,1,64.2852583333333,6|6,1:2|1:3,2:0:0:0:
200,182,24944,1,8,1:3:0:0:
200,182,25194,1,4,1:3:0:0:
75,295,25439,5,8,1:3:0:0:
161,337,25682,2,0,P|205:337|269:343,1,78.125,8|14,1:3|1:2,2:0:0:0:
348,257,26175,1,14,1:2:0:0:
348,384,26427,1,12,1:3:0:0:
458,321,26679,6,0,P|458:276|460:220,1,78.4604427083334,12|14,1:3|1:2,2:0:0:0:
372,152,27175,2,0,P|335:154|275:165,1,93.7500000000002,14|14,1:2|1:0,2:0:0:0:
457,161,27667,1,14,1:0:0:0:
9,157,27921,6,2,P|47:215|107:250,1,136.17223125,6|0,1:0|2:0,2:1:0:0:
1,334,28407,6,2,B|109:285|109:285|212:337,1,234.375,14|0,1:2|2:0,2:1:0:0:
331,286,28911,2,0,L|417:305,1,78.125,12|0,1:3|2:0,2:0:0:0:
512,213,29154,2,0,L|435:196,1,78.125,12|0,1:3|2:0,2:0:0:0:
342,108,29404,1,14,1:2:0:0:
418,53,29528,1,0,3:0:0:0:
472,116,29652,1,2,3:2:0:0:
472,116,29777,1,0,2:0:0:0:
314,199,29901,6,0,B|243:225|243:225|145:177,1,156.25,2|2,1:2|1:2,2:0:0:0:
76,247,30275,1,0,3:2:0:0:
82,89,30399,2,0,L|92:166,1,78.125,14|0,1:2|2:0,2:0:0:0:
229,381,30648,2,0,L|242:289,1,78.125,2|0,3:2|2:0,2:0:0:0:
342,108,30897,2,0,L|390:380,1,234.375,6|0,1:0|3:2,2:0:0:0:
458,367,31394,2,2,L|516:385,6,39.0625,12|2|2|2|2|2|2,1:2|2:0|2:0|2:0|2:0|2:0|2:0,2:1:0:0:
495,270,31885,6,0,L|515:154,1,93.7500000000002,12|12,1:3|1:3,2:0:0:0:
341,265,32254,1,0,1:0:0:0:
218,212,32378,6,2,B|114:162|114:162|-12:228,1,234.375,14|0,1:2|2:0,2:1:0:0:
102,353,32873,1,2,1:2:0:0:
200,322,32997,1,0,3:0:0:0:
274,355,33121,1,2,1:2:0:0:
274,355,33245,1,0,3:2:0:0:
341,265,33369,6,0,P|345:224|344:154,1,78.125,14|0,1:2|2:0,2:0:0:0:
292,110,33618,1,2,3:2:0:0:
377,72,33742,1,0,1:2:0:0:
195,57,33864,6,0,P|111:39|5:-44,2,156.25,6|2|14,1:0|1:2|1:2,2:0:0:0:
270,37,34486,1,0,3:0:0:0:
214,92,34610,1,2,3:2:0:0:
214,92,34735,1,0,3:0:0:0:
393,228,34859,6,0,L|372:25,1,157.510020833333,6|0,1:0|1:2,2:0:0:0:
492,158,35230,1,0,3:2:0:0:
266,219,35353,2,0,L|279:134,1,78.125,12|0,1:2|2:0,2:0:0:0:
500,326,35613,2,0,L|487:241,1,78.125,4|0,1:2|2:0,2:0:0:0:
251,364,35858,6,0,P|294:330|397:326,1,156.25,6|0,1:0|2:0,2:0:0:0:
444,384,36226,1,0,1:0:0:0:
266,255,36353,2,0,P|223:221|120:217,1,156.25,14|0,1:2|2:0,2:0:0:0:
62,258,36728,1,0,1:0:0:0:
355,47,36853,2,2,B|252:93|252:93|123:32,1,231.864979166667,2|0,1:2|2:0,2:1:0:0:
79,87,37346,2,0,L|51:177,1,78.125,14|0,1:2|2:0,2:0:0:0:
134,299,37591,2,0,L|106:389,1,78.125,2|0,3:2|2:0,2:0:0:0:
420,229,37842,6,0,L|258:256,1,156.25,6|0,1:0|1:2,2:0:0:0:
353,142,38217,1,0,3:2:0:0:
274,28,38342,2,0,L|412:50,1,78.125,14|0,1:2|2:0,2:0:0:0:
447,57,38589,1,2,3:2:0:0:
447,57,38710,1,0,1:0:0:0:
255,163,38832,5,2,1:2:0:0:
151,133,38953,1,2,3:2:0:0:
60,165,39075,1,2,1:2:0:0:
60,165,39197,1,0,3:0:0:0:
224,321,39323,2,0,P|151:297|56:330,1,156.25,12|2,1:2|3:0,2:0:0:0:
146,384,39707,1,0,1:2:0:0:
259,250,39829,6,0,L|249:161,1,78.125,6|0,1:0|2:0,2:0:0:0:
404,310,40076,2,0,L|414:221,1,78.125,12|0,1:3|2:0,2:0:0:0:
509,70,40324,2,0,P|436:46|341:79,1,156.25,14|0,1:2|2:0,2:0:0:0:
467,158,40696,1,8,1:3:0:0:
404,310,40820,6,0,L|517:290,1,78.125,2|0,1:2|2:0,2:0:0:0:
146,384,41068,2,0,B|222:356|222:356|305:385,2,156.25,2|12|2,1:2|1:2|3:2,2:0:0:0:
72,322,41688,1,0,1:2:0:0:
222,275,41812,6,0,L|236:175,1,78.125,6|0,1:2|2:0,2:0:0:0:
361,65,42060,2,0,L|371:142,1,78.125,6|0,1:2|2:0,2:0:0:0:
460,381,42308,2,0,P|411:335|309:313,1,156.25,12|8,1:2|1:3,2:0:0:0:
221,356,42680,1,2,3:0:0:0:
136,248,42804,6,0,L|122:148,1,78.125,6|0,1:2|2:0,2:0:0:0:
227,20,43053,2,0,L|216:97,1,78.125,6|0,1:2|2:0,2:0:0:0:
326,313,43281,6,0,L|317:254,1,55.3203125,14|8,1:2|3:0,2:0:0:0:
400,364,43806,6,2,L|460:381,2,62.5,6|2|10,1:2|3:2|1:2,2:1:0:0:
250,348,44549,2,2,L|129:382,1,123.23605,2|0,3:2|2:0,2:1:0:0:
52,367,45295,1,10,1:2:0:0:
52,367,45790,1,6,1:2:0:0:
24,276,46029,1,2,3:2:0:0:
47,198,46287,1,10,1:2:0:0:
171,260,46529,2,2,L|162:125,1,127.086233333333,2|0,3:2|2:0,2:1:0:0:
305,208,47268,2,2,L|300:270,1,62.5,10|0,1:2|2:0,2:1:0:0:
366,64,47763,5,6,1:2:0:0:
287,12,48010,1,2,3:2:0:0:
287,12,48258,1,10,1:2:0:0:
163,135,48505,2,2,P|252:103|301:108,1,125,2|0,3:2|2:0,2:1:0:0:
240,223,49248,2,0,L|302:230,1,63.7605166666667,10|0,1:2|2:0,2:0:0:0:
201,351,49758,1,6,1:2:0:0:
362,324,50120,1,2,1:2:0:0:
362,324,50249,2,2,L|492:303,1,125,14|6,1:2|1:2,2:1:0:0:
215,222,51128,1,0,1:2:0:0:
215,222,51252,1,14,1:2:0:0:
46,288,51746,6,0,P|47:343|46:393,2,93.7500035762788,2|2|10,1:2|3:2|1:2,2:0:0:0:
130,195,52510,2,2,P|130:101|134:-7,1,197.625007152558,2|0,3:2|2:0,2:1:0:0:
293,126,53101,1,0,3:0:0:0:
292,201,53224,2,0,P|291:250|293:278,1,46.8750000000001,10|0,1:2|2:0,2:0:0:0:
294,328,53470,1,0,3:2:0:0:
294,328,53593,1,0,3:2:0:0:
403,254,53716,6,0,P|404:204|384:127,2,94.5141218750002,2|2|8,1:2|3:2|1:2,2:0:0:0:
378,331,54334,1,0,3:2:0:0:
378,331,54458,2,0,L|388:393,1,46.8750000000001,2|0,3:2|2:0,2:0:0:0:
508,282,54706,2,0,P|514:209|497:111,1,140.625,2|0,1:2|2:0,2:0:0:0:
442,20,55202,6,2,B|337:79|337:79|240:19,1,233.115374999999,10|0,1:2|2:0,2:1:0:0:
90,115,55691,6,0,P|87:41|92:9,1,93.7500035762788,2|2,1:2|3:2,2:0:0:0:
7,129,56210,1,10,1:2:0:0:
125,181,56333,1,0,3:0:0:0:
41,234,56457,2,2,P|42:298|192:361,1,234.375000000001,2|0,3:2|2:0,2:1:0:0:
254,306,57202,2,0,L|353:324,1,93.7500000000002,10|0,1:2|3:2,2:0:0:0:
495,147,57697,6,2,P|457:204|391:223,1,140.625,2|0,1:2|2:0,2:1:0:0:
318,160,58193,2,0,L|225:176,1,93.7500000000002,10|0,1:2|3:2,2:0:0:0:
156,242,58565,1,0,3:0:0:0:
100,171,58694,2,0,L|111:95,1,46.8750017881394,2|2,1:0|2:3,2:0:0:0:
49,231,58972,1,2,3:1:0:0:
49,231,59087,1,4,1:3:0:0:
24,203,59187,2,2,L|11:51,1,145.059380364418,14|0,1:2|3:2,2:1:0:0:
242,26,59673,6,0,P|203:24|145:26,2,93.0324562500002,2|2|10,1:2|2:0|1:2,2:0:0:0:
201,112,60298,1,0,3:2:0:0:
233,196,60422,2,0,L|177:201,1,46.8750000000001,2|0,3:2|2:0,2:0:0:0:
145,336,60670,2,2,P|189:297|295:282,1,140.625,2|0,1:2|2:0,2:1:0:0:
465,359,61166,2,2,P|421:320|315:305,1,142.89315625,10|0,1:2|2:0,2:1:0:0:
375,218,61672,6,0,P|377:153|374:80,2,93.6179593750002,2|2|10,1:2|3:2|1:2,2:0:0:0:
441,287,62280,1,0,3:2:0:0:
482,225,62405,2,0,P|482:195|483:157,1,46.8750000000001,2|0,3:2|2:0,2:0:0:0:
487,48,62655,2,0,P|440:81|343:92,1,138.74098125,0|0,1:2|2:0,2:0:0:0:
81,77,63148,6,2,P|133:124|310:161,1,234.375,8|0,1:2|2:0,2:1:0:0:
175,244,63644,6,0,L|69:221,2,93.7500035762788,2|2|10,1:2|2:0|1:2,2:0:0:0:
250,262,64261,1,0,3:2:0:0:
175,350,64388,2,0,L|243:336,1,46.8750000000001,2|0,3:2|2:0,2:0:0:0:
429,384,64636,2,0,P|373:347|284:342,1,143.800475,0|0,1:2|2:0,2:0:0:0:
438,266,65132,2,0,P|442:240|440:197,1,46.8750000000001,10|0,1:2|2:0,2:0:0:0:
426,83,65382,2,0,P|422:109|424:152,1,46.8750000000001,2|0,3:2|2:0,2:0:0:0:
338,11,65640,6,2,B|426:52|426:52|546:-6,1,187.5,2|14,1:2|1:2,2:1:0:0:
426,83,66354,1,0,2:0:0:0:
451,206,66608,2,0,L|319:181,1,93.7500000000002,2|2,1:0|1:0,2:0:0:0:
284,174,66989,1,0,1:0:0:0:
372,308,67116,2,0,L|240:333,1,86.2361562500002,14|2,1:2|1:0,2:0:0:0:
205,340,67476,1,2,1:0:0:0:
89,287,67603,6,0,L|149:302,1,54.6875000000001,6|0,1:0|2:0,2:0:0:0:
284,174,67857,2,0,L|230:187,1,54.6875000000001,2|0,1:2|2:0,2:0:0:0:
0,80,68119,2,2,P|54:91|121:171,1,167.866073958333,14|0,1:2|2:0,2:1:0:0:
55,213,68611,2,0,L|1:226,1,54.6875000000001,0|0,1:2|2:0,2:0:0:0:
123,286,68865,1,2,1:2:0:0:
123,286,68992,1,0,3:2:0:0:
231,187,69119,2,0,L|284:200,1,54.6875000000001,10|0,1:2|2:0,2:0:0:0:
365,256,69373,2,0,L|418:242,1,54.6875000000001,2|0,3:2|2:0,2:0:0:0:
507,73,69607,6,0,P|513:152|508:222,1,109.375,2|2,1:3|1:3,2:0:0:0:
499,260,69975,1,0,3:2:0:0:
365,165,70098,2,0,L|378:93,1,54.6875000000001,14|0,1:2|2:0,2:0:0:0:
213,323,70344,2,2,L|174:107,1,218.750000000001,6|0,1:0|1:2,2:1:0:0:
284,200,70959,1,0,1:2:0:0:
107,272,71082,2,0,L|116:218,1,54.6875000000001,14|0,1:2|2:0,2:0:0:0:
141,123,71328,1,2,3:0:0:0:
141,123,71455,1,0,1:0:0:0:
38,323,71582,6,0,L|18:215,1,109.375,2|0,1:2|1:2,2:0:0:0:
39,143,71963,1,0,3:2:0:0:
205,199,72090,2,2,L|224:91,1,109.375,10|2,1:2|3:0,2:1:0:0:
180,25,72461,1,0,3:0:0:0:
310,97,72585,2,0,P|337:96|365:100,1,54.6875000000001,0|0,1:2|2:0,2:0:0:0:
495,119,72833,2,0,P|468:122|405:117,1,54.6875000000001,2|0,1:2|2:0,2:0:0:0:
292,212,73074,2,0,P|357:190|436:200,1,109.375,10|2,1:2|3:2,2:0:0:0:
471,215,73438,1,0,2:0:0:0:
272,340,73561,6,0,P|284:307|307:280,1,54.6875000000001,2|0,1:3|2:0,2:0:0:0:
454,307,73806,2,0,P|476:333|488:367,1,54.6875000000001,2|0,1:3|2:0,2:0:0:0:
375,384,74052,1,14,1:2:0:0:
375,384,74175,1,0,1:0:0:0:
479,195,74299,6,2,B|381:246|381:246|286:196,1,218.750000000001,6|0,1:0|2:0,2:1:0:0:
171,254,75055,2,0,L|56:310,1,109.375,14|2,1:2|3:0,2:0:0:0:
69,115,75552,6,0,P|69:82|67:39,1,62.5,6|4,1:0|1:3,2:0:0:0:
192,12,76043,2,0,P|192:45|194:88,1,64.020675,4|4,1:2|1:2,2:0:0:0:
261,151,76537,1,8,1:3:0:0:
328,96,76780,1,4,1:3:0:0:
170,231,77028,5,8,1:3:0:0:
362,297,77280,2,0,P|319:295|263:297,1,78.125,8|14,1:3|1:2,2:0:0:0:
146,381,77779,2,0,P|188:379|245:381,1,78.125,14|12,1:2|1:3,2:0:0:0:
453,356,78267,5,12,1:3:0:0:
391,285,78511,1,14,1:2:0:0:
409,193,78763,1,14,1:2:0:0:
476,160,79016,1,14,1:0:0:0:
490,105,79264,1,14,1:0:0:0:
191,82,79508,6,2,B|260:100|260:100|348:71,1,140.625,6|0,1:0|2:0,2:1:0:0:
361,46,80003,6,2,B|257:-7|257:132|141:115,1,234.375,14|0,1:2|2:0,2:1:0:0:
43,0,80510,2,0,L|78:107,1,78.125,12|0,1:3|2:0,2:0:0:0:
42,237,80757,2,0,L|66:162,1,78.125,12|0,1:3|2:0,2:0:0:0:
154,346,81005,2,0,B|81:320|81:320|5:342,1,156.25,14|2,1:2|3:2,2:0:0:0:
5,342,81377,1,0,1:0:0:0:
163,245,81503,6,0,L|273:266,1,78.125,2|0,1:2|2:0,2:0:0:0:
415,248,81742,2,0,L|338:262,1,78.125,2|0,1:2|2:0,2:0:0:0:
215,104,81987,2,0,B|287:78|287:78|363:100,1,156.25,14|2,1:2|3:2,2:0:0:0:
289,182,82358,1,0,1:0:0:0:
210,88,82482,6,0,L|225:-10,1,78.125,2|0,1:2|2:0,2:0:0:0:
110,149,82730,2,0,L|95:51,1,78.125,2|0,1:2|2:0,2:0:0:0:
12,16,82978,2,2,L|6:54,6,39.0625,14|2|2|2|2|2|2,1:2|2:0|2:0|2:0|2:0|2:0|2:0,2:1:0:0:
4,267,83474,6,0,P|75:233|137:235,1,93.7500000000002,12|12,1:3|1:3,2:0:0:0:
26,159,83846,1,0,1:0:0:0:
173,198,83970,6,2,P|235:238|283:386,1,234.375,14|0,1:2|2:0,2:1:0:0:
413,314,84471,1,2,1:2:0:0:
363,233,84600,1,0,1:2:0:0:
402,159,84729,2,0,L|389:44,1,78.125,2|0,1:2|2:0,2:0:0:0:
254,110,84967,2,0,L|267:-5,1,78.125,14|0,1:2|2:0,2:0:0:0:
132,166,85211,2,0,L|119:51,1,78.125,2|0,3:2|2:0,2:0:0:0:
75,333,85461,6,0,B|154:312|154:312|225:332,2,155.955036458333,6|2|14,1:0|1:2|1:2,2:0:0:0:
2,362,86084,1,0,3:0:0:0:
99,241,86205,2,0,L|8:231,1,78.125,2|0,3:2|2:0,2:0:0:0:
29,86,86450,2,0,P|65:130|166:170,1,156.25,6|2,1:0|1:2,2:0:0:0:
242,126,86823,1,2,3:2:0:0:
340,253,86947,2,0,L|360:170,1,78.125,12|0,1:2|2:0,2:0:0:0:
512,221,87196,2,0,L|492:138,1,78.125,2|0,1:2|2:0,2:0:0:0:
283,66,87445,6,0,B|359:93|359:93|430:68,1,156.25,6|0,1:0|1:2,2:0:0:0:
358,177,87819,1,0,1:2:0:0:
442,255,87939,2,0,L|285:291,1,156.880208333333,14|0,1:2|3:2,2:0:0:0:
238,369,88319,1,0,1:2:0:0:
53,304,88452,5,2,1:2:0:0:
134,249,88584,1,0,3:0:0:0:
134,249,88719,1,0,1:2:0:0:
131,353,88835,1,0,3:2:0:0:
40,288,88951,2,0,P|44:223|39:115,1,153.732,14|2,1:2|3:2,2:0:0:0:
32,55,89310,1,0,1:2:0:0:
161,135,89443,6,0,L|165:32,1,78.125,6|0,1:0|2:0,2:0:0:0:
285,197,89690,2,0,L|281:94,1,78.125,2|0,1:2|2:0,2:0:0:0:
500,27,89940,2,0,P|439:41|389:115,1,156.898072916667,14|2,1:2|3:2,2:0:0:0:
441,206,90299,1,0,3:2:0:0:
273,307,90427,2,0,L|373:281,1,78.125,2|2,1:2|3:2,2:0:0:0:
437,295,90679,2,0,L|512:314,1,78.125,2|0,1:2|2:0,2:0:0:0:
286,71,90926,6,2,B|390:129|390:129|518:53,1,234.375,14|0,1:2|2:0,2:1:0:0:
185,14,91421,6,0,L|211:130,1,78.125,6|0,1:0|2:0,2:0:0:0:
72,187,91669,2,0,L|54:263,1,78.125,0|0,1:2|2:0,2:0:0:0:
316,375,91917,2,0,P|275:330|172:306,1,156.25,14|0,1:2|2:0,2:0:0:0:
97,358,92289,1,8,3:0:0:0:
202,200,92414,6,0,L|335:190,1,78.125,2|0,1:2|2:0,2:0:0:0:
490,205,92668,2,0,L|357:195,1,78.125,2|0,1:2|2:0,2:0:0:0:
276,65,92922,2,0,P|354:80|432:65,1,147.522416666667,12|2,1:2|3:2,2:0:0:0:
351,0,93282,1,0,1:2:0:0:
288,187,93402,6,0,L|259:291,1,78.125,6|0,1:2|2:0,2:0:0:0:
197,384,93642,2,0,L|168:280,1,78.125,6|0,1:2|2:0,2:0:0:0:
72,109,93889,2,0,P|72:179|50:276,1,156.023666666667,12|12,1:2|1:2,2:0:0:0:
21,335,94268,1,0,1:2:0:0:
194,226,94388,5,6,1:2:0:0:
160,130,94507,1,8,3:0:0:0:
182,49,94633,1,6,1:2:0:0:
182,49,94763,1,2,3:2:0:0:
428,156,94894,2,0,P|350:141|271:155,1,156.72653125,12|4,1:2|3:0,2:0:0:0:
349,254,95261,1,0,1:2:0:0:
308,364,95395,6,0,L|394:354,1,78.125,6|0,1:0|2:0,2:0:0:0:
112,360,95642,2,0,L|198:370,1,78.125,0|0,1:0|2:0,2:0:0:0:
275,154,95890,2,0,P|197:139|118:153,1,156.880208333333,12|0,1:2|2:0,2:0:0:0:
188,265,96263,1,8,3:0:0:0:
355,269,96388,6,0,L|277:259,1,78.125,2|0,1:2|2:0,2:0:0:0:
460,81,96638,2,0,P|470:156|466:240,2,156.25,2|12|2,1:2|1:2|3:2,2:0:0:0:
434,8,97263,1,0,1:2:0:0:
305,186,97388,6,0,L|291:97,1,78.125,4|0,1:2|2:0,2:0:0:0:
122,152,97638,2,0,L|136:63,1,78.125,4|0,1:2|2:0,2:0:0:0:
0,281,97888,2,0,B|75:260|75:260|156:285,1,156.25,12|14,1:2|1:2,2:0:0:0:
225,308,98250,1,0,1:2:0:0:
0,384,98371,2,0,L|98:372,1,78.125,6|8,1:2|3:0,2:0:0:0:
173,366,98613,1,6,1:2:0:0:
173,366,98734,1,2,3:2:0:0:
256,380,98855,5,12,1:2:0:0:
256,380,99372,6,2,P|264:235|259:86,1,281.25,6|0,1:0|2:0,2:1:0:0:
127,5,99856,2,2,B|256:73|256:73|401:-7,1,281.25,14|0,1:0|2:0,2:1:0:0:
486,123,100351,2,0,L|454:229,1,93.75,6|2,1:2|2:0,2:0:0:0:
381,278,100599,1,6,1:2:0:0:
448,343,100723,1,2,2:0:0:0:
290,378,100847,6,2,P|204:370|79:389,1,187.5,10|10,1:0|1:0,2:1:0:0:
212,243,101219,1,8,1:3:0:0:
113,67,101343,6,2,B|201:103|201:103|300:62,1,187.5,6|6,1:0|1:2,2:1:0:0:
356,37,101715,1,0,1:0:0:0:
459,213,101839,2,2,L|431:123,1,93.75,14|0,1:0|2:0,2:1:0:0:
247,253,102087,1,2,1:2:0:0:
247,253,102211,2,0,L|274:163,1,93.75,6|0,1:0|2:0,2:0:0:0:
129,307,102459,1,2,1:0:0:0:
89,218,102583,2,0,L|61:128,1,93.75,8|0,1:3|2:0,2:0:0:0:
16,355,102831,5,10,1:0:0:0:
233,350,102955,2,0,P|143:345|38:352,1,187.5,8|0,1:3|2:0,2:0:0:0:
450,356,103327,6,2,L|445:273,1,62.5,6|8,1:0|1:3,2:1:0:0:
450,356,103822,6,2,P|461:263|455:142,1,185.9882125,14|8,1:0|1:3,2:1:0:0:
353,76,104187,1,2,1:3:0:0:
453,36,104307,1,6,1:2:0:0:
364,180,104427,1,2,2:0:0:0:
274,108,104553,2,0,L|176:91,1,93.75,6|2,1:2|2:0,2:0:0:0:
0,188,104800,2,2,L|98:171,1,93.75,10|0,1:0|2:0,2:1:0:0:
254,312,105047,2,2,B|190:288|190:288|111:313,1,140.625,10|2,1:0|2:1,2:1:0:0:
82,288,105295,6,2,L|72:233,1,31.25,2|0,2:1|2:0,2:1:0:0:
182,92,105543,6,0,L|161:203,1,93.75,8|0,1:3|2:0,2:0:0:0:
386,353,105791,2,2,L|352:168,1,187.5,14|2,1:0|1:0,2:1:0:0:
464,250,106163,1,0,1:0:0:0:
254,312,106287,2,2,L|270:219,1,93.75,6|0,1:0|2:0,2:1:0:0:
349,145,106535,1,2,1:0:0:0:
286,86,106659,1,2,1:3:0:0:
383,14,106783,5,10,1:0:0:0:
169,1,106907,2,0,P|278:7|360:-1,1,187.5,8|0,1:3|2:0,2:0:0:0:
34,89,107279,6,2,L|156:113,1,93.75,6|0,1:0|2:0,2:1:0:0:
4,239,107526,2,2,L|95:220,1,93.75,6|0,1:2|2:0,2:1:0:0:
117,374,107774,2,2,L|25:355,1,93.75,14|0,1:0|2:0,2:1:0:0:
270,220,108022,5,6,1:2:0:0:
350,295,108146,2,2,B|264:255|264:255|164:297,1,187.5,2|2,1:0|1:2,2:1:0:0:
4,239,108518,2,0,L|95:220,1,93.75,8|0,1:3|2:0,2:0:0:0:
286,86,108768,2,2,L|194:67,1,93.7499999999999,10|0,1:0|2:0,2:1:0:0:
78,2,109038,1,10,1:0:0:0:
78,2,109161,1,0,1:0:0:0:
286,86,109286,6,0,L|377:67,1,93.75,6|0,1:2|2:0,2:0:0:0:
337,224,109512,1,6,1:2:0:0:
337,224,109640,1,2,1:2:0:0:
512,295,109768,2,2,P|466:233|331:223,1,184.67405,14|2,1:0|1:0,2:1:0:0:
286,326,110143,1,2,1:2:0:0:
458,358,110267,6,2,L|348:384,1,93.75,6|0,1:2|2:0,2:1:0:0:
54,358,110514,2,2,L|145:379,1,93.75,6|0,1:2|2:0,2:1:0:0:
256,124,110762,5,10,1:0:0:0:
254,343,110886,2,0,P|252:252|258:151,1,186.7444625,8|0,1:3|2:0,2:0:0:0:
54,358,111252,5,6,1:0:0:0:
20,250,111372,1,2,1:0:0:0:
61,168,111496,1,6,1:2:0:0:
61,168,111619,1,8,1:3:0:0:
223,16,111743,5,14,1:0:0:0:
256,124,111866,1,2,1:0:0:0:
221,219,111990,1,6,1:2:0:0:
221,219,112114,1,8,1:3:0:0:
449,384,112238,5,6,1:2:0:0:
416,275,112362,1,2,1:0:0:0:
451,184,112486,1,6,1:2:0:0:
451,184,112610,1,8,1:3:0:0:
256,39,112736,6,2,P|255:160|252:260,1,188.1962,10|10,1:0|1:0,2:1:0:0:
251,358,113121,1,2,1:2:0:0:
365,203,113242,5,6,1:0:0:0:
256,124,113363,1,8,1:3:0:0:
143,206,113484,1,6,1:2:0:0:
143,206,113605,1,12,1:3:0:0:
357,366,113726,6,2,B|254:323|254:323|137:367,1,225.930279166667,14|6,1:0|1:2,2:1:0:0:
253,226,114099,1,2,1:0:0:0:
21,15,114223,5,14,1:0:0:0:
136,51,114346,5,12,1:3:0:0:
238,42,114470,5,6,1:2:0:0:
329,16,114594,5,12,1:3:0:0:
408,6,114718,5,14,1:0:0:0:
479,19,114842,5,12,1:3:0:0:
195,142,114966,6,0,L|375:104,1,125,6|0,1:2|2:0,2:0:0:0:
156,281,115214,6,2,L|396:331,1,187.5,6|0,1:0|2:0,2:1:0:0:
392,261,115709,2,0,L|373:182,1,62.5,8|2,1:2|2:0,2:0:0:0:
156,357,115957,6,2,L|396:307,1,187.5,6|0,1:0|2:0,2:1:0:0:
477,258,116453,2,0,L|439:416,1,125,2|10,1:0|1:2,2:0:0:0:
392,261,116825,1,0,3:0:0:0:
469,179,116949,2,0,L|450:100,1,62.5,2|0,2:3|2:0,2:0:0:0:
235,253,117197,6,0,L|276:79,1,127.016508333333,6|0,1:2|2:0,2:0:0:0:
183,62,117578,1,0,3:0:0:0:
114,195,117708,2,0,L|103:130,1,62.5,14|0,1:2|2:0,2:0:0:0:
0,380,117969,6,2,P|23:347|185:335,1,184.987975,6|0,1:0|2:0,2:1:0:0:
292,351,118457,2,0,L|201:357,1,62.5,0|0,1:0|2:0,2:0:0:0:
485,320,118702,2,0,L|357:311,1,127.533016666667,8|2,1:2|3:2,2:0:0:0:
357,311,119077,1,0,1:2:0:0:
503,223,119202,6,2,P|480:190|318:178,1,187.5,6|0,1:0|2:0,2:1:0:0:
277,123,119702,2,0,L|291:37,1,62.5,10|0,1:2|2:0,2:0:0:0:
201,205,119939,2,0,L|187:119,1,62.5,2|0,3:1|2:0,2:0:0:0:
95,27,120186,2,0,L|67:199,1,125,2|2,1:0|1:0,2:0:0:0:
62,227,120557,1,0,1:0:0:0:
328,339,120681,6,2,B|247:294|247:294|146:340,1,186.996308333334,14|0,1:2|2:0,2:1:0:0:
381,281,121171,6,0,L|358:189,1,62.5,2|0,1:0|2:0,2:0:0:0:
476,9,121416,2,0,L|461:70,1,62.5,2|0,1:0|2:0,2:0:0:0:
499,218,121664,1,14,1:2:0:0:
328,129,121788,1,2,1:0:0:0:
328,129,121850,1,0,1:2:0:0:
328,129,121912,2,2,B|427:102|407:183|496:187,1,187.5,6|2,1:0|3:1,2:1:0:0:
381,281,122409,5,2,1:0:0:0:
294,331,122533,1,4,1:3:0:0:
213,295,122655,1,12,1:2:0:0:
197,309,122788,5,2,2:1:0:0:
165,221,122920,1,2,1:0:0:0:
227,179,123042,1,8,2:3:0:0:
86,371,123183,6,0,P|53:368|26:372,1,50.2708333333333,6|12,1:0|1:3,2:1:0:0:
197,309,123655,1,14,1:2:0:0:
197,309,123900,2,2,P|264:331|338:322,1,125,12|12,1:3|1:3,2:1:0:0:
391,360,124515,1,2,2:0:0:0:
391,360,124638,2,2,L|430:358,1,31.25,14|2,1:2|2:0,2:1:0:0:
471,300,124884,2,2,L|510:302,1,31.25,6|2,1:2|2:0,2:1:0:0:
380,157,125135,6,2,P|347:166|279:169,1,78.421875,6|12,1:0|1:3,2:1:0:0:
243,224,125646,1,6,1:2:0:0:
243,224,125895,2,2,P|207:221|98:145,1,161.6484375,6|2,1:2|1:0,2:1:0:0:
73,90,126515,1,2,2:0:0:0:
73,90,126638,2,2,L|79:42,1,39.0625,4|0,1:0|2:0,2:1:0:0:
152,29,126884,2,2,L|156:67,1,39.0625,12|0,1:3|2:0,2:1:0:0:
243,224,127130,6,2,L|260:135,1,46.8750000000001,14|0,1:2|2:0,2:1:0:0:
256,224,127376,2,2,L|239:135,1,46.8750000000001,14|0,1:2|2:0,2:1:0:0:
354,300,127622,6,2,L|371:211,1,62.5,12|0,1:3|2:0,2:1:0:0:
371,300,127868,2,2,L|354:211,1,62.5,12|0,1:3|2:0,2:1:0:0:
122,336,128115,6,2,L|139:247,1,78.125,14|0,1:2|2:0,2:1:0:0:
143,336,128368,2,2,L|126:247,1,78.125,14|0,1:2|2:0,2:1:0:0:
265,0,128615,6,2,L|246:97,1,93.75,14|0,1:0|2:0,2:1:0:0:
239,0,128862,2,2,L|257:97,1,93.75,14|0,1:0|2:0,2:1:0:0:
497,127,131077,6,0,P|443:182|347:204,1,140.625,6|0,1:0|2:0,2:0:0:0:
453,317,131574,6,2,P|359:231|251:225,1,234.375,14|0,2:0|2:0,2:1:0:0:
140,347,132069,2,0,L|163:252,1,78.125,12|0,1:3|2:0,2:0:0:0:
142,112,132317,2,0,L|165:207,1,78.125,12|0,1:3|2:0,2:0:0:0:
0,106,132565,2,0,P|39:56|135:26,1,157.51021875,14|2,1:2|3:2,2:0:0:0:
125,25,132941,1,0,3:0:0:0:
306,65,133068,6,0,L|197:67,1,78.125,2|0,1:2|2:0,2:0:0:0:
470,87,133319,2,0,L|361:85,1,78.125,2|0,3:2|2:0,2:0:0:0:
257,223,133566,2,0,P|310:199|432:200,1,156.25,14|2,1:2|3:2,2:0:0:0:
482,211,133937,1,0,2:0:0:0:
406,357,134061,2,0,L|389:247,1,78.125,6|0,1:0|2:0,2:0:0:0:
274,383,134309,2,0,L|291:273,1,78.125,0|0,1:0|2:0,2:0:0:0:
174,260,134557,2,2,L|179:298,6,39.0625,14|2|2|2|2|2|2,1:2|2:0|2:0|2:0|2:0|2:0|2:0,2:1:0:0:
63,384,135053,6,0,L|80:274,1,93.7500000000002,12|12,1:3|1:3,2:0:0:0:
91,215,135425,1,0,1:0:0:0:
5,50,135549,6,0,P|9:125|7:214,1,156.25,14|0,1:2|2:0,2:0:0:0:
7,206,135921,1,0,3:2:0:0:
155,141,136045,1,2,1:2:0:0:
244,186,136169,1,2,3:2:0:0:
317,156,136293,1,2,3:2:0:0:
317,156,136417,1,2,2:0:0:0:
418,274,136541,2,0,L|406:184,1,78.125,14|0,1:2|2:0,2:0:0:0:
420,38,136789,2,0,L|408:128,1,78.125,2|0,1:2|2:0,2:0:0:0:
481,341,137037,6,0,B|404:314|404:314|332:334,1,156.25,6|2,1:0|3:2,2:0:0:0:
258,358,137408,1,0,3:2:0:0:
158,252,137532,2,0,L|253:265,1,78.125,14|0,1:2|2:0,2:0:0:0:
317,156,137783,2,0,L|222:169,1,78.125,2|0,3:2|2:0,2:0:0:0:
98,27,138035,2,0,L|383:66,1,234.375,6|0,1:0|3:2,2:0:0:0:
487,105,138534,2,0,L|392:118,1,78.125,12|0,1:2|2:0,2:0:0:0:
475,228,138777,1,0,3:2:0:0:
475,228,138899,1,0,1:2:0:0:
355,344,139021,6,0,P|434:333|514:353,1,160.713145833333,6|2,1:0|3:0,2:0:0:0:
443,249,139395,1,0,3:0:0:0:
512,352,139519,2,0,P|435:340|359:358,1,156.25,14|2,1:2|3:0,2:0:0:0:
286,384,139891,1,0,3:2:0:0:
215,274,140015,2,0,L|230:164,1,78.125,2|0,1:2|2:0,2:0:0:0:
84,376,140264,2,0,L|69:266,1,78.125,2|0,3:2|2:0,2:0:0:0:
2,54,140512,2,0,P|3:125|-2:222,1,156.25,14|2,1:2|3:2,2:0:0:0:
119,111,140884,1,0,1:2:0:0:
119,111,140946,1,0,1:2:0:0:
119,111,141009,6,0,L|214:129,1,78.125,6|0,1:0|2:0,2:0:0:0:
393,111,141257,2,0,L|298:129,1,78.125,2|0,3:2|2:0,2:0:0:0:
143,268,141505,2,2,B|249:226|249:226|361:276,1,234.375,14|2,1:2|3:0,2:1:0:0:
470,208,142002,1,2,1:2:0:0:
396,149,142126,1,2,3:2:0:0:
396,149,142250,1,2,3:2:0:0:
323,175,142374,1,2,2:0:0:0:
196,126,142499,2,0,L|119:140,1,78.125,12|0,1:2|2:0,2:0:0:0:
208,267,142747,2,0,L|131:252,1,78.125,2|0,3:0|2:0,2:0:0:0:
4,384,142995,6,0,P|94:353|170:368,1,153.729114583334,6|2,1:0|3:2,2:0:0:0:
230,363,143369,1,0,3:0:0:0:
359,275,143501,2,0,P|357:198|363:99,1,156.25,14|2,1:2|3:0,2:0:0:0:
362,43,143871,1,8,3:0:0:0:
196,126,143994,6,0,P|197:169|195:212,1,78.125,6|0,1:0|2:0,2:0:0:0:
269,346,144241,2,0,P|268:303|270:260,1,78.125,6|0,1:2|2:0,2:0:0:0:
505,119,144488,2,0,P|471:164|369:196,1,156.25,14|2,1:2|3:2,2:0:0:0:
281,138,144859,1,0,1:2:0:0:
178,211,144982,6,0,P|133:210|86:217,1,78.125,6|2,1:0|3:2,2:0:0:0:
17,76,145229,2,0,P|61:75|109:82,1,78.125,2|0,1:0|2:0,2:0:0:0:
300,15,145476,2,0,P|302:81|297:184,1,156.25,14|14,1:2|1:2,2:0:0:0:
357,287,145846,1,2,3:0:0:0:
255,370,145970,5,6,1:2:0:0:
171,319,146093,1,8,3:0:0:0:
99,358,146217,1,6,1:2:0:0:
99,358,146340,1,2,3:2:0:0:
13,266,146463,2,0,P|15:225|14:183,1,78.125,14|0,1:2|2:0,2:0:0:0:
186,107,146734,2,0,P|184:66|185:24,1,78.125,12|0,1:2|2:0,2:0:0:0:
475,183,146968,6,0,P|395:171|272:185,1,175.904563541667,6|2,1:0|1:0,2:0:0:0:
383,86,147331,1,0,1:0:0:0:
305,20,147455,2,0,B|384:51|384:51|467:22,1,171.875,14|2,1:2|3:0,2:0:0:0:
390,204,147827,1,8,3:0:0:0:
491,277,147951,6,0,L|374:297,1,85.9375,6|0,1:0|2:0,2:0:0:0:
299,366,148200,2,0,L|182:346,1,85.9375,2|0,1:3|2:0,2:0:0:0:
15,256,148448,2,0,P|108:246|188:258,1,171.875,12|6,1:2|3:2,2:0:0:0:
258,280,148820,1,0,1:2:0:0:
81,148,148945,6,0,L|116:40,1,85.9375,6|0,1:0|2:0,2:0:0:0:
294,169,149193,2,0,L|259:61,1,85.9375,6|0,1:0|2:0,2:0:0:0:
466,23,149441,2,0,P|463:122|475:223,1,171.875,14|14,1:2|1:2,2:0:0:0:
512,316,149814,1,0,1:2:0:0:
336,377,149938,5,6,1:0:0:0:
410,287,150062,1,8,3:0:0:0:
346,243,150186,1,6,1:2:0:0:
282,284,150310,1,2,3:0:0:0:
433,384,150431,2,0,P|432:346|435:275,1,85.9375,12|0,1:2|2:0,2:0:0:0:
258,194,150678,2,0,P|259:232|256:303,1,85.9375,12|0,1:2|2:0,2:0:0:0:
0,384,150926,6,0,P|79:334|185:330,1,187.5,6|6,1:0|1:0,2:0:0:0:
68,206,151298,1,0,1:2:0:0:
170,97,151422,2,0,P|77:89|0:40,1,187.5,14|14,1:2|1:2,2:0:0:0:
200,96,151794,1,8,3:0:0:0:
287,60,151918,6,0,P|338:60|391:63,1,93.75,6|0,1:0|2:0,2:0:0:0:
485,187,152166,2,0,P|438:185|391:184,1,93.75,6|0,1:2|2:0,2:0:0:0:
257,380,152414,2,0,P|264:286|254:170,1,189.0122625,14|6,1:2|1:2,2:0:0:0:
231,118,152790,1,0,1:2:0:0:
136,319,152917,6,0,L|157:210,1,93.7499999999999,6|0,1:0|2:0,2:0:0:0:
43,363,153168,2,0,L|22:254,1,93.75,6|0,1:0|2:0,2:0:0:0:
424,301,153409,2,0,B|339:264|339:264|233:298,1,190.896308333333,14|14,1:2|1:2,2:0:0:0:
336,382,153778,1,8,1:3:0:0:
485,187,153902,5,6,1:0:0:0:
339,125,154025,1,8,3:0:0:0:
290,62,154149,1,4,1:2:0:0:
342,2,154273,1,2,1:2:0:0:
421,70,154397,2,0,P|416:140|365:255,1,187.5,14|14,1:2|1:2,2:0:0:0:
245,294,154769,1,2,1:3:0:0:
158,179,154893,6,0,L|273:183,1,101.5625,6|0,1:0|2:0,2:0:0:0:
7,276,155141,2,0,L|122:272,1,101.5625,6|0,1:0|2:0,2:0:0:0:
372,376,155389,2,0,P|300:353|157:356,1,203.125,14|4,1:2|1:2,2:0:0:0:
277,270,155761,1,4,3:0:0:0:
158,179,155885,6,0,P|160:125|155:57,1,101.5625,6|0,1:0|2:0,2:0:0:0:
370,247,156133,2,0,P|370:141|375:41,2,203.533863541667,6|14|6,1:2|1:2|1:2,2:0:0:0:
372,376,156782,1,8,1:3:0:0:
512,192,156892,5,14,1:0:0:0:
370,247,157146,5,14,1:0:0:0:
251,178,157402,5,14,1:2:0:0:
161,237,157514,1,14,1:2:0:0:
92,198,157628,1,8,3:0:0:0:
92,198,157751,1,8,3:2:0:0:
0,223,157875,5,14,1:0:0:0:
85,109,157998,1,14,1:2:0:0:
159,269,158122,5,6,3:1:0:0:
92,198,158246,1,12,1:3:0:0:
40,332,158355,5,14,1:2:0:0:
