osu file format v14

[General]
AudioFilename: audio.mp3
AudioLeadIn: 0
PreviewTime: 75422
Countdown: 0
SampleSet: Soft
StackLeniency: 0.7
Mode: 0
LetterboxInBreaks: 0
WidescreenStoryboard: 1

[Editor]
DistanceSpacing: 1
BeatDivisor: 1
GridSize: 32
TimelineZoom: 0.9

[Metadata]
Title:Buddy Holly
TitleUnicode:Buddy Holly
Artist:Weezer
ArtistUnicode:Weezer
Creator:Ruiz Duchamp
Version:Easy
Source:
Tags:blue album english alternative rock
BeatmapID:4212608
BeatmapSetID:2022594

[Difficulty]
HPDrainRate:3
CircleSize:3
OverallDifficulty:3
ApproachRate:3
SliderMultiplier:1
SliderTickRate:0.5

[Events]
//Background and Video events
0,0,"weezer_waifu2x_photo_noise0_scale_tta_1.jpg",0,0
//Break Periods
2,44006,50306
//Storyboard Layer 0 (Background)
//Storyboard Layer 1 (Fail)
//Storyboard Layer 2 (Pass)
//Storyboard Layer 3 (Foreground)
//Storyboard Layer 4 (Overlay)
//Storyboard Sound Samples

[TimingPoints]
151,512.820512820513,4,2,33,60,1,0
658,489.795918367347,4,2,33,60,1,0
1142,512.820512820513,4,2,33,60,1,0
1650,495.867768595041,4,2,33,60,1,0
1898,472.44094488189,4,2,33,60,1,0
2134,472.44094488189,4,2,33,60,1,0
2376,483.870967741935,4,2,33,60,1,0
2618,521.739130434783,4,2,33,60,1,0
2878,468.75,4,2,33,60,1,0
3113,521.739130434783,4,2,33,60,1,0
3374,451.127819548872,4,2,33,60,1,0
3599,521.739130434783,4,2,33,60,1,0
3859,476.190476190476,4,2,33,60,1,0
4097,535.714285714286,4,2,33,60,1,0
4366,476.190476190476,4,2,33,60,1,0
4605,512.820512820513,4,2,33,60,1,0
4862,476.190476190476,4,2,33,60,1,0
5100,517.241379310345,4,2,33,60,1,0
5358,483.870967741935,4,2,33,60,1,0
5599,526.315789473684,4,2,33,60,1,0
5862,458.015267175573,4,2,33,60,1,0
6091,517.241379310345,4,2,33,60,1,0
6350,465.116279069767,4,2,33,60,1,0
6582,465.116279069767,4,2,33,60,1,0
6821,530.973451327434,4,2,33,60,1,0
7086,530.973451327434,4,2,33,60,1,0
7226,437.956204379562,4,2,33,60,1,0
7444,528.63436123348,4,2,33,60,1,0
7576,521.739130434783,4,2,33,60,1,0
7838,476.190476190476,4,2,33,60,1,0
8076,495.867768595041,4,2,33,60,1,0
8571,538.116591928251,4,2,33,60,1,0
8840,476.190476190476,4,2,33,60,1,0
9078,476.190476190476,4,2,33,60,1,0
9559,500,4,2,33,60,1,0
10814,476.190476190476,4,2,33,60,1,0
11052,517.241379310345,4,2,33,60,1,0
11310,495.049504950495,4,2,33,60,1,0
11557,495.049504950495,4,2,33,60,1,0
13533,495.867768595041,4,2,33,60,1,0
14033,504.201680672269,4,2,33,60,1,0
14286,480,4,2,33,60,1,0
14526,480,4,2,33,60,1,0
15246,497.92531120332,4,2,33,60,1,0
15494,508.474576271186,4,2,33,60,1,0
15749,476.190476190476,4,2,33,60,1,0
15987,526.315789473684,4,2,33,60,1,0
16251,489.795918367347,4,2,33,60,1,0
16495,489.795918367347,4,2,33,60,1,0
16747,521.739130434783,4,2,33,60,1,0
17008,487.80487804878,4,2,33,60,1,0
17746,535.714285714286,4,2,33,60,1,0
18014,495.867768595041,4,2,33,60,1,0
18261,458.015267175573,4,2,33,60,1,0
18490,521.739130434783,4,2,33,60,1,0
18750,487.80487804878,4,2,33,60,1,0
18993,487.80487804878,4,2,33,60,1,0
19236,512.820512820513,4,2,33,60,1,0
19492,512.820512820513,4,2,33,60,1,0
19742,490.998363338789,4,2,33,60,1,0
19987,490.998363338789,4,2,33,60,1,0
21463,504.201680672269,4,2,33,60,1,0
22217,491.803278688525,4,2,33,60,1,0
22462,491.803278688525,4,2,33,60,1,0
23444,517.241379310345,4,2,33,60,1,0
23957,487.80487804878,4,2,33,40,1,0
24694,500,4,2,33,40,1,0
24944,500,4,2,33,40,1,0
25439,487.80487804878,4,2,33,60,1,0
25682,-100,4,2,33,65,0,0
26175,504.201680672269,4,2,33,65,1,0
26427,504.201680672269,4,2,33,65,1,0
26932,487.80487804878,4,2,33,70,1,0
27175,-100,4,2,33,75,0,0
27667,508.474576271186,4,2,33,45,1,0
27921,508.474576271186,4,2,33,45,1,0
27921,-100,4,2,33,70,0,0
28173,468.75,4,2,33,70,1,0
28407,508.474576271186,4,2,33,70,1,0
28911,487.80487804878,4,2,33,70,1,0
29404,497.92531120332,4,2,33,70,1,0
31394,491.803278688525,4,2,33,70,1,0
32378,500,4,2,33,70,1,0
32873,496.688741721854,4,2,33,70,1,0
33864,497.92531120332,4,2,33,70,1,0
35109,487.80487804878,4,2,33,70,1,0
35353,521.739130434783,4,2,33,70,1,0
35613,491.803278688525,4,2,33,70,1,0
35858,491.803278688525,4,2,33,70,1,0
36353,500,4,2,33,70,1,0
37101,491.803278688525,4,2,33,70,1,0
37346,491.803278688525,4,2,33,70,1,0
37842,500,4,2,33,70,1,0
38589,487.80487804878,4,2,33,70,1,0
38832,487.80487804878,4,2,33,70,1,0
39323,512.820512820513,4,2,33,70,1,0
39829,495.867768595041,4,2,33,75,1,0
43053,454.545454545455,4,2,33,75,1,0
43281,592.592592592593,4,2,33,75,1,0
43318,451.127819548872,4,2,33,75,1,0
43543,526.315789473684,4,2,33,60,1,0
43806,495.867768595041,4,2,33,60,1,0
45037,517.241379310345,4,2,33,60,1,0
45295,476.190476190476,4,2,33,60,1,0
45533,512.820512820513,4,2,33,60,1,0
45790,476.190476190476,4,2,33,60,1,0
46029,517.241379310345,4,2,33,60,1,0
46287,484.770138159489,4,2,33,60,1,0
47021,495.049504950495,4,2,33,60,1,0
47268,495.049504950495,4,2,33,60,1,0
49500,517.241379310345,4,2,33,60,1,0
49758,480,4,2,33,60,1,0
50120,517.241379310345,4,2,33,60,1,0
50249,500,4,2,33,60,1,0
50999,517.241379310345,4,2,33,60,1,0
51128,495.867768595041,4,2,33,60,1,0
51252,494.845360824742,4,2,33,60,1,0
51746,489.795918367347,4,2,33,60,1,0
52241,535.714285714286,4,2,33,60,1,0
52510,444.444444444444,4,2,33,60,1,0
52733,491.803278688525,4,2,33,60,1,0
53964,495.867768595041,4,2,33,60,1,0
54211,495.867768595041,4,2,33,60,1,0
55452,476.190476190476,4,2,33,60,1,0
55691,508.474576271186,4,2,33,60,1,0
55945,530.973451327434,4,2,33,60,1,0
56210,495.867768595041,4,2,33,60,1,0
57202,495.867768595041,4,2,33,60,1,0
58694,594.059405940594,4,2,33,60,1,0
58842,521.739130434783,4,2,33,60,1,0
58972,461.538461538462,4,2,33,60,1,0
59087,400,4,2,33,60,1,0
59187,465.116279069767,4,2,33,60,1,0
59420,506.329113924051,4,2,33,60,1,0
59673,506.329113924051,4,2,33,60,1,0
60175,495.867768595041,4,2,33,60,1,0
61414,517.241379310345,4,2,33,60,1,0
61672,483.870967741935,4,2,33,60,1,0
62155,500,4,2,33,60,1,0
62901,495.867768595041,4,2,33,60,1,0
63148,495.867768595041,4,2,33,60,1,0
63644,485.82995951417,4,2,33,60,1,0
64135,506.329113924051,4,2,33,60,1,0
64636,480,4,2,33,60,1,0
64876,512.820512820513,4,2,33,60,1,0
65132,512.820512820513,4,2,33,60,1,0
65382,517.241379310345,4,2,33,60,1,0
65640,476.190476190476,4,2,33,60,1,0
66354,508.474576271186,4,2,33,60,1,0
66608,508.474576271186,4,2,33,60,1,0
67349,509.337860780985,4,2,33,60,1,0
67603,509.337860780985,4,2,33,60,1,0
68119,476.190476190476,4,2,33,60,1,0
68357,508.474576271186,4,2,33,60,1,0
68611,508.474576271186,4,2,33,60,1,0
69373,468.75,4,2,33,60,1,0
69607,491.803278688525,4,2,33,60,1,0
71328,508.474576271186,4,2,33,60,1,0
71582,508.474576271186,4,2,33,60,1,0
72090,495.867768595041,4,2,33,60,1,0
72833,483.870967741935,4,2,33,60,1,0
73074,483.870967741935,4,2,33,60,1,0
73316,491.803278688525,4,2,33,60,1,0
73561,491.803278688525,4,2,33,60,1,0
74299,504.201680672269,4,2,33,60,1,0
74551,504.201680672269,4,2,33,60,1,0
75307,491.803278688525,4,2,33,60,1,0
75552,491.803278688525,4,2,33,60,1,0
76044,-100,4,2,33,50,0,0
76294,487.80487804878,4,2,33,45,1,0
76537,487.80487804878,4,2,33,45,1,0
77028,504.201680672269,4,2,33,60,1,0
77280,-100,4,2,33,65,0,0
77779,488.599348534202,4,2,33,65,1,0
78023,488.599348534202,4,2,33,65,1,0
78763,506.329113924051,4,2,33,75,1,0
79016,506.329113924051,4,2,33,75,1,0
79264,489.795918367347,4,2,33,45,1,0
79508,489.795918367347,4,2,33,45,1,0
79508,-100,4,2,33,70,0,0
80003,512.820512820513,4,2,33,70,1,0
80510,495.867768595041,4,2,33,70,1,0
81503,478.08764940239,4,2,33,70,1,0
81987,495.867768595041,4,2,33,70,1,0
84471,517.241379310345,4,2,33,70,1,0
84729,476.190476190476,4,2,33,70,1,0
84967,476.190476190476,4,2,33,70,1,0
85211,500,4,2,33,70,1,0
85461,500,4,2,33,70,1,0
85964,483.870967741935,4,2,33,70,1,0
86450,497.92531120332,4,2,33,70,1,0
87939,495.867768595041,4,2,33,70,1,0
88187,530.973451327434,4,2,33,70,1,0
88452,530.973451327434,4,2,33,70,1,0
88719,465.116279069767,4,2,33,70,1,0
88951,465.116279069767,4,2,33,70,1,0
89179,526.315789473684,4,2,33,70,1,0
89443,495.867768595041,4,2,33,70,1,0
89940,461.538461538462,4,2,33,70,1,0
90171,512.820512820513,4,2,33,70,1,0
90427,512.820512820513,4,2,33,70,1,0
90679,495.867768595041,4,2,33,70,1,0
90926,495.867768595041,4,2,33,70,1,0
91422,-100,4,2,33,75,0,0
92414,508.474576271186,4,2,33,75,1,0
93162,480,4,2,33,75,1,0
93402,480,4,2,33,75,1,0
93889,521.739130434783,4,2,33,75,1,0
94149,478.08764940239,4,2,33,75,1,0
94388,478.08764940239,4,2,33,75,1,0
94633,521.739130434783,4,2,33,75,1,0
94894,468.75,4,2,33,75,1,0
95129,530.973451327434,4,2,33,75,1,0
95395,495.867768595041,4,2,33,80,1,0
96138,500,4,2,33,80,1,0
96388,500,4,2,33,80,1,0
97888,483.870967741935,4,2,33,80,1,0
98866,504.201680672269,4,2,33,80,1,0
99372,478.08764940239,4,2,33,80,1,1
99856,495.867768595041,4,2,33,80,1,1
103327,495.867768595041,4,2,33,80,1,1
104067,480,4,2,33,80,1,1
104307,480,4,2,33,80,1,1
104553,495.867768595041,4,2,33,80,1,1
104800,495.867768595041,4,2,33,80,1,1
107279,495.867768595041,4,2,33,80,1,1
108768,540.540540540541,4,2,33,80,1,1
109038,495.867768595041,4,2,33,80,1,1
109286,451.127819548872,4,2,33,80,1,1
109512,512.820512820513,4,2,33,80,1,1
109768,512.820512820513,4,2,33,80,1,1
110020,495.867768595041,4,2,33,80,1,1
110267,495.867768595041,4,2,33,80,1,1
111012,480,4,2,33,80,1,1
111252,480,4,2,33,80,1,1
111496,495.867768595041,4,2,33,80,1,1
111743,495.867768595041,4,2,33,80,1,1
112736,526.315789473684,4,2,33,80,1,1
113000,484.652665589661,4,2,33,80,1,1
113242,484.652665589661,4,2,33,80,1,1
113976,495.867768595041,4,2,33,80,1,1
114223,495.867768595041,4,2,33,80,1,1
115214,495.867768595041,4,2,33,80,1,1
115214,-100,4,2,33,65,0,0
117448,521.739130434783,4,2,33,65,1,0
117708,521.739130434783,4,2,33,65,1,0
117969,500,4,2,33,65,1,0
118219,476.190476190476,4,2,33,65,1,0
118457,491.803278688525,4,2,33,65,1,0
118702,491.803278688525,4,2,33,65,1,0
118952,500,4,2,33,65,1,0
119202,500,4,2,33,65,1,0
119939,495.867768595041,4,2,33,65,1,0
120186,495.867768595041,4,2,33,65,1,0
120931,480,4,2,33,65,1,0
121171,480,4,2,33,65,1,0
121416,496.688741721854,4,2,33,65,1,0
121664,496.688741721854,4,2,33,65,1,0
122655,535.714285714286,4,2,33,65,1,0
122920,491.803278688525,4,2,33,65,1,0
123042,566.037735849057,4,2,33,65,1,0
123183,566.037735849057,4,2,33,65,1,0
123183,-100,4,2,33,40,0,0
123410,491.803278688525,4,2,33,40,1,0
123655,491.803278688525,4,2,33,40,1,0
123655,-100,4,2,33,50,0,0
123901,-100,4,2,33,55,0,0
124393,-100,4,2,33,54,0,0
124885,-100,4,2,33,40,0,0
125135,526.315789473684,4,2,33,45,1,0
125399,495.867768595041,4,2,33,45,1,0
125646,495.867768595041,4,2,33,45,1,0
125646,-100,4,2,33,55,0,0
125895,465.116279069767,4,2,33,60,1,0
126127,500,4,2,33,60,1,0
126376,555.555555555556,4,2,33,60,1,0
126515,492.610837438424,4,2,33,70,1,0
126638,492.610837438424,4,2,33,70,1,0
126884,-100,4,2,33,80,0,0
127130,492.610837438424,4,2,33,80,1,0
127868,-100,4,2,33,70,0,0
128368,495.867768595041,4,2,33,75,1,0
128615,495.867768595041,4,2,33,75,1,0
128863,-100,4,2,33,80,0,0
129111,451.127819548872,4,2,33,80,1,0
129336,526.315789473684,4,2,33,80,1,0
129600,461.538461538462,4,2,33,80,1,0
129831,491.803278688525,4,2,33,80,1,0
130077,576.230492196879,4,2,33,80,1,0
130095,461.538461538462,4,2,33,80,1,0
130326,512.820512820513,4,2,33,80,1,0
130582,512.820512820513,4,2,33,80,1,0
130833,489.795918367347,4,2,33,80,1,0
131077,489.795918367347,4,2,33,80,1,0
131077,-100,4,2,33,70,0,0
131574,495.867768595041,4,2,33,70,1,0
132814,508.474576271186,4,2,33,70,1,0
133068,508.474576271186,4,2,33,70,1,0
133319,495.867768595041,4,2,33,70,1,0
133566,495.867768595041,4,2,33,70,1,0
137783,504.201680672269,4,2,33,70,1,0
138035,504.201680672269,4,2,33,70,1,0
138534,487.80487804878,4,2,33,70,1,0
139271,496.688741721854,4,2,33,70,1,0
139519,496.688741721854,4,2,33,70,1,0
143239,521.739130434783,4,2,33,70,1,0
143501,493.827160493827,4,2,33,70,1,0
146463,540.540540540541,4,2,33,70,1,0
146734,468.75,4,2,33,70,1,0
146968,468.75,4,2,33,70,1,0
146968,-100,4,2,33,75,0,0
147207,496.688741721854,4,2,33,75,1,0
147455,496.688741721854,4,2,33,75,1,0
150431,495.867768595041,4,2,33,75,1,0
150926,-100,4,2,33,80,0,0
152663,508.474576271186,4,2,33,80,1,0
152917,508.474576271186,4,2,33,80,1,0
153168,483.870967741935,4,2,33,80,1,0
153409,483.870967741935,4,2,33,80,1,0
153655,495.867768595041,4,2,33,80,1,0
153902,495.867768595041,4,2,33,80,1,0
154894,-100,4,2,33,85,0,0
156629,612.244897959184,4,2,33,85,1,0
156782,441.176470588235,4,2,33,85,1,0
156892,508.474576271186,4,2,33,85,1,0
157402,451.127819548872,4,2,33,85,1,0
157628,495.867768595041,4,2,33,85,1,0
157875,495.867768595041,4,2,33,85,1,0
158246,434.782608695652,4,2,33,85,1,0
158355,424.028268551237,4,2,33,85,1,0

[Colours]
Combo1 : 255,217,170
Combo2 : 255,106,106
Combo3 : 245,73,117

[HitObjects]
0,227,151,5,2,1:2:0:0:
76,301,658,1,10,1:2:0:0:
76,301,902,2,2,P|154:293|238:309,1,152.858333333333,2|10,3:2|1:2,2:1:0:0:
320,329,2134,1,2,1:2:0:0:
407,281,2618,1,10,1:2:0:0:
502,312,3113,2,0,P|510:265|509:204,1,93.2916666666667,0|8,1:2|1:2,2:0:0:0:
450,132,4097,5,2,1:2:0:0:
368,187,4605,1,10,1:2:0:0:
368,187,4862,2,2,P|311:202|209:185,1,154.83,2|10,3:2|1:2,2:1:0:0:
173,102,6091,1,2,1:2:0:0:
225,17,6582,1,10,1:2:0:0:
320,45,7086,2,0,P|372:49|424:42,1,92.4666666666667,2|14,1:0|1:2,2:0:0:0:
485,118,8076,5,2,1:2:0:0:
424,198,8571,1,10,1:2:0:0:
424,198,8840,2,2,P|421:291|432:352,1,151.05,2|10,3:2|1:2,2:1:0:0:
332,367,10059,1,2,1:2:0:0:
239,343,10559,1,10,1:2:0:0:
239,343,10814,2,2,P|183:334|79:346,1,156.09,2|8,3:2|1:2,2:1:0:0:
44,254,12052,5,2,1:2:0:0:
92,168,12547,1,8,1:2:0:0:
92,168,12795,1,2,3:2:0:0:
178,218,13290,1,2,3:2:0:0:
244,144,13780,1,2,3:2:0:0:
244,144,14033,2,0,P|260:95|261:35,1,97.8183333333333,6|8,1:2|1:2,2:0:0:0:
172,2,15006,2,2,P|132:26|93:79,1,101.666666666667,2|8,1:0|1:2,2:1:0:0:
92,168,15987,5,6,1:0:0:0:
178,218,16495,1,14,1:2:0:0:
325,188,17251,2,0,P|358:193|385:188,1,50,2|10,1:2|1:2,2:0:0:0:
420,210,17746,2,2,P|447:165|465:48,1,138.986666666667,2|14,3:2|1:2,2:1:0:0:
450,22,18750,1,6,1:0:0:0:
313,83,19492,1,10,1:2:0:0:
225,34,19987,6,0,P|177:39|116:32,1,100,2|14,1:0|1:2,2:0:0:0:
34,153,21214,2,0,P|35:192|30:221,1,50.8146666666667,2|10,1:2|1:2,2:0:0:0:
31,252,21715,1,2,3:2:0:0:
158,340,22462,1,14,1:2:0:0:
158,340,22708,2,2,P|241:333|322:343,1,149.796666666667,6|10,1:2|1:2,2:1:0:0:
383,268,23957,5,6,1:0:0:0:
313,204,24444,1,6,1:2:0:0:
313,204,25439,1,8,1:3:0:0:
268,226,25682,2,0,P|219:230|161:220,1,101.23,8|14,1:3|1:2,2:0:0:0:
159,125,26679,1,12,1:3:0:0:
233,57,27175,1,14,1:2:0:0:
318,109,27667,1,14,1:0:0:0:
318,109,27921,6,2,P|381:110|442:93,1,95.6733333333333,6|14,1:0|1:2,2:1:0:0:
473,184,28911,2,2,P|471:253|482:314,1,101.23,12|14,1:3|1:2,2:1:0:0:
396,345,29901,2,0,P|370:342|340:346,1,50,2|2,1:2|1:2,2:0:0:0:
304,317,30399,1,14,1:2:0:0:
211,354,30897,1,6,1:0:0:0:
116,321,31394,2,2,P|104:273|108:207,1,100,12|12,1:2|1:3,2:1:0:0:
153,135,32378,5,14,1:2:0:0:
240,182,32873,2,0,P|297:177|346:156,1,100,2|14,1:2|1:2,2:0:0:0:
363,121,33618,1,2,3:2:0:0:
363,121,33864,1,6,1:0:0:0:
344,22,34361,1,14,1:2:0:0:
246,43,34859,2,2,P|209:47|138:41,1,99.3975,6|12,1:0|1:2,2:1:0:0:
80,117,35858,5,6,1:0:0:0:
135,200,36353,1,14,1:2:0:0:
79,283,36853,1,2,1:2:0:0:
158,343,37346,2,0,P|197:341|233:350,1,50,14|2,1:2|3:2,2:0:0:0:
247,311,37842,2,0,P|303:317|365:304,1,100,6|14,1:0|1:2,2:0:0:0:
436,353,38832,2,0,P|481:353|496:358,1,50,2|2,1:2|1:2,2:0:0:0:
507,309,39323,1,12,1:2:0:0:
457,222,39829,5,6,1:0:0:0:
500,134,40324,1,14,1:2:0:0:
437,56,40820,2,0,P|387:65|320:53,1,100,2|12,1:2|1:2,2:0:0:0:
303,94,41564,1,6,1:0:0:0:
368,229,42308,1,12,1:2:0:0:
287,288,42804,2,0,P|255:285|224:290,1,50.4033333333333,6|6,1:2|1:2,2:0:0:0:
195,260,43281,1,14,1:2:0:0:
125,331,43806,1,6,1:2:0:0:
125,331,51746,5,2,1:2:0:0:
205,272,52241,1,10,1:2:0:0:
205,272,52510,2,2,P|285:281|361:272,1,160.8,2|10,3:2|1:2,2:1:0:0:
412,183,53716,1,2,1:2:0:0:
355,108,54211,1,8,1:2:0:0:
355,108,54459,2,2,P|278:119|196:107,1,150,2|10,3:2|1:2,2:1:0:0:
120,67,55691,5,2,1:2:0:0:
60,154,56210,1,10,1:2:0:0:
60,154,56457,2,2,P|62:262|55:320,1,150.403333333333,2|10,3:2|1:2,2:1:0:0:
144,352,57697,1,2,1:2:0:0:
230,301,58193,1,10,1:2:0:0:
317,353,58694,1,2,1:0:0:0:
412,306,59187,1,14,1:2:0:0:
493,254,59673,5,2,1:2:0:0:
496,156,60175,1,10,1:2:0:0:
496,156,60422,2,2,P|492:83|497:3,1,150,2|10,3:2|1:2,2:1:0:0:
394,31,61672,1,2,1:2:0:0:
304,11,62155,1,10,1:2:0:0:
304,11,62405,2,2,P|233:20|145:9,1,148.6,2|8,3:2|1:2,2:1:0:0:
77,75,63644,5,2,1:2:0:0:
124,168,64135,1,10,1:2:0:0:
124,168,64388,2,2,P|124:279|113:338,1,147.0375,2|10,3:2|1:2,2:1:0:0:
212,358,65640,1,2,1:2:0:0:
302,315,66116,1,14,1:2:0:0:
298,218,66608,2,0,P|274:222|245:218,1,50,2|2,1:0|1:0,2:0:0:0:
220,177,67116,1,14,1:2:0:0:
277,100,67603,6,0,P|333:105|391:97,1,101.374333333333,6|14,1:0|1:2,2:0:0:0:
500,180,68865,2,0,P|500:229|504:253,1,50,2|10,1:2|1:2,2:0:0:0:
452,255,69373,2,2,P|359:286|324:333,1,154.756666666667,2|14,3:2|1:2,2:1:0:0:
288,362,70344,1,6,1:0:0:0:
154,293,71082,1,14,1:2:0:0:
56,309,71582,6,0,P|51:269|57:192,1,100,2|10,1:2|1:2,2:0:0:0:
74,57,72833,2,0,P|104:61|133:54,1,50,2|10,1:2|1:2,2:0:0:0:
167,35,73316,2,2,P|262:45|322:30,1,150,2|14,3:2|1:2,2:1:0:0:
356,58,74299,1,6,1:0:0:0:
404,199,75055,1,14,1:2:0:0:
324,260,75552,5,6,1:0:0:0:
258,200,76044,1,4,1:2:0:0:
258,200,77028,1,8,1:3:0:0:
215,174,77280,2,0,P|165:182|100:174,1,99.0083333333333,8|14,1:3|1:2,2:0:0:0:
94,278,78267,1,12,1:3:0:0:
165,348,78763,1,14,1:2:0:0:
263,315,79264,1,14,1:0:0:0:
263,315,79508,6,2,P|319:324|377:312,1,101.225,6|14,1:0|1:2,2:1:0:0:
457,356,80510,1,12,1:3:0:0:
506,269,81005,1,14,1:2:0:0:
446,188,81503,2,0,P|442:164|447:120,1,50,2|2,1:2|1:2,2:0:0:0:
418,96,81987,1,14,1:2:0:0:
322,126,82482,1,2,1:2:0:0:
254,52,82978,2,2,P|208:58|141:48,1,100,14|12,1:2|1:3,2:1:0:0:
68,102,83970,5,14,1:2:0:0:
115,189,84471,2,2,P|112:266|118:310,1,95.94,2|14,1:2|1:2,2:1:0:0:
202,335,85461,1,6,1:0:0:0:
285,279,85964,1,14,1:2:0:0:
371,330,86450,2,2,P|426:334|482:361,1,100,6|12,1:0|1:2,2:1:0:0:
508,256,87445,5,6,1:0:0:0:
460,168,87939,1,14,1:2:0:0:
502,81,88452,1,2,1:2:0:0:
412,22,88951,2,0,P|383:25|345:17,1,49.14,14|2,1:2|3:2,2:0:0:0:
329,58,89443,1,6,1:0:0:0:
237,17,89940,1,14,1:2:0:0:
155,66,90427,2,0,P|157:111|154:130,1,49.22,2|2,1:2|1:2,2:0:0:0:
183,156,90926,1,14,1:2:0:0:
96,205,91422,5,6,1:0:0:0:
98,304,91918,1,14,1:2:0:0:
189,351,92414,1,2,1:2:0:0:
189,351,92668,2,0,P|239:347|304:355,1,97.2466666666667,2|2,1:2|3:2,2:0:0:0:
331,333,93402,1,6,1:2:0:0:
416,369,93889,2,0,P|441:367|466:370,1,50,12|12,1:2|1:2,2:0:0:0:
495,330,94388,1,6,1:2:0:0:
437,243,94894,1,12,1:2:0:0:
496,161,95395,5,6,1:0:0:0:
491,61,95890,1,12,1:2:0:0:
402,15,96388,1,2,1:2:0:0:
402,15,96638,2,0,P|354:23|294:15,1,100,2|2,1:2|3:2,2:0:0:0:
272,56,97388,1,4,1:2:0:0:
172,29,97888,2,0,P|144:31|110:27,1,50,12|14,1:2|1:2,2:0:0:0:
85,62,98371,1,6,1:2:0:0:
41,151,98855,1,12,1:2:0:0:
100,241,99372,6,2,P|156:238|204:245,1,101.255,6|10,1:0|1:0,2:1:0:0:
278,181,100351,2,0,P|309:185|330:181,1,50,6|6,1:2|1:2,2:0:0:0:
372,202,100847,1,10,1:0:0:0:
438,276,101343,2,2,P|434:307|438:328,1,50,6|6,1:0|1:2,2:1:0:0:
398,357,101839,1,10,1:0:0:0:
303,325,102335,1,2,1:0:0:0:
257,344,102583,1,0,1:0:0:0:
212,366,102831,1,10,1:0:0:0:
116,337,103327,6,2,P|62:344|8:333,1,100,6|10,1:0|1:0,2:1:0:0:
0,242,104307,2,0,P|3:222|-1:185,1,50,6|0,1:2|1:0,2:0:0:0:
25,147,104800,1,10,1:0:0:0:
95,76,105296,2,2,P|115:79|152:75,1,50,2|8,2:1|1:3,2:1:0:0:
186,103,105792,1,14,1:0:0:0:
268,161,106288,1,2,1:0:0:0:
307,130,106536,1,0,1:0:0:0:
350,104,106784,1,10,1:0:0:0:
430,163,107279,6,2,P|429:213|438:244,1,50,6|6,1:0|1:2,2:1:0:0:
400,253,107774,1,10,1:0:0:0:
311,300,108270,2,0,P|260:299|229:308,1,50,2|8,1:0|1:3,2:0:0:0:
221,276,108766,1,10,1:0:0:0:
152,196,109286,1,6,1:2:0:0:
186,161,109512,1,2,1:0:0:0:
223,124,109768,1,14,1:0:0:0:
164,41,110267,2,2,P|133:45|96:35,1,50,6|6,1:2|1:2,2:1:0:0:
69,64,110763,1,10,1:0:0:0:
1,140,111252,6,0,P|3:179|-3:208,1,50,6|6,1:0|1:2,2:0:0:0:
42,220,111743,2,0,P|40:259|44:285,1,50,10|6,1:0|1:2,2:0:0:0:
15,313,112239,1,6,1:2:0:0:
92,367,112736,1,10,1:0:0:0:
185,321,113242,2,0,P|224:323|250:319,1,50,6|6,1:0|1:2,2:0:0:0:
275,350,113726,1,10,1:0:0:0:
369,317,114223,1,10,1:0:0:0:
468,331,114719,2,0,P|466:292|470:266,1,50,14|6,1:0|1:2,2:0:0:0:
498,241,115214,6,2,P|501:176|487:109,1,100,6|8,1:0|1:2,2:1:0:0:
465,101,115957,1,6,1:2:0:0:
370,133,116453,1,2,2:0:0:0:
280,101,116949,1,2,2:3:0:0:
280,101,117197,2,2,P|226:109|162:96,1,102.823333333333,6|14,1:2|1:2,2:1:0:0:
140,138,117969,1,6,1:0:0:0:
54,98,118457,1,0,1:0:0:0:
54,98,118702,1,8,1:2:0:0:
2,183,119202,6,2,P|6:252|1:294,1,100,6|10,1:0|1:2,2:1:0:0:
82,339,120186,1,2,1:0:0:0:
166,285,120682,1,14,1:2:0:0:
253,337,121171,2,0,P|287:335|322:343,1,51.0416666666667,2|2,1:0|1:0,2:0:0:0:
349,313,121664,1,14,1:2:0:0:
349,313,121912,2,2,P|404:336|494:335,1,149.597333333333,6|12,1:0|1:2,2:1:0:0:
493,242,123183,6,2,P|490:213|494:148,1,83.48,6|14,1:0|1:2,2:1:0:0:
457,117,123901,1,12,1:3:0:0:
359,139,124393,1,12,1:3:0:0:
283,82,124885,1,6,1:2:0:0:
283,82,125135,2,2,P|223:89|171:78,1,97.15,6|6,1:0|1:2,2:1:0:0:
132,55,125895,1,6,1:2:0:0:
53,108,126376,1,6,1:0:0:0:
54,208,126884,5,12,1:3:0:0:
143,252,127376,1,14,1:2:0:0:
230,204,127868,1,12,1:3:0:0:
313,259,128368,1,14,1:2:0:0:
312,356,128863,1,14,1:0:0:0:
312,356,131077,5,6,1:0:0:0:
340,259,131574,1,14,2:0:0:0:
319,161,132069,2,2,P|271:167|207:156,1,100,12|14,1:3|1:2,2:1:0:0:
132,205,133068,1,2,1:2:0:0:
43,157,133566,1,14,1:2:0:0:
0,247,134062,2,0,P|-3:303|4:367,2,100,6|14|12,1:0|1:2|1:3,2:0:0:0:
21,149,135550,5,14,1:2:0:0:
16,49,136046,2,2,P|67:54|129:45,1,100,2|14,1:2|1:2,2:1:0:0:
208,85,137038,1,6,1:0:0:0:
294,35,137533,1,14,1:2:0:0:
386,72,138035,2,2,P|381:142|386:188,1,99.0083333333333,6|12,1:0|1:2,2:1:0:0:
303,229,139021,5,6,1:0:0:0:
304,329,139519,1,14,1:2:0:0:
394,371,140016,1,2,1:2:0:0:
484,328,140512,1,14,1:2:0:0:
478,228,141009,2,2,P|483:157|478:112,1,100,6|14,1:0|1:2,2:1:0:0:
408,59,142002,2,0,P|381:63|352:59,1,50,2|2,1:2|3:2,2:0:0:0:
322,95,142499,1,12,1:2:0:0:
242,34,142996,5,6,1:0:0:0:
194,117,143501,1,14,1:2:0:0:
110,72,143994,1,2,1:0:0:0:
110,72,144241,2,0,P|60:81|-3:70,1,100,6|2,1:2|3:2,2:0:0:0:
2,124,144982,1,6,1:0:0:0:
62,203,145476,2,0,P|63:251|67:267,1,50,14|14,1:2|1:2,2:0:0:0:
37,295,145970,1,6,1:2:0:0:
106,354,146463,2,0,P|135:352|162:356,1,50.185,14|12,1:2|1:2,2:0:0:0:
189,317,146968,5,6,1:0:0:0:
278,357,147455,1,14,1:2:0:0:
366,307,147952,1,2,1:0:0:0:
366,307,148200,2,0,P|408:311|465:281,1,100,2|6,1:3|3:2,2:0:0:0:
488,245,148945,1,6,1:0:0:0:
429,163,149442,1,14,1:2:0:0:
335,198,149938,2,0,P|309:203|275:198,1,50,2|6,1:0|1:2,2:0:0:0:
252,164,150431,1,12,1:2:0:0:
253,64,150926,5,6,1:0:0:0:
341,18,151422,1,14,1:2:0:0:
440,53,151918,1,2,1:0:0:0:
440,53,152166,2,0,P|439:121|450:171,1,100.403333333333,6|6,1:2|1:2,2:0:0:0:
430,200,152917,1,6,1:0:0:0:
504,269,153409,2,0,P|501:297|506:326,1,51.0333333333333,14|14,1:2|1:2,2:0:0:0:
468,355,153902,1,2,1:0:0:0:
370,333,154398,2,0,P|342:330|313:335,1,50,14|14,1:2|1:2,2:0:0:0:
283,299,154894,5,6,1:0:0:0:
199,353,155390,1,14,1:2:0:0:
109,320,155886,1,2,1:0:0:0:
109,320,156134,2,0,P|114:264|108:206,1,100,6|6,1:2|1:2,2:0:0:0:
146,183,156892,2,0,P|144:157|150:119,1,50,14|10,1:0|1:0,2:0:0:0:
123,81,157402,1,14,1:2:0:0:
209,26,157875,1,14,1:0:0:0:
297,76,158355,1,14,1:2:0:0:
