osu file format v14

[General]
AudioFilename: audio.mp3
AudioLeadIn: 0
PreviewTime:75422
Countdown: 0
SampleSet: Soft
StackLeniency: 0.7
Mode: 0
LetterboxInBreaks: 0
WidescreenStoryboard: 1

[Editor]
DistanceSpacing: 1.5
BeatDivisor: 4
GridSize: 32
TimelineZoom: 2.2

[Metadata]
Title:Buddy Holly
TitleUnicode:Buddy Holly
Artist:Weezer
ArtistUnicode:Weezer
Creator:Ruiz Duchamp
Version:Another
Source:
Tags:blue album english alternative rock
BeatmapID:4212607
BeatmapSetID:2022594

[Difficulty]
HPDrainRate:6
CircleSize:4
OverallDifficulty:8
ApproachRate:9
SliderMultiplier:1.8
SliderTickRate:0.5

[Events]
//Background and Video events
0,0,"weezer_waifu2x_photo_noise0_scale_tta_1.jpg",0,0
//Break Periods
2,43806,51146
2,129111,130477
//Storyboard Layer 0 (Background)
//Storyboard Layer 1 (Fail)
//Storyboard Layer 2 (Pass)
//Storyboard Layer 3 (Foreground)
//Storyboard Layer 4 (Overlay)
//Storyboard Sound Samples

[TimingPoints]
151,512.820512820513,4,2,33,60,1,0
658,489.795918367347,4,2,33,60,1,0
1142,512.820512820513,4,2,33,60,1,0
1650,495.867768595041,4,2,33,60,1,0
1898,472.44094488189,4,2,33,60,1,0
2134,472.44094488189,4,2,33,60,1,0
2376,483.870967741935,4,2,33,60,1,0
2618,521.739130434783,4,2,33,60,1,0
2878,468.75,4,2,33,60,1,0
3113,521.739130434783,4,2,33,60,1,0
3374,451.127819548872,4,2,33,60,1,0
3599,521.739130434783,4,2,33,60,1,0
3859,476.190476190476,4,2,33,60,1,0
4097,535.714285714286,4,2,33,60,1,0
4366,476.190476190476,4,2,33,60,1,0
4605,512.820512820513,4,2,33,60,1,0
4862,476.190476190476,4,2,33,60,1,0
5100,517.241379310345,4,2,33,60,1,0
5358,483.870967741935,4,2,33,60,1,0
5599,526.315789473684,4,2,33,60,1,0
5862,458.015267175573,4,2,33,60,1,0
6091,517.241379310345,4,2,33,60,1,0
6350,465.116279069767,4,2,33,60,1,0
6582,465.116279069767,4,2,33,60,1,0
6821,530.973451327434,4,2,33,60,1,0
7086,530.973451327434,4,2,33,60,1,0
7226,437.956204379562,4,2,33,60,1,0
7444,528.63436123348,4,2,33,60,1,0
7576,521.739130434783,4,2,33,60,1,0
7838,476.190476190476,4,2,33,60,1,0
8076,495.867768595041,4,2,33,60,1,0
8571,538.116591928251,4,2,33,60,1,0
8840,476.190476190476,4,2,33,60,1,0
9078,476.190476190476,4,2,33,60,1,0
9559,500,4,2,33,60,1,0
10814,476.190476190476,4,2,33,60,1,0
11052,517.241379310345,4,2,33,60,1,0
11310,495.049504950495,4,2,33,60,1,0
11557,495.049504950495,4,2,33,60,1,0
13533,495.867768595041,4,2,33,60,1,0
14033,504.201680672269,4,2,33,60,1,0
14286,480,4,2,33,60,1,0
14526,480,4,2,33,60,1,0
15246,497.92531120332,4,2,33,60,1,0
15494,508.474576271186,4,2,33,60,1,0
15749,476.190476190476,4,2,33,60,1,0
15987,526.315789473684,4,2,33,60,1,0
15987,-90.9090909090909,4,2,33,60,0,0
16251,489.795918367347,4,2,33,60,1,0
16495,489.795918367347,4,2,33,60,1,0
16495,-90.9090909090909,4,2,33,60,0,0
16747,521.739130434783,4,2,33,60,1,0
17008,487.80487804878,4,2,33,60,1,0
17746,535.714285714286,4,2,33,60,1,0
17746,-90.9090909090909,4,2,33,60,0,0
18014,495.867768595041,4,2,33,60,1,0
18261,458.015267175573,4,2,33,60,1,0
18490,521.739130434783,4,2,33,60,1,0
18490,-90.9090909090909,4,2,33,60,0,0
18750,487.80487804878,4,2,33,60,1,0
18750,-90.9090909090909,4,2,33,60,0,0
18993,487.80487804878,4,2,33,60,1,0
19236,512.820512820513,4,2,33,60,1,0
19492,512.820512820513,4,2,33,60,1,0
19742,490.998363338789,4,2,33,60,1,0
19987,490.998363338789,4,2,33,60,1,0
19987,-90.9090909090909,4,2,33,60,0,0
21463,504.201680672269,4,2,33,60,1,0
21715,-90.9090909090909,4,2,33,60,0,0
22217,491.803278688525,4,2,33,60,1,0
22217,-90.9090909090909,4,2,33,60,0,0
22462,491.803278688525,4,2,33,60,1,0
22707,-90.9090909090909,4,2,33,60,0,0
23444,517.241379310345,4,2,33,60,1,0
23702,-90.9090909090909,4,2,33,60,0,0
23957,487.80487804878,4,2,33,40,1,0
24694,500,4,2,33,40,1,0
24944,500,4,2,33,40,1,0
25439,487.80487804878,4,2,33,60,1,0
25682,-100,4,2,33,65,0,0
26175,504.201680672269,4,2,33,65,1,0
26427,504.201680672269,4,2,33,60,1,0
26679,-100,4,2,33,65,0,0
26932,487.80487804878,4,2,33,70,1,0
27175,-100,4,2,33,75,0,0
27419,-100,4,2,33,60,0,0
27667,508.474576271186,4,2,33,45,1,0
27921,508.474576271186,4,2,33,70,1,0
27921,-90.9090909090909,4,2,33,70,0,0
28173,468.75,4,2,33,70,1,0
28407,508.474576271186,4,2,33,70,1,0
28407,-76.9230769230769,4,2,33,70,0,0
28911,487.80487804878,4,2,33,70,1,0
29404,497.92531120332,4,2,33,70,1,0
29404,-76.9230769230769,4,2,33,70,0,0
31394,491.803278688525,4,2,33,70,1,0
32378,500,4,2,33,70,1,0
32378,-76.9230769230769,4,2,33,70,0,0
32873,496.688741721854,4,2,33,70,1,0
33369,-76.9230769230769,4,2,33,70,0,0
33864,497.92531120332,4,2,33,70,1,0
33864,-76.9230769230769,4,2,33,70,0,0
35109,487.80487804878,4,2,33,70,1,0
35353,521.739130434783,4,2,33,70,1,0
35353,-76.9230769230769,4,2,33,70,0,0
35613,491.803278688525,4,2,33,70,1,0
35858,491.803278688525,4,2,33,70,1,0
35858,-76.9230769230769,4,2,33,70,0,0
36353,500,4,2,33,70,1,0
36353,-76.9230769230769,4,2,33,70,0,0
37101,491.803278688525,4,2,33,70,1,0
37346,491.803278688525,4,2,33,70,1,0
37346,-76.9230769230769,4,2,33,70,0,0
37842,500,4,2,33,70,1,0
37842,-76.9230769230769,4,2,33,70,0,0
38589,487.80487804878,4,2,33,70,1,0
38832,487.80487804878,4,2,33,70,1,0
39323,512.820512820513,4,2,33,70,1,0
39323,-76.9230769230769,4,2,33,70,0,0
39829,495.867768595041,4,2,33,75,1,0
39829,-76.9230769230769,4,2,33,75,0,0
43053,454.545454545455,4,2,33,75,1,0
43281,592.592592592593,4,2,33,75,1,0
43318,451.127819548872,4,2,33,75,1,0
43543,526.315789473684,4,2,33,75,1,0
43806,495.867768595041,4,2,33,75,1,0
45037,517.241379310345,4,2,33,75,1,0
45295,476.190476190476,4,2,33,75,1,0
45533,512.820512820513,4,2,33,75,1,0
45790,476.190476190476,4,2,33,75,1,0
46029,517.241379310345,4,2,33,75,1,0
46287,484.770138159489,4,2,33,75,1,0
47021,495.049504950495,4,2,33,75,1,0
47268,495.049504950495,4,2,33,75,1,0
49500,517.241379310345,4,2,33,75,1,0
49758,480,4,2,33,75,1,0
50120,517.241379310345,4,2,33,75,1,0
50249,500,4,2,33,75,1,0
50999,517.241379310345,4,2,33,75,1,0
51128,495.867768595041,4,2,33,75,1,0
51252,494.845360824742,4,2,33,75,1,0
51746,489.795918367347,4,2,33,60,1,0
52241,535.714285714286,4,2,33,60,1,0
52510,444.444444444444,4,2,33,60,1,0
52733,491.803278688525,4,2,33,60,1,0
53964,495.867768595041,4,2,33,60,1,0
54211,495.867768595041,4,2,33,60,1,0
55452,476.190476190476,4,2,33,60,1,0
55691,508.474576271186,4,2,33,60,1,0
55945,530.973451327434,4,2,33,60,1,0
56210,495.867768595041,4,2,33,60,1,0
57202,495.867768595041,4,2,33,60,1,0
58694,594.059405940594,4,2,33,60,1,0
58842,521.739130434783,4,2,33,60,1,0
58972,461.538461538462,4,2,33,60,1,0
59087,400,4,2,33,60,1,0
59187,465.116279069767,4,2,33,60,1,0
59420,506.329113924051,4,2,33,60,1,0
59673,506.329113924051,4,2,33,60,1,0
60175,495.867768595041,4,2,33,60,1,0
61414,517.241379310345,4,2,33,60,1,0
61672,483.870967741935,4,2,33,60,1,0
62155,500,4,2,33,60,1,0
62901,495.867768595041,4,2,33,60,1,0
63148,495.867768595041,4,2,33,60,1,0
63644,485.82995951417,4,2,33,60,1,0
64135,506.329113924051,4,2,33,60,1,0
64636,480,4,2,33,60,1,0
64876,512.820512820513,4,2,33,60,1,0
65132,512.820512820513,4,2,33,60,1,0
65382,517.241379310345,4,2,33,60,1,0
65640,476.190476190476,4,2,33,60,1,0
66354,508.474576271186,4,2,33,60,1,0
66608,508.474576271186,4,2,33,60,1,0
67349,509.337860780985,4,2,33,60,1,0
67603,509.337860780985,4,2,33,60,1,0
67603,-90.9090909090909,4,2,33,60,0,0
68119,476.190476190476,4,2,33,60,1,0
68119,-90.9090909090909,4,2,33,60,0,0
68357,508.474576271186,4,2,33,60,1,0
68611,508.474576271186,4,2,33,60,1,0
69373,468.75,4,2,33,60,1,0
69607,491.803278688525,4,2,33,60,1,0
70098,-90.9090909090909,4,2,33,60,0,0
71328,508.474576271186,4,2,33,60,1,0
71582,508.474576271186,4,2,33,60,1,0
71582,-90.9090909090909,4,2,33,60,0,0
72090,495.867768595041,4,2,33,60,1,0
72833,483.870967741935,4,2,33,60,1,0
72833,-90.9090909090909,4,2,33,60,0,0
73074,483.870967741935,4,2,33,60,1,0
73316,491.803278688525,4,2,33,60,1,0
73316,-90.9090909090909,4,2,33,60,0,0
73561,491.803278688525,4,2,33,60,1,0
74299,504.201680672269,4,2,33,60,1,0
74299,-90.9090909090909,4,2,33,60,0,0
74551,504.201680672269,4,2,33,60,1,0
75307,491.803278688525,4,2,33,60,1,0
75307,-90.9090909090909,4,2,33,60,0,0
75552,491.803278688525,4,2,33,60,1,0
75797,-100,4,2,33,55,0,0
76043,-100,4,2,33,50,0,0
76294,487.80487804878,4,2,33,45,1,0
76537,487.80487804878,4,2,33,45,1,0
77028,504.201680672269,4,2,33,60,1,0
77280,-100,4,2,33,65,0,0
77532,-100,4,2,33,70,0,0
77779,488.599348534202,4,2,33,65,1,0
78023,488.599348534202,4,2,33,60,1,0
78267,-100,4,2,33,65,0,0
78511,-100,4,2,33,70,0,0
78763,506.329113924051,4,2,33,75,1,0
79016,506.329113924051,4,2,33,60,1,0
79264,489.795918367347,4,2,33,45,1,0
79508,489.795918367347,4,2,33,70,1,0
80003,512.820512820513,4,2,33,70,1,0
80003,-76.9230769230769,4,2,33,70,0,0
80510,495.867768595041,4,2,33,70,1,0
81005,-76.9230769230769,4,2,33,70,0,0
81503,478.08764940239,4,2,33,70,1,0
81503,-76.9230769230769,4,2,33,70,0,0
81987,495.867768595041,4,2,33,70,1,0
81987,-76.9230769230769,4,2,33,70,0,0
84471,517.241379310345,4,2,33,70,1,0
84729,476.190476190476,4,2,33,70,1,0
84967,476.190476190476,4,2,33,70,1,0
84967,-76.9230769230769,4,2,33,70,0,0
85211,500,4,2,33,70,1,0
85461,500,4,2,33,70,1,0
85461,-76.9230769230769,4,2,33,70,0,0
85964,483.870967741935,4,2,33,70,1,0
85964,-76.9230769230769,4,2,33,70,0,0
86450,497.92531120332,4,2,33,70,1,0
86450,-76.9230769230769,4,2,33,70,0,0
87939,495.867768595041,4,2,33,70,1,0
87939,-76.9230769230769,4,2,33,70,0,0
88187,530.973451327434,4,2,33,70,1,0
88452,530.973451327434,4,2,33,70,1,0
88452,-76.9230769230769,4,2,33,70,0,0
88719,465.116279069767,4,2,33,70,1,0
88719,-76.9230769230769,4,2,33,70,0,0
88951,465.116279069767,4,2,33,70,1,0
89179,526.315789473684,4,2,33,70,1,0
89443,495.867768595041,4,2,33,70,1,0
89443,-76.9230769230769,4,2,33,70,0,0
89940,461.538461538462,4,2,33,70,1,0
89940,-76.9230769230769,4,2,33,70,0,0
90171,512.820512820513,4,2,33,70,1,0
90427,512.820512820513,4,2,33,70,1,0
90679,495.867768595041,4,2,33,70,1,0
90926,495.867768595041,4,2,33,70,1,0
90926,-76.9230769230769,4,2,33,70,0,0
91421,-76.9230769230769,4,2,33,75,0,0
92414,508.474576271186,4,2,33,75,1,0
92414,-76.9230769230769,4,2,33,75,0,0
93162,480,4,2,33,75,1,0
93402,480,4,2,33,75,1,0
93642,-76.9230769230769,4,2,33,75,0,0
93889,521.739130434783,4,2,33,75,1,0
93889,-76.9230769230769,4,2,33,75,0,0
94149,478.08764940239,4,2,33,75,1,0
94149,-76.9230769230769,4,2,33,75,0,0
94388,478.08764940239,4,2,33,75,1,0
94633,521.739130434783,4,2,33,75,1,0
94633,-76.9230769230769,4,2,33,75,0,0
94894,468.75,4,2,33,75,1,0
95129,530.973451327434,4,2,33,75,1,0
95395,495.867768595041,4,2,33,80,1,0
95395,-76.9230769230769,4,2,33,80,0,0
96138,500,4,2,33,80,1,0
96388,500,4,2,33,80,1,0
96388,-76.9230769230769,4,2,33,80,0,0
97888,483.870967741935,4,2,33,80,1,0
97888,-76.9230769230769,4,2,33,80,0,0
98866,504.201680672269,4,2,33,80,1,0
99372,478.08764940239,4,2,33,80,1,1
99372,-66.6666666666667,4,2,33,80,0,1
99856,495.867768595041,4,2,33,80,1,1
99856,-66.6666666666667,4,2,33,80,0,1
103327,495.867768595041,4,2,33,80,1,1
103327,-66.6666666666667,4,2,33,80,0,1
104067,480,4,2,33,80,1,1
104307,480,4,2,33,80,1,1
104307,-66.6666666666667,4,2,33,80,0,1
104553,495.867768595041,4,2,33,80,1,1
104800,495.867768595041,4,2,33,80,1,1
104800,-66.6666666666667,4,2,33,80,0,1
107279,495.867768595041,4,2,33,80,1,1
107279,-66.6666666666667,4,2,33,80,0,1
108768,540.540540540541,4,2,33,80,1,1
108768,-66.6666666666667,4,2,33,80,0,1
109038,495.867768595041,4,2,33,80,1,1
109286,451.127819548872,4,2,33,80,1,1
109512,512.820512820513,4,2,33,80,1,1
109768,512.820512820513,4,2,33,80,1,1
109768,-66.6666666666667,4,2,33,80,0,1
110020,495.867768595041,4,2,33,80,1,1
110267,495.867768595041,4,2,33,80,1,1
110267,-66.6666666666667,4,2,33,80,0,1
111012,480,4,2,33,80,1,1
111252,480,4,2,33,80,1,1
111496,495.867768595041,4,2,33,80,1,1
111743,495.867768595041,4,2,33,80,1,1
112736,526.315789473684,4,2,33,80,1,1
113000,484.652665589661,4,2,33,80,1,1
113242,484.652665589661,4,2,33,80,1,1
113726,-66.6666666666667,4,2,33,80,0,1
113976,495.867768595041,4,2,33,80,1,1
114223,495.867768595041,4,2,33,80,1,1
114223,-66.6666666666667,4,2,33,80,0,1
115214,495.867768595041,4,2,33,65,1,0
115214,-83.3333333333333,4,2,33,65,0,0
117448,521.739130434783,4,2,33,65,1,0
117708,521.739130434783,4,2,33,65,1,0
117708,-83.3333333333333,4,2,33,65,0,0
117969,500,4,2,33,65,1,0
117969,-83.3333333333333,4,2,33,65,0,0
118219,476.190476190476,4,2,33,65,1,0
118457,491.803278688525,4,2,33,65,1,0
118702,491.803278688525,4,2,33,65,1,0
118952,500,4,2,33,65,1,0
119202,500,4,2,33,65,1,0
119202,-83.3333333333333,4,2,33,65,0,0
119939,495.867768595041,4,2,33,65,1,0
120186,495.867768595041,4,2,33,65,1,0
120681,-83.3333333333333,4,2,33,65,0,0
120931,480,4,2,33,65,1,0
121171,480,4,2,33,65,1,0
121416,496.688741721854,4,2,33,65,1,0
121664,496.688741721854,4,2,33,65,1,0
121912,-83.3333333333333,4,2,33,65,0,0
122655,535.714285714286,4,2,33,65,1,0
122920,491.803278688525,4,2,33,65,1,0
123042,566.037735849057,4,2,33,65,1,0
123183,566.037735849057,4,2,33,40,1,0
123410,491.803278688525,4,2,33,40,1,0
123655,491.803278688525,4,2,33,40,1,0
123900,-142.857142857143,4,2,33,55,0,0
124392,-142.857142857143,4,2,33,54,0,0
124638,-142.857142857143,4,2,33,47,0,0
124884,-142.857142857143,4,2,11,40,0,0
125135,526.315789473684,4,2,33,45,1,0
125135,-142.857142857143,4,2,33,45,0,0
125399,495.867768595041,4,2,33,45,1,0
125646,495.867768595041,4,2,33,55,1,0
125895,465.116279069767,4,2,33,60,1,0
125895,-142.857142857143,4,2,33,60,0,0
126127,500,4,2,33,60,1,0
126376,555.555555555556,4,2,33,60,1,0
126515,492.610837438424,4,2,33,60,1,0
126638,492.610837438424,4,2,33,75,1,0
126884,-100,4,2,33,80,0,0
127130,492.610837438424,4,2,33,80,1,0
127622,-100,4,2,33,70,0,0
128115,-100,4,2,33,75,0,0
128368,495.867768595041,4,2,33,75,1,0
128615,495.867768595041,4,2,33,80,1,0
129111,451.127819548872,4,2,33,80,1,0
129336,526.315789473684,4,2,33,80,1,0
129600,461.538461538462,4,2,33,80,1,0
129831,491.803278688525,4,2,33,80,1,0
130077,576.230492196879,4,2,33,80,1,0
130095,461.538461538462,4,2,33,80,1,0
130326,512.820512820513,4,2,33,80,1,0
130582,512.820512820513,4,2,33,80,1,0
130833,489.795918367347,4,2,33,80,1,0
131077,489.795918367347,4,2,33,70,1,0
131574,495.867768595041,4,2,33,70,1,0
131574,-76.9230769230769,4,2,33,70,0,0
132814,508.474576271186,4,2,33,70,1,0
133068,508.474576271186,4,2,33,70,1,0
133068,-76.9230769230769,4,2,33,70,0,0
133319,495.867768595041,4,2,33,70,1,0
133319,-76.9230769230769,4,2,33,70,0,0
133566,495.867768595041,4,2,33,70,1,0
135053,-76.9230769230769,4,2,33,70,0,0
137783,504.201680672269,4,2,33,70,1,0
138035,504.201680672269,4,2,33,70,1,0
138035,-76.9230769230769,4,2,33,70,0,0
138534,487.80487804878,4,2,33,70,1,0
139021,-76.9230769230769,4,2,33,70,0,0
139271,496.688741721854,4,2,33,70,1,0
139519,496.688741721854,4,2,33,70,1,0
139519,-76.9230769230769,4,2,33,70,0,0
143239,521.739130434783,4,2,33,70,1,0
143501,493.827160493827,4,2,33,70,1,0
143501,-76.9230769230769,4,2,33,70,0,0
146463,540.540540540541,4,2,33,70,1,0
146463,-76.9230769230769,4,2,33,70,0,0
146734,468.75,4,2,33,70,1,0
146734,-76.9230769230769,4,2,33,70,0,0
146968,468.75,4,2,33,75,1,0
146968,-76.9230769230769,4,2,33,75,0,0
147207,496.688741721854,4,2,33,75,1,0
147455,496.688741721854,4,2,33,75,1,0
147455,-76.9230769230769,4,2,33,75,0,0
150431,495.867768595041,4,2,33,75,1,0
150431,-76.9230769230769,4,2,33,75,0,0
150926,-76.9230769230769,4,2,33,80,0,0
152663,508.474576271186,4,2,33,80,1,0
152663,-76.9230769230769,4,2,33,80,0,0
152917,508.474576271186,4,2,33,80,1,0
153168,483.870967741935,4,2,33,80,1,0
153168,-76.9230769230769,4,2,33,80,0,0
153409,483.870967741935,4,2,33,80,1,0
153409,-76.9230769230769,4,2,33,80,0,0
153655,495.867768595041,4,2,33,80,1,0
153655,-76.9230769230769,4,2,33,80,0,0
153902,495.867768595041,4,2,33,80,1,0
154149,-76.9230769230769,4,2,33,80,0,0
154893,-76.9230769230769,4,2,33,85,0,0
156629,612.244897959184,4,2,33,85,1,0
156782,441.176470588235,4,2,33,85,1,0
156892,508.474576271186,4,2,33,85,1,0
157402,451.127819548872,4,2,33,85,1,0
157628,495.867768595041,4,2,33,85,1,0
157875,495.867768595041,4,2,33,85,1,0
158246,434.782608695652,4,2,33,85,1,0
158355,424.028268551237,4,2,33,85,1,0

[Colours]
Combo1 : 255,217,170
Combo2 : 255,106,106
Combo3 : 245,73,117

[HitObjects]
0,226,151,6,0,P|22:229|44:225,1,45.00000000000001,2|0,1:2|2:0,2:0:0:0:
98,284,407,2,0,P|120:286|142:282,1,45.00000000000001,2|0,3:2|3:0,2:0:0:0:
214,253,658,1,10,1:2:0:0:
302,350,902,2,2,P|354:324|483:339,1,182.5725,2|0,3:2|2:0,2:1:0:0:
512,245,1526,1,0,2:0:0:0:
512,245,1650,1,10,1:2:0:0:
512,245,2134,6,0,P|514:222|510:200,1,44.99999999999999,2|0,1:2|2:0,2:0:0:0:
432,147,2376,2,0,P|429:124|433:102,1,45,2|0,3:2|2:0,2:0:0:0:
335,192,2618,1,10,1:2:0:0:
230,114,2878,2,2,P|178:140|49:125,1,190.752,2|0,3:2|2:0,2:1:0:0:
29,3,3486,1,0,2:0:0:0:
29,3,3599,1,8,1:2:0:0:
29,3,4097,6,0,P|73:7|133:0,1,90.672,2|2,1:2|3:2,2:0:0:0:
230,114,4605,1,10,1:2:0:0:
47,262,4862,2,2,P|135:254|215:293,1,187.56,2|0,3:2|2:0,2:1:0:0:
109,367,5478,1,0,2:0:0:0:
109,367,5599,1,10,1:2:0:0:
0,191,5862,1,2,3:0:0:0:
221,298,6091,5,2,1:2:0:0:
304,154,6350,1,0,3:0:0:0:
377,265,6582,2,0,P|380:309|374:355,1,92.709,10|0,1:2|3:0,2:0:0:0:
185,181,7086,1,2,1:0:0:0:
230,114,7226,2,0,P|234:80|229:41,1,45,2|0,3:1|2:0,2:0:0:0:
85,135,7444,1,4,1:3:0:0:
36,72,7576,2,0,P|32:38|37:-1,1,45,14|0,1:2|2:0,2:0:0:0:
160,44,7838,1,0,3:0:0:0:
22,230,8076,6,0,P|24:264|21:287,1,45.00000000000001,2|0,1:2|2:0,2:0:0:0:
109,327,8323,2,0,P|107:361|110:384,1,45.00000000000001,2|0,3:2|2:0,2:0:0:0:
209,283,8571,1,10,1:2:0:0:
313,367,8840,2,2,P|386:336|498:353,1,180,2|0,3:2|2:0,2:1:0:0:
408,240,9435,1,0,3:0:0:0:
408,240,9559,1,10,1:2:0:0:
408,240,10059,6,0,P|406:206|409:183,1,45,2|0,1:2|2:0,2:0:0:0:
470,119,10309,2,0,P|472:85|469:62,1,45,2|0,3:2|2:0,2:0:0:0:
385,30,10559,1,10,1:2:0:0:
300,130,10814,2,2,P|227:99|115:116,1,187.56,2|0,3:2|2:0,2:1:0:0:
220,212,11433,1,0,2:0:0:0:
220,212,11557,1,8,1:2:0:0:
220,212,12052,6,0,P|221:277|216:315,2,90,2|2|8,1:2|3:2|1:2,2:0:0:0:
7,353,12794,2,2,P|95:345|175:384,1,180,2|2,3:2|3:2,2:1:0:0:
311,291,13413,1,0,2:0:0:0:
311,291,13533,1,8,1:2:0:0:
421,378,13780,2,0,P|419:362|422:331,1,45.00000000000001,2|0,3:2|2:0,2:0:0:0:
491,223,14033,6,2,P|503:163|488:38,1,176.073,6|8,1:2|1:2,2:1:0:0:
336,6,14766,1,2,3:0:0:0:
404,183,15006,2,2,L|397:71,1,90,2|0,1:0|2:0,2:1:0:0:
495,227,15370,1,0,3:0:0:0:
495,227,15494,1,8,1:2:0:0:
317,144,15749,1,2,2:1:0:0:
422,333,15987,6,2,P|393:331|320:358,1,99.3762030212403,6|0,1:0|2:0,2:1:0:0:
151,282,16373,1,0,3:0:0:0:
151,282,16495,2,2,P|180:280|253:307,1,102.23400302124,14|2,1:2|3:0,2:1:0:0:
65,383,17008,1,0,1:2:0:0:
0,268,17251,1,2,1:2:0:0:
115,204,17495,1,10,1:2:0:0:
65,143,17746,2,0,P|68:120|64:82,1,49.5,2|0,3:2|2:0,2:0:0:0:
142,29,18014,5,2,1:3:0:0:
228,168,18261,1,2,1:3:0:0:
319,0,18490,2,0,P|318:41|323:66,1,49.5,14|0,1:2|2:0,2:0:0:0:
234,266,18750,2,2,P|237:228|217:140,1,99,6|0,1:0|2:0,2:1:0:0:
174,115,19114,1,0,2:0:0:0:
174,115,19236,1,2,1:3:0:0:
76,283,19492,1,10,1:2:0:0:
317,187,19742,1,2,3:0:0:0:
470,306,19987,6,2,P|468:346|470:362,1,49.5,2|0,1:0|2:0,2:1:0:0:
400,174,20232,2,0,P|402:134|400:118,1,49.5,2|0,1:3|2:0,2:0:0:0:
326,303,20477,1,14,1:2:0:0:
326,303,20723,1,0,2:0:0:0:
492,201,20968,1,0,1:2:0:0:
421,22,21214,1,2,1:2:0:0:
255,124,21463,1,10,1:2:0:0:
151,39,21715,2,2,P|91:51|-8:33,1,148.5,2|0,3:2|2:0,2:1:0:0:
103,165,22217,2,0,P|101:204|105:227,1,49.50000000000001,2|0,1:3|2:0,2:0:0:0:
48,299,22462,1,14,1:2:0:0:
255,124,22707,6,2,P|248:222|264:344,1,197.99999999999997,6|2,1:2|1:3,2:1:0:0:
324,374,23322,1,0,1:0:0:0:
324,374,23444,1,10,1:2:0:0:
450,263,23702,2,0,P|448:302|452:325,1,49.5,2|0,1:3|3:0,2:0:0:0:
512,384,23957,5,6,1:0:0:0:
512,384,24200,1,0,2:0:0:0:
512,384,24444,1,6,1:2:0:0:
512,384,24694,1,6,1:3:0:0:
512,384,25439,5,8,1:3:0:0:
476,314,25682,1,8,1:3:0:0:
253,244,25926,5,14,1:2:0:0:
289,314,26175,1,14,1:2:0:0:
497,227,26427,5,12,1:3:0:0:
453,141,26679,1,12,1:3:0:0:
131,114,26932,5,14,1:2:0:0:
175,200,27175,1,14,1:2:0:0:
370,130,27419,5,14,1:0:0:0:
308,9,27667,1,14,1:0:0:0:
41,172,27921,6,0,P|41:215|33:246,1,49.5,6|0,1:0|2:0,2:0:0:0:
93,306,28173,2,0,P|93:349|101:380,1,45,2|0,1:0|2:0,2:0:0:0:
253,244,28407,2,2,P|347:286|420:267,1,175.50000000000003,14|0,1:2|2:0,2:1:0:0:
453,141,28911,1,12,1:3:0:0:
422,68,29032,1,0,1:0:0:0:
450,0,29154,1,12,1:3:0:0:
285,153,29404,2,0,P|292:99|283:27,1,117,14|2,1:2|3:2,2:0:0:0:
215,10,29777,1,0,3:0:0:0:
215,10,29901,6,0,P|184:14|147:7,1,58.50000000000001,2|0,1:2|2:0,2:0:0:0:
42,131,30150,2,0,P|73:127|110:134,1,58.50000000000001,2|0,1:2|2:0,2:0:0:0:
253,244,30399,2,0,P|200:252|145:288,1,117,14|2,1:2|3:2,2:0:0:0:
72,306,30773,1,0,3:0:0:0:
72,306,30897,2,0,P|75:267|70:235,1,58.50000000000001,6|0,1:0|2:0,2:0:0:0:
207,105,31146,2,0,P|204:144|209:176,1,58.50000000000001,0|0,1:0|3:2,2:0:0:0:
315,321,31394,1,12,1:2:0:0:
315,321,31885,6,0,P|346:319|367:324,1,45.00000000000001,12|0,1:3|2:0,2:0:0:0:
207,376,32131,2,0,P|176:378|155:373,1,45.00000000000001,12|0,1:3|2:0,2:0:0:0:
317,197,32378,2,2,P|356:231|487:235,1,175.50000000000006,14|0,1:2|2:0,2:1:0:0:
434,49,32873,1,2,1:2:0:0:
351,97,32997,1,0,3:0:0:0:
282,67,33121,1,2,1:2:0:0:
282,67,33245,1,0,3:2:0:0:
206,163,33369,2,0,P|203:134|207:105,1,58.50000000000001,14|0,1:2|2:0,2:0:0:0:
93,27,33618,2,0,P|95:56|92:85,1,58.50000000000001,2|0,3:2|2:0,2:0:0:0:
21,191,33864,6,0,P|24:260|15:326,1,117,6|2,1:0|1:2,2:0:0:0:
148,286,34237,1,0,3:0:0:0:
233,342,34361,2,0,P|231:313|234:284,1,58.50000000000001,14|0,1:2|3:0,2:0:0:0:
311,227,34610,1,2,3:2:0:0:
474,384,34859,2,0,P|492:352|492:197,1,174.560091966248,6|0,1:0|3:2,2:0:0:0:
391,132,35353,2,0,P|389:161|392:190,1,58.500000000000014,12|0,1:2|2:0,2:0:0:0:
430,283,35613,1,4,1:2:0:0:
491,31,35858,6,0,P|438:44|372:25,1,117.00000000000001,6|0,1:0|2:0,2:0:0:0:
198,92,36226,1,0,1:0:0:0:
198,92,36353,2,0,P|251:105|317:86,1,117.00000000000001,14|0,1:2|2:0,2:0:0:0:
392,190,36728,1,0,1:0:0:0:
346,256,36853,2,2,P|313:251|282:255,1,58.500000000000014,2|0,1:2|2:0,2:1:0:0:
233,342,37101,1,0,3:0:0:0:
430,283,37346,2,0,P|425:315|429:346,1,58.500000000000014,14|0,1:2|2:0,2:0:0:0:
305,384,37591,1,2,3:2:0:0:
229,197,37842,6,0,P|164:205|80:182,1,117.00000000000001,6|0,1:0|1:2,2:0:0:0:
27,337,38217,1,0,3:2:0:0:
27,337,38342,2,0,P|92:329|176:352,1,116.063994644165,14|2,1:2|3:2,2:0:0:0:
229,97,38832,1,2,1:2:0:0:
142,56,38953,1,2,3:2:0:0:
71,91,39075,1,2,1:2:0:0:
229,197,39323,2,0,P|259:195|293:201,1,58.500000000000014,12|0,1:2|2:0,2:0:0:0:
351,152,39579,1,2,3:0:0:0:
494,330,39829,6,0,P|503:285|497:213,1,117.00000000000001,6|12,1:0|1:3,2:0:0:0:
285,372,40200,1,0,1:0:0:0:
285,372,40324,2,0,P|276:327|288:195,1,175.50000000000006,14|0,1:2|2:0,2:0:0:0:
432,105,40820,2,0,P|436:151|432:175,1,58.500000000000014,2|0,1:2|2:0,2:0:0:0:
351,261,41068,1,2,1:2:0:0:
260,89,41316,1,12,1:2:0:0:
159,172,41564,2,0,P|154:218|159:242,1,58.500000000000014,2|0,3:2|2:0,2:0:0:0:
49,319,41812,5,6,1:2:0:0:
2,254,41936,1,0,1:0:0:0:
33,188,42060,2,0,P|38:142|33:118,1,58.500000000000014,6|0,1:2|2:0,2:0:0:0:
143,41,42308,1,12,1:2:0:0:
190,106,42432,1,0,1:0:0:0:
159,172,42556,2,0,P|154:218|159:242,1,58.500000000000014,8|2,1:3|3:0,2:0:0:0:
285,372,42804,5,6,1:2:0:0:
365,311,42928,1,0,1:0:0:0:
288,251,43053,1,6,1:2:0:0:
346,196,43166,1,0,1:0:0:0:
346,196,43281,1,14,1:2:0:0:
346,196,51746,6,0,P|344:175|348:139,1,45,2|0,1:2|2:0,2:0:0:0:
460,84,51990,2,0,P|462:105|458:141,1,45,2|0,3:2|2:0,2:0:0:0:
407,250,52241,1,10,1:2:0:0:
280,100,52510,2,2,P|198:137|107:117,1,189.72,2|0,3:2|2:0,2:1:0:0:
54,174,53101,1,0,3:0:0:0:
54,174,53224,1,10,1:2:0:0:
54,174,53716,6,0,P|56:195|52:231,1,45.00000000000001,2|0,1:2|2:0,2:0:0:0:
163,285,53964,2,0,P|161:306|165:342,1,45.00000000000001,2|0,3:2|2:0,2:0:0:0:
266,206,54211,1,8,1:2:0:0:
229,372,54458,2,2,P|295:363|412:378,1,180.00000000000003,2|0,3:2|2:0,2:1:0:0:
472,331,55078,1,0,3:0:0:0:
472,331,55202,1,10,1:2:0:0:
472,331,55691,6,0,P|469:308|473:277,1,45,2|0,1:2|2:0,2:0:0:0:
371,209,55945,2,0,P|373:186|370:155,1,45,2|0,3:2|2:0,2:0:0:0:
446,98,56210,1,10,1:2:0:0:
240,206,56457,2,2,P|240:153|192:35,1,180.00000000000003,2|0,3:2|2:0,2:1:0:0:
120,19,57077,1,0,3:0:0:0:
120,19,57202,1,10,1:2:0:0:
120,19,57697,6,0,P|74:25|22:17,1,90,2|0,1:2|2:0,2:0:0:0:
240,206,58193,2,0,P|286:212|338:204,1,90,10|0,1:2|3:2,2:0:0:0:
136,323,58694,1,2,1:0:0:0:
74,274,58842,2,0,P|51:276|20:273,1,45,2|0,3:1|2:0,2:0:0:0:
240,366,59087,1,4,1:3:0:0:
240,366,59187,2,0,P|262:368|294:365,1,45,14|0,1:2|2:0,2:0:0:0:
343,285,59420,1,0,2:0:0:0:
246,101,59673,6,0,P|274:105|299:99,1,45,2|0,1:2|2:0,2:0:0:0:
406,175,59926,2,0,P|434:179|459:173,1,45,2|0,2:0|2:0,2:0:0:0:
398,23,60175,1,10,1:2:0:0:
329,206,60422,2,2,P|266:213|166:276,1,180.00000000000003,2|0,3:2|2:0,2:1:0:0:
143,349,61042,1,0,3:0:0:0:
143,349,61166,1,10,1:2:0:0:
143,349,61672,6,0,P|171:353|196:347,1,45,2|0,1:2|2:0,2:0:0:0:
65,241,61913,2,0,P|37:245|12:239,1,45,2|0,3:2|2:0,2:0:0:0:
134,124,62155,1,10,1:2:0:0:
20,7,62405,2,2,P|95:23|204:5,1,178.56,2|0,3:2|2:0,2:1:0:0:
263,57,63024,1,0,3:0:0:0:
263,57,63148,1,8,1:2:0:0:
263,57,63644,6,0,P|262:93|265:117,1,44.99999999999999,2|0,1:2|2:0,2:0:0:0:
398,211,63886,2,0,P|399:175|396:151,1,44.99999999999999,2|0,2:0|2:0,2:0:0:0:
339,12,64135,1,10,1:2:0:0:
208,161,64388,2,2,P|211:244|201:351,1,173.601,2|0,3:2|2:0,2:1:0:0:
277,376,65004,1,0,3:0:0:0:
277,376,65132,1,10,1:2:0:0:
399,336,65382,2,0,P|398:300|401:276,1,45,2|0,3:2|2:0,2:0:0:0:
471,258,65640,6,2,P|483:198|478:143,1,90,2|0,1:2|2:0,2:1:0:0:
274,13,66116,2,0,P|262:73|267:128,1,90,14|0,1:2|2:0,2:0:0:0:
471,258,66608,2,0,P|475:236|473:195,1,45,2|0,1:0|2:0,2:0:0:0:
355,25,66862,2,0,P|351:47|353:88,1,45,2|0,1:0|2:0,2:0:0:0:
389,197,67116,1,14,1:2:0:0:
460,49,67349,1,2,1:0:0:0:
303,216,67603,6,0,P|278:211|206:238,1,99,6|2,1:0|1:2,2:0:0:0:
84,129,67985,1,0,1:0:0:0:
84,129,68119,2,2,P|108:124|181:151,1,99.0000030212403,14|0,1:2|2:0,2:1:0:0:
83,283,68611,1,0,1:2:0:0:
3,71,68865,1,2,1:2:0:0:
177,148,69119,1,10,1:2:0:0:
0,342,69373,2,0,P|3:317|-3:280,1,45,2|0,3:2|2:0,2:0:0:0:
3,219,69607,5,2,1:3:0:0:
152,346,69852,1,2,1:3:0:0:
303,216,70098,2,0,P|300:241|306:278,1,49.50000000000001,14|0,1:2|2:0,2:0:0:0:
416,380,70344,2,2,P|431:336|433:252,1,99,6|0,1:0|2:0,2:1:0:0:
385,228,70713,1,0,1:0:0:0:
385,228,70836,1,0,1:2:0:0:
292,365,71082,1,14,1:2:0:0:
512,332,71328,1,2,3:0:0:0:
391,138,71582,6,0,P|361:141|321:128,1,49.5,2|0,1:2|2:0,2:0:0:0:
227,255,71836,2,0,P|197:252|157:265,1,49.5,0|0,1:2|2:0,2:0:0:0:
84,129,72090,1,10,1:2:0:0:
84,129,72337,1,2,3:0:0:0:
211,30,72585,1,0,1:2:0:0:
342,137,72833,2,0,P|372:134|412:147,1,49.5,2|0,1:2|2:0,2:0:0:0:
462,32,73074,1,10,1:2:0:0:
362,299,73316,2,2,P|321:268|188:267,1,148.0974,2|0,3:2|2:0,2:1:0:0:
325,384,73806,2,0,P|295:381|255:394,1,45.00000000000001,2|0,1:3|2:0,2:0:0:0:
135,311,74052,1,14,1:2:0:0:
211,30,74299,6,2,P|280:44|398:-10,1,198,6|0,1:0|1:0,2:1:0:0:
466,36,74929,1,0,1:0:0:0:
466,36,75055,1,14,1:2:0:0:
342,138,75307,2,0,P|345:171|340:201,1,49.50000000000001,2|0,3:0|2:0,2:0:0:0:
445,271,75552,5,6,1:0:0:0:
445,271,75797,1,4,1:3:0:0:
445,271,76043,1,4,1:2:0:0:
445,271,76294,1,4,1:2:0:0:
445,271,77028,5,8,1:3:0:0:
487,204,77280,1,8,1:3:0:0:
369,204,77532,5,14,1:2:0:0:
411,271,77779,1,14,1:2:0:0:
284,287,78023,5,12,1:3:0:0:
335,204,78267,1,12,1:3:0:0:
200,204,78511,5,14,1:2:0:0:
251,287,78763,1,14,1:2:0:0:
96,316,79016,5,14,1:0:0:0:
164,204,79264,1,14,1:0:0:0:
0,204,79508,6,0,P|33:207|57:199,1,45,6|0,1:0|2:0,2:0:0:0:
163,366,79752,2,0,P|196:362|220:371,1,45,2|0,1:0|2:0,2:0:0:0:
335,204,80003,2,2,B|430:190|406:269|510:288,1,175.50000000000003,14|0,1:2|2:0,2:1:0:0:
376,358,80510,1,12,1:3:0:0:
305,324,80633,1,0,1:0:0:0:
250,378,80757,1,12,1:3:0:0:
164,204,81005,2,0,P|159:163|168:83,1,117.00000000000001,14|2,1:2|3:2,2:0:0:0:
246,24,81377,1,0,1:0:0:0:
246,24,81503,6,0,P|277:30|312:20,1,58.500000000000014,2|0,1:2|2:0,2:0:0:0:
462,92,81742,2,0,P|431:98|396:88,1,58.500000000000014,2|0,1:2|2:0,2:0:0:0:
245,175,81987,2,0,P|286:170|366:179,1,117.00000000000001,14|2,1:2|3:2,2:0:0:0:
488,285,82358,1,0,1:0:0:0:
488,285,82482,2,0,P|487:332|496:369,1,58.500000000000014,2|0,1:2|2:0,2:0:0:0:
362,236,82730,2,0,P|363:189|354:152,1,58.500000000000014,2|0,1:2|2:0,2:0:0:0:
250,378,82978,1,14,1:2:0:0:
250,378,83474,6,0,P|211:375|166:385,1,58.500000000000014,12|0,1:3|2:0,2:0:0:0:
89,245,83722,2,0,P|128:248|173:238,1,58.500000000000014,12|0,1:3|2:0,2:0:0:0:
270,121,83970,2,2,P|281:79|285:-2,1,117.00000000000001,14|0,1:2|2:0,2:1:0:0:
155,107,84342,1,0,1:0:0:0:
185,181,84471,1,2,1:2:0:0:
151,249,84600,1,0,1:2:0:0:
151,249,84729,1,2,1:2:0:0:
17,110,84967,2,0,P|19:149|16:176,1,58.50000000000001,14|0,1:2|2:0,2:0:0:0:
74,322,85211,1,2,3:2:0:0:
342,217,85461,6,0,P|340:178|343:151,1,58.500000000000014,6|0,1:0|2:0,2:0:0:0:
285,5,85711,1,2,1:2:0:0:
17,110,85964,2,0,P|19:149|16:176,1,58.500000000000014,14|0,1:2|3:0,2:0:0:0:
74,322,86205,1,2,3:2:0:0:
342,217,86450,2,2,P|341:163|356:40,1,175.50000000000003,6|0,1:0|2:0,2:1:0:0:
432,22,86947,2,0,P|467:26|491:22,1,58.50000000000001,12|0,1:2|2:0,2:0:0:0:
512,218,87196,2,0,P|477:214|453:218,1,58.50000000000001,2|0,1:2|2:0,2:0:0:0:
259,135,87445,6,0,P|261:184|251:273,1,117,6|0,1:0|1:2,2:0:0:0:
450,334,87819,1,0,1:2:0:0:
450,334,87939,2,0,P|448:285|458:196,1,117.471894644165,14|0,1:2|1:2,2:0:0:0:
359,46,88319,1,0,1:2:0:0:
359,46,88452,2,0,P|325:51|291:45,1,58.500000000000014,2|0,1:2|3:0,2:0:0:0:
180,159,88719,2,0,P|146:154|112:160,1,58.50000000000001,0|0,1:2|3:2,2:0:0:0:
47,91,88951,1,14,1:2:0:0:
47,91,89179,1,2,3:2:0:0:
74,322,89443,6,0,P|137:313|205:330,1,117.00000000000001,6|2,1:0|1:2,2:0:0:0:
370,253,89814,1,0,1:0:0:0:
370,253,89940,2,0,P|307:262|239:245,1,117.506994644165,14|2,1:2|3:2,2:0:0:0:
373,367,90427,1,2,1:2:0:0:
446,340,90555,1,2,3:2:0:0:
512,371,90679,1,2,1:2:0:0:
424,163,90926,2,0,P|385:166|355:159,1,58.500000000000014,14|0,1:2|2:0,2:0:0:0:
255,252,91173,1,0,1:0:0:0:
459,36,91421,6,0,P|396:45|328:28,1,117.00000000000001,6|0,1:0|1:2,2:0:0:0:
85,94,91793,1,0,1:0:0:0:
84,94,91917,2,2,P|173:78|260:104,1,175.50000000000006,12|0,1:2|2:0,2:1:0:0:
101,230,92414,2,0,P|70:226|40:231,1,58.500000000000014,2|0,1:2|2:0,2:0:0:0:
0,384,92668,1,2,1:2:0:0:
174,284,92922,1,12,1:2:0:0:
23,153,93162,1,2,3:2:0:0:
174,371,93402,5,6,1:2:0:0:
246,336,93522,1,0,1:0:0:0:
316,367,93642,2,0,P|348:363|377:368,1,58.500000000000014,6|0,1:2|2:0,2:0:0:0:
469,190,93889,2,0,P|437:194|408:189,1,58.500000000000014,12|0,1:2|2:0,2:0:0:0:
231,226,94149,2,0,P|263:222|292:227,1,58.500000000000014,12|0,1:2|2:0,2:0:0:0:
459,36,94388,5,6,1:2:0:0:
387,71,94507,1,10,3:0:0:0:
317,40,94633,2,0,P|285:44|256:39,1,58.500000000000014,6|2,1:2|3:2,2:0:0:0:
157,170,94894,1,12,1:2:0:0:
157,170,95129,1,4,3:0:0:0:
34,120,95395,6,0,P|25:183|42:251,1,117.00000000000001,6|0,1:0|1:0,2:0:0:0:
221,380,95766,1,0,1:0:0:0:
221,380,95890,2,0,P|241:329|234:204,1,176.443791966248,12|0,1:2|2:0,2:0:0:0:
116,45,96388,2,0,P|111:84|117:121,1,58.500000000000014,2|0,1:2|2:0,2:0:0:0:
165,258,96638,1,2,1:2:0:0:
234,77,96888,1,12,1:2:0:0:
35,235,97138,1,2,3:2:0:0:
221,380,97388,5,4,1:2:0:0:
267,316,97513,1,0,1:0:0:0:
195,285,97638,2,0,P|161:291|127:283,1,58.500000000000014,4|0,1:2|2:0,2:0:0:0:
325,373,97888,2,0,P|359:379|393:371,1,58.500000000000014,12|0,1:2|2:0,2:0:0:0:
92,354,98129,2,0,P|58:360|24:352,1,58.500000000000014,14|0,1:2|2:0,2:0:0:0:
236,210,98371,5,6,1:2:0:0:
282,146,98492,1,8,3:0:0:0:
210,115,98613,2,0,P|176:121|142:113,1,58.500000000000014,6|2,1:2|3:2,2:0:0:0:
347,229,98866,1,12,1:2:0:0:
347,229,99372,6,2,B|451:215|425:299|519:328,1,202.49999999999986,6|0,1:0|2:0,2:1:0:0:
165,229,99856,2,2,B|61:215|87:299|-7:328,1,202.49999999999991,14|0,1:0|2:0,2:1:0:0:
184,384,100351,1,6,1:2:0:0:
256,352,100475,1,2,2:0:0:0:
328,384,100599,1,6,1:2:0:0:
347,229,100847,6,2,P|351:193|346:156,1,67.49999999999996,10|0,1:0|2:0,2:1:0:0:
190,43,101095,2,0,P|186:79|191:116,1,67.49999999999996,10|0,1:0|2:0,2:0:0:0:
275,264,101343,1,6,1:0:0:0:
275,264,101467,1,2,1:0:0:0:
275,264,101591,1,6,1:2:0:0:
433,152,101839,6,2,P|437:116|432:79,1,67.49999999999996,14|0,1:0|2:0,2:1:0:0:
289,11,102087,1,2,1:2:0:0:
289,11,102211,2,0,P|285:47|290:84,1,67.49999999999996,6|0,1:0|2:0,2:0:0:0:
455,238,102459,1,2,1:0:0:0:
256,352,102707,5,0,1:0:0:0:
184,321,102831,1,10,1:0:0:0:
120,362,102955,2,0,P|78:358|17:376,1,67.49999999999996,8|0,1:3|2:0,2:0:0:0:
4,220,103203,5,0,1:0:0:0:
4,220,103327,2,2,P|69:232|137:220,1,134.99999999999991,6|8,1:0|1:3,2:1:0:0:
289,11,103698,1,0,1:0:0:0:
289,11,103822,2,2,P|223:-1|155:10,1,133.91100514984151,14|8,1:0|1:3,2:1:0:0:
76,120,104187,1,2,1:3:0:0:
76,120,104307,6,0,P|118:124|179:106,1,67.49999999999997,6|2,1:2|2:0,2:0:0:0:
251,196,104553,1,6,1:2:0:0:
324,163,104676,1,2,2:0:0:0:
394,200,104800,2,2,P|436:196|497:214,1,67.49999999999996,10|0,1:0|2:0,2:1:0:0:
512,363,105047,5,10,1:0:0:0:
512,363,105295,1,2,2:1:0:0:
512,363,105543,2,0,P|470:367|409:349,1,67.49999999999996,8|0,1:3|2:0,2:0:0:0:
324,296,105791,2,2,P|315:255|326:157,1,134.99999999999991,14|2,1:0|1:0,2:1:0:0:
491,53,106163,1,0,1:0:0:0:
491,53,106287,2,2,P|495:95|477:156,1,67.49999999999996,6|0,1:0|2:0,2:1:0:0:
394,267,106535,2,0,P|390:225|408:164,1,67.49999999999996,2|0,1:0|2:0,2:0:0:0:
318,56,106783,1,10,1:0:0:0:
239,112,106907,2,0,P|198:121|100:110,1,134.99999999999991,8|0,1:3|2:0,2:0:0:0:
31,231,107279,6,2,P|73:227|134:245,1,67.49999999999996,6|0,1:0|2:0,2:1:0:0:
241,369,107526,2,2,P|199:373|138:355,1,67.49999999999996,6|0,1:2|2:0,2:1:0:0:
31,231,107774,2,2,P|73:227|134:245,1,67.49999999999996,14|0,1:0|2:0,2:1:0:0:
280,297,108022,5,6,1:2:0:0:
280,297,108146,2,2,P|322:301|383:283,1,67.49999999999996,2|0,1:0|2:0,2:1:0:0:
491,120,108394,2,0,P|449:116|388:134,1,67.49999999999996,2|0,1:2|2:0,2:0:0:0:
280,297,108642,1,0,1:0:0:0:
280,297,108768,2,2,P|322:301|383:283,1,67.49999999999997,10|0,1:0|2:0,2:1:0:0:
488,380,109038,1,10,1:0:0:0:
331,171,109286,5,6,1:2:0:0:
331,171,109398,1,2,1:0:0:0:
331,171,109512,1,6,1:2:0:0:
174,369,109768,2,2,P|158:312|163:202,1,132.894005149842,14|2,1:0|1:0,2:1:0:0:
36,164,110143,1,2,1:2:0:0:
36,164,110267,2,2,P|33:225|26:245,1,67.49999999999996,6|0,1:2|2:0,2:1:0:0:
239,123,110514,2,2,P|242:184|249:204,1,67.49999999999996,6|0,1:2|2:0,2:1:0:0:
426,335,110762,1,10,1:0:0:0:
426,335,110886,2,0,P|442:278|437:168,1,134.455505149842,8|0,1:3|2:0,2:0:0:0:
397,33,111252,5,6,1:0:0:0:
397,33,111372,1,2,1:0:0:0:
340,89,111496,1,6,1:2:0:0:
340,89,111619,1,8,1:3:0:0:
286,8,111743,5,14,1:0:0:0:
286,8,111866,1,2,1:0:0:0:
243,96,111990,1,6,1:2:0:0:
243,96,112114,1,8,1:3:0:0:
136,18,112238,5,6,1:2:0:0:
136,18,112362,1,2,1:0:0:0:
145,153,112486,1,6,1:2:0:0:
145,153,112610,1,8,1:3:0:0:
1,88,112736,5,10,1:0:0:0:
1,88,113000,1,10,1:0:0:0:
115,351,113242,5,6,1:0:0:0:
115,351,113363,1,8,1:3:0:0:
172,295,113484,1,6,1:2:0:0:
172,295,113605,1,12,1:3:0:0:
226,376,113726,6,2,P|291:367|365:381,1,139.456805149842,14|6,1:0|1:2,2:1:0:0:
450,274,114099,1,2,1:0:0:0:
450,274,114223,2,0,P|413:278|369:270,1,67.49999999999996,14|0,1:0|2:0,2:0:0:0:
221,177,114470,2,0,P|258:181|302:173,1,67.49999999999996,6|0,1:2|2:0,2:0:0:0:
439,57,114718,1,14,1:0:0:0:
439,57,114842,2,0,P|402:61|358:53,1,67.49999999999996,12|0,1:3|2:0,2:0:0:0:
126,230,115090,1,6,1:2:0:0:
126,230,115214,6,2,P|105:175|126:39,1,162.00000000000006,6|0,1:0|2:0,2:1:0:0:
262,4,115709,2,0,P|267:43|258:75,1,54.00000000000002,8|0,1:2|2:0,2:0:0:0:
126,230,115957,2,2,P|105:175|126:39,1,162.00000000000006,6|0,1:0|2:0,2:1:0:0:
372,57,116453,2,2,P|393:112|372:248,1,162.00000000000006,2|0,1:0|3:0,2:1:0:0:
222,318,116949,2,0,P|217:279|226:247,1,54.00000000000002,2|0,1:0|2:0,2:0:0:0:
372,57,117197,2,2,P|393:112|372:248,1,166.355995056153,6|0,1:2|3:0,2:1:0:0:
222,318,117708,2,0,P|217:279|226:247,1,54.00000000000002,14|0,1:2|2:0,2:0:0:0:
482,200,117969,6,2,P|475:280|479:361,1,159.839995056153,6|0,1:0|2:0,2:1:0:0:
480,362,118457,1,0,1:0:0:0:
363,320,118702,1,8,1:2:0:0:
283,378,118952,1,2,3:2:0:0:
76,319,119202,6,2,P|82:238|78:157,1,162.00000000000009,6|0,1:0|2:0,2:1:0:0:
157,97,119702,2,0,L|165:30,1,54.00000000000002,10|0,1:2|2:0,2:0:0:0:
234,6,119939,1,2,3:1:0:0:
292,165,120186,1,2,1:0:0:0:
292,165,120433,1,2,1:0:0:0:
431,71,120681,2,2,L|439:138,1,54.00000000000002,14|0,1:2|2:0,2:1:0:0:
493,179,120931,1,2,1:0:0:0:
390,307,121171,1,2,1:0:0:0:
390,307,121416,1,2,1:0:0:0:
244,234,121664,1,14,1:2:0:0:
192,295,121788,5,2,1:0:0:0:
192,295,121850,1,0,1:2:0:0:
192,295,121912,2,2,P|132:309|28:292,1,162.00000000000009,6|2,1:0|3:1,2:1:0:0:
96,145,122409,1,2,1:0:0:0:
168,180,122533,1,4,1:3:0:0:
235,145,122655,1,12,1:2:0:0:
235,145,122788,1,2,2:1:0:0:
325,192,122920,2,0,P|323:230|331:256,1,45,2|8,1:0|2:3,2:0:0:0:
258,348,123183,5,6,1:0:0:0:
258,348,123655,1,14,1:2:0:0:
331,375,123900,2,0,P|380:372|430:345,1,94.4999999999999,12|0,1:3|2:0,2:1:0:0:
473,294,124392,1,12,1:3:0:0:
473,294,124515,1,2,2:0:0:0:
473,294,124638,1,14,1:2:0:0:
324,236,124884,1,6,1:2:0:0:
258,348,125135,6,2,P|228:347|211:352,1,31.49999999999997,6|0,1:0|2:0,2:1:0:0:
160,314,125399,1,12,1:3:0:0:
160,314,125646,1,6,1:2:0:0:
77,369,125895,2,2,P|61:325|70:233,1,130.334396154785,6|2,1:2|1:0,2:1:0:0:
166,167,126638,1,4,1:0:0:0:
166,167,126761,1,0,2:0:0:0:
166,167,126884,1,12,1:3:0:0:
447,137,127130,5,14,1:2:0:0:
494,53,127376,1,14,1:2:0:0:
411,5,127622,1,12,1:3:0:0:
363,88,127868,1,12,1:3:0:0:
149,296,128115,5,14,1:2:0:0:
101,379,128368,1,14,1:2:0:0:
18,331,128615,1,14,1:0:0:0:
65,247,128862,1,14,1:0:0:0:
65,247,131077,5,6,1:0:0:0:
65,247,131574,2,2,P|129:253|226:187,1,175.50000000000006,14|0,2:0|2:0,2:1:0:0:
44,105,132069,2,0,P|41:134|44:163,1,58.500000000000014,12|0,1:3|2:0,2:0:0:0:
177,329,132317,2,0,P|179:299|176:270,1,58.500000000000014,12|0,1:3|2:0,2:0:0:0:
261,126,132565,1,14,1:2:0:0:
261,126,132814,1,2,3:2:0:0:
261,126,133068,6,0,P|258:96|261:67,1,58.500000000000014,2|0,1:2|2:0,2:0:0:0:
446,0,133319,2,0,P|448:29|445:58,1,58.500000000000014,2|0,3:2|2:0,2:0:0:0:
329,178,133566,1,14,1:2:0:0:
195,0,133813,1,2,3:2:0:0:
347,52,134061,1,6,1:0:0:0:
177,131,134309,2,0,P|147:128|118:131,1,45.00000000000001,0|0,1:0|2:0,2:0:0:0:
50,276,134557,2,2,P|108:279|148:302,1,90,14|2,1:2|2:0,2:1:0:0:
278,383,134929,1,2,2:0:0:0:
278,383,135053,6,0,P|316:381|345:387,1,58.500000000000014,12|0,1:3|2:0,2:0:0:0:
476,271,135301,2,0,P|438:273|409:267,1,58.500000000000014,12|0,1:3|2:0,2:0:0:0:
329,178,135549,1,14,1:2:0:0:
367,93,135673,1,0,1:0:0:0:
336,24,135797,1,2,1:2:0:0:
210,134,136045,2,0,P|152:125|80:138,1,117.00000000000001,2|2,1:2|3:2,2:0:0:0:
22,241,136417,1,2,2:0:0:0:
22,241,136541,2,0,P|24:283|21:311,1,58.500000000000014,14|0,1:2|2:0,2:0:0:0:
204,384,136789,2,0,P|202:342|205:314,1,58.500000000000014,2|0,1:2|2:0,2:0:0:0:
299,195,137037,6,0,P|355:208|416:194,1,117.00000000000001,6|2,1:0|3:2,2:0:0:0:
472,45,137408,1,0,1:2:0:0:
472,45,137532,2,0,P|416:32|355:46,1,118.887594644165,14|2,1:2|3:2,2:0:0:0:
496,235,137909,1,0,1:0:0:0:
496,235,138035,2,0,P|495:291|500:314,1,58.500000000000014,6|0,1:0|2:0,2:0:0:0:
345,373,138287,2,0,P|346:317|341:294,1,58.500000000000014,2|0,1:2|3:2,2:0:0:0:
299,195,138534,1,12,1:2:0:0:
299,194,139021,6,0,P|242:205|180:195,1,120.357894644165,6|2,1:0|3:0,2:0:0:0:
106,348,139395,1,0,3:0:0:0:
106,348,139519,2,0,P|163:337|225:347,1,117,14|2,1:2|3:0,2:0:0:0:
346,315,139891,1,0,3:2:0:0:
421,345,140015,2,2,P|448:297|438:154,1,175.50000000000003,2|0,1:2|2:0,2:1:0:0:
320,63,140512,2,0,P|320:122|328:150,1,58.50000000000001,14|0,1:2|2:0,2:0:0:0:
381,239,140760,1,2,3:2:0:0:
423,14,141009,6,2,P|352:32|253:14,1,175.50000000000003,6|0,1:0|2:0,2:1:0:0:
173,119,141505,2,0,L|99:138,1,58.50000000000001,14|0,1:2|2:0,2:0:0:0:
77,200,141754,1,2,1:0:0:0:
221,347,142002,1,2,1:2:0:0:
266,260,142126,1,2,3:2:0:0:
237,186,142250,1,2,3:2:0:0:
364,330,142499,2,0,L|420:344,1,58.50000000000001,12|0,1:2|2:0,2:0:0:0:
500,320,142747,1,2,3:0:0:0:
500,320,142995,6,0,P|512:284|509:204,1,115.115514644165,6|2,1:0|3:2,2:0:0:0:
354,247,143369,1,0,3:0:0:0:
354,247,143501,2,2,P|340:196|360:76,1,175.50000000000006,14|8,1:2|3:0,2:1:0:0:
507,8,143994,2,0,P|510:55|504:80,1,58.500000000000014,6|0,1:0|2:0,2:0:0:0:
424,164,144241,1,6,1:2:0:0:
312,5,144488,1,14,1:2:0:0:
220,98,144735,2,0,P|217:145|223:170,1,58.500000000000014,2|0,3:2|2:0,2:0:0:0:
279,272,144982,5,6,1:0:0:0:
221,328,145105,1,2,1:2:0:0:
152,297,145229,2,0,P|104:299|78:291,1,58.500000000000014,2|0,3:0|2:0,2:0:0:0:
306,379,145476,2,0,P|353:376|380:385,1,58.500000000000014,14|0,1:2|2:0,2:0:0:0:
454,245,145723,2,0,P|501:247|528:239,1,58.500000000000014,14|0,1:2|2:0,2:0:0:0:
359,77,145970,5,6,1:2:0:0:
301,133,146093,1,8,3:0:0:0:
232,102,146217,2,0,P|184:104|158:96,1,58.500000000000014,6|2,1:2|3:2,2:0:0:0:
35,4,146463,2,0,P|63:0|92:3,1,58.50000000000002,14|0,1:2|2:0,2:0:0:0:
232,102,146734,2,0,P|184:104|158:96,1,58.500000000000014,12|0,1:2|2:0,2:0:0:0:
77,200,146968,6,0,P|74:293|85:328,1,119.495994644165,6|2,1:0|1:0,2:0:0:0:
254,220,147331,1,0,1:0:0:0:
318,267,147455,2,2,P|387:278|482:224,1,175.50000000000003,14|8,1:2|3:0,2:1:0:0:
378,94,147951,2,0,P|377:143|384:172,1,58.50000000000001,6|0,1:0|2:0,2:0:0:0:
486,325,148200,1,2,1:3:0:0:
254,220,148448,1,12,1:2:0:0:
349,362,148696,1,6,3:2:0:0:
80,315,148945,5,6,1:0:0:0:
16,266,149069,1,0,1:0:0:0:
76,217,149193,2,0,P|108:223|143:215,1,58.50000000000001,6|0,1:0|2:0,2:0:0:0:
233,88,149441,2,0,P|201:82|166:90,1,58.50000000000001,14|0,1:2|2:0,2:0:0:0:
0,133,149690,2,0,P|32:139|67:131,1,58.50000000000001,14|0,1:2|1:2,2:0:0:0:
303,296,149938,5,6,1:0:0:0:
367,247,150062,1,8,3:0:0:0:
307,198,150186,2,0,P|275:204|240:196,1,58.50000000000001,6|2,1:2|3:0,2:0:0:0:
422,311,150431,2,0,P|454:305|489:313,1,58.500000000000014,12|0,1:2|2:0,2:0:0:0:
220,295,150678,2,0,P|188:301|153:293,1,58.500000000000014,12|0,1:2|2:0,2:0:0:0:
440,204,150926,6,0,P|449:156|436:75,1,117.00000000000001,6|6,1:0|1:0,2:0:0:0:
264,3,151298,1,0,1:2:0:0:
264,3,151422,2,0,P|255:51|268:132,1,117.00000000000001,14|14,1:2|1:2,2:0:0:0:
166,207,151794,1,8,3:0:0:0:
166,207,151918,2,0,P|126:202|91:212,1,58.500000000000014,6|0,1:0|2:0,2:0:0:0:
237,310,152166,2,0,P|277:315|312:305,1,58.500000000000014,6|0,1:2|2:0,2:0:0:0:
367,247,152414,1,14,1:2:0:0:
367,247,152538,1,0,1:0:0:0:
479,367,152663,2,0,P|476:341|480:304,1,58.500000000000014,6|0,1:2|1:2,2:0:0:0:
441,89,152917,5,6,1:0:0:0:
393,24,153044,1,0,2:0:0:0:
359,97,153168,2,0,P|362:145|357:167,1,58.500000000000014,6|0,1:0|2:0,2:0:0:0:
479,309,153409,2,0,P|476:261|481:239,1,58.50000000000001,14|0,1:2|2:0,2:0:0:0:
276,140,153655,2,0,P|279:188|274:210,1,58.500000000000014,14|8,1:2|1:3,2:0:0:0:
38,312,153902,5,6,1:0:0:0:
86,377,154025,1,8,3:0:0:0:
120,304,154149,2,0,P|117:256|122:234,1,58.50000000000001,4|2,1:2|1:2,2:0:0:0:
0,92,154397,2,0,P|3:140|-2:162,1,58.50000000000001,14|0,1:2|2:0,2:0:0:0:
201,261,154645,2,0,P|198:213|203:191,1,58.50000000000001,14|2,1:2|1:3,2:0:0:0:
56,31,154893,5,6,1:0:0:0:
56,31,155389,2,2,P|145:47|244:27,1,175.50000000000006,14|0,1:2|2:0,2:1:0:0:
319,165,155885,2,0,L|388:168,1,58.500000000000014,6|0,1:0|2:0,2:0:0:0:
429,228,156133,1,6,1:2:0:0:
285,363,156381,1,14,1:2:0:0:
491,20,156629,5,6,1:2:0:0:
491,20,156782,1,8,1:3:0:0:
491,20,156892,1,14,1:0:0:0:
230,146,157146,1,14,1:0:0:0:
55,62,157402,5,14,1:2:0:0:
55,62,157514,1,14,1:2:0:0:
254,237,157751,1,8,3:2:0:0:
254,237,157875,1,14,1:0:0:0:
505,196,158122,5,6,3:1:0:0:
235,317,158355,1,14,1:2:0:0:
