osu file format v14

[General]
AudioFilename: audio.mp3
AudioLeadIn: 0
PreviewTime: 16653
Countdown: 0
SampleSet: Soft
StackLeniency: 0.5
Mode: 0
LetterboxInBreaks: 0
WidescreenStoryboard: 0

[Editor]
Bookmarks: 20556,118972
DistanceSpacing: 2.5
BeatDivisor: 4
GridSize: 8
TimelineZoom: 1.7

[Metadata]
Title:Ocean Man
TitleUnicode:Ocean Man
Artist:Ween
ArtistUnicode:Ween
Creator:rockstarrzz
Version:Voyage to the Corner of the Globe
Source:
Tags:
BeatmapID:2077702
BeatmapSetID:993603

[Difficulty]
HPDrainRate:5
CircleSize:3.8
OverallDifficulty:6.5
ApproachRate:7.4
SliderMultiplier:1.8
SliderTickRate:1

[Events]
//Background and Video events
0,0,"wallpaper2222222.jpg.695217acfa41dd7ec64180950426d6bf (1).jpg",0,0
//Break Periods
//Storyboard Layer 0 (Background)
//Storyboard Layer 1 (Fail)
//Storyboard Layer 2 (Pass)
//Storyboard Layer 3 (Foreground)
//Storyboard Sound Samples

[TimingPoints]
129,472.870967741935,4,2,0,40,1,0
2031,486.223662884927,4,2,0,40,1,0
9810,488.798370672098,4,2,0,40,1,0
17630,487.80487804878,4,2,0,40,1,0
17630,-80,4,3,0,50,0,1
25434,489.396411092985,4,2,0,40,1,0
25434,-80,4,2,0,40,0,0
33264,488.776078431373,4,2,0,40,1,0
33264,-80,4,2,0,40,0,0
37907,-66.6666666666667,4,2,0,40,0,0
39129,-80,4,2,0,40,0,0
41068,488.798370672098,4,2,0,40,1,0
41068,-80,4,3,0,50,0,1
48864,488.798370672098,4,2,0,40,1,0
48864,-80,4,2,0,40,0,0
49352,-66.6666666666667,4,2,0,55,0,0
49597,-66.6666666666667,4,2,0,5,0,0
49841,-66.6666666666667,4,2,0,55,0,0
50085,-100,4,2,0,5,0,0
50330,-66.6666666666667,4,2,0,55,0,0
51063,-66.6666666666667,4,2,0,5,0,0
51307,-66.6666666666667,4,2,0,55,0,0
51552,-66.6666666666667,4,2,0,5,0,0
51796,-66.6666666666667,4,2,0,55,0,0
56692,491.400491400491,4,2,0,40,1,0
56692,-100,4,2,0,40,0,0
56692,-50,4,2,0,40,0,0
57183,-80,4,2,0,40,0,0
57920,-66.6666666666667,4,2,0,40,0,0
60623,-80,4,2,0,40,0,0
64565,491.038546525902,4,2,0,40,1,0
64565,-66.6666666666667,4,2,0,40,0,0
70450,484.261501210654,4,2,0,40,1,0
70450,-66.6666666666667,4,2,0,40,0,0
72378,491.803278688525,4,2,0,40,1,0
72378,-100,4,2,0,40,0,0
72869,-133.333333333333,4,2,0,40,0,0
76312,495.867768595041,4,2,0,40,1,0
76312,-133.333333333333,4,2,0,40,0,0
84741,-100,4,2,0,40,0,0
85237,-111.111111111111,4,2,0,40,0,0
85733,-125,4,2,0,40,0,0
86229,-142.857142857143,4,2,0,40,0,0
86725,-166.666666666667,4,2,0,40,0,0
87469,-66.6666666666667,4,2,0,40,0,0
88211,486.763278688525,4,2,0,40,1,0
88211,-66.6666666666667,4,3,0,50,0,1
96025,491.113278688525,4,2,0,40,1,0
96025,-66.6666666666667,4,2,0,40,0,0
103880,487.713278688525,4,2,0,40,1,0
103880,-66.6666666666667,4,2,0,40,0,0
111684,486.713278688525,4,2,0,40,1,0
111684,-57.1428571428571,4,3,0,50,0,1
117524,482.713278688525,4,2,0,40,1,0
117524,-66.6666666666667,4,2,0,40,0,0
118489,-100,4,2,0,40,0,0
119454,516.713278688525,4,2,0,40,1,0
119454,-200,4,2,0,40,0,0
124110,486.713278688525,4,2,0,40,1,0

[HitObjects]
48,56,129,6,4,L|96:64,3,45,4|4|4|4,3:0|3:0|3:0|3:0,3:0:0:0:
198,97,601,1,4,3:0:0:0:
239,114,719,1,4,3:0:0:0:
280,110,837,1,4,3:0:0:0:
319,94,955,1,4,3:0:0:0:
360,64,1074,6,4,L|367:127,1,45,4|4,3:0|3:0,3:0:0:0:
376,240,1311,1,4,3:0:0:0:
346,271,1429,1,4,3:0:0:0:
309,294,1547,1,4,3:0:0:0:
268,306,1665,1,4,3:0:0:0:
224,305,1783,1,4,3:0:0:0:
183,293,1902,1,4,3:0:0:0:
144,264,2031,6,2,P|45:268|17:282,2,90,2|2|2,2:0|2:0|2:0,2:0:0:0:
248,200,2760,1,2,2:0:0:0:
248,200,3003,2,0,L|242:110,1,90,2|0,2:0|2:0,2:0:0:0:
64,24,3489,2,0,L|58:113,1,90,2|0,2:0|2:0,2:0:0:0:
328,80,3975,6,2,P|208:16|168:48,1,180,2|2,2:0|2:0,2:0:0:0:
186,28,4705,1,2,2:0:0:0:
186,28,4948,1,4,2:0:0:0:
56,200,5191,1,2,2:0:0:0:
56,200,5434,2,0,P|104:200|144:224,1,90,2|0,2:0|2:0,2:0:0:0:
352,296,5920,6,0,P|307:303|269:326,1,90,2|0,2:0|2:0,2:0:0:0:
80,296,6407,1,2,2:0:0:0:
199,63,6650,1,2,2:0:0:0:
248,307,6893,1,2,2:0:0:0:
65,138,7136,1,2,2:0:0:0:
312,168,7379,2,0,L|327:267,1,90,2|0,2:0|2:0,2:0:0:0:
192,216,7865,5,2,2:0:0:0:
192,216,8108,1,2,2:0:0:0:
304,80,8351,1,4,2:0:0:0:
344,352,8595,1,4,2:0:0:0:
200,112,8838,5,4,2:0:0:0:
408,152,9081,1,4,2:0:0:0:
192,216,9324,1,4,2:0:0:0:
400,256,9567,1,4,2:0:0:0:
184,328,9810,6,2,B|88:304|104:376|-32:328,1,180,2|2,2:0|2:0,2:0:0:0:
54,166,10543,1,2,2:0:0:0:
54,166,10787,2,2,L|48:256,1,90,2|2,2:0|2:0,2:0:0:0:
200,16,11276,1,4,2:0:0:0:
288,112,11520,1,2,2:0:0:0:
144,152,11765,6,2,P|112:120|98:77,1,90,2|2,2:0|2:0,2:0:0:0:
24,24,12253,1,4,2:0:0:0:
24,24,12498,1,4,2:0:0:0:
56,256,12742,5,2,2:0:0:0:
248,192,12987,1,4,2:0:0:0:
168,280,13231,1,4,2:0:0:0:
352,168,13475,1,4,2:0:0:0:
226,361,13720,6,2,P|194:377|130:377,2,90,2|2|2,2:0|2:0|2:0,2:0:0:0:
376,312,14453,1,2,2:0:0:0:
376,312,14698,1,2,2:0:0:0:
376,312,14942,1,2,2:0:0:0:
472,32,15186,1,4,2:0:0:0:
464,120,15431,1,2,2:0:0:0:
456,208,15675,6,0,L|352:216,1,90,2|0,2:0|2:0,2:0:0:0:
176,136,16164,2,0,L|265:129,1,90,2|0,2:0|2:0,2:0:0:0:
434,234,16653,6,0,L|330:242,1,90,0|0,2:0|2:0,2:0:0:0:
184,52,17141,1,4,3:0:0:0:
221,48,17264,1,4,3:0:0:0:
258,44,17386,1,4,3:0:0:0:
296,40,17508,1,4,3:0:0:0:
329,37,17630,6,0,B|344:96|344:96|336:160,1,112.5,8|0,3:0|0:0,0:0:0:0:
183,347,18117,2,0,B|168:288|168:288|176:224,1,112.5,8|0,3:0|0:0,0:0:0:0:
424,208,18605,1,8,3:0:0:0:
424,208,18849,1,0,0:0:0:0:
112,192,19093,1,8,3:0:0:0:
112,192,19337,1,0,0:0:0:0:
496,296,19581,6,0,P|440:320|376:312,1,112.5,8|0,3:0|0:0,0:0:0:0:
256,192,20069,1,8,3:0:0:0:
256,192,20312,1,0,0:0:0:0:
112,192,20556,5,8,3:0:0:0:
389,105,20800,1,8,3:0:0:0:
215,338,21044,1,8,3:0:0:0:
219,48,21288,1,8,3:0:0:0:
384,304,21532,6,0,B|289:287|289:287|262:258|262:258|150:246,1,225,12|8,3:0|0:0,0:0:0:0:
24,216,22264,1,0,0:0:0:0:
24,216,22508,2,0,P|24:136|40:96,1,112.5,8|0,3:0|0:0,0:0:0:0:
219,48,22995,2,0,P|219:128|203:168,1,112.5,8|0,3:0|0:0,0:0:0:0:
128,304,23483,5,12,3:0:0:0:
128,304,23727,1,8,0:0:0:0:
336,160,23971,5,12,3:0:0:0:
336,160,24215,1,8,0:0:0:0:
120,88,24459,5,12,3:0:0:0:
120,88,24703,1,8,0:0:0:0:
224,240,24947,1,4,3:0:0:0:
280,248,25069,1,4,3:0:0:0:
328,272,25190,1,4,3:0:0:0:
360,312,25312,1,4,3:0:0:0:
376,360,25434,6,0,P|448:368|504:344,1,112.5,2|0,2:0|2:0,2:0:0:0:
440,160,25923,2,2,L|432:296,1,112.5,2|2,2:0|2:0,2:0:0:0:
448,56,26412,1,8,2:0:0:0:
448,56,26657,1,8,2:0:0:0:
216,48,26902,1,8,2:0:0:0:
318,239,27146,1,8,2:0:0:0:
324,54,27391,6,2,P|270:38|215:47,2,112.5,2|2|10,2:0|2:0|2:0,2:0:0:0:
318,239,28125,1,8,2:0:0:0:
80,224,28370,1,2,2:0:0:0:
318,239,28615,1,2,2:0:0:0:
72,80,28859,2,0,P|127:82|178:107,1,112.5,8|0,2:0|2:0,2:0:0:0:
240,288,29349,6,2,B|201:173|305:197|257:61,1,225,2|2,2:0|2:0,2:0:0:0:
24,256,30083,1,8,2:0:0:0:
24,256,30327,2,0,P|88:272|152:248,1,112.5,8|0,2:0|2:0,2:0:0:0:
456,40,30817,1,8,2:0:0:0:
448,144,31062,1,8,2:0:0:0:
430,259,31306,6,2,B|392:289|392:289|370:287|370:287|309:339,2,112.5,2|2|10,2:0|2:0|2:0,2:0:0:0:
448,144,32040,2,0,P|344:120|312:144,1,112.5,8|2,2:0|2:0,2:0:0:0:
168,248,32530,1,8,2:0:0:0:
80,160,32774,1,8,2:0:0:0:
168,72,33019,1,8,2:0:0:0:
272,320,33264,6,2,B|168:360|168:360|48:320,1,225,2|2,2:0|2:0,2:0:0:0:
80,160,33997,1,2,2:0:0:0:
80,160,34241,2,2,P|192:184|224:208,1,112.5,2|2,2:0|2:0,2:0:0:0:
392,80,34730,2,10,P|280:104|248:128,1,112.5,10|10,2:0|2:0,2:0:0:0:
112,264,35219,5,8,2:0:0:0:
112,264,35463,1,8,2:0:0:0:
360,192,35707,1,8,2:0:0:0:
360,192,35951,1,8,2:0:0:0:
208,16,36196,1,8,2:0:0:0:
216,136,36441,1,8,2:0:0:0:
224,248,36685,2,8,L|232:368,1,112.5,8|8,2:0|2:0,2:0:0:0:
464,128,37174,6,2,P|424:96|296:104,2,112.5,2|2|2,2:0|2:0|2:0,2:0:0:0:
456,280,37907,1,8,2:0:0:0:
224,224,38151,6,2,B|264:200|264:200|312:200|312:200|352:224,1,135.000005149842,2|2,2:0|2:0,2:0:0:0:
152,336,38640,2,2,B|117:356|117:356|69:356|69:356|29:332,1,135.000005149842,2|2,2:0|2:0,2:0:0:0:
120,88,39129,6,2,B|96:128|96:128|136:152|136:152|88:192|96:304,1,225,2|2,2:0|2:0,2:0:0:0:
184,24,39862,1,8,2:0:0:0:
184,24,40106,2,8,P|132:2|76:1,1,112.5,8|8,2:0|2:0,2:0:0:0:
211,245,40595,1,4,3:0:0:0:
258,206,40717,1,4,3:0:0:0:
287,158,40840,1,4,3:0:0:0:
297,101,40962,1,4,3:0:0:0:
291,45,41068,6,0,B|259:21|259:21|299:245,1,225,14|0,3:0|3:0,3:0:0:0:
312,360,41801,1,8,3:0:0:0:
464,264,42045,2,8,L|351:270,1,112.5,8|8,3:0|3:0,3:0:0:0:
48,120,42534,2,8,L|160:126,1,112.5,8|8,3:0|3:0,3:0:0:0:
352,136,43023,5,8,3:0:0:0:
352,136,43267,1,8,3:0:0:0:
184,280,43511,1,12,3:0:0:0:
184,280,43755,1,12,3:0:0:0:
306,52,44000,5,8,3:0:0:0:
297,334,44245,1,8,3:0:0:0:
138,100,44489,1,8,3:0:0:0:
404,197,44733,1,8,3:0:0:0:
150,325,44978,6,0,L|138:98,1,225,14|12,3:0|3:0,3:0:0:0:
248,16,45711,1,12,3:0:0:0:
248,16,45955,2,8,L|256:160,1,112.5,8|8,3:0|3:0,3:0:0:0:
32,360,46444,2,8,L|24:216,1,112.5,8|8,3:0|3:0,3:0:0:0:
254,128,46933,6,8,P|350:168|366:192,1,112.5,8|8,3:0|3:0,3:0:0:0:
96,184,47422,2,8,P|82:80|95:55,1,112.5,8|8,3:0|3:0,3:0:0:0:
232,296,47911,2,8,P|149:359|120:360,1,112.5,8|8,3:0|3:0,3:0:0:0:
192,40,48399,1,12,3:0:0:0:
248,42,48521,1,12,3:0:0:0:
304,44,48643,1,12,3:0:0:0:
360,46,48765,1,12,3:0:0:0:
416,48,48864,6,0,L|432:208,1,112.5,12|0,2:0|2:0,2:0:0:0:
326,345,49352,6,0,B|340:267|340:267|315:222|315:222|328:152,1,202.500007724762,14|0,2:0|2:0,2:0:0:0:
241,166,49841,2,0,B|229:236|229:236|253:281|253:281|240:360,1,202.500007724762,14|0,2:0|2:0,2:0:0:0:
152,296,50330,2,0,P|72:280|24:304,1,135.000005149842,14|0,2:0|2:0,2:0:0:0:
227,80,50819,6,0,B|148:66|148:66|103:90|103:90|33:78,1,202.500007724762,14|0,2:0|2:0,2:0:0:0:
47,164,51307,2,0,B|117:176|117:176|162:151|162:151|240:165,1,202.500007724762,14|0,2:0|2:0,2:0:0:0:
272,256,51796,2,0,L|205:242,1,67.5000025749208,12|0,2:0|2:0,2:0:0:0:
168,328,52041,2,0,L|234:341,1,67.5000025749208,12|0,2:0|2:0,2:0:0:0:
352,328,52285,6,2,L|360:176,2,135.000005149842,2|2|2,2:0|2:0|2:0,2:0:0:0:
480,248,53018,1,2,2:0:0:0:
480,248,53263,2,10,L|464:88,2,135.000005149842,10|10|10,2:0|2:0|2:0,2:0:0:0:
368,104,53996,1,2,2:0:0:0:
368,104,54240,2,2,B|304:128|304:88|235:101,1,135.000005149842,2|2,2:0|2:0,2:0:0:0:
40,32,54729,6,8,L|48:192,1,135.000005149842,8|8,2:0|2:0,2:0:0:0:
280,336,55218,2,8,L|273:201,1,135.000005149842,8|8,2:0|2:0,2:0:0:0:
145,36,55707,1,12,2:0:0:0:
126,182,55951,1,12,2:0:0:0:
273,201,56196,1,12,2:0:0:0:
291,53,56440,1,12,2:0:0:0:
24,264,56684,6,0,B|79:268|79:268|102:286|102:286|237:298,1,135.000005149842,14|0,2:0|2:0,2:0:0:0:
392,320,57183,6,2,B|408:256|408:256|368:128,2,112.5,2|2|2,2:0|2:0|2:0,2:0:0:0:
288,256,57797,1,2,2:0:0:0:
288,256,57920,2,2,B|272:208|272:208|288:88,2,135.000005149842,2|2|2,2:0|2:0|2:0,2:0:0:0:
168,344,58534,1,2,2:0:0:0:
168,344,58657,2,2,B|251:355|251:355|299:339,2,135.000005149842,2|2|2,2:0|2:0|2:0,2:0:0:0:
105,84,59394,5,8,2:0:0:0:
294,138,59640,1,8,2:0:0:0:
109,205,59886,1,8,2:0:0:0:
219,42,60131,1,8,2:0:0:0:
226,239,60377,1,8,2:0:0:0:
219,42,60623,6,2,B|320:16|312:96|467:42,1,225,2|2,2:0|2:0,2:0:0:0:
488,160,61360,1,2,2:0:0:0:
488,160,61606,2,2,L|480:288,1,112.5,2|2,2:0|2:0,2:0:0:0:
432,72,62097,1,2,2:0:0:0:
384,344,62343,6,2,B|336:240|352:120|352:120|312:176|256:184,1,337.5,2|2,2:0|2:0,2:0:0:0:
131,262,63325,1,8,2:0:0:0:
131,104,63571,1,8,2:0:0:0:
266,182,63817,1,8,2:0:0:0:
72,328,64063,1,12,2:0:0:0:
88,32,64308,1,12,2:0:0:0:
322,330,64565,6,0,B|290:386|290:386|258:122,1,270.000010299683,14|0,2:0|2:0,2:0:0:0:
248,32,65301,1,2,2:0:0:0:
248,32,65424,1,2,2:0:0:0:
247,32,65547,2,2,P|313:27|375:51,2,135.000005149842,2|2|2,2:0|2:0|2:0,2:0:0:0:
40,128,66283,6,2,B|160:72|160:200|320:112,1,270.000010299683,2|2,2:0|2:0,2:0:0:0:
496,96,67020,1,12,2:0:0:0:
488,216,67265,1,12,2:0:0:0:
480,344,67511,5,8,2:0:0:0:
224,56,67756,1,8,2:0:0:0:
176,336,68002,1,8,2:0:0:0:
400,136,68247,1,8,2:0:0:0:
120,208,68493,6,2,B|230:227|230:227|257:256|257:256|415:284,1,270.000010299683,14|2,2:0|2:0,2:0:0:0:
408,144,69229,1,2,2:0:0:0:
408,144,69352,1,2,2:0:0:0:
408,144,69475,2,2,L|248:120,2,135.000005149842,2|2|2,2:0|2:0|2:0,2:0:0:0:
208,48,70211,2,2,P|176:152|192:176,1,135.000005149842,2|2,2:0|2:0,2:0:0:0:
304,336,70692,6,2,P|336:232|320:208,2,135.000005149842,2|2|2,2:0|2:0|2:0,2:0:0:0:
122,188,71418,1,4,2:0:0:0:
216,48,71660,1,8,3:0:0:0:
222,95,71781,1,8,3:0:0:0:
229,143,71902,1,8,3:0:0:0:
236,191,72023,1,8,3:0:0:0:
243,239,72144,1,8,3:0:0:0:
250,287,72265,1,8,3:0:0:0:
258,353,72378,5,14,3:0:0:0:
66,81,72869,5,8,2:0:0:0:
66,81,73115,1,8,2:0:0:0:
256,192,73853,1,8,1:0:0:0:
405,37,74837,5,8,2:0:0:0:
405,37,75082,1,8,2:0:0:0:
256,192,75820,5,8,2:0:0:0:
48,256,76312,6,2,P|136:280|184:328,1,135.000005149842,2|10,2:0|2:0,2:0:0:0:
304,352,77055,1,8,2:0:0:0:
304,352,77303,2,8,L|296:256,1,67.5000025749208,8|8,2:0|2:0,2:0:0:0:
288,152,77799,1,8,2:0:0:0:
384,88,78295,5,8,2:0:0:0:
384,88,78543,1,8,2:0:0:0:
272,48,78791,1,12,2:0:0:0:
288,152,79039,1,12,2:0:0:0:
176,112,79287,1,8,2:0:0:0:
176,112,79535,1,8,2:0:0:0:
64,64,79783,1,12,2:0:0:0:
80,168,80031,1,12,2:0:0:0:
96,272,80278,6,2,P|171:266|248:288,1,135.000005149842,14|10,2:0|2:0,2:0:0:0:
328,360,81022,1,8,2:0:0:0:
328,360,81270,2,2,L|408:352,1,67.5000025749208,2|2,2:0|2:0,2:0:0:0:
456,272,81766,1,8,2:0:0:0:
456,272,82014,1,2,2:0:0:0:
392,176,82262,6,2,L|312:168,1,67.5000025749208,2|2,2:0|2:0,2:0:0:0:
256,88,82758,1,8,2:0:0:0:
256,88,83006,1,8,2:0:0:0:
160,152,83254,6,2,L|168:240,1,67.5000025749208,2|2,2:0|2:0,2:0:0:0:
184,352,83750,1,8,2:0:0:0:
184,352,83997,1,8,2:0:0:0:
392,176,84245,6,2,P|336:168|310:172,1,67.5000025749208,2|2,2:0|2:0,2:0:0:0:
144,200,84741,6,2,P|144:232|160:200,1,90,2|2,2:0|2:0,2:0:0:0:
144,179,85237,6,2,P|132:211|159:185,1,80.9999975280763,2|2,2:0|2:0,2:0:0:0:
157,160,85733,6,2,P|137:184|162:166,1,72,2|2,2:0|2:0,2:0:0:0:
175,141,86229,6,2,P|152:152|176:149,1,62.9999980773926,2|2,2:0|2:0,2:0:0:0:
200,136,86725,6,2,P|176:134|197:143,1,53.9999983520508,2|2,2:0|2:0,2:0:0:0:
247,343,87221,1,2,2:0:0:0:
247,343,87469,6,8,L|262:185,1,135.000005149842,8|14,3:0|3:0,3:0:0:0:
352,56,87964,1,14,3:0:0:0:
377,319,88211,6,0,B|313:343|313:343|217:343,1,135.000005149842,14|8,3:0|3:0,3:0:0:0:
56,320,88697,1,12,3:0:0:0:
56,320,88941,1,12,3:0:0:0:
80,72,89184,2,0,L|64:216,1,135.000005149842,8|0,3:0|3:0,3:0:0:0:
222,95,89671,1,12,3:0:0:0:
222,95,89915,1,12,3:0:0:0:
246,343,90158,6,8,L|231:208,1,135.000005149842,8|8,3:0|3:0,3:0:0:0:
222,95,90644,1,12,3:0:0:0:
222,95,90888,1,12,3:0:0:0:
104,152,91131,1,8,3:0:0:0:
344,216,91374,1,8,3:0:0:0:
160,336,91618,1,8,3:0:0:0:
322,87,91861,6,8,P|349:169|341:221,2,135.000005149842,8|8|8,3:0|3:0|3:0,3:0:0:0:
136,48,92591,1,12,3:0:0:0:
136,48,92835,1,12,3:0:0:0:
32,200,93078,2,8,L|192:208,1,135.000005149842,8|8,3:0|3:0,3:0:0:0:
343,215,93565,1,12,3:0:0:0:
343,215,93808,1,12,3:0:0:0:
24,331,94052,6,8,P|16:265|32:200,1,135.000005149842,8|8,3:0|3:0,3:0:0:0:
184,88,94538,1,8,3:0:0:0:
431,257,94782,1,8,3:0:0:0:
131,265,95025,1,8,3:0:0:0:
369,82,95269,1,8,3:0:0:0:
284,370,95512,1,8,3:0:0:0:
184,88,95755,1,12,3:0:0:0:
186,103,95877,1,12,3:0:0:0:
187,122,96025,6,0,L|203:305,1,135.000005149842,12|0,0:0|0:0,0:0:0:0:
304,192,96516,1,12,0:0:0:0:
304,192,96761,1,12,0:0:0:0:
56,200,97007,1,8,0:0:0:0:
56,200,97252,1,8,0:0:0:0:
408,200,97498,2,8,P|336:304|296:312,1,135.000005149842
186,56,97989,6,8,P|312:66|339:97,1,135.000005149842
256,200,98480,1,12,0:0:0:0:
256,200,98726,1,12,0:0:0:0:
173,319,98971,6,8,P|119:205|132:166,1,135.000005149842
112,48,99462,1,8,0:0:0:0:
112,48,99708,1,8,0:0:0:0:
424,112,99953,6,14,B|384:88|384:88|344:128|344:128|272:64|184:104,1,270.000010299683
48,208,100690,1,8,0:0:0:0:
48,208,100936,2,8,L|208:224,1,135.000005149842
336,240,101427,1,12,0:0:0:0:
336,240,101672,1,12,0:0:0:0:
184,48,101918,6,2,B|320:16|288:120|464:48,2,270.000010299683,2|2|14,0:0|0:0|0:0,0:0:0:0:
110,259,103146,1,12,0:0:0:0:
246,316,103391,1,8,0:0:0:0:
236,132,103637,1,8,0:0:0:0:
246,316,103880,6,8,B|285:373|285:373|293:322|312:167,1,270.000010299683,14|12,0:0|0:0,0:0:0:0:
443,27,104611,1,12,0:0:0:0:
443,27,104855,2,8,L|423:172,1,135.000005149842
402,328,105343,1,12,0:0:0:0:
402,328,105586,1,12,0:0:0:0:
357,61,105830,6,8,P|294:38|227:44,1,135.000005149842
29,337,106318,2,8,P|91:359|158:353,1,135.000005149842
284,134,106806,1,8,0:0:0:0:
104,257,107050,1,8,0:0:0:0:
381,270,107293,1,12,0:0:0:0:
61,116,107537,1,12,0:0:0:0:
185,346,107781,6,2,P|344:352|377:246,1,270.000010299683
463,102,108513,1,8,0:0:0:0:
463,102,108757,2,8,L|300:89,1,135.000005149842
76,238,109244,1,12,0:0:0:0:
76,238,109488,1,12,0:0:0:0:
123,65,109732,6,0,B|145:18|145:18|177:337,1,270.000010299683,14|0,0:0|0:0,0:0:0:0:
281,373,110464,2,12,L|260:192,1,135.000005149842
244,54,110951,1,8,0:0:0:0:
368,216,111195,1,8,0:0:0:0:
136,232,111439,1,8,0:0:0:0:
480,32,111684,6,0,B|459:150|459:150|473:209|473:209|446:359,1,315.000003004074,0|0,3:0|3:0,3:0:0:0:
232,160,112414,1,8,3:0:0:0:
232,160,112657,2,8,P|96:120|40:152,1,157.500001502037,8|8,3:0|3:0,3:0:0:0:
304,360,113144,2,8,L|320:168,1,157.500001502037,8|8,3:0|3:0,3:0:0:0:
336,24,113630,5,12,3:0:0:0:
336,24,113874,1,12,3:0:0:0:
488,112,114117,2,8,L|312:128,1,157.500001502037,8|8,3:0|3:0,3:0:0:0:
64,144,114604,5,12,3:0:0:0:
64,144,114847,1,12,3:0:0:0:
392,264,115090,1,12,3:0:0:0:
392,264,115334,1,12,3:0:0:0:
225,40,115577,6,0,B|161:8|161:8|225:304,1,315.000003004074,14|0,3:0|3:0,3:0:0:0:
328,352,116307,1,8,3:0:0:0:
328,352,116551,2,8,L|288:168,1,157.500001502037,8|8,3:0|3:0,3:0:0:0:
72,32,117037,2,8,L|112:216,1,157.500001502037,8|8,3:0|3:0,3:0:0:0:
128,320,117524,5,12,3:0:0:0:
216,80,117765,1,12,3:0:0:0:
32,224,118006,1,12,3:0:0:0:
329,171,118247,1,12,3:0:0:0:
32,112,118489,5,14,3:0:0:0:
70,120,118609,1,12,3:0:0:0:
105,141,118730,1,12,3:0:0:0:
130,171,118851,1,12,3:0:0:0:
152,216,118972,5,12,3:0:0:0:
194,247,119093,1,12,3:0:0:0:
246,263,119214,1,12,3:0:0:0:
299,263,119334,1,12,3:0:0:0:
352,240,119454,6,0,B|367:59|143:-60|39:91|39:91|239:123|79:275|231:187|279:315,1,810,14|0,0:0|0:0,0:0:0:0:
