osu file format v14

[General]
AudioFilename: audio.mp3
AudioLeadIn: 0
PreviewTime: 1086
Countdown: 0
SampleSet: Soft
StackLeniency: 0
Mode: 0
LetterboxInBreaks: 0
WidescreenStoryboard: 1

[Editor]
Bookmarks: 1547,17630,41068,48864,72378,88211,93078,111684,119454
DistanceSpacing: 1
BeatDivisor: 4
GridSize: 4
TimelineZoom: 2

[Metadata]
Title:Ocean Man
TitleUnicode:Ocean Man
Artist:Ween
ArtistUnicode:Ween
Creator:Mismagius
Version:Surfer Insane
Source:
Tags:english alternative indie rock pop the mollusk spongebob squarepants movie credits ending nyantiaz intiaz
BeatmapID:3995501
BeatmapSetID:821880

[Difficulty]
HPDrainRate:4
CircleSize:4
OverallDifficulty:5
ApproachRate:5
SliderMultiplier:1.6
SliderTickRate:1

[Events]
//Background and Video events
0,0,"wallhaven-181461.png",0,0
//Break Periods
//Storyboard Layer 0 (Background)
//Storyboard Layer 1 (Fail)
//Storyboard Layer 2 (Pass)
//Storyboard Layer 3 (Foreground)
//Storyboard Layer 4 (Overlay)
//Storyboard Sound Samples

[TimingPoints]
142,472.440944881889,4,2,0,100,1,0
2031,483.870967741935,4,2,0,100,1,0
5899,487.012987012987,4,2,0,100,1,0
9796,489.795918367347,4,2,0,100,1,0
17630,487.012987012987,4,2,0,100,1,0
25424,491.803278688525,4,2,0,100,1,0
29358,488.997555012225,4,2,0,100,1,0
37181,485.82995951417,4,2,0,100,1,0
41067,489.795918367347,4,2,0,100,1,0
44985,493.624023035788,4,2,0,100,1,0
46959,481.734243275793,4,2,0,100,1,0
48404,454.545454545455,4,2,0,100,1,0
48859,489.795918367347,4,2,0,100,1,0
56692,491.561527117811,4,2,0,100,1,0
64556,495.867768595041,4,2,0,100,1,0
66539,487.80487804878,4,2,0,100,1,0
68490,490.998363338789,4,2,0,100,1,0
71435,466.926070038911,4,2,0,100,1,0
72369,491.803278688525,4,2,0,100,1,0
73721,-100,4,2,0,5,0,0
73844,-100,4,2,0,100,0,0
74705,-100,4,2,0,5,0,0
74828,-100,4,2,0,100,0,0
75688,-100,4,2,0,5,0,0
75811,-100,4,2,0,100,0,0
76303,497.30625777041,4,2,0,100,1,0
76675,-100,4,2,0,5,0,0
76800,-100,4,2,0,100,0,0
77670,-100,4,2,0,5,0,0
77795,-100,4,2,0,100,0,0
78665,-100,4,2,0,5,0,0
78790,-100,4,2,0,100,0,0
79659,-100,4,2,0,5,0,0
79784,-100,4,2,0,100,0,0
80654,-100,4,2,0,5,0,0
80779,-100,4,2,0,100,0,0
81649,-100,4,2,0,5,0,0
81774,-100,4,2,0,100,0,0
82643,-100,4,2,0,5,0,0
82768,-100,4,2,0,100,0,0
83638,-100,4,2,0,5,0,0
83763,-100,4,2,0,100,0,0
84259,494.641384995878,4,2,0,100,1,0
84629,-100,4,2,0,5,0,0
84753,-100,4,2,0,100,0,0
88215,487.80487804878,4,2,0,100,1,0
96019,508.474576271186,4,2,0,100,1,0
97035,488.798370672098,4,2,0,100,1,0
99973,487.80487804878,4,2,0,100,1,0
103875,487.21071863581,4,2,0,100,1,0
111670,493.827160493827,4,2,0,100,1,0
113645,482.897384305835,4,2,0,100,1,0
115576,491.803278688525,4,2,0,100,1,0
116559,478.08764940239,4,2,0,100,1,0

[Colours]
Combo1 : 203,186,160
Combo2 : 109,182,99
Combo3 : 148,169,205

[HitObjects]
113,259,142,5,8,0:0:0:0:
113,259,260,1,8,0:0:0:0:
113,259,378,1,0,0:0:0:0:
113,259,496,1,0,0:0:0:0:
113,259,614,1,8,0:0:0:0:
113,259,732,1,8,0:0:0:0:
113,259,850,1,0,0:0:0:0:
113,259,968,1,0,0:0:0:0:
113,259,1086,1,8,0:0:0:0:
113,259,1204,1,8,0:0:0:0:
113,259,1323,1,0,0:0:0:0:
113,259,1441,1,0,0:0:0:0:
113,259,1559,1,8,0:0:0:0:
113,259,1677,1,8,0:0:0:0:
113,259,1795,1,0,0:0:0:0:
113,259,1913,1,0,0:0:0:0:
113,259,2031,6,0,L|192:265,1,80,6|0,0:0|0:0,0:0:0:0:
350,277,2514,1,8,0:0:0:0:
350,277,2756,1,8,0:0:0:0:
298,215,2998,1,2,0:0:0:0:
411,225,3240,1,0,0:0:0:0:
401,338,3482,1,8,0:0:0:0:
288,328,3724,1,0,0:0:0:0:
298,215,3966,6,0,L|219:209,1,80,2|0,0:0|0:0,0:0:0:0:
75,198,4450,1,8,0:0:0:0:
75,198,4692,1,8,0:0:0:0:
141,132,4934,1,2,0:0:0:0:
131,251,5176,1,0,0:0:0:0:
21,125,5418,2,0,L|27:46,1,80,8|0,0:0|0:0,0:0:0:0:
21,125,5899,5,2,0:0:0:0:
21,125,6386,1,8,0:0:0:0:
21,125,6629,1,8,0:0:0:0:
96,98,6873,1,2,0:0:0:0:
171,71,7116,1,0,0:0:0:0:
207,221,7360,2,0,L|201:300,1,80,8|0,0:0|0:0,0:0:0:0:
207,221,7847,5,2,0:0:0:0:
200,300,8090,1,0,0:0:0:0:
358,314,8334,1,8,0:0:0:0:
358,314,8577,1,8,0:0:0:0:
365,235,8821,1,2,0:0:0:0:
286,228,9064,1,0,0:0:0:0:
444,242,9308,1,8,0:0:0:0:
437,321,9551,1,0,0:0:0:0:
200,300,9795,6,0,L|121:293,1,80,2|0,0:0|0:0,0:0:0:0:
86,111,10285,1,8,0:0:0:0:
86,111,10530,1,8,0:0:0:0:
37,176,10775,1,2,0:0:0:0:
150,167,11017,1,0,0:0:0:0:
140,53,11259,1,8,0:0:0:0:
27,63,11501,1,0,0:0:0:0:
37,176,11755,6,0,L|43:255,1,80,2|0,0:0|0:0,0:0:0:0:
252,303,12244,1,8,0:0:0:0:
252,303,12489,1,8,0:0:0:0:
243,221,12734,2,0,L|237:142,1,80,2|0,0:0|0:0,0:0:0:0:
252,303,13224,1,8,0:0:0:0:
252,303,13469,1,0,0:0:0:0:
252,303,13714,6,0,P|291:307|329:296,1,80,2|0,0:0|0:0,0:0:0:0:
472,223,14204,1,8,0:0:0:0:
472,223,14449,1,8,0:0:0:0:
454,145,14693,1,2,0:0:0:0:
490,301,14938,1,0,0:0:0:0:
334,337,15183,1,8,0:0:0:0:
298,181,15428,1,0,0:0:0:0:
472,223,15673,5,2,0:0:0:0:
490,301,15918,1,0,0:0:0:0:
410,294,16163,1,8,0:0:0:0:
410,294,16408,1,8,0:0:0:0:
428,372,16653,1,2,0:0:0:0:
392,216,16898,1,0,0:0:0:0:
392,216,17142,1,8,0:0:0:0:
392,216,17265,1,0,0:0:0:0:
392,216,17387,1,0,0:0:0:0:
274,325,17630,6,0,P|235:329|197:318,1,80,6|0,0:0|0:0,0:0:0:0:
88,199,18117,1,10,0:0:0:0:
88,199,18360,1,8,0:0:0:0:
69,277,18604,1,2,0:0:0:0:
69,277,19091,1,8,0:0:0:0:
30,144,19334,1,2,0:0:0:0:
165,176,19578,6,0,L|241:153,1,80,2|0,0:0|0:0,0:0:0:0:
395,107,20065,1,10,0:0:0:0:
395,107,20308,1,8,0:0:0:0:
472,129,20552,1,2,0:0:0:0:
336,162,20795,1,2,0:0:0:0:
376,29,21039,1,8,0:0:0:0:
472,129,21282,1,2,0:0:0:0:
472,129,21526,6,0,P|490:163|492:203,1,80,2|0,0:0|0:0,0:0:0:0:
454,359,22013,1,10,0:0:0:0:
454,359,22256,1,8,0:0:0:0:
298,323,22500,1,2,0:0:0:0:
405,206,22743,1,2,0:0:0:0:
454,359,22987,2,0,L|376:340,1,80,8|2,0:0|0:0,0:0:0:0:
327,187,23474,6,0,L|404:205,1,80,2|0,0:0|0:0,0:0:0:0:
376,341,23961,1,10,0:0:0:0:
376,341,24204,1,8,0:0:0:0:
292,320,24448,1,2,0:0:0:0:
448,284,24691,1,0,0:0:0:0:
292,320,24935,1,10,0:0:0:0:
292,320,25056,1,0,0:0:0:0:
292,320,25178,1,2,0:0:0:0:
425,127,25424,6,0,P|423:87|404:52,1,80,6|0,0:0|0:0,0:0:0:0:
248,16,25915,1,8,0:0:0:0:
248,16,26161,1,8,0:0:0:0:
272,168,26407,1,2,0:0:0:0:
184,147,26653,1,0,0:0:0:0:
272,168,26899,2,0,L|349:186,1,80,8|0,0:0|0:0,0:0:0:0:
375,363,27391,6,0,L|298:345,1,80,2|0,0:0|0:0,0:0:0:0:
115,302,27883,1,8,0:0:0:0:
115,302,28128,1,8,0:0:0:0:
169,243,28374,1,2,0:0:0:0:
193,319,28620,1,0,0:0:0:0:
91,226,28866,1,8,0:0:0:0:
247,260,29112,1,0,0:0:0:0:
139,378,29358,6,0,P|99:378|63:361,1,80,2|0,0:0|0:0,0:0:0:0:
185,180,29846,1,8,0:0:0:0:
185,180,30091,1,8,0:0:0:0:
208,93,30335,1,2,0:0:0:0:
98,203,30580,1,0,0:0:0:0:
248,243,30824,2,0,L|326:226,1,80,8|0,0:0|0:0,0:0:0:0:
208,93,31313,6,0,L|130:110,1,80,2|0,0:0|0:0,0:0:0:0:
0,139,31802,1,8,0:0:0:0:
0,139,32047,1,8,0:0:0:0:
147,32,32291,1,2,0:0:0:0:
130,110,32536,1,0,0:0:0:0:
0,139,32780,1,8,0:0:0:0:
43,0,33025,1,0,0:0:0:0:
171,185,33269,6,0,L|249:168,1,80,6|0,0:0|0:0,0:0:0:0:
400,134,33758,1,8,0:0:0:0:
400,134,34003,1,8,0:0:0:0:
317,113,34247,1,2,0:0:0:0:
317,113,34736,2,0,L|334:191,1,80,8|0,0:0|0:0,0:0:0:0:
454,369,35225,6,0,L|376:352,1,80,2|0,0:0|0:0,0:0:0:0:
219,317,35714,1,8,0:0:0:0:
219,317,35959,1,8,0:0:0:0:
393,273,36203,2,0,L|376:351,1,80,2|0,0:0|0:0,0:0:0:0:
454,369,36692,2,0,L|471:291,1,80,8|0,0:0|0:0,0:0:0:0:
410,128,37181,5,2,0:0:0:0:
393,50,37423,1,0,0:0:0:0:
345,203,37666,1,8,0:0:0:0:
501,168,37909,1,8,0:0:0:0:
393,50,38152,2,0,L|315:67,1,80,2|0,0:0|0:0,0:0:0:0:
237,84,38517,2,0,L|315:67,1,80
368,126,38881,1,0,0:0:0:0:
237,84,39124,5,2,0:0:0:0:
237,84,39367,1,0,0:0:0:0:
393,50,39610,1,8,0:0:0:0:
393,50,39853,1,8,0:0:0:0:
368,126,40095,1,2,0:0:0:0:
290,143,40338,1,0,0:0:0:0:
446,109,40581,1,8,0:0:0:0:
446,109,40824,1,8,0:0:0:0:
290,143,41067,6,0,L|211:163,1,80,6|0,0:0|0:0,0:0:0:0:
82,194,41556,1,10,0:0:0:0:
82,194,41801,1,8,0:0:0:0:
140,254,42046,1,2,0:0:0:0:
104,113,42291,1,2,0:0:0:0:
0,215,42536,1,8,0:0:0:0:
82,194,42781,1,2,0:0:0:0:
140,254,43026,6,0,L|116:330,1,80,2|0,0:0|0:0,0:0:0:0:
5,136,43515,1,10,0:0:0:0:
5,136,43760,1,8,0:0:0:0:
26,62,44005,1,2,0:0:0:0:
133,176,44250,1,2,0:0:0:0:
187,30,44495,1,8,0:0:0:0:
133,176,44740,1,2,0:0:0:0:
133,176,44985,6,0,L|211:159,1,80,6|0,0:0|0:0,0:0:0:0:
55,193,45478,1,10,0:0:0:0:
55,193,45725,1,8,0:0:0:0:
80,117,45972,1,2,0:0:0:0:
211,158,46219,1,2,0:0:0:0:
109,250,46465,1,8,0:0:0:0:
80,117,46712,1,2,0:0:0:0:
80,117,46959,6,0,L|2:134,1,80,2|0,0:0|0:0,0:0:0:0:
158,101,47440,1,10,0:0:0:0:
109,250,47681,1,8,0:0:0:0:
258,299,47922,1,2,0:0:0:0:
307,150,48163,1,2,0:0:0:0:
207,198,48404,1,8,0:0:0:0:
207,198,48517,1,0,0:0:0:0:
207,198,48631,1,8,0:0:0:0:
207,198,48744,1,0,0:0:0:0:
207,198,48859,1,2,0:0:0:0:
207,198,49348,6,0,L|285:181,1,80,2|0,0:0|0:0,0:0:0:0:
207,198,49838,2,0,L|285:181,1,80,2|0,0:0|0:0,0:0:0:0:
327,107,50328,1,8,0:0:0:0:
327,107,50573,1,0,0:0:0:0:
303,258,50818,2,0,L|381:241,1,80,2|0,0:0|0:0,0:0:0:0:
303,258,51307,2,0,L|381:241,1,80,10|8,0:0|0:0,0:0:0:0:
285,180,51797,1,2,0:0:0:0:
285,180,51920,1,0,0:0:0:0:
285,180,52042,1,0,0:0:0:0:
235,354,52287,1,10,0:0:0:0:
408,312,52532,1,2,0:0:0:0:
285,180,52777,6,0,L|207:197,1,80,2|0,0:0|0:0,0:0:0:0:
364,163,53267,1,10,0:0:0:0:
364,163,53512,1,10,0:0:0:0:
364,163,53634,1,0,0:0:0:0:
364,163,53756,2,0,L|286:180,1,80,2|2,0:0|0:0,0:0:0:0:
129,215,54246,1,10,0:0:0:0:
177,61,54491,1,2,0:0:0:0:
129,215,54736,5,0,0:0:0:0:
187,270,54981,1,0,0:0:0:0:
71,160,55226,1,8,0:0:0:0:
71,160,55471,1,10,0:0:0:0:
110,293,55716,1,2,0:0:0:0:
205,191,55961,1,0,0:0:0:0:
71,160,56205,1,10,0:0:0:0:
71,160,56328,1,0,0:0:0:0:
71,160,56450,1,2,0:0:0:0:
29,289,56692,5,4,0:0:0:0:
29,289,57183,2,0,L|107:272,1,80,8|10,0:0|0:0,0:0:0:0:
283,317,57675,2,0,L|205:334,1,80,2|2,0:0|0:0,0:0:0:0:
361,299,58043,2,0,L|283:316,1,80,2|2,0:0|0:0,0:0:0:0:
361,299,58412,1,2,0:0:0:0:
175,197,58658,6,0,L|253:180,1,80,2|2,0:0|0:0,0:0:0:0:
175,197,59026,1,0,0:0:0:0:
175,197,59149,2,0,L|253:180,1,80,10|10,0:0|0:0,0:0:0:0:
96,214,59641,1,2,0:0:0:0:
96,214,59764,1,0,0:0:0:0:
96,214,59887,1,2,0:0:0:0:
96,214,60132,2,0,L|174:197,1,80,10|0,0:0|0:0,0:0:0:0:
254,92,60624,6,0,L|176:109,1,80,2|0,0:0|0:0,0:0:0:0:
332,75,61116,1,10,0:0:0:0:
332,75,61361,1,10,0:0:0:0:
332,75,61484,1,0,0:0:0:0:
332,75,61607,2,0,L|254:92,1,80,2|2,0:0|0:0,0:0:0:0:
96,127,62099,1,10,0:0:0:0:
204,246,62344,1,2,0:0:0:0:
253,92,62590,6,0,P|252:52|236:15,1,80,2|0,0:0|0:0,0:0:0:0:
96,127,63082,1,8,0:0:0:0:
96,127,63328,1,10,0:0:0:0:
253,92,63573,2,0,L|331:75,1,80,2|0,0:0|0:0,0:0:0:0:
488,38,64065,1,10,0:0:0:0:
488,38,64311,1,0,0:0:0:0:
441,280,64556,6,0,P|457:316|457:356,1,80,6|0,0:0|0:0,0:0:0:0:
263,225,65051,1,10,0:0:0:0:
263,225,65299,1,10,0:0:0:0:
263,225,65423,1,0,0:0:0:0:
263,225,65547,2,0,L|246:147,1,80,2|2,0:0|0:0,0:0:0:0:
280,303,66043,2,0,L|263:225,1,80,10|2,0:0|0:0,0:0:0:0:
246,146,66539,1,2,0:0:0:0:
168,163,66782,1,0,0:0:0:0:
324,129,67026,1,10,0:0:0:0:
324,129,67270,1,10,0:0:0:0:
280,303,67514,6,0,L|202:320,1,80,2|2,0:0|0:0,0:0:0:0:
72,277,68002,1,10,0:0:0:0:
98,201,68246,1,2,0:0:0:0:
46,353,68490,5,6,0:0:0:0:
164,252,68980,1,10,0:0:0:0:
164,252,69226,1,10,0:0:0:0:
164,252,69349,1,0,0:0:0:0:
164,252,69471,2,0,L|86:269,1,80,2|2,0:0|0:0,0:0:0:0:
243,235,69962,2,0,L|165:252,1,80,10|2,0:0|0:0,0:0:0:0:
140,120,70453,5,2,0:0:0:0:
140,120,70699,2,0,L|125:41,1,80,2|8,0:0|0:0,0:0:0:0:
164,252,71190,1,2,0:0:0:0:
321,222,71435,1,2,0:0:0:0:
216,101,71668,1,8,0:0:0:0:
216,101,71785,1,0,0:0:0:0:
216,101,71901,1,8,0:0:0:0:
216,101,72018,1,0,0:0:0:0:
216,101,72135,1,8,0:0:0:0:
216,101,72252,1,0,0:0:0:0:
216,101,72369,2,0,L|234:189,1,80,4|0,0:0|0:0,0:0:0:0:
269,359,72860,5,8,0:1:0:0:
269,359,73106,1,8,0:1:0:0:
256,192,73229,12,0,73721,0:0:0:0:
226,51,73844,5,8,0:1:0:0:
256,192,73967,12,0,74705,0:0:0:0:
39,268,74828,5,8,0:1:0:0:
39,268,75073,1,8,0:1:0:0:
256,192,75196,12,0,75688,0:0:0:0:
352,201,75811,5,8,0:1:0:0:
256,192,75934,12,0,76675,0:0:0:0:
102,109,76800,5,8,0:1:0:0:
102,109,77048,1,8,0:1:0:0:
256,192,77173,12,0,77670,0:0:0:0:
281,360,77794,5,8,0:1:0:0:
256,192,77919,12,0,78665,0:0:0:0:
230,39,78789,5,8,0:1:0:0:
230,39,79038,1,8,0:1:0:0:
256,192,79162,12,0,79659,0:0:0:0:
155,332,79784,5,8,0:1:0:0:
256,192,79908,12,0,80654,0:0:0:0:
396,163,80778,5,8,0:1:0:0:
396,163,81027,1,8,0:1:0:0:
256,192,81151,12,0,81649,0:0:0:0:
117,78,81773,5,8,0:1:0:0:
256,192,81897,12,0,82643,0:0:0:0:
248,335,82767,5,8,0:1:0:0:
248,335,83016,1,8,0:1:0:0:
256,192,83140,12,0,83638,0:0:0:0:
227,52,83762,5,8,0:1:0:0:
256,192,83886,12,0,84629,0:0:0:0:
391,236,84753,5,10,0:0:0:0:
391,236,85000,1,0,0:0:0:0:
391,236,85248,1,2,0:0:0:0:
391,236,85742,1,2,0:0:0:0:
391,236,86237,1,2,0:0:0:0:
391,236,86732,1,2,0:0:0:0:
391,236,86979,1,0,0:0:0:0:
391,236,87226,1,2,0:0:0:0:
374,158,87474,1,2,0:0:0:0:
409,315,87721,1,14,0:0:0:0:
252,350,87968,1,10,0:0:0:0:
409,315,88215,6,0,L|488:300,1,80,6|0,0:0|0:0,0:0:0:0:
374,158,88702,1,8,0:0:0:0:
374,158,88946,1,8,0:0:0:0:
296,140,89190,1,2,0:0:0:0:
296,140,89678,1,8,0:0:0:0:
428,99,89922,1,0,0:0:0:0:
398,234,90166,6,0,L|423:312,1,80,2|0,0:0|0:0,0:0:0:0:
374,158,90654,1,8,0:0:0:0:
374,158,90897,1,8,0:0:0:0:
243,200,91141,1,2,0:0:0:0:
321,216,91385,1,0,0:0:0:0:
272,62,91629,1,8,0:0:0:0:
220,122,91873,1,0,0:0:0:0:
374,158,92117,6,0,P|413:158|450:142,1,80,2|0,0:0|0:0,0:0:0:0:
479,67,92605,1,8,0:0:0:0:
479,67,92849,1,8,0:0:0:0:
512,215,93093,1,2,0:0:0:0:
364,248,93336,1,0,0:0:0:0:
331,100,93580,1,8,0:0:0:0:
331,100,93824,1,0,0:0:0:0:
425,156,94068,6,0,L|346:175,1,80,2|0,0:0|0:0,0:0:0:0:
175,220,94556,1,8,0:0:0:0:
175,220,94800,1,8,0:0:0:0:
253,239,95044,1,2,0:0:0:0:
97,201,95288,1,0,0:0:0:0:
141,355,95532,1,8,0:0:0:0:
253,239,95775,1,8,0:0:0:0:
253,239,95897,1,0,0:0:0:0:
253,239,96019,6,0,P|268:202|269:162,1,80,4|0,0:0|0:0,0:0:0:0:
38,74,96527,1,8,0:0:0:0:
38,74,96781,1,8,0:0:0:0:
181,11,97035,1,2,0:0:0:0:
260,31,97279,1,0,0:0:0:0:
202,88,97523,1,8,0:0:0:0:
202,88,98012,5,2,0:0:0:0:
225,165,98256,1,0,0:0:0:0:
181,11,98501,1,8,0:0:0:0:
181,11,98745,1,8,0:0:0:0:
225,165,98990,2,0,L|248:243,1,80,2|0,0:0|0:0,0:0:0:0:
202,88,99478,1,8,0:0:0:0:
202,88,99723,1,0,0:0:0:0:
247,241,99973,6,0,L|270:319,1,80,2|0,0:0|0:0,0:0:0:0:
352,208,100460,1,8,0:0:0:0:
352,208,100704,1,8,0:0:0:0:
247,241,100948,1,2,0:0:0:0:
147,273,101192,1,0,0:0:0:0:
147,273,101436,2,0,L|167:352,1,80,8|0,0:0|0:0,0:0:0:0:
122,184,101924,6,0,L|101:104,1,80,2|0,0:0|0:0,0:0:0:0:
82,29,102412,1,8,0:0:0:0:
82,29,102655,1,8,0:0:0:0:
186,135,102899,1,2,0:0:0:0:
41,172,103143,1,0,0:0:0:0:
82,29,103387,2,0,L|102:108,1,80,8|0,0:0|0:0,0:0:0:0:
147,273,103875,5,6,0:0:0:0:
379,324,104362,1,8,0:0:0:0:
379,324,104605,1,8,0:0:0:0:
334,255,104849,2,0,L|353:168,1,80,2|0,0:0|0:0,0:0:0:0:
369,98,105336,1,8,0:0:0:0:
411,234,105580,1,0,0:0:0:0:
271,202,105823,5,2,0:0:0:0:
351,177,106067,1,0,0:0:0:0:
326,301,106311,1,8,0:0:0:0:
326,301,106554,1,8,0:0:0:0:
197,339,106798,2,0,L|117:361,1,80,2|0,0:0|0:0,0:0:0:0:
194,224,107285,2,0,L|273:201,1,80,8|0,0:0|0:0,0:0:0:0:
110,249,107772,5,2,0:0:0:0:
85,165,108016,1,0,0:0:0:0:
245,117,108259,1,8,0:0:0:0:
245,117,108503,1,8,0:0:0:0:
293,277,108747,2,0,L|370:255,1,80,2|0,0:0|0:0,0:0:0:0:
216,299,109112,2,0,L|293:277,1,80
314,352,109477,1,0,0:0:0:0:
129,189,109721,5,2,0:0:0:0:
205,168,109965,1,0,0:0:0:0:
53,211,110208,1,8,0:0:0:0:
53,211,110452,1,8,0:0:0:0:
129,189,110695,2,0,L|151:266,1,80,2|0,0:0|0:0,0:0:0:0:
106,109,111183,1,8,0:0:0:0:
275,147,111426,1,0,0:0:0:0:
150,265,111670,6,0,P|153:305|171:341,1,80,6|0,0:0|0:0,0:0:0:0:
313,380,112163,1,10,0:0:0:0:
313,380,112410,1,8,0:0:0:0:
355,225,112657,1,2,0:0:0:0:
335,301,112904,1,2,0:0:0:0:
376,144,113151,1,8,0:0:0:0:
396,68,113398,1,2,0:0:0:0:
283,170,113645,6,0,L|262:247,1,80,2|0,0:0|0:0,0:0:0:0:
305,88,114127,1,10,0:0:0:0:
305,88,114369,1,8,0:0:0:0:
225,68,114610,1,2,0:0:0:0:
183,223,114852,1,2,0:0:0:0:
28,181,115093,1,8,0:0:0:0:
70,26,115335,1,2,0:0:0:0:
130,114,115576,6,0,P|112:149|109:189,1,80,6|0,0:0|0:0,0:0:0:0:
149,344,116067,1,10,0:0:0:0:
149,344,116313,1,8,0:0:0:0:
129,269,116559,1,2,0:0:0:0:
204,249,116798,1,2,0:0:0:0:
109,189,117037,1,8,0:0:0:0:
34,209,117276,1,2,0:0:0:0:
279,229,117515,6,0,L|356:208,1,80,2|0,0:0|0:0,0:0:0:0:
512,168,117993,1,10,0:0:0:0:
398,54,118232,1,8,0:0:0:0:
356,208,118471,1,6,0:0:0:0:
111,125,118710,5,8,0:0:0:0:
111,125,118829,1,0,0:0:0:0:
111,125,118949,1,8,0:0:0:0:
111,125,119068,1,0,0:0:0:0:
111,125,119188,1,8,0:0:0:0:
111,125,119308,1,0,0:0:0:0:
111,125,119427,1,4,0:0:0:0:
256,192,119547,12,4,124088,1:2:0:0:
