osu file format v14

[General]
AudioFilename: audio.mp3
AudioLeadIn: 0
PreviewTime: 1086
Countdown: 0
SampleSet: Soft
StackLeniency: 0.4
Mode: 0
LetterboxInBreaks: 0
WidescreenStoryboard: 1

[Editor]
Bookmarks: 1547,5434,17630,25434,41068,48864,72378,88211,93078,111684,119454
DistanceSpacing: 1
BeatDivisor: 4
GridSize: 4
TimelineZoom: 2.899999

[Metadata]
Title:Ocean Man
TitleUnicode:Ocean Man
Artist:Ween
ArtistUnicode:Ween
Creator:Mismagius
Version:Hard
Source:
Tags:english alternative indie rock pop the mollusk spongebob squarepants movie credits ending nyantiaz intiaz
BeatmapID:3912854
BeatmapSetID:821880

[Difficulty]
HPDrainRate:4
CircleSize:4
OverallDifficulty:6.9
ApproachRate:7
SliderMultiplier:1.6
SliderTickRate:1

[Events]
//Background and Video events
0,0,"wallhaven-181461.png",0,0
//Break Periods
//Storyboard Layer 0 (Background)
//Storyboard Layer 1 (Fail)
//Storyboard Layer 2 (Pass)
//Storyboard Layer 3 (Foreground)
//Storyboard Layer 4 (Overlay)
//Storyboard Sound Samples

[TimingPoints]
142,472.440944881889,4,2,0,100,1,0
2031,483.870967741935,4,2,0,100,1,0
5899,487.012987012987,4,2,0,100,1,0
9796,489.795918367347,4,2,0,100,1,0
17630,487.012987012987,4,2,0,100,1,0
25424,491.803278688525,4,2,0,100,1,0
29358,488.997555012225,4,2,0,100,1,0
37181,485.82995951417,4,2,0,100,1,0
41067,489.795918367347,4,2,0,100,1,0
44985,493.624023035788,4,2,0,100,1,0
46959,481.734243275793,4,2,0,100,1,0
48404,454.545454545455,4,2,0,100,1,0
48859,489.795918367347,4,2,0,100,1,0
56692,491.561527117811,4,2,0,100,1,0
64556,495.867768595041,4,2,0,100,1,0
66291,-99.502487562189,4,2,0,100,0,0
66539,487.80487804878,4,2,0,100,1,0
68490,490.998363338789,4,2,0,100,1,0
71435,466.926070038911,4,2,0,100,1,0
72369,491.803278688525,4,2,0,100,1,0
76303,497.30625777041,4,2,0,100,1,0
84259,494.641384995878,4,2,0,100,1,0
88215,487.80487804878,4,2,0,100,1,0
96019,508.474576271186,4,2,0,100,1,0
97035,488.798370672098,4,2,0,100,1,0
99973,487.80487804878,4,2,0,100,1,0
103875,487.21071863581,4,2,0,100,1,0
111670,493.827160493827,4,2,0,100,1,0
113645,482.897384305835,4,2,0,100,1,0
115576,491.803278688525,4,2,0,100,1,0
116559,478.08764940239,4,2,0,100,1,0

[Colours]
Combo1 : 203,186,160
Combo2 : 109,182,99
Combo3 : 148,169,205

[HitObjects]
134,72,142,6,0,L|140:126,3,40,8|8|0|0,0:0|0:0|0:0|0:0,0:0:0:0:
40,87,614,2,0,L|34:141,3,40,8|8|0|0,0:0|0:0|0:0|0:0,0:0:0:0:
86,194,1086,5,8,0:0:0:0:
121,202,1204,1,8,0:0:0:0:
156,210,1323,1,0,0:0:0:0:
191,218,1441,1,0,0:0:0:0:
226,226,1559,1,8,0:0:0:0:
261,234,1677,1,8,0:0:0:0:
296,242,1795,1,0,0:0:0:0:
331,250,1913,1,0,0:0:0:0:
368,258,2031,6,0,L|462:242,1,80,6|0,0:0|0:0,0:0:0:0:
490,158,2514,1,8,0:0:0:0:
490,158,2756,1,8,0:0:0:0:
430,82,2998,1,2,0:0:0:0:
368,155,3240,1,0,0:0:0:0:
285,106,3482,2,0,P|233:108|201:125,1,80,8|0,0:0|0:0,0:0:0:0:
175,29,3966,6,0,P|122:57|22:46,1,160,2|8,0:0|0:0,0:0:0:0:
47,141,4692,1,8,0:0:0:0:
5,227,4934,2,0,P|61:250|83:262,1,80,2|0,0:0|0:0,0:0:0:0:
150,195,5418,2,0,P|206:172|228:160,1,80,8|0,0:0|0:0,0:0:0:0:
270,79,5899,5,2,0:0:0:0:
310,266,6386,1,8,0:0:0:0:
399,300,6629,1,8,0:0:0:0:
488,334,6873,2,0,L|504:249,1,80,2|0,0:0|0:0,0:0:0:0:
399,300,7360,2,0,L|415:215,1,80,8|0,0:0|0:0,0:0:0:0:
480,152,7847,5,2,0:0:0:0:
480,152,8090,1,0,0:0:0:0:
439,70,8334,1,8,0:0:0:0:
439,70,8577,1,8,0:0:0:0:
356,119,8821,2,0,P|286:130|249:137,1,80,2|0,0:0|0:0,0:0:0:0:
209,63,9308,2,0,P|139:74|102:81,1,80,8|0,0:0|0:0,0:0:0:0:
57,13,9796,6,0,P|34:54|68:157,1,160,2|8,0:0|0:0,0:0:0:0:
154,194,10530,1,8,0:0:0:0:
84,259,10775,2,0,P|108:323|119:356,1,80,2|0,0:0|0:0,0:0:0:0:
200,367,11265,2,0,P|224:303|235:270,1,80,8|0,0:0|0:0,0:0:0:0:
301,229,11755,5,2,0:0:0:0:
389,193,12000,1,0,0:0:0:0:
382,288,12244,1,8,0:0:0:0:
382,288,12489,1,8,0:0:0:0:
472,319,12734,2,0,P|493:246|500:226,1,80,2|0,0:0|0:0,0:0:0:0:
461,151,13224,2,0,P|482:78|489:58,1,80,8|0,0:0|0:0,0:0:0:0:
400,25,13714,5,2,0:0:0:0:
347,104,13959,1,0,0:0:0:0:
267,50,14204,1,8,0:0:0:0:
267,50,14449,2,0,P|209:33|93:32,1,160,8|0,0:0|0:0,0:0:0:0:
37,91,15183,2,0,P|40:136|67:178,1,80,8|0,0:0|0:0,0:0:0:0:
151,151,15673,6,0,P|149:200|125:246,1,80,2|0,0:0|0:0,0:0:0:0:
66,292,16163,1,8,0:0:0:0:
143,348,16408,2,0,L|241:380,1,80,8|2,0:0|0:0,0:0:0:0:
275,294,16898,2,0,P|323:291|376:260,2,80,0|8|0,0:0|0:0|0:0,0:0:0:0:
199,234,17630,5,6,0:0:0:0:
48,115,18117,1,10,0:0:0:0:
79,24,18360,1,8,0:0:0:0:
153,84,18604,2,0,P|209:54|318:52,1,160,2|8,0:0|0:0,0:0:0:0:
398,68,19334,1,2,0:0:0:0:
330,136,19578,6,0,P|274:166|165:168,1,160,2|10,0:0|0:0,0:0:0:0:
87,141,20308,1,8,0:0:0:0:
29,218,20552,2,0,P|42:280|54:320,1,80,2|2,0:0|0:0,0:0:0:0:
126,349,21039,2,0,P|139:287|151:247,1,80,8|2,0:0|0:0,0:0:0:0:
230,230,21526,5,2,0:0:0:0:
321,200,21769,1,0,0:0:0:0:
347,292,22013,1,10,0:0:0:0:
347,292,22256,2,0,P|396:304|438:321,2,80,8|2|2,0:0|0:0|0:0,0:0:0:0:
264,242,22987,2,0,P|215:254|173:271,1,80,8|2,0:0|0:0,0:0:0:0:
137,346,23474,6,0,P|97:295|131:184,1,160,2|10,0:0|0:0,0:0:0:0:
74,115,24204,1,8,0:0:0:0:
150,57,24448,2,0,P|203:74|236:82,1,80,2|0,0:0|0:0,0:0:0:0:
302,21,24935,5,10,0:0:0:0:
334,110,25178,1,2,0:0:0:0:
409,51,25424,1,6,0:0:0:0:
485,226,25915,5,8,0:0:0:0:
395,262,26161,1,8,0:0:0:0:
397,166,26407,2,0,P|336:155|303:158,1,80,2|0,0:0|0:0,0:0:0:0:
231,113,26899,2,0,P|121:130|70:113,1,160,8|2,0:0|0:0,0:0:0:0:
11,187,27637,5,0,0:0:0:0:
34,279,27883,1,8,0:0:0:0:
119,235,28128,1,8,0:0:0:0:
141,328,28374,2,0,P|191:347|225:368,2,80,2|0|8,0:0|0:0|0:0,0:0:0:0:
8,188,29358,6,0,L|25:101,1,80,2|0,0:0|0:0,0:0:0:0:
69,25,29846,1,8,0:0:0:0:
69,25,30091,1,8,0:0:0:0:
139,89,30335,2,0,P|171:100|235:92,1,80,2|0,0:0|0:0,0:0:0:0:
293,40,30824,2,0,P|356:37|448:92,1,160,8|2,0:0|0:0,0:0:0:0:
489,164,31558,5,0,0:0:0:0:
410,219,31802,1,8,0:0:0:0:
410,219,32047,1,8,0:0:0:0:
354,140,32291,2,0,P|295:132|240:131,1,80,2|0,0:0|0:0,0:0:0:0:
222,211,32780,2,0,P|182:208|142:201,1,80,8|0,0:0|0:0,0:0:0:0:
110,110,33269,6,0,P|50:187|66:251,1,160,6|8,0:0|0:0,0:0:0:0:
90,333,34003,1,8,0:0:0:0:
169,278,34247,2,0,P|182:338|174:369,1,80,2|0,0:0|0:0,0:0:0:0:
76,384,34736,2,0,P|63:324|71:293,1,80,8|0,0:0|0:0,0:0:0:0:
93,214,35225,6,0,L|183:190,1,80,2|0,0:0|0:0,0:0:0:0:
231,118,35714,1,8,0:0:0:0:
231,118,35959,1,8,0:0:0:0:
187,32,36203,2,0,P|115:20|29:55,1,160,2|8,0:0|0:0,0:0:0:0:
13,241,37181,6,0,P|54:261|103:257,1,80,2|0,0:0|0:0,0:0:0:0:
134,177,37666,1,8,0:0:0:0:
134,177,37909,1,8,0:0:0:0:
211,120,38152,2,0,P|252:105|373:164,1,160,2|8,0:0|0:0,0:0:0:0:
408,223,38881,1,0,0:0:0:0:
321,264,39124,6,0,P|317:304|324:349,1,80,2|0,0:0|0:0,0:0:0:0:
415,367,39610,1,8,0:0:0:0:
415,367,39853,1,8,0:0:0:0:
503,331,40095,2,0,P|507:291|500:246,1,80,2|0,0:0|0:0,0:0:0:0:
447,172,40581,1,8,0:0:0:0:
368,227,40824,1,8,0:0:0:0:
298,171,41067,5,6,0:0:0:0:
160,304,41556,1,10,0:0:0:0:
160,304,41801,1,8,0:0:0:0:
71,266,42046,2,0,P|54:211|61:159,1,80,2|2,0:0|0:0,0:0:0:0:
3,107,42536,2,0,P|29:56|71:24,1,80,8|2,0:0|0:0,0:0:0:0:
138,67,43026,6,0,P|172:102|293:96,1,160,2|10,0:0|0:0,0:0:0:0:
324,21,43760,1,8,0:0:0:0:
418,34,44005,2,0,P|424:81|420:126,1,80,2|2,0:0|0:0,0:0:0:0:
350,178,44495,1,8,0:0:0:0:
432,226,44740,1,2,0:0:0:0:
387,311,44985,6,0,P|330:322|291:340,1,80,6|0,0:0|0:0,0:0:0:0:
260,247,45478,1,10,0:0:0:0:
260,247,45725,1,8,0:0:0:0:
174,289,45972,2,0,L|158:376,1,80,2|2,0:0|0:0,0:0:0:0:
69,333,46465,2,0,L|53:246,1,80,8|2,0:0|0:0,0:0:0:0:
7,170,46959,6,0,P|53:154|148:215,1,160,2|10,0:0|0:0,0:0:0:0:
215,141,47681,1,8,0:0:0:0:
272,217,47922,2,0,L|361:198,1,80,2|2,0:0|0:0,0:0:0:0:
401,119,48404,1,8,0:0:0:0:
411,92,48517,1,0,0:0:0:0:
421,66,48631,1,8,0:0:0:0:
431,40,48744,1,0,0:0:0:0:
442,14,48859,5,2,0:0:0:0:
266,90,49348,2,0,P|198:51|110:71,2,160,2|2|8,0:0|0:0|0:0,0:0:0:0:
320,169,50573,1,0,0:0:0:0:
288,259,50818,2,0,L|175:238,1,80,2|0,0:0|0:0,0:0:0:0:
136,182,51307,2,0,L|23:161,1,80,10|8,0:0|0:0,0:0:0:0:
18,255,51797,5,2,0:0:0:0:
18,255,51920,1,0,0:0:0:0:
18,255,52042,1,0,0:0:0:0:
106,292,52287,2,0,P|121:349|117:381,1,80,10|2,0:0|0:0,0:0:0:0:
207,330,52777,2,0,B|281:300|282:373|362:341,1,160,2|10,0:0|0:0,0:0:0:0:
452,316,53512,1,10,0:0:0:0:
452,316,53634,1,0,0:0:0:0:
452,316,53756,2,0,P|440:263|452:218,1,80,2|2,0:0|0:0,0:0:0:0:
493,156,54246,1,10,0:0:0:0:
440,75,54491,2,0,P|391:105|269:93,1,160,2|0,0:0|0:0,0:0:0:0:
232,27,55226,5,8,0:0:0:0:
232,27,55471,1,10,0:0:0:0:
178,106,55716,2,0,L|194:205,1,80,2|0,0:0|0:0,0:0:0:0:
100,152,56205,2,0,L|108:201,2,40,10|0|2,0:0|0:0|0:0,0:0:0:0:
34,78,56692,5,4,0:0:0:0:
214,11,57183,2,0,L|312:26,1,80,8|10,0:0|0:0,0:0:0:0:
371,78,57675,2,0,L|469:93,1,80,2|2,0:0|0:0,0:0:0:0:
471,133,58043,2,0,L|373:148,1,80,2|2,0:0|0:0,0:0:0:0:
371,188,58412,2,0,L|469:203,2,80,2|2|2,0:0|0:0|0:0,0:0:0:0:
337,278,59149,2,0,L|239:293,1,80,10|10,0:0|0:0,0:0:0:0:
178,344,59641,5,2,0:0:0:0:
178,344,59764,1,0,0:0:0:0:
178,344,59887,1,2,0:0:0:0:
85,318,60132,2,0,P|77:271|85:230,1,80,10|0,0:0|0:0,0:0:0:0:
146,167,60624,6,0,P|216:181|283:128,1,160,2|10,0:0|0:0,0:0:0:0:
316,40,61361,1,10,0:0:0:0:
316,40,61484,1,0,0:0:0:0:
316,40,61607,2,0,L|395:23,1,80,2|2,0:0|0:0,0:0:0:0:
473,77,62099,1,10,0:0:0:0:
434,164,62344,2,0,L|262:200,1,160,2|0,0:0|0:0,0:0:0:0:
205,261,63082,6,0,P|194:318|201:357,1,80,8|10,0:0|0:0,0:0:0:0:
100,340,63573,2,0,P|101:300|91:261,1,80,2|0,0:0|0:0,0:0:0:0:
19,197,64065,1,10,0:0:0:0:
105,156,64311,1,0,0:0:0:0:
32,86,64556,5,6,0:0:0:0:
206,6,65051,1,10,0:0:0:0:
253,89,65299,1,10,0:0:0:0:
253,89,65423,1,0,0:0:0:0:
253,89,65547,2,0,L|348:76,1,80,2|2,0:0|0:0,0:0:0:0:
400,10,66043,1,10,0:0:0:0:
474,70,66291,6,0,B|506:151|435:145|470:233,1,160,2|0,0:0|0:0,0:0:0:0:
500,314,67026,1,10,0:0:0:0:
500,314,67270,1,10,0:0:0:0:
405,298,67514,2,0,L|305:325,1,80,2|2,0:0|0:0,0:0:0:0:
327,222,68002,2,0,L|227:249,1,80,10|2,0:0|0:0,0:0:0:0:
228,149,68490,6,0,P|144:167|67:122,1,160,6|10,0:0|0:0,0:0:0:0:
28,55,69226,1,10,0:0:0:0:
28,55,69349,1,0,0:0:0:0:
28,55,69471,2,0,L|114:27,1,80,2|2,0:0|0:0,0:0:0:0:
193,66,69962,1,10,0:0:0:0:
282,31,70208,1,2,0:0:0:0:
313,120,70453,5,2,0:0:0:0:
402,85,70699,2,0,P|393:168|442:256,1,160,2|2,0:0|0:0,0:0:0:0:
501,291,71435,1,2,0:0:0:0:
427,352,71668,5,8,0:0:0:0:
395,345,71785,1,0,0:0:0:0:
363,338,71901,1,8,0:0:0:0:
331,332,72018,1,0,0:0:0:0:
299,326,72135,2,0,L|241:315,1,40,8|0,0:0|0:0,0:0:0:0:
187,303,72369,5,4,0:0:0:0:
129,194,72860,5,8,0:1:0:0:
129,194,73106,1,8,0:1:0:0:
290,89,73844,5,8,0:1:0:0:
42,21,74828,5,8,0:1:0:0:
42,21,75073,1,8,0:1:0:0:
173,156,75811,5,8,0:1:0:0:
19,359,76800,5,8,0:1:0:0:
19,359,77048,1,8,0:1:0:0:
45,168,77794,5,8,0:1:0:0:
270,284,78789,5,8,0:1:0:0:
270,284,79038,1,8,0:1:0:0:
434,192,79784,5,8,0:1:0:0:
222,47,80778,5,8,0:1:0:0:
222,47,81027,1,8,0:1:0:0:
325,216,81773,5,8,0:1:0:0:
76,199,82767,5,8,0:1:0:0:
76,199,83016,1,8,0:1:0:0:
239,96,83762,5,8,0:1:0:0:
209,350,84753,5,10,0:0:0:0:
209,350,85000,1,8,0:1:0:0:
281,286,85248,6,0,L|376:316,1,80,2|0,0:0|0:0,0:0:0:0:
327,218,85742,2,0,L|422:248,1,80,10|0,0:1|0:0,0:0:0:0:
373,150,86237,2,0,L|468:180,1,80,2|0,0:0|0:0,0:0:0:0:
449,77,86732,5,10,0:1:0:0:
449,77,86979,1,8,0:1:0:0:
263,125,87474,5,2,0:0:0:0:
175,86,87721,1,14,0:0:0:0:
143,176,87968,1,10,0:0:0:0:
47,158,88215,6,0,P|29:227|46:324,1,160,6|8,0:0|0:0,0:0:0:0:
119,370,88946,1,8,0:0:0:0:
182,298,89190,2,0,L|275:267,1,80,2|0,0:0|0:0,0:0:0:0:
319,346,89678,2,0,L|412:315,1,80,8|0,0:0|0:0,0:0:0:0:
487,295,90166,6,0,P|431:237|350:240,1,160,2|8,0:0|0:0,0:0:0:0:
262,213,90897,1,8,0:0:0:0:
283,119,91141,2,0,P|296:66|290:26,1,80,2|0,0:0|0:0,0:0:0:0:
199,22,91629,2,0,P|187:60|188:99,1,80,8|0,0:0|0:0,0:0:0:0:
97,132,92117,5,2,0:0:0:0:
135,219,92361,1,0,0:0:0:0:
65,285,92605,2,0,L|87:378,1,80,8|8,0:0|0:0,0:0:0:0:
171,323,93093,1,2,0:0:0:0:
249,378,93336,1,0,0:0:0:0:
306,301,93580,2,0,P|345:295|396:310,1,80,8|0,0:0|0:0,0:0:0:0:
459,364,94068,6,0,L|488:201,1,160,2|8,0:0|0:0,0:0:0:0:
397,170,94800,1,8,0:0:0:0:
467,104,95044,2,0,L|481:22,1,80,2|0,0:0|0:0,0:0:0:0:
387,48,95532,5,8,0:0:0:0:
292,31,95775,1,8,0:0:0:0:
292,31,95897,1,0,0:0:0:0:
292,31,96019,6,0,P|244:61|122:37,1,160,4|8,0:0|0:0,0:0:0:0:
58,9,96781,1,8,0:0:0:0:
12,93,97035,2,0,P|13:144|31:177,1,80,2|0,0:0|0:0,0:0:0:0:
111,212,97523,2,0,P|162:211|195:193,1,80,8|0,0:0|0:0,0:0:0:0:
264,141,98012,6,0,P|315:142|348:160,1,80,2|0,0:0|0:0,0:0:0:0:
383,240,98501,1,8,0:0:0:0:
383,240,98745,1,8,0:0:0:0:
337,324,98990,2,0,P|300:338|260:337,1,80,2|0,0:0|0:0,0:0:0:0:
175,381,99478,2,0,P|163:320|226:239,1,160,8|2,0:0|0:0,0:0:0:0:
308,217,100216,5,0,0:0:0:0:
238,150,100460,2,0,L|149:131,1,80,8|8,0:0|0:0,0:0:0:0:
113,48,100948,2,0,L|24:29,2,80,2|0|8,0:0|0:0|0:0,0:0:0:0:
299,2,101924,6,0,P|314:47|307:90,1,80,2|0,0:0|0:0,0:0:0:0:
248,152,102412,1,8,0:0:0:0:
248,152,102655,1,8,0:0:0:0:
321,213,102899,2,0,L|430:192,1,80,2|0,0:0|0:0,0:0:0:0:
384,292,103387,2,0,L|493:271,1,80,8|0,0:0|0:0,0:0:0:0:
437,369,103875,5,6,0:0:0:0:
475,181,104362,1,8,0:0:0:0:
475,181,104605,1,8,0:0:0:0:
436,92,104849,2,0,P|394:74|353:76,1,80,2|0,0:0|0:0,0:0:0:0:
284,14,105336,2,0,P|266:56|268:97,1,80,8|0,0:0|0:0,0:0:0:0:
327,163,105823,5,2,0:0:0:0:
351,255,106067,1,0,0:0:0:0:
272,310,106311,2,0,P|217:311|178:314,1,80,8|8,0:0|0:0,0:0:0:0:
125,382,106798,2,0,P|96:330|130:229,1,160,2|8,0:0|0:0,0:0:0:0:
198,181,107529,1,0,0:0:0:0:
150,97,107772,6,0,P|91:81|52:77,1,80,2|0,0:0|0:0,0:0:0:0:
132,2,108259,1,8,0:0:0:0:
223,32,108503,1,8,0:0:0:0:
249,124,108747,6,0,P|307:104|410:76,1,160,2|8,0:0|0:0,0:0:0:0:
474,14,109477,1,0,0:0:0:0:
501,105,109721,6,0,P|488:160|477:209,1,80,2|0,0:0|0:0,0:0:0:0:
386,192,110208,1,8,0:0:0:0:
386,192,110452,1,8,0:0:0:0:
424,279,110695,2,0,P|411:334|400:383,2,80,2|0|8,0:0|0:0|0:0,0:0:0:0:
334,316,111426,1,0,0:0:0:0:
265,247,111670,6,0,L|90:288,1,160,6|10,0:0|0:0,0:0:0:0:
23,240,112410,1,8,0:0:0:0:
98,180,112657,2,0,P|111:141|105:95,1,80,2|2,0:0|0:0,0:0:0:0:
30,45,113151,2,0,P|17:84|23:130,1,80,8|2,0:0|0:0,0:0:0:0:
98,180,113645,6,0,P|164:170|245:220,1,160,2|10,0:0|0:0,0:0:0:0:
257,310,114369,1,8,0:0:0:0:
346,346,114610,2,0,P|407:328|442:320,1,80,2|2,0:0|0:0,0:0:0:0:
479,246,115093,1,8,0:0:0:0:
409,179,115335,1,2,0:0:0:0:
320,215,115576,6,0,P|306:173|316:123,1,80,6|0,0:0|0:0,0:0:0:0:
367,60,116067,1,10,0:0:0:0:
367,60,116313,1,8,0:0:0:0:
281,15,116559,2,0,L|199:5,1,80,2|2,0:0|0:0,0:0:0:0:
144,82,117037,2,0,L|62:72,1,80,8|2,0:0|0:0,0:0:0:0:
17,157,117515,6,0,P|48:221|70:318,1,160,2|10,0:0|0:0,0:0:0:0:
145,365,118232,1,8,0:0:0:0:
206,291,118471,2,0,L|295:266,1,80,6|8,0:0|0:0,0:0:0:0:
306,263,118829,1,0,0:0:0:0:
329,257,118949,1,8,0:0:0:0:
352,251,119068,1,0,0:0:0:0:
375,245,119188,1,8,0:0:0:0:
398,239,119308,1,0,0:0:0:0:
419,233,119427,5,4,0:0:0:0:
256,192,119547,12,4,124088,1:2:0:0:
