osu file format v14

[General]
AudioFilename: audio.mp3
AudioLeadIn: 0
PreviewTime: 1086
Countdown: 0
SampleSet: None
StackLeniency: 0.4
Mode: 0
LetterboxInBreaks: 0
WidescreenStoryboard: 1

[Editor]
DistanceSpacing: 1
BeatDivisor: 4
GridSize: 32
TimelineZoom: 2.899999

[Metadata]
Title:Ocean Man
TitleUnicode:Ocean Man
Artist:Ween
ArtistUnicode:Ween
Creator:Mismagius
Version:Easy
Source:
Tags:english alternative indie rock pop the mollusk spongebob squarepants movie credits ending nyantiaz intiaz
BeatmapID:3974590
BeatmapSetID:821880

[Difficulty]
HPDrainRate:2
CircleSize:3
OverallDifficulty:3
ApproachRate:3
SliderMultiplier:0.8
SliderTickRate:1

[Events]
//Background and Video events
0,0,"wallhaven-181461.png",0,0
//Break Periods
2,72569,82819
//Storyboard Layer 0 (Background)
//Storyboard Layer 1 (Fail)
//Storyboard Layer 2 (Pass)
//Storyboard Layer 3 (Foreground)
//Storyboard Layer 4 (Overlay)
//Storyboard Sound Samples

[TimingPoints]
142,472.440944881889,4,2,0,100,1,0
2031,483.870967741935,4,2,0,100,1,0
5899,487.012987012987,4,2,0,100,1,0
9796,489.795918367347,4,2,0,100,1,0
17630,487.012987012987,4,2,0,100,1,0
25424,491.803278688525,4,2,0,100,1,0
29358,488.997555012225,4,2,0,100,1,0
37181,485.82995951417,4,2,0,100,1,0
41067,489.795918367347,4,2,0,100,1,0
44985,493.624023035788,4,2,0,100,1,0
46959,481.734243275793,4,2,0,100,1,0
48404,454.545454545455,4,2,0,100,1,0
48859,489.795918367347,4,2,0,100,1,0
56692,491.561527117811,4,2,0,100,1,0
64556,495.867768595041,4,2,0,100,1,0
66539,487.80487804878,4,2,0,100,1,0
68490,490.998363338789,4,2,0,100,1,0
71435,466.926070038911,4,2,0,100,1,0
72369,491.803278688525,4,2,0,100,1,0
76303,497.30625777041,4,2,0,100,1,0
84259,494.641384995878,4,2,0,100,1,0
88215,487.80487804878,4,2,0,100,1,0
96019,508.474576271186,4,2,0,100,1,0
97035,488.798370672098,4,2,0,100,1,0
99973,487.80487804878,4,2,0,100,1,0
103875,487.21071863581,4,2,0,100,1,0
111670,493.827160493827,4,2,0,100,1,0
113645,482.897384305835,4,2,0,100,1,0
115576,491.803278688525,4,2,0,100,1,0
116559,478.08764940239,4,2,0,100,1,0

[Colours]
Combo1 : 203,186,160
Combo2 : 109,182,99
Combo3 : 148,169,205

[HitObjects]
339,257,142,6,0,P|302:295|194:291,1,160,8|8,0:0|0:0,0:0:0:0:
149,233,1559,2,0,P|144:190|155:153,1,80,8|6,0:0|0:0,0:0:0:0:
233,16,2998,5,2,0:0:0:0:
271,86,3482,1,8,0:0:0:0:
346,60,3966,2,0,P|381:48|486:102,1,160,2|2,0:0|0:0,0:0:0:0:
501,177,5418,1,8,0:0:0:0:
440,327,6386,6,0,L|355:339,2,80,8|2|8,0:0|0:0|0:0,0:0:0:0:
426,248,7847,2,0,L|258:272,1,160,2|2,0:0|0:0,0:0:0:0:
211,213,9308,2,0,P|188:250|192:295,1,80,8|2,0:0|0:0,0:0:0:0:
47,361,10775,5,2,0:0:0:0:
16,286,11265,1,8,0:0:0:0:
52,214,11755,2,0,P|77:152|55:64,1,160,2|2,0:0|0:0,0:0:0:0:
124,23,13224,1,8,0:0:0:0:
180,79,13714,2,0,L|271:63,1,80,2|8,0:0|0:0,0:0:0:0:
417,46,15183,5,8,0:0:0:0:
466,108,15673,2,0,P|477:171|439:258,1,160,2|2,0:0|0:0,0:0:0:0:
360,266,17142,2,0,P|343:312|345:343,1,80,8|6,0:0|0:0,0:0:0:0:
166,328,18604,6,0,P|128:272|153:185,1,160,2|2,0:0|0:0,0:0:0:0:
217,143,20065,1,10,0:0:0:0:
285,183,20552,1,2,0:0:0:0:
355,144,21039,2,0,L|440:124,1,80,8|2,0:0|0:0,0:0:0:0:
307,25,22500,6,0,L|222:45,1,80,2|8,0:0|0:0,0:0:0:0:
206,120,23474,2,0,P|168:138|50:121,1,160,2|2,0:0|0:0,0:0:0:0:
18,194,24935,1,10,0:0:0:0:
46,268,25424,1,6,0:0:0:0:
203,241,26407,6,0,B|240:218|286:229|310:261|310:261|337:296|383:303|419:282,1,240,2|8,0:0|0:0,0:0:0:0:
478,230,28374,2,0,P|488:184|475:148,1,80,2|8,0:0|0:0,0:0:0:0:
377,28,29846,5,8,0:0:0:0:
327,91,30335,1,2,0:0:0:0:
254,57,30824,1,8,0:0:0:0:
147,176,31802,6,0,L|91:161,1,40,8|8,0:0|0:0,0:0:0:0:
62,276,32780,2,0,L|140:297,1,80,8|6,0:0|0:0,0:0:0:0:
282,368,34247,6,0,P|306:331|285:222,1,160,2|2,0:0|0:0,0:0:0:0:
216,183,35714,1,8,0:0:0:0:
254,112,36203,2,0,L|419:76,1,160,2|2,0:0|0:0,0:0:0:0:
479,118,37666,6,0,B|494:142|491:172|476:193|476:193|491:218|488:248|472:269|472:269|487:293|484:323|469:344,1,240,8|2,0:0|0:0,0:0:0:0:
390,328,39610,2,0,L|350:338,1,40,8|8,0:0|0:0,0:0:0:0:
248,276,40581,2,0,L|162:303,1,80,8|6,0:0|0:0,0:0:0:0:
32,220,42046,6,0,P|19:174|43:63,1,160,2|2,0:0|0:0,0:0:0:0:
110,25,43515,1,10,0:0:0:0:
170,77,44005,2,0,P|249:83|321:31,1,160,2|6,0:0|0:0,0:0:0:0:
448,127,45972,6,0,L|429:220,2,80,2|8|2,0:0|0:0|0:0,0:0:0:0:
298,183,47922,1,2,0:0:0:0:
254,110,48404,2,0,P|217:83|169:83,1,80,8|2,0:0|0:0,0:0:0:0:
150,7,49348,6,0,B|110:26|90:72|103:115|133:140|133:140|104:153|86:180|84:209,1,240,2|2,0:0|0:0,0:0:0:0:
99,279,51307,2,0,B|118:310|154:322|186:312|186:312|220:301|255:316|273:344|273:344|292:328|316:326,1,240,10|2,0:0|0:0,0:0:0:0:
385,302,53267,2,0,P|406:269|393:154,1,160,10|10,0:0|0:0,0:0:0:0:
340,93,54736,2,0,B|300:52|236:51|195:86|195:86|168:106|133:104|109:86,1,240,2|10,0:0|0:0,0:0:0:0:
13,211,57183,6,0,B|3:255|35:298|86:300|117:273|117:273|106:318|142:364|197:361|226:329,1,320,8|10,0:0|0:0,0:0:0:0:
273,274,59641,1,2,0:0:0:0:
238,201,60132,1,10,0:0:0:0:
281,133,60624,6,0,B|306:119|335:120|358:132|358:132|383:146|411:145|434:133|434:133|460:118|491:120|514:134,1,240,2|10,0:0|0:0,0:0:0:0:
474,203,62590,2,0,P|495:254|467:366,2,160,2|2|6,0:0|0:0|0:0,0:0:0:0:
424,140,65051,6,0,B|381:135|343:158|324:193|324:193|304:179|281:173|259:174,1,160,10|10,0:0|0:0,0:0:0:0:
222,225,66539,2,0,P|143:203|59:205,2,160,2|2|6,0:0|0:0|0:0,0:0:0:0:
256,192,69349,12,4,72369,0:0:0:0:
256,192,84259,12,2,87226,0:0:0:0:
392,53,88215,6,0,P|359:83|241:85,1,160,6|2,0:0|0:0,0:0:0:0:
186,38,89678,1,8,0:0:0:0:
117,78,90166,2,0,P|87:117|83:240,1,160,2|2,0:0|0:0,0:0:0:0:
112,296,91629,1,8,0:0:0:0:
189,276,92117,1,2,0:0:0:0:
313,175,93093,6,0,P|351:169|462:214,2,160,2|2|2,0:0|0:0|0:0,0:0:0:0:
261,235,95532,1,8,0:0:0:0:
194,196,96019,1,4,0:0:0:0:
32,235,97035,6,0,P|23:195|40:72,1,160,2|2,0:0|0:0,0:0:0:0:
100,29,98501,2,0,L|267:55,1,160,8|8,0:0|0:0,0:0:0:0:
415,88,100460,5,8,0:0:0:0:
493,105,100948,2,0,P|494:152|475:192,1,80,2|8,0:0|0:0,0:0:0:0:
427,240,101924,2,0,B|387:256|344:247|314:222|314:222|308:264|279:297|242:311|242:311|214:293|180:296|156:316,1,320,2|6,0:0|0:0,0:0:0:0:
36,214,104849,6,0,P|23:183|71:66,1,160,2|2,0:0|0:0,0:0:0:0:
133,32,106311,1,8,0:0:0:0:
169,103,106798,2,0,P|203:111|257:91,1,80,2|8,0:0|0:0,0:0:0:0:
391,33,108259,6,0,P|433:97|394:251,2,240,8|2|8,0:0|0:0|0:0,0:0:0:0:
329,82,111670,1,6,0:0:0:0:
180,23,112657,6,0,P|105:8|37:62,1,160,2|2,0:0|0:0,0:0:0:0:
11,128,114127,1,10,0:0:0:0:
67,184,114610,2,0,P|143:198|206:152,1,160,2|6,0:0|0:0,0:0:0:0:
331,46,116559,6,0,P|378:58|395:165,1,160,2|2,0:0|0:0,0:0:0:0:
364,226,117993,2,0,P|358:267|365:312,1,80,10|6,0:0|0:0,0:0:0:0:
418,362,118949,1,8,0:0:0:0:
480,311,119427,1,4,0:0:0:0:
256,192,119547,12,4,124088,1:2:0:0:
