osu file format v14

[General]
AudioFilename: audio.mp3
AudioLeadIn: 0
PreviewTime: 61711
Countdown: 1
SampleSet: Soft
StackLeniency: 0.3
Mode: 0
LetterboxInBreaks: 0
WidescreenStoryboard: 0

[Editor]
Bookmarks: 902,13874,26847,39819,52793,64145,65766,78739,91712,104685,117658,130631,143604,156577,169550,180901,182523,195496,197118,210091,223064,236037,249010
DistanceSpacing: 1
BeatDivisor: 8
GridSize: 32
TimelineZoom: 2.700001

[Metadata]
Title:Zeami
TitleUnicode:世阿弥
Artist:Wednesday Campanella
ArtistUnicode:水曜日のカンパネラ
Creator:Striderin
Version:Nounou to
Source:
Tags:SUPERMAN jpop j-pop japanese pop hiphop hip-hop
BeatmapID:1896650
BeatmapSetID:908851

[Difficulty]
HPDrainRate:6
CircleSize:5
OverallDifficulty:7.5
ApproachRate:8.6
SliderMultiplier:1
SliderTickRate:1

[Events]
//Background and Video events
0,0,"1521172540469-2.png",0,0
//Break Periods
//Storyboard Layer 0 (Background)
//Storyboard Layer 1 (Fail)
//Storyboard Layer 2 (Pass)
//Storyboard Layer 3 (Foreground)
//Storyboard Sound Samples

[TimingPoints]
902,405.405405405405,4,2,1,30,1,0
902,-66.6666666666667,4,2,18,30,0,0
1003,-66.6666666666667,4,2,1,30,0,0
3739,-66.6666666666667,4,2,18,30,0,0
3942,-66.6666666666667,4,2,1,30,0,0
4145,-66.6666666666667,4,2,20,30,0,0
4347,-66.6666666666667,4,2,1,30,0,0
6982,-66.6666666666667,4,2,22,30,0,0
7185,-66.6666666666667,4,2,1,30,0,0
7388,-66.6666666666667,4,2,18,30,0,0
7489,-66.6666666666667,4,2,1,30,0,0
10226,-66.6666666666667,4,2,20,30,0,0
10429,-66.6666666666667,4,2,1,30,0,0
10631,-66.6666666666667,4,2,15,30,0,0
10834,-66.6666666666667,4,2,1,30,0,0
13266,-66.6666666666667,4,2,20,30,0,0
13368,-66.6666666666667,4,2,1,30,0,0
13874,-133.333333333333,4,2,18,30,0,0
14179,-133.333333333333,4,2,1,30,0,0
14685,-66.6666666666667,4,2,1,30,0,0
15547,428.571428571429,4,2,1,30,1,0
15547,-66.6666666666667,4,2,1,30,0,0
16712,405.405405405405,4,2,18,30,1,0
16712,-133.333333333333,4,2,18,30,0,0
17117,405.405405405405,4,2,20,30,1,0
17117,-133.333333333333,4,2,20,30,0,0
17319,-133.333333333333,4,2,1,30,0,0
17522,-66.6666666666667,4,2,1,30,0,0
18738,-66.6666666666667,4,2,20,30,0,0
19144,-66.6666666666667,4,2,1,30,0,0
19954,-66.6666666666667,4,2,22,30,0,0
20157,-66.6666666666667,4,2,1,30,0,0
20360,-133.333333333333,4,2,18,30,0,0
20664,-133.333333333333,4,2,1,30,0,0
21171,-66.6666666666667,4,2,1,30,0,0
22015,405.405405405405,4,2,1,30,1,0
22015,-66.6666666666667,4,2,1,30,0,0
23198,405.405405405405,4,2,18,30,1,0
23198,-133.333333333333,4,2,18,30,0,0
23603,405.405405405405,4,2,15,30,1,0
23603,-133.333333333333,4,2,15,30,0,0
23805,-133.333333333333,4,2,1,30,0,0
24008,-66.6666666666667,4,2,1,30,0,0
25224,-66.6666666666667,4,2,10,30,0,0
25630,-66.6666666666667,4,2,1,30,0,0
26238,-66.6666666666667,4,2,20,30,0,0
26440,-66.6666666666667,4,2,1,30,0,0
26847,-66.6666666666667,4,2,18,55,0,0
27251,-66.6666666666667,4,2,1,55,0,0
28467,-66.6666666666667,4,2,18,55,0,0
28670,-66.6666666666667,4,2,1,55,0,0
29380,-66.6666666666667,4,2,96,5,0,0
29481,-66.6666666666667,4,2,1,55,0,0
29582,-66.6666666666667,4,2,96,5,0,0
29684,-66.6666666666667,4,2,20,55,0,0
29785,-66.6666666666667,4,2,96,5,0,0
29886,-66.6666666666667,4,2,1,55,0,0
29988,-66.6666666666667,4,2,96,5,0,0
30089,-66.6666666666667,4,2,15,55,0,0
30494,-66.6666666666667,4,2,1,55,0,0
31711,-66.6666666666667,4,2,13,55,0,0
31913,-66.6666666666667,4,2,1,55,0,0
32623,-66.6666666666667,4,2,96,5,0,0
32724,-66.6666666666667,4,2,1,55,0,0
32825,-66.6666666666667,4,2,96,5,0,0
32927,-66.6666666666667,4,2,1,55,0,0
33332,-66.6666666666667,4,2,11,55,0,0
33738,-66.6666666666667,4,2,1,55,0,0
34954,-66.6666666666667,4,2,11,55,0,0
35359,-66.6666666666667,4,2,1,55,0,0
36170,-66.6666666666667,4,2,20,55,0,0
36373,-66.6666666666667,4,2,1,55,0,0
36575,-66.6666666666667,4,2,18,55,0,0
36981,-66.6666666666667,4,2,1,55,0,0
39008,-50,4,2,1,55,0,0
39211,-50,4,2,10,55,0,0
39388,405.405405405405,4,2,1,55,1,0
39388,-50,4,2,1,55,0,0
39820,405.405405405405,4,2,15,80,1,0
39820,-50,4,2,15,80,0,0
40022,-50,4,2,1,80,0,0
42252,-50,4,2,13,80,0,0
42455,-50,4,2,1,80,0,0
42860,-50,4,2,15,80,0,0
43063,-50,4,2,1,80,0,0
45495,-50,4,2,13,80,0,0
45698,-50,4,2,1,80,0,0
46103,-50,4,2,11,80,0,0
46306,-50,4,2,1,80,0,0
48738,-50,4,2,13,80,0,0
48941,-50,4,2,1,80,0,0
49042,-50,4,2,13,80,0,0
49144,-50,4,2,1,80,0,0
49347,-50,4,2,15,80,0,0
49549,-50,4,2,1,80,0,0
51982,-50,4,2,13,80,0,0
52184,-50,4,2,1,80,0,0
52590,-50,4,2,11,80,0,0
52792,-50,4,2,1,90,0,0
55225,-50,4,2,13,90,0,0
55428,-50,4,2,1,90,0,0
55529,-50,4,2,13,90,0,0
55630,-50,4,2,1,90,0,0
55833,-50,4,2,15,90,0,0
56036,-50,4,2,1,90,0,0
58468,-50,4,2,13,90,0,0
58671,-50,4,2,1,90,0,0
58772,-50,4,2,13,90,0,0
58873,-50,4,2,1,90,0,0
59076,-50,4,2,11,90,0,0
59178,-50,4,2,1,90,0,0
61711,-50,4,2,13,90,0,0
61914,-50,4,2,1,90,0,0
62015,-50,4,2,13,90,0,0
62117,-50,4,2,1,90,0,0
62319,-50,4,2,15,90,0,0
62421,-50,4,2,1,90,0,0
65664,-50,4,2,96,5,0,0
65765,-200,4,2,1,75,0,0
66373,-200,4,2,1,65,0,0
66576,-100,4,2,1,65,0,0
66627,-100,4,2,96,5,0,0
66678,-100,4,2,1,65,0,0
66728,-100,4,2,96,5,0,0
66779,-100,4,2,1,65,0,0
66830,-100,4,2,96,5,0,0
66880,-100,4,2,1,65,0,0
66931,-100,4,2,96,5,0,0
66982,-100,4,2,1,65,0,0
67032,-100,4,2,96,5,0,0
67083,-100,4,2,1,65,0,0
67134,-100,4,2,96,5,0,0
67184,-100,4,2,1,65,0,0
67235,-100,4,2,96,5,0,0
67286,-100,4,2,1,65,0,0
67336,-100,4,2,96,5,0,0
67387,-100,4,2,1,65,0,0
67438,-100,4,2,96,5,0,0
67488,-100,4,2,1,65,0,0
67539,-100,4,2,96,5,0,0
67590,-100,4,2,1,65,0,0
67640,-100,4,2,96,5,0,0
67691,-100,4,2,1,65,0,0
67742,-100,4,2,96,5,0,0
67792,-100,4,2,1,65,0,0
67843,-100,4,2,96,5,0,0
67894,-100,4,2,1,65,0,0
67944,-100,4,2,96,5,0,0
67995,-100,4,2,1,65,0,0
68046,-100,4,2,96,5,0,0
68096,-100,4,2,1,65,0,0
68147,-100,4,2,96,5,0,0
68198,-100,4,2,1,65,0,0
69009,-200,4,2,1,75,0,0
69617,-200,4,2,1,65,0,0
69819,-100,4,2,1,65,0,0
69870,-100,4,2,96,5,0,0
69921,-100,4,2,1,65,0,0
69971,-100,4,2,96,5,0,0
70022,-100,4,2,1,65,0,0
70073,-100,4,2,96,5,0,0
70123,-100,4,2,1,65,0,0
70174,-100,4,2,96,5,0,0
70225,-100,4,2,1,65,0,0
70275,-100,4,2,96,5,0,0
70326,-100,4,2,1,65,0,0
70377,-100,4,2,96,5,0,0
70428,-100,4,2,1,65,0,0
70478,-100,4,2,96,5,0,0
70529,-100,4,2,1,65,0,0
70580,-100,4,2,96,5,0,0
70630,-100,4,2,1,65,0,0
70681,-100,4,2,96,5,0,0
70732,-100,4,2,1,65,0,0
70782,-100,4,2,96,5,0,0
70833,-100,4,2,1,65,0,0
70884,-100,4,2,96,5,0,0
70934,-100,4,2,1,65,0,0
70985,-100,4,2,96,5,0,0
71036,-100,4,2,1,65,0,0
71086,-100,4,2,96,5,0,0
71137,-100,4,2,1,65,0,0
71188,-100,4,2,96,5,0,0
71238,-100,4,2,1,65,0,0
71289,-100,4,2,96,5,0,0
71340,-100,4,2,1,65,0,0
71390,-100,4,2,96,5,0,0
71441,-100,4,2,1,65,0,0
72252,-200,4,2,1,75,0,0
72860,-200,4,2,1,65,0,0
73063,-100,4,2,1,65,0,0
73113,-100,4,2,96,5,0,0
73164,-100,4,2,1,65,0,0
73215,-100,4,2,96,5,0,0
73265,-100,4,2,1,65,0,0
73316,-100,4,2,96,5,0,0
73367,-100,4,2,1,65,0,0
73417,-100,4,2,96,5,0,0
73468,-100,4,2,1,65,0,0
73519,-100,4,2,96,5,0,0
73569,-100,4,2,1,65,0,0
73620,-100,4,2,96,5,0,0
73671,-100,4,2,1,65,0,0
73721,-100,4,2,96,5,0,0
73772,-100,4,2,1,65,0,0
73823,-100,4,2,96,5,0,0
73873,-100,4,2,1,65,0,0
73924,-100,4,2,96,5,0,0
73975,-100,4,2,1,65,0,0
74025,-100,4,2,96,5,0,0
74076,-100,4,2,1,65,0,0
74127,-100,4,2,96,5,0,0
74178,-100,4,2,1,65,0,0
74228,-100,4,2,96,5,0,0
74279,-100,4,2,1,65,0,0
74330,-100,4,2,96,5,0,0
74380,-100,4,2,1,65,0,0
74431,-100,4,2,96,5,0,0
74482,-100,4,2,1,65,0,0
74532,-100,4,2,96,5,0,0
74583,-100,4,2,1,65,0,0
74634,-100,4,2,96,5,0,0
74684,-100,4,2,1,65,0,0
75495,-200,4,2,1,75,0,0
76103,-200,4,2,1,65,0,0
76306,-100,4,2,1,65,0,0
76357,-100,4,2,96,5,0,0
76407,-100,4,2,1,65,0,0
76458,-100,4,2,96,5,0,0
76509,-100,4,2,1,65,0,0
76559,-100,4,2,96,5,0,0
76610,-100,4,2,1,65,0,0
76661,-100,4,2,96,5,0,0
76711,-100,4,2,1,65,0,0
76762,-100,4,2,96,5,0,0
76813,-100,4,2,1,65,0,0
76863,-100,4,2,96,5,0,0
76914,-100,4,2,1,65,0,0
76965,-100,4,2,96,5,0,0
77015,-100,4,2,1,65,0,0
77066,-100,4,2,96,5,0,0
77117,-100,4,2,1,65,0,0
77167,-100,4,2,96,5,0,0
77218,-100,4,2,1,65,0,0
77269,-100,4,2,96,5,0,0
77319,-100,4,2,1,65,0,0
77370,-100,4,2,96,5,0,0
77421,-100,4,2,1,65,0,0
77471,-100,4,2,96,5,0,0
77522,-100,4,2,1,65,0,0
77573,-100,4,2,96,5,0,0
77623,-100,4,2,1,65,0,0
77674,-100,4,2,96,5,0,0
77725,-100,4,2,1,65,0,0
77775,-100,4,2,96,5,0,0
77826,-100,4,2,1,65,0,0
77877,-100,4,2,96,5,0,0
77928,-50,4,2,1,65,0,0
78738,-200,4,2,1,75,0,0
79346,-200,4,2,1,65,0,0
79549,-100,4,2,1,65,0,0
79600,-100,4,2,96,5,0,0
79650,-100,4,2,1,65,0,0
79701,-100,4,2,96,5,0,0
79752,-100,4,2,1,65,0,0
79803,-100,4,2,96,5,0,0
79853,-100,4,2,1,65,0,0
79904,-100,4,2,96,5,0,0
79955,-100,4,2,1,65,0,0
80005,-100,4,2,96,5,0,0
80056,-100,4,2,1,65,0,0
80107,-100,4,2,96,5,0,0
80157,-100,4,2,1,65,0,0
80208,-100,4,2,96,5,0,0
80259,-100,4,2,1,65,0,0
80309,-100,4,2,96,5,0,0
80360,-100,4,2,1,65,0,0
80411,-100,4,2,96,5,0,0
80461,-100,4,2,1,65,0,0
80512,-100,4,2,96,5,0,0
80563,-100,4,2,1,65,0,0
80613,-100,4,2,96,5,0,0
80664,-100,4,2,1,65,0,0
80715,-100,4,2,96,5,0,0
80765,-100,4,2,1,65,0,0
80816,-100,4,2,96,5,0,0
80867,-100,4,2,1,65,0,0
80917,-100,4,2,96,5,0,0
80968,-100,4,2,1,65,0,0
81019,-100,4,2,96,5,0,0
81069,-100,4,2,1,65,0,0
81120,-100,4,2,96,5,0,0
81171,-100,4,2,1,65,0,0
81982,-200,4,2,1,75,0,0
82590,-200,4,2,1,65,0,0
82792,-100,4,2,1,65,0,0
82843,-100,4,2,96,5,0,0
82894,-100,4,2,1,65,0,0
82944,-100,4,2,96,5,0,0
82995,-100,4,2,1,65,0,0
83046,-100,4,2,96,5,0,0
83096,-100,4,2,1,65,0,0
83147,-100,4,2,96,5,0,0
83198,-100,4,2,1,65,0,0
83248,-100,4,2,96,5,0,0
83299,-100,4,2,1,65,0,0
83350,-100,4,2,96,5,0,0
83400,-100,4,2,1,65,0,0
83451,-100,4,2,96,5,0,0
83502,-100,4,2,1,65,0,0
83553,-100,4,2,96,5,0,0
83603,-100,4,2,1,65,0,0
83654,-100,4,2,96,5,0,0
83705,-100,4,2,1,65,0,0
83755,-100,4,2,96,5,0,0
83806,-100,4,2,1,65,0,0
83857,-100,4,2,96,5,0,0
83907,-100,4,2,1,65,0,0
83958,-100,4,2,96,5,0,0
84009,-100,4,2,1,65,0,0
84059,-100,4,2,96,5,0,0
84110,-100,4,2,1,65,0,0
84161,-100,4,2,96,5,0,0
84211,-100,4,2,1,65,0,0
84262,-100,4,2,96,5,0,0
84313,-100,4,2,1,65,0,0
84363,-100,4,2,96,5,0,0
84414,-100,4,2,1,65,0,0
84617,-66.6666666666667,4,2,1,65,0,0
85225,-200,4,2,1,75,0,0
85833,-200,4,2,1,65,0,0
86036,-100,4,2,1,65,0,0
86086,-100,4,2,96,5,0,0
86137,-100,4,2,1,65,0,0
86188,-100,4,2,96,5,0,0
86238,-100,4,2,1,65,0,0
86289,-100,4,2,96,5,0,0
86340,-100,4,2,1,65,0,0
86390,-100,4,2,96,5,0,0
86441,-100,4,2,1,65,0,0
86492,-100,4,2,96,5,0,0
86542,-100,4,2,1,65,0,0
86593,-100,4,2,96,5,0,0
86644,-100,4,2,1,65,0,0
86694,-100,4,2,96,5,0,0
86745,-100,4,2,1,65,0,0
86796,-100,4,2,96,5,0,0
86846,-100,4,2,1,65,0,0
86897,-100,4,2,96,5,0,0
86948,-100,4,2,1,65,0,0
86998,-100,4,2,96,5,0,0
87049,-100,4,2,1,65,0,0
87100,-100,4,2,96,5,0,0
87150,-100,4,2,1,65,0,0
87201,-100,4,2,96,5,0,0
87252,-100,4,2,1,65,0,0
87303,-100,4,2,96,5,0,0
87353,-100,4,2,1,65,0,0
87404,-100,4,2,96,5,0,0
87455,-100,4,2,1,65,0,0
87505,-100,4,2,96,5,0,0
87556,-100,4,2,1,65,0,0
87607,-100,4,2,96,5,0,0
87657,-66.6666666666667,4,2,1,50,0,0
88468,-200,4,2,1,70,0,0
89279,-66.6666666666667,4,2,1,50,0,0
91711,-66.6666666666667,4,2,1,65,0,1
104684,-50,4,2,1,65,0,1
117252,-66.6666666666667,4,2,1,65,0,1
117657,-100,4,2,1,40,0,0
120698,-100,4,2,1,30,0,0
124144,-100,4,2,1,40,0,0
129921,-100,4,2,30,50,0,0
130022,-100,4,2,32,50,0,0
130123,-100,4,2,35,50,0,0
130225,-100,4,2,37,50,0,0
130326,-100,4,2,39,50,0,0
130428,-100,4,2,40,50,0,0
130529,-100,4,2,42,50,0,0
130630,-100,4,2,44,50,0,0
132860,-100,4,2,42,50,0,0
133468,-100,4,2,47,50,0,0
133873,-100,4,2,42,50,0,0
136306,-100,4,2,28,50,0,0
136407,-100,4,2,30,50,0,0
136509,-100,4,2,32,50,0,0
136610,-100,4,2,35,50,0,0
136711,-100,4,2,37,50,0,0
136813,-100,4,2,39,50,0,0
136914,-100,4,2,40,50,0,0
137015,-100,4,2,42,50,0,0
137117,-100,4,2,44,50,0,0
139042,-100,4,2,42,50,0,0
139955,-100,4,2,47,50,0,0
140360,-100,4,2,42,50,0,0
141982,-100,4,2,40,50,0,0
142387,-100,4,2,39,50,0,0
142792,-100,4,2,37,50,0,0
142995,-100,4,2,35,50,0,0
143198,-100,4,2,37,50,0,0
143603,-100,4,2,44,50,0,0
146897,405.405405405405,4,2,42,50,1,0
146897,-100,4,2,42,50,0,0
150140,-100,4,2,44,50,0,0
152928,405.405405405405,4,2,40,50,1,0
152928,-100,4,2,40,50,0,0
153333,405.405405405405,4,2,37,50,1,0
153333,-100,4,2,37,50,0,0
154144,-100,4,2,1,50,0,0
155765,-66.6666666666667,4,2,1,50,0,0
156779,-66.6666666666667,4,2,44,50,0,0
156880,-66.6666666666667,4,2,1,50,0,0
157387,-66.6666666666667,4,2,44,50,0,0
157590,-66.6666666666667,4,2,1,50,0,0
157995,-66.6666666666667,4,2,44,50,0,0
158198,-66.6666666666667,4,2,1,50,0,0
158603,-66.6666666666667,4,2,44,50,0,0
158806,-66.6666666666667,4,2,1,50,0,0
160022,-66.6666666666667,4,2,42,50,0,0
160123,-66.6666666666667,4,2,1,50,0,0
160630,-66.6666666666667,4,2,42,50,0,0
160833,-66.6666666666667,4,2,1,50,0,0
161644,-66.6666666666667,4,2,42,50,0,0
161745,-66.6666666666667,4,2,1,50,0,0
163265,-66.6666666666667,4,2,44,50,0,0
163367,-66.6666666666667,4,2,1,50,0,0
163873,-66.6666666666667,4,2,44,50,0,0
164076,-66.6666666666667,4,2,1,50,0,0
164482,-66.6666666666667,4,2,44,50,0,0
164684,-66.6666666666667,4,2,1,50,0,0
165090,-66.6666666666667,4,2,44,50,0,0
165292,-66.6666666666667,4,2,1,50,0,0
166509,-66.6666666666667,4,2,42,50,0,0
166610,-66.6666666666667,4,2,1,50,0,0
167117,-66.6666666666667,4,2,42,50,0,0
167319,-66.6666666666667,4,2,1,50,0,0
168130,-50,4,2,42,50,0,0
168232,-50,4,2,1,50,0,0
169752,-50,4,2,44,50,0,0
169955,-50,4,2,1,50,0,0
170360,-50,4,2,44,50,0,0
170563,-50,4,2,1,50,0,0
170968,-50,4,2,44,50,0,0
171171,-50,4,2,1,50,0,0
171576,-50,4,2,44,50,0,0
171779,-50,4,2,1,50,0,0
172995,-50,4,2,42,50,0,0
173198,-50,4,2,1,50,0,0
173603,-50,4,2,42,50,0,0
173806,-50,4,2,1,50,0,0
174617,-50,4,2,42,50,0,0
174819,-50,4,2,1,50,0,0
176238,-50,4,2,44,50,0,0
176340,-50,4,2,1,50,0,0
176846,-50,4,2,44,50,0,0
177049,-50,4,2,1,50,0,0
177455,-50,4,2,44,50,0,0
177657,-50,4,2,1,50,0,0
178063,-50,4,2,44,50,0,0
178265,-50,4,2,1,50,0,0
181711,-50,4,2,44,50,0,0
182117,-66.6666666666667,4,2,44,50,0,0
182826,-66.6666666666667,4,2,42,80,0,0
184144,-66.6666666666667,4,2,49,50,0,0
184955,-66.6666666666667,4,2,42,50,0,0
185765,-66.6666666666667,4,2,44,50,0,0
186069,-66.6666666666667,4,2,42,50,0,0
186373,-66.6666666666667,4,2,40,50,0,0
186576,-66.6666666666667,4,2,42,50,0,0
186982,-66.6666666666667,4,2,44,50,0,0
187387,-66.6666666666667,4,2,35,50,0,0
188198,-66.6666666666667,4,2,47,50,0,0
188806,-66.6666666666667,4,2,44,50,0,0
189313,-66.6666666666667,4,2,42,50,0,0
191846,-66.6666666666667,4,2,40,50,0,0
192252,-66.6666666666667,4,2,44,50,0,0
192556,-66.6666666666667,4,2,42,50,0,0
192860,-66.6666666666667,4,2,40,50,0,0
193063,-66.6666666666667,4,2,42,50,0,0
193367,-66.6666666666667,4,2,44,50,0,0
193671,-66.6666666666667,4,2,40,50,0,0
195495,-66.6666666666667,4,2,1,50,0,0
197116,-66.6666666666667,4,2,1,65,0,1
210090,-50,4,2,1,65,0,1
223063,-33.3333333333333,4,2,70,100,0,1
223468,-33.3333333333333,4,2,1,80,0,1
223671,-33.3333333333333,4,2,66,100,0,1
223873,-33.3333333333333,4,2,1,80,0,1
224076,-33.3333333333333,4,2,63,100,0,1
224279,-33.3333333333333,4,2,61,100,0,1
224482,-33.3333333333333,4,2,1,80,0,1
225495,-33.3333333333333,4,2,51,100,0,1
225596,-33.3333333333333,4,2,96,5,0,1
225698,-33.3333333333333,4,2,54,100,0,1
225799,-33.3333333333333,4,2,96,5,0,1
225900,-33.3333333333333,4,2,56,100,0,1
226002,-33.3333333333333,4,2,96,5,0,1
226103,-33.3333333333333,4,2,58,100,0,1
226205,-33.3333333333333,4,2,96,5,0,1
226306,-33.3333333333333,4,2,70,100,0,1
226711,-33.3333333333333,4,2,1,80,0,1
226914,-33.3333333333333,4,2,73,100,0,1
227117,-33.3333333333333,4,2,1,80,0,1
227319,-33.3333333333333,4,2,63,100,0,1
227522,-33.3333333333333,4,2,75,100,0,1
227725,-33.3333333333333,4,2,1,80,0,1
228333,-33.3333333333333,4,2,73,100,0,1
228738,-33.3333333333333,4,2,70,100,0,1
228840,-33.3333333333333,4,2,96,5,0,1
228941,-33.3333333333333,4,2,68,100,0,1
229042,-33.3333333333333,4,2,96,5,0,1
229144,-33.3333333333333,4,2,66,100,0,1
229346,-33.3333333333333,4,2,63,100,0,1
229549,-33.3333333333333,4,2,58,100,0,1
229955,-33.3333333333333,4,2,1,80,0,1
230157,-33.3333333333333,4,2,61,100,0,1
230360,-33.3333333333333,4,2,1,80,0,1
230563,-33.3333333333333,4,2,51,100,0,1
230765,-33.3333333333333,4,2,56,100,0,1
230968,-33.3333333333333,4,2,1,80,0,1
231982,-33.3333333333333,4,2,54,100,0,1
232184,-33.3333333333333,4,2,53,100,0,1
232387,-33.3333333333333,4,2,99,100,0,1
232590,-33.3333333333333,4,2,96,100,0,1
232792,-33.3333333333333,4,2,51,100,0,1
233096,-33.3333333333333,4,2,99,100,0,1
233400,-33.3333333333333,4,2,51,100,0,1
233603,-33.3333333333333,4,2,54,100,0,1
233907,-33.3333333333333,4,2,51,100,0,1
234211,-33.3333333333333,4,2,54,100,0,1
234414,-33.3333333333333,4,2,56,100,0,1
234718,-33.3333333333333,4,2,54,100,0,1
235022,-33.3333333333333,4,2,56,100,0,1
235225,-33.3333333333333,4,2,1,80,0,1
235428,-50,4,2,1,80,0,1
236036,-33.3333333333333,4,2,70,100,0,1
236441,-33.3333333333333,4,2,1,80,0,1
236644,-33.3333333333333,4,2,66,100,0,1
236846,-33.3333333333333,4,2,1,80,0,1
237049,-33.3333333333333,4,2,63,100,0,1
237252,-33.3333333333333,4,2,61,100,0,1
237455,-33.3333333333333,4,2,1,80,0,1
238468,-33.3333333333333,4,2,51,100,0,1
238569,-33.3333333333333,4,2,96,5,0,1
238671,-33.3333333333333,4,2,54,100,0,1
238772,-33.3333333333333,4,2,96,5,0,1
238873,-33.3333333333333,4,2,56,100,0,1
238975,-33.3333333333333,4,2,96,5,0,1
239076,-33.3333333333333,4,2,58,100,0,1
239178,-33.3333333333333,4,2,96,5,0,1
239279,-33.3333333333333,4,2,70,100,0,1
239684,-33.3333333333333,4,2,1,80,0,1
239887,-33.3333333333333,4,2,73,100,0,1
240090,-33.3333333333333,4,2,1,80,0,1
240292,-33.3333333333333,4,2,63,100,0,1
240495,-33.3333333333333,4,2,75,100,0,1
240698,-33.3333333333333,4,2,1,80,0,1
241306,-33.3333333333333,4,2,73,100,0,1
241711,-33.3333333333333,4,2,70,100,0,1
241813,-33.3333333333333,4,2,96,5,0,1
241914,-33.3333333333333,4,2,68,100,0,1
242015,-33.3333333333333,4,2,96,5,0,1
242117,-33.3333333333333,4,2,66,100,0,1
242319,-33.3333333333333,4,2,63,100,0,1
242522,-33.3333333333333,4,2,58,100,0,1
242928,-33.3333333333333,4,2,1,80,0,1
243130,-33.3333333333333,4,2,61,100,0,1
243333,-33.3333333333333,4,2,1,80,0,1
243536,-33.3333333333333,4,2,51,100,0,1
243738,-33.3333333333333,4,2,56,100,0,1
243941,-33.3333333333333,4,2,1,80,0,1
244955,-33.3333333333333,4,2,51,100,0,1
245056,-33.3333333333333,4,2,96,5,0,1
245157,-33.3333333333333,4,2,54,100,0,1
245259,-33.3333333333333,4,2,96,5,0,1
245360,-33.3333333333333,4,2,56,100,0,1
245461,-33.3333333333333,4,2,96,5,0,1
245563,-33.3333333333333,4,2,58,100,0,1
245664,-33.3333333333333,4,2,96,5,0,1
245765,-33.3333333333333,4,2,70,100,0,1
246171,-33.3333333333333,4,2,1,80,0,1
246373,-33.3333333333333,4,2,73,100,0,1
246576,-33.3333333333333,4,2,1,80,0,1
246779,-33.3333333333333,4,2,63,100,0,1
246982,-33.3333333333333,4,2,75,100,0,1
247184,-33.3333333333333,4,2,1,80,0,1
247792,-33.3333333333333,4,2,73,100,0,1
247894,-33.3333333333333,4,2,1,80,0,1
249008,-66.6666666666667,4,2,1,40,0,0
252049,-66.6666666666667,4,2,1,35,0,0

[Colours]
Combo1 : 138,183,79
Combo2 : 68,176,208
Combo3 : 187,174,121
Combo4 : 160,58,24

[HitObjects]
38,79,902,5,2,0:0:0:0:
38,79,1003,2,0,P|78:68|124:25,1,75.000002861023
196,96,1307,2,0,P|156:107|107:150,1,75.000002861023
192,175,1611,2,0,P|178:214|130:259,1,75.000002861023
262,214,1915,2,0,P|275:174|316:134,1,75.000002861023
340,214,2219,2,0,P|371:193|407:184,1,75.000002861023
433,83,2523,2,0,P|402:103|365:113,1,75.000002861023
370,35,2827,2,0,P|339:14|302:4,1,75.000002861023
184,25,3131,2,0,P|215:46|252:56,1,75.000002861023
255,146,3435,2,0,P|286:125|322:116,1,75.000002861023
322,115,3739,1,2,0:0:0:0:
465,160,3942,5,0,0:0:0:0:
465,160,4043,1,0,0:0:0:0:
465,160,4145,2,0,P|428:169|397:190,1,75.000002861023,2|0,0:0|0:0,0:0:0:0:
433,264,4449,1,0,0:0:0:0:
433,264,4550,2,0,L|511:285,2,75.0000028610231
369,315,5057,1,0,0:0:0:0:
369,315,5158,2,0,L|291:294,2,75.0000028610231
344,230,5665,1,0,0:0:0:0:
344,230,5766,2,0,L|365:152,2,75.0000028610231
263,249,6273,1,0,0:0:0:0:
263,249,6374,2,0,L|242:327,2,75.0000028610231
177,257,6881,1,0,0:0:0:0:
177,257,6983,2,0,L|119:199,1,75.0000028610231,2|0,0:0|0:0,0:0:0:0:
20,332,7388,6,0,L|29:384,1,37.5000014305115,2|0,0:0|0:0,0:0:0:0:
27,369,7591,2,0,B|54:348|54:348|90:352|116:314,1,75.0000028610231
207,272,7996,2,0,L|198:324,1,37.5000014305115
201,309,8199,2,0,B|174:287|174:287|138:291|112:253,1,75.0000028610231
47,208,8604,2,0,L|99:215,1,37.5000014305115
85,214,8807,2,0,B|72:181|72:181|87:148|59:112,1,75.0000028610231
206,91,9212,2,0,L|153:83,1,37.5000014305115
169,86,9415,2,0,B|181:118|181:118|166:151|194:187,1,75.0000028610231
310,198,9820,2,0,L|333:150,1,37.5000014305115
327,165,10023,2,0,B|292:167|292:167|265:142|222:158,1,75.0000028610231,0|2,0:0|0:0,0:0:0:0:
320,305,10429,5,0,0:0:0:0:
320,305,10530,1,0,0:0:0:0:
320,305,10631,2,0,P|350:284|387:274,1,75.0000028610231,2|0,0:0|0:0,0:0:0:0:
485,346,11037,2,0,L|469:259,1,75.0000028610231
471,272,11341,1,0,0:0:0:0:
471,272,11442,1,0,0:0:0:0:
400,201,11645,2,0,L|384:288,1,75.0000028610231
386,274,11949,1,0,0:0:0:0:
386,274,12050,1,0,0:0:0:0:
487,189,12253,2,0,L|471:102,1,75.0000028610231
473,115,12557,1,0,0:0:0:0:
473,115,12658,1,0,0:0:0:0:
389,105,12861,1,0,0:0:0:0:
313,188,13064,1,0,0:0:0:0:
277,76,13266,1,2,0:0:0:0:
311,86,13368,1,0,0:0:0:0:
287,107,13469,1,0,0:0:0:0:
509,23,13874,6,0,B|494:33|486:64|486:64|475:72,1,56.2500021457673,2|0,0:0|0:0,0:0:0:0:
479,68,14280,1,0,0:0:0:0:
408,132,14483,1,0,0:0:0:0:
315,106,14685,2,0,P|294:137|284:174,1,75.000002861023
408,132,15091,2,0,P|429:101|439:66,1,75.000002861023
355,210,15547,2,0,B|386:231|425:221|425:221|470:244,2,112.500004291535
433,332,16712,6,0,L|400:360,1,37.5000014305115,2|0,0:0|0:0,0:0:0:0:
342,285,17117,1,2,0:0:0:0:
258,330,17319,1,0,0:0:0:0:
258,330,17421,1,0,0:0:0:0:
258,330,17522,2,0,P|227:309|190:299,1,75.000002861023
95,331,17927,1,0,0:0:0:0:
112,236,18130,2,0,L|77:151,2,75.0000028610231
216,203,18738,2,0,P|266:136|341:112,1,150.000005722046,2|0,0:0|0:0,0:0:0:0:
158,131,19549,2,0,P|146:96|148:52,1,75.0000028610231
216,203,19954,2,0,P|228:238|227:281,1,75.0000028610231,2|0,0:0|0:0,0:0:0:0:
110,211,20360,6,0,B|100:196|69:188|69:188|61:177,1,56.2500021457673,2|0,0:0|0:0,0:0:0:0:
64,181,20765,1,0,0:0:0:0:
44,288,20968,1,0,0:0:0:0:
154,119,21171,2,0,P|175:146|183:193,1,75.0000028610231
239,250,21576,2,0,P|224:284|199:311,1,75.000002861023
154,119,22015,2,0,B|185:98|224:108|224:108|270:84,2,112.500004291535
0,88,23198,6,0,B|18:50,1,37.5000014305115,2|0,0:0|0:0,0:0:0:0:
111,97,23603,1,2,0:0:0:0:
164,23,23805,1,0,0:0:0:0:
164,23,23907,1,0,0:0:0:0:
164,23,24008,2,0,P|197:6|234:1,1,75.000002861023
227,93,24413,2,0,P|264:94|298:108,1,75.000002861023
234,189,24819,2,0,P|195:185|154:157,1,75.0000028610231
363,16,25224,2,0,B|407:46|403:96|403:96|451:134,1,150.000005722046,2|0,0:0|0:0,0:0:0:0:
298,190,26035,1,0,0:0:0:0:
393,221,26238,1,2,0:0:0:0:
435,320,26440,1,0,0:0:0:0:
446,131,26846,5,2,0:0:0:0:
446,131,27251,2,0,L|476:54,1,75.0000028610231
356,156,27657,2,0,L|420:239,1,75.0000028610231
375,71,28062,2,0,L|310:-13,1,75.0000028610231
292,98,28467,2,0,L|251:195,1,75.0000028610231,2|0,0:0|0:0,0:0:0:0:
375,71,28873,2,0,L|415:-26,1,75.0000028610231
313,14,29278,6,0,L|244:23,1,37.5000014305115
292,98,29481,2,0,L|265:162,1,37.5000014305115
354,158,29684,2,0,L|395:213,1,37.5000014305115,2|0,0:0|0:0,0:0:0:0:
290,215,29886,2,0,L|263:279,1,37.5000014305115
137,146,30089,5,2,0:0:0:0:
137,146,30494,2,0,L|107:215,1,75.0000028610231
221,118,30900,2,0,L|157:35,1,75.0000028610231
202,203,31305,2,0,L|267:287,1,75.0000028610231
285,176,31711,2,0,L|326:79,1,75.0000028610231,2|0,0:0|0:0,0:0:0:0:
202,203,32116,2,0,L|162:300,1,75.0000028610231
264,260,32521,6,0,L|333:251,1,37.5000014305115
285,176,32724,2,0,L|312:112,1,37.5000014305115
214,107,32927,1,0,0:0:0:0:
170,109,33028,1,0,0:0:0:0:
132,131,33130,1,0,0:0:0:0:
109,169,33231,1,0,0:0:0:0:
106,212,33332,6,0,B|114:289|163:270|174:353,1,150.000005722046,2|0,0:0|0:0,0:0:0:0:
346,274,34143,2,0,P|431:241|485:200,1,150.000005722046
285,116,34954,2,0,P|200:83|145:37,1,150.000005722046,2|0,0:0|0:0,0:0:0:0:
433,67,35765,5,0,0:0:0:0:
370,157,35967,1,0,0:0:0:0:
410,258,36170,2,0,P|409:308|428:343,1,75.0000028610231,2|0,0:0|0:0,0:0:0:0:
410,258,36575,1,2,0:0:0:0:
221,52,36981,6,0,P|188:65|148:68,1,75.0000028610231
81,174,37386,2,0,P|114:161|154:158,1,75.0000028610231,2|2,0:0|0:0,0:0:0:0:
153,157,37690,1,2,0:0:0:0:
153,157,37792,1,2,0:0:0:0:
81,283,37994,1,2,0:0:0:0:
81,283,38096,1,2,0:0:0:0:
81,283,38197,1,2,0:0:0:0:
221,276,38400,1,2,0:0:0:0:
237,282,38501,1,2,0:0:0:0:
254,289,38602,1,2,0:0:0:0:
348,155,38805,5,2,0:0:0:0:
379,125,38907,1,2,0:0:0:0:
410,95,39008,2,0,P|447:94|508:127,1,100,2|2,0:0|0:0,0:0:0:0:
348,155,39388,2,0,P|302:155|251:127,1,100
110,29,39820,6,0,L|11:16,1,100,10|0,0:0|0:0,0:0:0:0:
18,23,40124,1,0,0:0:0:0:
18,23,40225,2,0,P|49:113|43:137,1,100,8|0,0:0|0:0,0:0:0:0:
130,61,40630,1,8,0:0:0:0:
136,150,40833,2,0,P|104:240|110:264,1,100,0|8,0:0|0:0,0:0:0:0:
268,128,41238,1,0,0:0:0:0:
49,220,41442,5,8,0:0:0:0:
76,230,41543,1,0,0:0:0:0:
104,240,41644,1,0,0:0:0:0:
127,371,41847,2,8,P|191:296|228:286,1,100,8|0,0:0|0:0,0:0:0:0:
323,384,42252,1,10,0:0:0:0:
293,280,42455,1,0,0:0:0:0:
451,289,42657,1,8,0:0:0:0:
361,216,42860,1,2,0:0:0:0:
474,191,43063,5,10,0:0:0:0:
474,191,43164,1,2,0:0:0:0:
330,97,43468,2,0,L|271:192,1,100,10|2,0:0|0:0,0:0:0:0:
293,207,43772,1,2,0:0:0:0:
309,232,43874,1,10,0:0:0:0:
325,258,43975,1,2,0:0:0:0:
340,284,44076,1,2,0:0:0:0:
214,74,44279,1,10,0:0:0:0:
214,74,44482,1,2,0:0:0:0:
195,231,44684,5,8,0:0:0:0:
191,261,44786,1,0,0:0:0:0:
188,290,44887,2,0,L|220:351,1,50,2|0,0:0|0:0,0:0:0:0:
142,147,45090,1,8,0:0:0:0:
121,168,45191,1,0,0:0:0:0:
101,190,45292,2,0,L|91:258,1,50,2|0,0:0|0:0,0:0:0:0:
178,50,45495,2,0,B|110:58|110:58|72:88,1,100,10|2,0:0|0:0,0:0:0:0:
276,137,45901,2,0,P|331:54|372:41,2,100,10|2|8,0:0|0:0|0:0,0:0:0:0:
512,254,46711,6,0,P|481:164|487:140,1,100,8|0,0:0|0:0,0:0:0:0:
406,228,47117,1,8,0:0:0:0:
364,146,47319,2,0,P|396:56|390:32,1,100,0|8,0:0|0:0,0:0:0:0:
270,166,47725,1,0,0:0:0:0:
503,119,47928,5,8,0:0:0:0:
406,228,48130,1,0,0:0:0:0:
395,55,48333,1,8,0:0:0:0:
364,146,48536,1,0,0:0:0:0:
265,51,48738,2,0,P|191:68|156:57,1,100,10|0,0:0|0:0,0:0:0:0:
175,70,49042,1,2,0:0:0:0:
175,70,49144,2,0,B|189:116|189:116|224:130|223:163,1,100,8|2,0:0|0:0,0:0:0:0:
90,257,49549,5,10,0:0:0:0:
90,257,49651,1,2,0:0:0:0:
220,356,49955,2,0,L|279:261,1,100,10|2,0:0|0:0,0:0:0:0:
257,246,50259,1,2,0:0:0:0:
241,221,50360,1,10,0:0:0:0:
225,195,50461,1,2,0:0:0:0:
210,169,50563,1,2,0:0:0:0:
336,379,50765,1,10,0:0:0:0:
336,379,50968,1,2,0:0:0:0:
360,239,51171,5,8,0:0:0:0:
364,209,51272,1,0,0:0:0:0:
367,180,51374,2,0,L|335:119,1,50,2|0,0:0|0:0,0:0:0:0:
216,119,51576,1,8,0:0:0:0:
210,169,51779,2,0,L|219:100,1,50,2|0,0:0|0:0,0:0:0:0:
297,48,51982,2,8,L|352:151,1,100,10|2,0:0|0:0,0:0:0:0:
149,33,52387,2,0,P|76:98|70:137,1,100,10|2,0:0|0:0,0:0:0:0:
197,257,52792,5,10,0:0:0:0:
105,281,52995,1,0,0:0:0:0:
203,149,53198,1,8,0:0:0:0:
231,139,53299,1,0,0:0:0:0:
259,129,53401,1,0,0:0:0:0:
166,382,53603,1,10,0:0:0:0:
116,208,53806,1,0,0:0:0:0:
88,198,53907,1,0,0:0:0:0:
60,188,54009,1,8,0:0:0:0:
160,299,54211,1,0,0:0:0:0:
346,89,54414,5,10,0:0:0:0:
374,99,54515,1,0,0:0:0:0:
402,109,54617,1,0,0:0:0:0:
430,119,54718,1,0,0:0:0:0:
457,129,54819,2,0,B|480:184|480:184|546:212,2,100,8|0|10,0:0|0:0|0:0,0:0:0:0:
356,280,55428,1,0,0:0:0:0:
328,290,55529,1,2,0:0:0:0:
300,300,55630,1,8,0:0:0:0:
370,165,55833,1,2,0:0:0:0:
452,328,56036,5,10,0:0:0:0:
498,223,56238,1,0,0:0:0:0:
361,363,56441,1,10,0:0:0:0:
333,352,56542,1,2,0:0:0:0:
304,343,56644,2,0,L|230:363,1,50,2|2,0:0|0:0,0:0:0:0:
152,324,56847,1,10,0:0:0:0:
144,300,56948,1,2,0:0:0:0:
136,276,57049,1,2,0:0:0:0:
304,343,57252,1,10,0:0:0:0:
136,276,57455,1,2,0:0:0:0:
328,241,57657,6,0,P|399:275|426:276,1,100,10|2,0:0|0:0,0:0:0:0:
418,276,57961,1,0,0:0:0:0:
418,276,58063,1,8,0:0:0:0:
372,138,58265,1,2,0:0:0:0:
257,284,58468,1,10,0:0:0:0:
208,134,58671,1,2,0:0:0:0:
180,122,58772,1,2,0:0:0:0:
152,110,58874,1,10,0:0:0:0:
35,271,59076,1,2,0:0:0:0:
63,259,59178,1,0,0:0:0:0:
91,247,59279,1,10,0:0:0:0:
441,372,59684,6,0,P|396:349|364:311,1,100,8|0,0:0|0:0,0:0:0:0:
364,311,59988,1,0,0:0:0:0:
364,311,60090,1,8,0:0:0:0:
491,231,60292,1,0,0:0:0:0:
499,201,60394,1,0,0:0:0:0:
507,172,60495,2,0,B|482:110|482:110|493:68,1,100,10|0,0:0|0:0,0:0:0:0:
338,103,60901,5,8,0:0:0:0:
331,132,61002,1,0,0:0:0:0:
324,161,61103,1,0,0:0:0:0:
317,190,61205,1,0,0:0:0:0:
310,219,61306,2,0,P|255:259|243:295,1,100,10|0,0:0|0:0,0:0:0:0:
407,244,61711,1,10,0:0:0:0:
227,160,61914,1,0,0:0:0:0:
218,131,62015,1,2,0:0:0:0:
209,102,62117,1,8,0:0:0:0:
104,211,62319,1,2,0:0:0:0:
95,240,62421,1,0,0:0:0:0:
86,269,62522,1,10,0:0:0:0:
38,114,62826,5,2,0:0:0:0:
38,114,62928,2,0,P|96:86|116:57,1,100,10|2,0:0|0:0,0:0:0:0:
218,148,63333,1,10,0:0:0:0:
246,156,63434,1,2,0:0:0:0:
274,164,63536,1,2,0:0:0:0:
302,172,63637,1,0,0:0:0:0:
330,181,63738,2,0,B|385:151|385:151|466:169,2,100,10|2|8,0:0|0:0|0:3,0:0:0:0:
332,66,64346,5,0,1:0:0:0:
332,66,64448,1,8,0:0:0:0:
219,235,64650,1,0,1:0:0:0:
219,235,64752,2,0,L|280:259,1,50,8|8,0:0|0:3,0:0:0:0:
236,339,64955,1,8,3:3:0:0:
264,330,65056,1,8,0:3:0:0:
292,321,65157,1,4,0:3:0:0:
321,312,65259,1,4,0:3:0:0:
349,304,65360,2,0,L|401:324,1,50,8|0,1:2|1:0,0:0:0:0:
406,234,65563,2,0,L|467:258,1,50,8|0,0:0|0:0,0:0:0:0:
362,76,65765,6,0,B|335:71|320:49|320:49|286:55,1,75,2|0,3:2|0:0,0:0:0:0:
144,130,66576,2,0,L|126:124,1,12.5,2|0,0:0|0:0,0:0:0:0:
130,151,66678,2,0,L|113:147,1,12.5,2|0,0:0|0:0,0:0:0:0:
121,174,66779,2,0,L|99:172,1,12.5,2|0,0:0|0:0,0:0:0:0:
116,198,66880,2,0,L|93:201,1,12.5,2|0,0:0|0:0,0:0:0:0:
116,223,66982,2,0,L|95:228,1,12.5,2|0,0:0|0:0,0:0:0:0:
120,248,67083,2,0,L|102:255,1,12.5,2|0,0:0|0:0,0:0:0:0:
129,271,67184,2,0,L|115:280,1,12.5,2|0,0:0|0:0,0:0:0:0:
142,293,67286,2,0,L|130:305,1,12.5,2|0,0:0|0:0,0:0:0:0:
159,312,67387,2,0,L|149:325,1,12.5,2|0,0:0|0:0,0:0:0:0:
178,327,67488,2,0,L|171:341,1,12.5,2|0,0:0|0:0,0:0:0:0:
200,339,67590,2,0,L|193:355,1,12.5,2|0,0:0|0:0,0:0:0:0:
223,346,67691,2,0,L|221:368,1,12.5,2|0,0:0|0:0,0:0:0:0:
248,349,67792,2,0,L|249:369,1,12.5,2|0,0:0|0:0,0:0:0:0:
272,348,67894,2,0,L|278:367,1,12.5,2|0,0:0|0:0,0:0:0:0:
297,342,67995,2,0,L|304:361,1,12.5,2|0,0:0|0:0,0:0:0:0:
320,331,68096,2,0,L|333:349,1,12.5,2|0,0:0|0:0,0:0:0:0:
339,314,68198,5,8,0:0:0:0:
262,226,68400,1,4,0:3:0:0:
262,226,68502,1,4,0:3:0:0:
262,226,68603,1,0,1:0:0:0:
262,226,68705,1,0,1:0:0:0:
262,226,68806,1,8,0:0:0:0:
76,297,69009,6,0,B|81:270|103:255|103:255|97:221,1,75,2|0,3:2|0:0,0:0:0:0:
75,112,69819,2,0,L|70:92,1,12.5,10|0,0:0|0:0,0:0:0:0:
97,97,69921,2,0,L|93:76,1,12.5,2|0,0:0|0:0,0:0:0:0:
120,83,70022,2,0,L|118:62,1,12.5,2|0,0:0|0:0,0:0:0:0:
144,72,70124,2,0,L|144:51,1,12.5,2|0,0:0|0:0,0:0:0:0:
169,62,70225,2,0,L|171:41,1,12.5,2|0,0:0|0:0,0:0:0:0:
194,55,70326,2,0,L|197:34,1,12.5,2|0,0:0|0:0,0:0:0:0:
221,50,70427,2,0,L|226:30,1,12.5,2|0,0:0|0:0,0:0:0:0:
247,48,70529,2,0,L|254:28,1,12.5,2|0,0:0|0:0,0:0:0:0:
274,47,70630,2,0,L|283:28,1,12.5,2|0,0:0|0:0,0:0:0:0:
300,51,70732,2,0,L|312:34,1,12.5,2|0,0:0|0:0,0:0:0:0:
326,58,70833,2,0,L|339:42,1,12.5,2|0,0:0|0:0,0:0:0:0:
351,67,70934,2,0,L|365:52,1,12.5,2|0,0:0|0:0,0:0:0:0:
375,78,71036,2,0,L|391:65,1,12.5,2|0,0:0|0:0,0:0:0:0:
398,90,71137,2,0,L|415:78,1,12.5,2|0,0:0|0:0,0:0:0:0:
421,106,71238,2,0,L|439:95,1,12.5,2|0,0:0|0:0,0:0:0:0:
440,123,71339,2,0,L|458:114,1,12.5,2|0,0:0|0:0,0:0:0:0:
455,143,71441,5,8,0:0:0:0:
453,170,71542,1,8,0:3:0:0:
450,197,71644,2,0,L|446:239,1,25,8|8,0:3|0:3,0:0:0:0:
360,240,71846,1,4,0:3:0:0:
360,240,71948,1,4,0:3:0:0:
360,240,72049,2,0,L|381:266,1,25,8|4,0:0|0:3,0:0:0:0:
487,377,72252,6,0,B|460:372|445:350|445:350|411:356,1,75,2|0,3:2|0:0,0:0:0:0:
264,376,73063,2,0,L|244:380,1,12.5,10|0,0:0|0:0,0:0:0:0:
249,354,73164,2,0,L|228:357,1,12.5,2|0,0:0|0:0,0:0:0:0:
236,332,73265,2,0,L|215:333,1,12.5,2|0,0:0|0:0,0:0:0:0:
225,309,73367,2,0,L|204:309,1,12.5,2|0,0:0|0:0,0:0:0:0:
215,285,73468,2,0,L|194:283,1,12.5,2|0,0:0|0:0,0:0:0:0:
209,261,73569,2,0,L|188:258,1,12.5,2|0,0:0|0:0,0:0:0:0:
204,235,73671,2,0,L|184:230,1,12.5,2|0,0:0|0:0,0:0:0:0:
202,210,73772,2,0,L|182:203,1,12.5,2|0,0:0|0:0,0:0:0:0:
201,184,73873,2,0,L|182:175,1,12.5,2|0,0:0|0:0,0:0:0:0:
205,159,73975,2,0,L|188:147,1,12.5,2|0,0:0|0:0,0:0:0:0:
211,134,74076,2,0,L|195:121,1,12.5,2|0,0:0|0:0,0:0:0:0:
220,110,74178,2,0,L|205:96,1,12.5,2|0,0:0|0:0,0:0:0:0:
231,87,74279,2,0,L|218:71,1,12.5,2|0,0:0|0:0,0:0:0:0:
242,64,74380,2,0,L|230:47,1,12.5,2|0,0:0|0:0,0:0:0:0:
258,42,74482,2,0,L|247:24,1,12.5,2|0,0:0|0:0,0:0:0:0:
274,24,74583,2,0,L|265:6,1,12.5,2|0,0:0|0:0,0:0:0:0:
292,11,74684,5,8,0:0:0:0:
368,104,74887,1,4,0:3:0:0:
368,104,74988,1,4,0:3:0:0:
368,104,75090,1,0,1:0:0:0:
368,104,75191,1,0,1:0:0:0:
368,104,75292,1,8,0:0:0:0:
99,21,75495,6,0,B|126:26|141:48|141:48|175:42,1,75,2|0,3:2|0:0,0:0:0:0:
123,174,76306,2,0,L|105:177,1,12.5,10|0,0:0|0:0,0:0:0:0:
121,198,76407,2,0,L|102:203,1,12.5,2|0,0:0|0:0,0:0:0:0:
124,223,76509,2,0,L|108:229,1,12.5,2|0,0:0|0:0,0:0:0:0:
132,247,76610,2,0,L|117:253,1,12.5,2|0,0:0|0:0,0:0:0:0:
145,268,76711,2,0,L|130:278,1,12.5,2|0,0:0|0:0,0:0:0:0:
163,285,76813,2,0,L|152:300,1,12.5,2|0,0:0|0:0,0:0:0:0:
185,297,76914,2,0,L|180:313,1,12.5,2|0,0:0|0:0,0:0:0:0:
209,304,77015,2,0,L|208:323,1,12.5,2|0,0:0|0:0,0:0:0:0:
234,303,77117,2,0,L|239:318,1,12.5,2|0,0:0|0:0,0:0:0:0:
257,295,77218,2,0,L|269:313,1,12.5,2|0,0:0|0:0,0:0:0:0:
276,280,77319,2,0,L|294:292,1,12.5,2|0,0:0|0:0,0:0:0:0:
291,260,77421,2,0,L|305:266,1,12.5,2|0,0:0|0:0,0:0:0:0:
292,234,77522,2,0,L|314:234,1,12.5,2|0,0:0|0:0,0:0:0:0:
285,210,77623,2,0,L|304:200,1,12.5,2|0,0:0|0:0,0:0:0:0:
271,194,77725,2,0,L|276:179,1,12.5,2|0,0:0|0:0,0:0:0:0:
244,185,77826,2,0,L|241:167,1,12.5,2|0,0:0|0:0,0:0:0:0:
220,189,77928,6,0,P|185:216|117:221,1,100,4|8,0:3|0:3,0:0:0:0:
102,213,78232,1,8,0:3:0:0:
93,184,78333,2,0,P|117:140|118:91,1,100,0|0,1:0|0:0,0:0:0:0:
346,108,78738,6,0,P|376:106|357:94,1,75,2|0,3:2|0:0,0:0:0:0:
179,32,79549,2,0,L|164:42,1,12.5,10|0,0:0|0:0,0:0:0:0:
189,52,79650,2,0,L|205:59,1,12.5,2|0,0:0|0:0,0:0:0:0:
177,70,79752,2,0,L|162:80,1,12.5,2|0,0:0|0:0,0:0:0:0:
187,90,79853,2,0,L|203:97,1,12.5,2|0,0:0|0:0,0:0:0:0:
177,111,79955,2,0,L|162:121,1,12.5,2|0,0:0|0:0,0:0:0:0:
187,131,80056,2,0,L|203:138,1,12.5,2|0,0:0|0:0,0:0:0:0:
175,149,80158,2,0,L|160:159,1,12.5,2|0,0:0|0:0,0:0:0:0:
185,169,80259,2,0,L|201:176,1,12.5,2|0,0:0|0:0,0:0:0:0:
173,185,80360,2,0,L|158:195,1,12.5,2|0,0:0|0:0,0:0:0:0:
183,205,80461,2,0,L|199:212,1,12.5,2|0,0:0|0:0,0:0:0:0:
171,223,80563,2,0,L|156:233,1,12.5,2|0,0:0|0:0,0:0:0:0:
181,243,80664,2,0,L|197:250,1,12.5,2|0,0:0|0:0,0:0:0:0:
171,264,80766,2,0,L|156:274,1,12.5,2|0,0:0|0:0,0:0:0:0:
181,284,80867,2,0,L|197:291,1,12.5,2|0,0:0|0:0,0:0:0:0:
169,302,80969,2,0,L|154:312,1,12.5,2|0,0:0|0:0,0:0:0:0:
179,322,81070,2,0,L|195:329,1,12.5,2|0,0:0|0:0,0:0:0:0:
171,343,81171,5,10,0:0:0:0:
74,268,81373,2,0,P|43:322|40:363,1,100,2|10,0:0|0:0,0:0:0:0:
17,165,81982,6,0,P|8:140|1:128,2,37.5,2|0|0,3:2|0:0|0:0,0:0:0:0:
105,25,82792,2,0,L|93:40,1,12.5,10|0,0:0|0:0,0:0:0:0:
122,40,82894,2,0,L|111:55,1,12.5,2|0,0:0|0:0,0:0:0:0:
141,51,82995,2,0,L|133:68,1,12.5,2|0,0:0|0:0,0:0:0:0:
161,61,83097,2,0,L|154:79,1,12.5,2|0,0:0|0:0,0:0:0:0:
183,68,83198,2,0,L|180:86,1,12.5,2|0,0:0|0:0,0:0:0:0:
205,74,83299,2,0,L|200:92,1,12.5,2|0,0:0|0:0,0:0:0:0:
226,78,83400,2,0,L|224:97,1,12.5,2|0,0:0|0:0,0:0:0:0:
248,80,83502,2,0,L|248:99,1,12.5,2|0,0:0|0:0,0:0:0:0:
270,80,83603,2,0,L|272:98,1,12.5,2|0,0:0|0:0,0:0:0:0:
292,78,83705,2,0,L|294:97,1,12.5,2|0,0:0|0:0,0:0:0:0:
314,74,83806,2,0,L|319:92,1,12.5,2|0,0:0|0:0,0:0:0:0:
336,69,83907,2,0,L|342:86,1,12.5,2|0,0:0|0:0,0:0:0:0:
358,60,84009,2,0,L|367:76,1,12.5,2|0,0:0|0:0,0:0:0:0:
378,51,84110,2,0,L|386:68,1,12.5,2|0,0:0|0:0,0:0:0:0:
396,40,84211,2,0,L|407:55,1,12.5,2|0,0:0|0:0,0:0:0:0:
414,28,84313,2,0,L|426:42,1,12.5,2|0,0:0|0:0,0:0:0:0:
434,14,84414,5,10,0:0:0:0:
502,106,84617,2,0,B|491:150|491:150|506:190,2,75.0000028610231,2|2|10,0:0|0:0|0:0,0:0:0:0:
345,197,85225,6,0,P|347:227|359:208,1,75,2|0,3:2|0:0,0:0:0:0:
292,120,86036,2,0,L|281:100,1,12.5,10|0,0:0|0:0,0:0:0:0:
271,133,86137,2,0,L|258:118,1,12.5,2|0,0:0|0:0,0:0:0:0:
255,153,86238,2,0,L|238:144,1,12.5,2|0,0:0|0:0,0:0:0:0:
244,176,86340,2,0,L|226:172,1,12.5,2|0,0:0|0:0,0:0:0:0:
239,200,86441,2,0,L|222:200,1,12.5,2|0,0:0|0:0,0:0:0:0:
239,225,86542,2,0,L|224:227,1,12.5,2|0,0:0|0:0,0:0:0:0:
246,250,86644,2,0,L|230:256,1,12.5,2|0,0:0|0:0,0:0:0:0:
257,271,86745,2,0,L|243:282,1,12.5,2|0,0:0|0:0,0:0:0:0:
273,290,86846,2,0,L|264:302,1,12.5,2|0,0:0|0:0,0:0:0:0:
295,303,86948,2,0,L|287:319,1,12.5,2|0,0:0|0:0,0:0:0:0:
318,314,87049,2,0,L|313:332,1,12.5,2|0,0:0|0:0,0:0:0:0:
342,316,87150,2,0,L|344:337,1,12.5,2|0,0:0|0:0,0:0:0:0:
366,314,87252,2,0,L|375:336,1,12.5,2|0,0:0|0:0,0:0:0:0:
390,305,87353,2,0,L|400:319,1,12.5,2|0,0:0|0:0,0:0:0:0:
411,292,87455,2,0,L|426:304,1,12.5,2|0,0:0|0:0,0:0:0:0:
428,274,87556,2,0,L|443:280,1,12.5,2|0,0:0|0:0,0:0:0:0:
440,253,87657,6,0,L|461:173,1,75.0000028610231,10|2,0:0|0:0,0:0:0:0:
330,138,88063,2,0,L|309:58,1,75.0000028610231,2|10,0:0|0:0,0:0:0:0:
161,111,88468,6,0,L|124:100,2,37.5,2|0|0,3:2|0:0|0:0,0:0:0:0:
174,200,89279,2,0,B|235:218|235:218|252:246|295:261,2,112.500004291535,10|0|0,0:0|0:0|0:0,0:0:0:0:
34,298,90090,5,2,0:0:0:0:
34,298,90191,1,2,0:0:0:0:
34,298,90292,1,2,0:0:0:0:
165,338,90495,2,0,P|229:331|239:334,1,75,2|2,0:0|0:0,0:0:0:0:
237,333,90799,1,2,0:0:0:0:
237,333,90900,1,2,0:0:0:0:
338,372,91103,1,2,0:0:0:0:
455,302,91306,1,2,0:0:0:0:
422,124,91509,1,2,0:0:0:0:
200,54,91711,5,2,3:2:0:0:
315,302,92015,1,2,3:2:0:0:
79,113,92319,1,2,3:2:0:0:
164,376,92725,1,2,0:0:0:0:
234,227,92928,2,0,L|197:307,1,75.0000028610231,2|2,0:0|0:0,0:0:0:0:
148,208,93333,6,0,L|139:79,2,112.500004291535,2|2|2,3:2|3:2|3:2,0:0:0:0:
288,165,94144,1,2,0:0:0:0:
288,165,94245,1,2,0:0:0:0:
288,165,94346,1,2,0:0:0:0:
442,221,94549,2,0,B|413:203|413:203|409:177|388:155,1,75.0000028610231,2|2,0:0|0:0,0:0:0:0:
404,384,94955,5,2,3:2:0:0:
198,197,95259,1,2,3:2:0:0:
489,296,95563,1,2,3:2:0:0:
312,81,95968,1,2,0:0:0:0:
198,197,96171,2,0,L|253:140,1,75.0000028610231,2|2,0:0|0:0,0:0:0:0:
135,104,96576,6,0,L|22:122,2,112.500004291535,2|2|2,3:2|3:2|3:2,0:0:0:0:
362,75,97792,2,0,P|415:99|431:118,1,75.0000028610231,2|2,0:0|0:0,0:0:0:0:
129,217,98198,5,2,3:2:0:0:
250,34,98502,1,2,3:2:0:0:
199,318,98806,1,2,3:2:0:0:
42,88,99211,1,2,0:0:0:0:
179,184,99414,2,0,L|117:142,1,75.0000028610231,2|2,0:0|0:0,0:0:0:0:
166,293,99819,6,0,L|285:276,2,112.500004291535,2|2|2,3:2|3:2|3:2,0:0:0:0:
280,162,100630,1,2,0:0:0:0:
280,162,100732,1,2,0:0:0:0:
280,162,100833,1,2,0:0:0:0:
220,56,101036,2,0,B|187:68|187:68|166:59|139:64,1,75.0000028610231,2|2,0:0|0:0,0:0:0:0:
425,132,101441,5,2,3:2:0:0:
180,154,101745,1,2,3:2:0:0:
495,237,102049,1,2,3:2:0:0:
254,282,102455,2,0,L|159:247,2,75.0000028610231,2|2|2,0:0|0:0|0:0,0:0:0:0:
25,291,103063,5,2,3:2:0:0:
272,384,103367,1,2,3:2:0:0:
124,231,103671,1,2,3:2:0:0:
260,288,103873,1,8,0:3:0:0:
260,288,103975,1,8,0:3:0:0:
260,288,104076,2,0,L|249:245,1,37.5000014305115,0|8,1:0|0:3,0:0:0:0:
375,263,104279,1,8,0:0:0:0:
384,226,104380,1,4,0:3:0:0:
393,189,104482,2,0,L|382:146,1,37.5000014305115,0|4,1:0|0:3,0:0:0:0:
511,244,104684,5,2,3:2:0:0:
277,174,104988,1,2,3:2:0:0:
277,174,105090,1,0,3:0:0:0:
327,331,105292,1,2,3:2:0:0:
379,124,105495,2,0,P|438:77|466:71,1,100,2|2,3:2|0:0,0:0:0:0:
187,257,105900,1,2,3:2:0:0:
411,293,106103,1,2,0:0:0:0:
283,109,106306,6,0,B|234:100|200:126|200:126|125:114,2,150,2|2|2,3:2|3:2|3:2,0:0:0:0:
80,218,107117,1,2,3:2:0:0:
90,251,107218,1,2,0:0:0:0:
101,284,107319,1,2,0:0:0:0:
212,265,107522,2,0,B|228:220|228:220|258:214|281:189,1,100,2|2,3:2|0:0,0:0:0:0:
333,384,107928,5,2,3:2:0:0:
156,191,108232,1,2,3:2:0:0:
156,191,108333,1,0,3:0:0:0:
149,364,108536,1,2,3:2:0:0:
273,196,108738,2,0,P|356:187|373:175,1,100,2|2,3:2|0:0,0:0:0:0:
157,60,109144,1,2,3:2:0:0:
212,265,109346,1,2,0:0:0:0:
316,82,109549,6,0,B|353:49|403:55|403:55|454:24,2,150,2|2|2,3:2|3:2|3:2,0:0:0:0:
422,274,110360,1,0,3:0:0:0:
169,70,110765,2,0,B|110:58|110:58|74:27,1,100,10|2,0:0|0:0,0:0:0:0:
317,17,111171,5,2,3:2:0:0:
199,186,111475,1,2,3:2:0:0:
199,186,111576,1,0,3:0:0:0:
341,134,111779,1,2,3:2:0:0:
127,136,111982,2,0,P|75:161|16:167,1,100,2|2,3:2|0:0,0:0:0:0:
281,258,112387,1,2,3:2:0:0:
104,270,112590,1,2,0:0:0:0:
358,340,112792,6,0,B|447:369|447:369|517:341,2,150,2|2|2,3:2|3:2|3:2,0:0:0:0:
439,220,113603,1,2,3:2:0:0:
451,186,113705,1,2,0:2:0:0:
463,153,113806,1,2,0:2:0:0:
371,106,114009,2,0,B|360:61|360:61|373:36|375:2,1,100,2|2,3:2|0:0,0:0:0:0:
487,260,114414,5,2,3:2:0:0:
282,149,114718,1,2,3:2:0:0:
282,149,114819,1,0,3:0:0:0:
297,300,115022,1,2,3:2:0:0:
140,126,115225,2,0,P|128:85|89:38,1,100,2|2,3:2|0:0,0:0:0:0:
216,239,115630,1,2,3:2:0:0:
78,275,115833,1,2,0:0:0:0:
247,43,116036,5,2,3:2:0:0:
289,241,116340,1,2,3:2:0:0:
289,241,116441,1,0,3:0:0:0:
416,145,116644,1,2,3:2:0:0:
207,149,116846,1,2,3:2:0:0:
408,47,117150,1,2,0:0:0:0:
408,47,117252,2,0,P|453:63|480:91,1,75.0000028610231,0|0,3:0|0:0,0:0:0:0:
363,156,117657,5,2,0:0:0:0:
363,156,117759,2,0,P|326:146|297:121,1,75
233,42,118265,1,0,0:0:0:0:
233,42,118367,2,0,P|223:78|198:108,1,75
324,45,118873,1,0,0:0:0:0:
324,45,118975,2,0,P|351:19|388:7,1,75
410,162,119482,1,0,0:0:0:0:
410,162,119583,2,0,P|393:128|394:88,1,75
329,198,120090,1,0,0:0:0:0:
329,198,120191,2,0,P|345:231|344:271,1,75
188,290,120698,5,0,0:0:0:0:
188,290,120799,1,0,0:0:0:0:
188,290,120900,2,0,L|255:306,1,50
229,226,121205,1,0,0:0:0:0:
229,226,121306,2,0,L|243:167,2,50
183,145,121813,1,0,0:0:0:0:
183,145,121914,2,0,L|168:88,2,50
101,95,122421,1,0,0:0:0:0:
101,95,122522,2,0,L|86:38,2,50
60,188,123030,1,0,0:0:0:0:
60,188,123131,2,0,L|116:172,1,50
177,245,123536,1,0,0:0:0:0:
177,245,123638,1,0,0:0:0:0:
177,245,123738,2,0,L|146:253,3,25
93,338,124144,5,0,0:0:0:0:
177,245,124448,1,0,0:0:0:0:
93,338,124752,1,0,0:0:0:0:
177,245,125056,1,0,0:0:0:0:
194,341,125360,1,0,0:0:0:0:
194,341,125563,1,0,0:0:0:0:
389,342,125765,1,0,0:0:0:0:
344,219,126069,1,0,0:0:0:0:
389,342,126373,1,0,0:0:0:0:
344,219,126678,1,0,0:0:0:0:
438,251,126982,1,0,0:0:0:0:
438,251,127184,1,0,0:0:0:0:
382,67,127387,5,0,0:0:0:0:
261,104,127691,1,0,0:0:0:0:
382,67,127995,1,0,0:0:0:0:
261,104,128299,1,0,0:0:0:0:
300,8,128603,1,0,0:0:0:0:
300,8,128806,1,0,0:0:0:0:
479,125,129009,1,0,0:0:0:0:
385,206,129313,1,0,0:0:0:0:
479,125,129617,1,0,0:0:0:0:
448,276,129819,1,8,0:0:0:0:
436,292,129921,1,2,0:0:0:0:
421,305,130022,1,2,0:0:0:0:
403,314,130123,1,2,0:0:0:0:
383,318,130225,1,2,0:0:0:0:
363,317,130326,1,2,0:0:0:0:
343,311,130428,1,2,0:0:0:0:
325,301,130529,1,2,0:0:0:0:
311,286,130630,5,2,0:0:0:0:
167,77,132252,1,2,0:0:0:0:
59,365,132860,1,2,0:0:0:0:
11,23,133468,1,2,0:0:0:0:
155,176,133873,1,2,0:0:0:0:
336,342,135495,5,2,0:0:0:0:
502,246,136306,1,2,0:0:0:0:
494,227,136407,1,2,0:0:0:0:
482,210,136509,1,2,0:0:0:0:
467,196,136610,1,2,0:0:0:0:
449,185,136711,1,2,0:0:0:0:
430,177,136813,1,2,0:0:0:0:
410,173,136914,1,2,0:0:0:0:
390,172,137015,1,2,0:0:0:0:
370,175,137117,5,2,0:0:0:0:
169,270,138738,1,2,0:0:0:0:
219,384,139042,1,2,0:0:0:0:
219,384,139346,1,2,0:0:0:0:
363,0,139955,5,2,0:0:0:0:
319,134,140360,1,2,0:0:0:0:
44,92,141982,1,2,0:0:0:0:
219,195,142387,1,2,0:0:0:0:
95,280,142792,1,2,0:0:0:0:
164,314,142995,1,2,0:0:0:0:
190,384,143198,1,2,0:0:0:0:
344,135,143603,5,2,0:0:0:0:
442,350,146897,5,2,0:0:0:0:
190,51,150140,5,2,0:0:0:0:
244,259,152928,5,2,0:0:0:0:
285,363,153333,1,2,0:0:0:0:
150,207,154143,6,0,L|164:145,1,50,2|2,0:0|0:0,0:0:0:0:
161,158,154447,1,2,0:0:0:0:
161,158,154549,1,2,0:0:0:0:
49,235,154752,1,2,0:0:0:0:
49,235,154853,1,2,0:0:0:0:
49,235,154955,1,2,0:0:0:0:
180,324,155157,1,2,0:0:0:0:
196,316,155259,1,2,0:0:0:0:
212,309,155360,1,2,0:0:0:0:
79,116,155563,5,2,0:0:0:0:
87,87,155664,1,2,0:0:0:0:
95,58,155765,2,0,B|137:25|137:25|149:-16,3,75,2|0|0|0,0:0|0:0|0:0|0:0,0:0:0:0:
151,176,156576,5,0,0:0:0:0:
202,96,156779,1,2,0:0:0:0:
202,96,156880,1,0,0:0:0:0:
202,96,156982,1,0,0:0:0:0:
195,254,157184,1,0,0:0:0:0:
93,73,157387,2,0,P|67:121|64:154,1,75.0000028610231,2|0,0:0|0:0,0:0:0:0:
64,140,157691,1,0,0:0:0:0:
64,140,157792,1,0,0:0:0:0:
232,191,157995,1,2,0:0:0:0:
100,250,158198,5,0,0:0:0:0:
100,250,158299,1,0,0:0:0:0:
100,250,158400,2,0,L|90:295,1,37.5000014305115
195,254,158603,2,0,P|217:205|252:181,1,75.0000028610231,2|0,0:0|0:0,0:0:0:0:
138,98,159009,2,0,B|92:156|92:156|43:163,2,112.500004291535,2|2|2,0:0|0:0|0:0,0:0:0:0:
182,201,159819,5,0,0:0:0:0:
76,35,160022,1,2,0:0:0:0:
76,35,160123,1,0,0:0:0:0:
76,35,160225,1,0,0:0:0:0:
40,234,160428,1,0,0:0:0:0:
40,234,160529,1,0,0:0:0:0:
40,234,160630,1,2,0:0:0:0:
162,75,160833,1,0,0:0:0:0:
162,75,160934,1,0,0:0:0:0:
162,75,161036,1,0,0:0:0:0:
47,106,161238,1,0,0:0:0:0:
173,192,161441,5,0,0:0:0:0:
178,217,161542,1,0,0:0:0:0:
183,242,161644,2,0,L|162:307,1,37.5000014305115,2|0,0:0|0:0,0:0:0:0:
231,325,161846,1,0,0:0:0:0:
216,346,161947,1,0,0:0:0:0:
202,367,162049,2,0,L|141:398,1,37.5000014305115
90,334,162252,2,0,P|35:300|18:245,2,112.500004291535,2|2|2,0:0|0:0|0:0,0:0:0:0:
92,171,163063,5,0,0:0:0:0:
186,275,163265,1,2,0:0:0:0:
179,300,163367,1,0,0:0:0:0:
172,325,163468,1,0,0:0:0:0:
92,171,163671,1,0,0:0:0:0:
84,146,163772,1,0,0:0:0:0:
77,121,163873,2,0,B|84:74|84:74|74:46,1,75.0000028610231,2|0,0:0|0:0,0:0:0:0:
214,162,164279,1,0,0:0:0:0:
72,266,164482,1,2,0:0:0:0:
165,85,164684,6,0,P|213:54|225:36,1,75.0000028610231
214,162,165090,2,0,P|166:193|154:211,1,75.0000028610231,2|0,0:0|0:0,0:0:0:0:
51,203,165495,2,0,B|79:139|79:139|68:75,2,112.500004291535,2|2|2,0:0|0:0|0:0,0:0:0:0:
165,85,166306,5,0,0:0:0:0:
260,199,166509,1,2,0:0:0:0:
254,224,166610,1,0,0:0:0:0:
249,249,166711,1,0,0:0:0:0:
363,180,166914,1,0,0:0:0:0:
369,155,167015,1,0,0:0:0:0:
374,130,167117,2,0,B|359:81|359:81|369:40,1,75.0000028610231,2|0,0:0|0:0,0:0:0:0:
491,190,167522,1,0,0:0:0:0:
456,30,167725,1,0,0:0:0:0:
304,157,167928,5,0,0:0:0:0:
314,180,168029,1,0,0:0:0:0:
325,203,168130,2,0,L|373:236,1,50,2|0,0:0|0:0,0:0:0:0:
378,321,168333,2,0,P|450:301|467:272,1,100
406,139,168738,2,0,B|376:47|376:47|405:-4,2,150,2|2|2,0:0|0:0|0:0,0:0:0:0:
231,179,169549,5,0,0:0:0:0:
253,67,169752,1,2,0:0:0:0:
295,273,169955,1,0,0:0:0:0:
272,286,170056,1,0,0:0:0:0:
251,300,170157,1,0,0:0:0:0:
330,133,170360,1,2,0:0:0:0:
368,350,170563,1,0,0:0:0:0:
391,363,170664,1,0,0:0:0:0:
412,377,170765,1,0,0:0:0:0:
366,224,170968,1,2,0:0:0:0:
489,239,171171,5,0,0:0:0:0:
495,214,171272,1,0,0:0:0:0:
499,189,171373,2,0,L|477:140,1,50
511,66,171576,2,0,P|457:36|407:54,1,100,2|0,0:0|0:0,0:0:0:0:
319,138,171982,2,0,B|361:227|361:227|349:292,2,150,2|2|2,0:0|0:0|0:0,0:0:0:0:
286,350,172792,5,0,0:0:0:0:
431,339,172995,1,2,0:0:0:0:
207,256,173198,1,0,0:0:0:0:
191,224,173299,1,0,0:0:0:0:
176,193,173400,1,0,0:0:0:0:
160,162,173502,1,0,0:0:0:0:
146,131,173603,2,0,P|162:48|153:22,1,100,2|0,0:0|0:0,0:0:0:0:
36,167,174009,1,0,0:0:0:0:
262,170,174211,1,0,0:0:0:0:
123,276,174414,6,0,P|93:325|41:349,1,100,0|2,0:0|0:0,0:0:0:0:
200,294,174819,2,0,P|230:245|282:221,1,100
125,162,175225,2,0,B|79:70|79:70|3:33,2,150,2|2|2,0:0|0:0|0:0,0:0:0:0:
297,181,176036,5,0,0:0:0:0:
173,259,176238,1,2,0:0:0:0:
186,291,176340,1,0,0:0:0:0:
199,323,176441,2,0,P|240:361|297:370,1,100
316,368,176745,1,0,0:0:0:0:
348,355,176846,2,0,B|403:311|403:311|450:310,1,100,2|0,0:0|0:0,0:0:0:0:
293,240,177252,1,0,0:0:0:0:
356,119,177455,1,2,0:0:0:0:
225,59,177657,5,0,0:0:0:0:
196,79,177759,1,0,0:0:0:0:
167,99,177860,1,0,0:0:0:0:
138,119,177961,1,0,0:0:0:0:
109,139,178063,2,0,B|46:141|46:141|3:170,1,100,2|0,0:0|0:0,0:0:0:0:
122,5,178468,1,2,0:0:0:0:
266,105,178671,1,2,0:0:0:0:
109,139,178873,1,2,0:0:0:0:
205,198,179076,1,2,0:0:0:0:
131,321,179279,5,2,0:0:0:0:
277,363,179583,1,2,0:0:0:0:
277,363,179684,2,0,L|257:258,1,100,0|2,0:0|0:0,0:0:0:0:
359,234,180090,2,0,P|404:177|446:164,1,100,2|0,0:0|0:0,0:0:0:0:
427,167,180394,1,2,0:0:0:0:
427,167,180495,1,0,0:0:0:0:
290,112,180698,1,2,0:0:0:0:
170,184,180900,2,0,P|58:167|1:93,1,200,2|0,0:0|0:0,0:0:0:0:
296,295,181711,5,2,3:2:0:0:
296,295,181914,1,2,3:2:0:0:
296,295,182117,2,0,P|338:248|343:206,1,75.0000028610231,2|2,0:0|0:0,0:0:0:0:
478,165,182522,1,2,0:0:0:0:
478,165,182826,1,2,0:0:0:0:
74,28,184144,5,2,0:0:0:0:
110,266,184955,5,2,0:0:0:0:
110,266,185157,2,0,P|171:245|258:274,1,150.000005722046,2|2,0:0|0:0,0:0:0:0:
113,159,185765,2,0,P|71:132|35:73,2,112.500004291535,2|2|2,0:0|0:0|0:0,0:0:0:0:
122,305,186576,1,2,0:0:0:0:
122,305,186982,2,0,B|164:242|164:242|212:239|240:204,1,150.000005722046,2|2,0:0|0:0,0:0:0:0:
368,80,188198,6,0,P|435:53|453:27,1,75.0000028610231,2|2,0:0|0:0,0:0:0:0:
385,182,188603,2,0,P|318:209|300:235,1,75.0000028610231,2|2,0:0|0:0,0:0:0:0:
262,41,189009,1,2,0:0:0:0:
262,41,189313,1,2,0:0:0:0:
135,222,191441,5,2,0:0:0:0:
135,222,191644,1,2,0:0:0:0:
159,292,191846,2,0,L|125:194,1,75.0000028610231,0|2,0:0|0:0,0:0:0:0:
251,258,192252,2,0,P|295:315|361:335,2,112.500004291535,2|2|2,0:0|0:0|0:0,0:0:0:0:
134,221,193063,2,0,P|90:164|24:144,2,112.500004291535,2|2|2,0:0|0:0|0:0,0:0:0:0:
422,140,195495,21,2,0:0:0:0:
422,140,195596,1,2,0:0:0:0:
422,140,195698,1,2,0:0:0:0:
286,49,195900,2,0,B|242:72|242:72|195:69,1,75.0000028610231,2|2,0:0|0:0,0:0:0:0:
216,70,196205,1,2,0:0:0:0:
216,70,196306,1,2,0:0:0:0:
131,183,196509,1,2,0:0:0:0:
212,339,196711,1,2,0:0:0:0:
413,305,196914,1,2,0:0:0:0:
474,49,197117,5,2,3:2:0:0:
344,358,197421,1,2,3:2:0:0:
330,96,197725,1,2,3:2:0:0:
440,301,198130,1,2,0:0:0:0:
309,244,198333,2,0,B|266:262|266:262|209:257,1,75.0000028610231,2|2,0:0|0:0,0:0:0:0:
106,53,198738,5,2,3:2:0:0:
89,276,199042,1,2,3:2:0:0:
210,97,199346,1,2,3:2:0:0:
93,167,199549,1,2,0:0:0:0:
100,192,199650,1,2,0:0:0:0:
107,217,199752,1,2,0:0:0:0:
224,241,199955,2,0,B|265:250|265:250|273:275|302:288,1,75.0000028610231,2|2,0:0|0:0,0:0:0:0:
410,52,200360,5,2,3:2:0:0:
467,351,200664,1,2,3:2:0:0:
322,140,200968,1,2,3:2:0:0:
107,162,201373,1,2,0:0:0:0:
208,57,201576,2,0,B|257:52|257:52|297:24,1,75.0000028610231,2|2,0:0|0:0,0:0:0:0:
26,33,201982,5,2,3:2:0:0:
183,192,202286,1,2,3:2:0:0:
17,153,202590,1,2,3:2:0:0:
276,136,203198,2,0,P|316:86|348:75,1,75.0000028610231,2|2,0:0|0:0,0:0:0:0:
207,333,203603,5,2,3:2:0:0:
458,59,203907,1,2,3:2:0:0:
388,317,204211,1,2,3:2:0:0:
209,132,204617,1,2,0:0:0:0:
324,81,204819,2,0,P|387:93|406:109,1,75.0000028610231,2|2,0:0|0:0,0:0:0:0:
159,247,205225,5,2,3:2:0:0:
348,346,205529,1,2,3:2:0:0:
273,211,205833,1,2,3:2:0:0:
433,309,206036,1,2,0:0:0:0:
439,334,206137,1,2,0:0:0:0:
445,359,206238,1,2,0:0:0:0:
478,197,206441,2,0,B|455:162|455:162|426:160|399:132,1,75.0000028610231,2|2,0:0|0:0,0:0:0:0:
68,319,206846,5,2,3:2:0:0:
206,22,207150,1,2,3:2:0:0:
232,278,207455,1,2,3:2:0:0:
35,122,207860,2,0,B|63:77|63:77|64:27,2,75.0000028610231,2|2|2,0:0|0:0|0:0,0:0:0:0:
103,282,208468,6,0,B|164:312|164:312|195:378,2,112.500004291535,2|2|2,3:2|3:2|3:2,0:0:0:0:
207,199,209279,1,8,0:3:0:0:
231,189,209380,1,8,0:3:0:0:
255,179,209482,2,0,L|320:194,1,37.5000014305115,0|8,1:0|0:3,0:0:0:0:
311,276,209684,1,8,0:0:0:0:
336,284,209786,1,4,0:3:0:0:
360,291,209887,2,0,L|411:271,1,37.5000014305115,0|4,1:0|0:3,0:0:0:0:
415,79,210090,5,2,3:2:0:0:
511,304,210394,1,2,3:2:0:0:
511,304,210495,1,0,3:0:0:0:
328,219,210698,1,2,3:2:0:0:
499,166,210900,1,0,3:0:0:0:
381,150,211103,1,2,0:0:0:0:
372,54,211306,2,0,P|388:122|374:166,1,100,2|2,3:2|0:0,0:0:0:0:
497,281,211711,5,2,3:2:0:0:
386,345,212015,1,2,3:2:0:0:
386,345,212117,1,0,3:0:0:0:
443,190,212319,1,2,3:2:0:0:
280,266,212522,1,2,3:2:0:0:
271,290,212623,1,2,0:0:0:0:
262,315,212725,1,2,0:0:0:0:
194,179,212928,2,0,B|176:132|176:132|150:121|140:98,1,100,2|2,3:2|0:0,0:0:0:0:
60,363,213333,5,2,3:2:0:0:
8,133,213637,1,2,3:2:0:0:
8,133,213738,1,0,3:0:0:0:
165,254,213941,1,2,3:2:0:0:
5,315,214144,1,0,3:0:0:0:
208,177,214346,1,2,0:0:0:0:
114,161,214549,2,0,P|175:183|219:174,1,100,2|2,3:2|0:0,0:0:0:0:
68,42,214955,5,2,3:2:0:0:
30,209,215259,1,2,3:2:0:0:
30,209,215360,1,0,3:0:0:0:
208,177,215563,1,2,3:2:0:0:
148,329,215765,1,0,3:0:0:0:
303,97,216171,2,0,B|281:36|281:36|288:-1,1,100,10|2,0:0|0:0,0:0:0:0:
485,229,216576,5,2,3:2:0:0:
257,240,216880,1,2,3:2:0:0:
257,240,216982,1,0,3:0:0:0:
395,353,217184,1,2,3:2:0:0:
303,97,217387,1,0,3:0:0:0:
487,255,217590,1,2,0:0:0:0:
511,163,217792,2,0,P|485:211|495:273,1,100,2|2,3:2|0:0,0:0:0:0:
439,41,218198,5,2,3:2:0:0:
299,191,218502,1,2,3:2:0:0:
299,191,218603,1,0,3:0:0:0:
334,40,218806,1,2,3:2:0:0:
429,260,219009,1,2,3:2:0:0:
419,284,219110,1,2,0:0:0:0:
409,307,219211,1,2,0:0:0:0:
299,191,219414,2,0,B|274:140|274:140|250:135|229:120,1,100,2|2,3:2|0:0,0:0:0:0:
59,337,219819,5,2,3:2:0:0:
40,115,220123,1,2,3:2:0:0:
40,115,220225,1,0,3:0:0:0:
190,227,220428,1,2,3:2:0:0:
0,278,220630,1,0,3:0:0:0:
185,124,220833,2,0,B|244:150|244:150|300:143,2,100,2|2|2,0:0|3:2|0:0,0:0:0:0:
285,306,221441,6,0,B|319:213|319:213|396:165,2,150,2|2|2,3:2|3:2|3:2,0:0:0:0:
485,226,222252,1,8,0:3:0:0:
475,192,222353,1,8,0:3:0:0:
465,158,222455,2,0,L|417:117,1,50,0|8,1:0|0:3,0:0:0:0:
395,247,222657,1,8,0:0:0:0:
405,281,222758,1,4,0:3:0:0:
415,315,222860,2,0,L|463:356,1,50,0|4,1:0|0:3,0:0:0:0:
322,109,223063,6,0,P|160:78|20:135,1,300.000011444092,2|0,3:2|3:0,0:0:0:0:
196,285,223671,2,0,P|281:216|315:160,1,150.000005722046,2|0,3:2|3:0,0:0:0:0:
80,196,224076,1,2,0:0:0:0:
303,183,224279,2,0,P|395:217|454:283,1,150.000005722046,2|0,3:2|0:0,0:0:0:0:
161,373,224684,6,0,L|210:136,2,225.000008583069,2|2|2,3:2|3:2|3:2,0:0:0:0:
381,316,225495,2,0,P|452:283|458:276,1,75.0000028610231,2|0,3:2|0:0,0:0:0:0:
409,233,225698,2,0,P|448:164|448:155,1,75.0000028610231,2|0,0:0|0:0,0:0:0:0:
384,150,225900,2,0,P|375:71|370:64,1,75.0000028610231,2|0,3:2|0:0,0:0:0:0:
314,98,226103,2,0,P|261:39|252:36,1,75.0000028610231,2|0,0:0|0:0,0:0:0:0:
118,204,226306,6,0,P|250:302|400:313,1,300.000011444092,2|0,3:2|3:0,0:0:0:0:
314,98,226914,2,0,P|207:122|152:158,1,150.000005722046,2|0,3:2|3:0,0:0:0:0:
384,231,227319,1,2,0:0:0:0:
173,142,227522,2,0,P|111:64|95:-22,2,150.000005722046,2|0|0,3:2|0:0|3:0,0:0:0:0:
314,98,228333,5,2,3:2:0:0:
424,315,228738,2,0,P|391:386|384:392,1,75.0000028610231,2|0,3:2|0:0,0:0:0:0:
334,341,228941,2,0,P|265:379|256:379,1,75.0000028610231,2|0,0:0|0:0,0:0:0:0:
249,295,229144,2,0,P|174:303|86:358,1,150.000005722046,10|2,0:2|0:0,0:0:0:0:
424,315,229549,6,0,P|505:172|497:21,1,300.000011444092,2|0,3:2|3:0,0:0:0:0:
295,132,230157,2,0,P|331:235|374:285,1,150.000005722046,2|0,3:2|3:0,0:0:0:0:
418,46,230562,1,2,0:0:0:0:
356,267,230765,2,0,P|286:338|202:364,1,150.000005722046,2|0,3:2|0:0,0:0:0:0:
506,136,231171,6,0,L|267:166,2,225.000008583069,2|2|2,3:2|3:2|3:2,0:0:0:0:
164,175,231982,2,0,P|79:135|34:71,1,150.000005722046,2|2,3:2|0:0,0:0:0:0:
282,164,232387,2,0,P|307:254|288:330,1,150.000005722046,2|2,3:2|0:0,0:0:0:0:
243,4,232792,6,0,P|433:31|503:83,2,225.000008583069,2|2|2,3:2|3:2|3:2,0:0:0:0:
458,45,233603,2,0,P|403:142|315:210,2,225.000008583069,2|2|2,3:2|0:0|0:0,0:0:0:0:
243,4,234414,2,0,P|256:117|321:217,2,225.000008583069,2|2|2,3:2|3:2|3:2,0:0:0:0:
155,101,235225,5,8,0:3:0:0:
145,138,235326,1,8,0:3:0:0:
136,175,235428,2,0,L|157:245,1,50,0|8,1:0|0:3,0:0:0:0:
69,238,235630,1,8,0:0:0:0:
80,273,235731,1,4,0:3:0:0:
93,309,235833,2,0,L|150:356,1,50,0|4,1:0|0:3,0:0:0:0:
315,383,236036,6,0,P|450:289|509:150,1,300.000011444092,2|0,3:2|3:0,0:0:0:0:
279,161,236644,2,0,P|266:269|282:333,1,150.000005722046,2|0,3:2|3:0,0:0:0:0:
427,138,237049,1,2,0:0:0:0:
273,308,237252,2,0,P|178:341|92:327,1,150.000005722046,2|0,3:2|0:0,0:0:0:0:
310,110,237657,6,0,L|410:359,2,225.000008583069,2|2|2,3:2|3:2|3:2,0:0:0:0:
59,218,238468,2,0,P|15:153|13:144,1,75.0000028610231,2|0,3:2|0:0,0:0:0:0:
77,132,238671,2,0,P|79:52|83:45,1,75.0000028610231,2|0,0:0|0:0,0:0:0:0:
141,74,238873,2,0,P|189:10|197:7,1,75.0000028610231,2|0,3:2|0:0,0:0:0:0:
228,65,239076,2,0,P|303:41|313:43,1,75.0000028610231,2|0,0:0|0:0,0:0:0:0:
341,262,239279,6,0,P|194:278|59:218,1,300.000011444092,2|0,3:2|3:0,0:0:0:0:
228,65,239887,2,0,P|306:142|333:201,1,150.000005722046,2|0,3:2|3:0,0:0:0:0:
114,144,240292,1,2,0:0:0:0:
324,177,240495,2,0,P|417:143|477:79,2,150.000005722046,2|0|0,3:2|0:0|3:0,0:0:0:0:
228,65,241306,5,2,3:2:0:0:
59,218,241711,2,0,P|57:296|61:304,1,75.0000028610231,2|0,3:2|0:0,0:0:0:0:
127,280,241914,2,0,P|172:344|180:348,1,75.0000028610231,2|0,0:0|0:0,0:0:0:0:
223,276,242117,2,0,P|286:316|341:404,1,150.000005722046,2|2,3:2|0:0,0:0:0:0:
27,163,242522,6,0,P|146:75|293:60,1,300.000011444092,2|0,3:2|3:0,0:0:0:0:
223,276,243130,2,0,P|116:248|63:210,1,150.000005722046,2|0,3:2|3:0,0:0:0:0:
282,150,243535,1,2,0:0:0:0:
84,228,243738,2,0,P|19:303|0:389,1,150.000005722046,2|0,3:2|0:0,0:0:0:0:
175,65,244144,6,0,L|192:294,2,225.000008583069,2|2|2,3:2|3:2|3:2,0:0:0:0:
381,303,244955,2,0,P|457:285|464:279,1,75.0000028610231,2|0,3:2|0:0,0:0:0:0:
426,227,245157,2,0,P|478:167|480:158,1,75.0000028610231,2|0,0:0|0:0,0:0:0:0:
419,141,245360,2,0,P|426:61|423:53,1,75.0000028610231,2|0,3:2|0:0,0:0:0:0:
361,75,245563,2,0,P|321:6|313:1,1,75.0000028610231,2|0,0:0|0:0,0:0:0:0:
175,65,245765,6,0,P|66:165|23:307,1,300.000011444092,2|0,3:2|3:0,0:0:0:0:
247,277,246373,2,0,P|240:167|213:107,1,150.000005722046,2|0,3:2|3:0,0:0:0:0:
113,312,246778,1,2,0:0:0:0:
226,131,246981,2,0,P|312:81|400:79,2,150.000005722046,2|0|0,3:2|0:0|3:0,0:0:0:0:
453,184,247589,1,2,0:0:0:0:
324,249,247792,5,2,3:2:0:0:
324,249,247894,1,2,0:0:0:0:
184,227,248096,1,0,0:0:0:0:
184,227,248198,2,0,P|111:277|68:340,1,150.000005722046,2|0,3:2|0:0,0:0:0:0:
75,325,248502,2,0,P|72:250|44:180,1,150.000005722046,2|0,0:0|0:0,0:0:0:0:
182,64,249009,5,0,0:0:0:0:
182,64,249110,2,0,P|242:66|279:95,1,75.0000028610231
320,26,249414,2,0,P|336:83|320:127,1,75.0000028610231
428,184,249718,2,0,P|411:126|427:82,1,75.0000028610231
342,176,250022,2,0,P|295:213|248:216,1,75.0000028610231
381,251,250326,2,0,P|432:281|450:325,1,75.0000028610231
315,291,250630,2,0,P|280:304|255:332,1,75.0000028610231
217,257,250934,2,0,P|165:226|147:182,1,75.0000028610231
216,161,251238,2,0,P|242:106|284:84,1,75.0000028610231
151,90,251542,2,0,P|124:144|82:166,1,75.0000028610231
113,152,251846,1,0,0:0:0:0:
5,259,252049,5,0,0:0:0:0:
5,259,252150,1,0,0:0:0:0:
5,259,252252,2,0,P|67:235|93:236,1,75.0000028610231
64,326,252556,1,0,0:0:0:0:
64,326,252657,2,0,L|156:344,2,75.0000028610231
151,263,253164,1,0,0:0:0:0:
151,263,253265,2,0,L|243:281,2,75.0000028610231
216,357,253772,1,0,0:0:0:0:
216,357,253873,2,0,L|308:339,2,75.0000028610231
360,383,254380,1,0,0:0:0:0:
360,383,254481,2,0,L|379:291,2,75.0000028610231
451,298,254988,1,0,0:0:0:0:
451,298,255090,2,0,L|439:250,3,37.5000014305115
465,195,255495,6,0,L|453:147,1,37.5000014305115
456,159,255698,2,0,B|415:181|415:181|367:169,1,75.0000028610231
298,92,256103,2,0,L|316:125,1,37.5000014305115
316,125,256306,2,0,B|272:142|272:142|251:186,1,75.0000028610231
174,171,256711,2,0,L|156:204,1,37.5000014305115
157,204,256914,2,0,B|200:221|200:221|221:265,1,75.0000028610231
96,151,257319,2,0,L|74:121,1,37.5000014305115
75,122,257522,2,0,B|117:103|117:103|138:59,1,75.0000028610231
238,26,257928,2,0,L|262:55,1,37.5000014305115
263,55,258131,2,0,B|220:73|220:73|199:117,1,75.0000028610231
344,144,258536,5,0,0:0:0:0:
344,144,258637,1,0,0:0:0:0:
344,144,258738,2,0,L|365:62,1,75.0000028610231
421,2,259144,2,0,L|442:84,1,75.0000028610231
439,74,259448,1,0,0:0:0:0:
439,74,259549,1,0,0:0:0:0:
511,117,259752,2,0,L|490:199,1,75.0000028610231
492,189,260056,1,0,0:0:0:0:
492,189,260157,1,0,0:0:0:0:
511,274,260360,2,0,L|429:253,1,75.0000028610231
438,255,260664,1,0,0:0:0:0:
438,255,260765,1,0,0:0:0:0:
399,157,260968,1,0,0:0:0:0:
323,240,261171,1,0,0:0:0:0:
287,128,261373,1,0,0:0:0:0:
321,138,261475,1,0,0:0:0:0:
297,159,261576,1,0,0:0:0:0:
