osu file format v14

[General]
AudioFilename: audio.mp3
AudioLeadIn: 0
PreviewTime: 7890
Countdown: 0
SampleSet: Soft
StackLeniency: 0.7
Mode: 0
LetterboxInBreaks: 0
WidescreenStoryboard: 1

[Editor]
Bookmarks: 8886,23418,39355,53886,68886,83300,90918,98418,100293,113886,128300,143418,158418,173418,187480,199668
DistanceSpacing: 0.6
BeatDivisor: 8
GridSize: 16
TimelineZoom: 2.1

[Metadata]
Title:Aladdin
TitleUnicode:アラジン
Artist:Wednesday Campanella
ArtistUnicode:水曜日のカンパネラ
Creator:Mint
Version:Expert
Source:
Tags:SUPERMAN SUPERKID KOM_I コムアイ Kenmochi Hidefumi 釼持英郁 ケンモチヒデフミ suiyoubi no
BeatmapID:2406583
BeatmapSetID:1152203

[Difficulty]
HPDrainRate:5
CircleSize:3.6
OverallDifficulty:7.5
ApproachRate:9.1
SliderMultiplier:1.8
SliderTickRate:1

[Events]
//Background and Video events
0,0,"ss.png",0,0
//Break Periods
//Storyboard Layer 0 (Background)
//Storyboard Layer 1 (Fail)
//Storyboard Layer 2 (Pass)
//Storyboard Layer 3 (Foreground)
//Storyboard Layer 4 (Overlay)
//Storyboard Sound Samples

[TimingPoints]
918,468.75,4,2,1,65,1,0
7949,-50,4,2,1,65,0,0
8300,-80,4,2,1,65,0,0
8886,-50,4,2,1,65,0,0
9238,-57.1428571428571,4,2,1,65,0,0
15566,-50,4,2,1,65,0,0
15800,-44.4444444444445,4,2,1,65,0,0
16152,-57.1428571428571,4,2,1,65,0,0
22714,-50,4,2,1,65,0,0
23066,-44.4444444444445,4,2,1,65,0,0
23300,-50,4,2,1,65,0,0
23652,-60.2409638554217,4,2,1,65,0,0
37949,-50,4,2,1,65,0,0
38418,-100,4,2,1,65,0,0
38886,-50,4,2,1,65,0,0
39355,-60.2409638554217,4,2,1,65,0,0
46386,-50,4,2,1,65,0,0
46855,-60.2409638554217,4,2,1,65,0,0
53886,-50,4,2,1,65,0,0
54238,-60.2409638554217,4,2,1,65,0,0
60918,-50,4,2,1,65,0,0
61269,-60.2409638554217,4,2,1,65,0,0
68066,-100,4,2,1,65,0,0
68886,-50,4,2,1,65,0,0
69121,-57.1428571428571,4,2,1,65,0,0
74980,-50,4,2,1,65,0,0
75918,-57.1428571428571,4,2,1,65,0,0
76152,-66.6666666666667,4,2,1,65,0,0
76855,-57.1428571428571,4,2,1,65,0,0
82246,-66.6666666666667,4,2,1,65,0,0
83066,-50,4,2,1,65,0,0
83300,-100,4,2,1,65,0,0
90566,-50,4,2,1,65,0,0
90918,-57.1428571428571,4,2,1,65,0,0
98418,-50,4,2,1,65,0,0
99121,-400,4,2,1,65,0,0
99824,-50,4,2,1,65,0,0
100175,-60.2409638554217,4,2,1,65,0,0
106386,-50,4,2,1,65,0,0
106855,-60.2409638554217,4,2,1,65,0,0
113886,-50,4,2,1,65,0,0
114238,-60.2409638554217,4,2,1,65,0,0
121386,-50,4,2,1,65,0,0
121738,-60.2409638554217,4,2,1,65,0,0
128066,-100,4,2,1,65,0,0
142480,-50,4,2,1,65,0,0
143886,-66.6666666666667,4,2,1,65,0,0
157949,-36.3636363636364,4,2,1,65,0,0
158418,-50,4,2,1,65,0,1
158769,-44.4444444444445,4,2,1,65,0,1
159121,-50,4,2,1,65,0,1
159355,-57.1428571428571,4,2,1,65,0,1
160058,-44.4444444444445,4,2,1,65,0,1
160293,-57.1428571428571,4,2,1,65,0,1
160644,-50,4,2,1,65,0,1
160878,-44.4444444444445,4,2,1,65,0,1
161230,-57.1428571428571,4,2,1,65,0,1
161582,-50,4,2,1,65,0,1
161933,-36.3636363636364,4,2,1,65,0,1
162168,-57.1428571428571,4,2,1,65,0,1
162519,-44.4444444444445,4,2,1,65,0,1
162871,-50,4,2,1,65,0,1
163105,-57.1428571428571,4,2,1,65,0,1
163808,-44.4444444444445,4,2,1,65,0,1
164043,-57.1428571428571,4,2,1,65,0,1
164394,-50,4,2,1,65,0,1
164628,-44.4444444444445,4,2,1,65,0,1
164980,-57.1428571428571,4,2,1,65,0,1
165332,-50,4,2,1,65,0,1
165683,-36.3636363636364,4,2,1,65,0,1
165918,-57.1428571428571,4,2,1,65,0,1
166269,-44.4444444444445,4,2,1,65,0,1
166621,-50,4,2,1,65,0,1
166855,-57.1428571428571,4,2,1,65,0,1
167558,-44.4444444444445,4,2,1,65,0,1
167793,-57.1428571428571,4,2,1,65,0,1
168144,-50,4,2,1,65,0,1
168378,-44.4444444444445,4,2,1,65,0,1
168730,-57.1428571428571,4,2,1,65,0,1
169082,-50,4,2,1,65,0,1
169433,-36.3636363636364,4,2,1,65,0,1
169668,-57.1428571428571,4,2,1,65,0,1
170019,-44.4444444444445,4,2,1,65,0,1
170371,-50,4,2,1,65,0,1
170605,-57.1428571428571,4,2,1,65,0,1
170957,-50,4,2,1,65,0,1
171308,-44.4444444444445,4,2,1,65,0,1
171543,-57.1428571428571,4,2,1,65,0,1
171894,-50,4,2,1,65,0,1
172128,-44.4444444444445,4,2,1,65,0,1
172480,-57.1428571428571,4,2,1,65,0,1
172949,-44.4444444444445,4,2,1,65,0,1
173300,-44.4444444444445,4,2,1,65,0,0
173418,-50,4,2,1,65,0,1
173886,-36.3636363636364,4,2,1,65,0,1
174121,-50,4,2,1,65,0,1
174472,-57.1428571428571,4,2,1,65,0,1
174824,-50,4,2,1,65,0,1
175058,-44.4444444444445,4,2,1,65,0,1
175293,-57.1428571428571,4,2,1,65,0,1
175644,-50,4,2,1,65,0,1
175878,-44.4444444444445,4,2,1,65,0,1
176230,-57.1428571428571,4,2,1,65,0,1
176582,-50,4,2,1,65,0,1
176933,-36.3636363636364,4,2,1,65,0,1
177168,-57.1428571428571,4,2,1,65,0,1
177636,-36.3636363636364,4,2,1,65,0,1
177871,-50,4,2,1,65,0,1
178222,-57.1428571428571,4,2,1,65,0,1
178574,-50,4,2,1,65,0,1
178808,-44.4444444444445,4,2,1,65,0,1
179043,-57.1428571428571,4,2,1,65,0,1
179394,-50,4,2,1,65,0,1
179628,-44.4444444444445,4,2,1,65,0,1
179980,-57.1428571428571,4,2,1,65,0,1
180332,-50,4,2,1,65,0,1
180683,-36.3636363636364,4,2,1,65,0,1
180918,-57.1428571428571,4,2,1,65,0,1
181386,-36.3636363636364,4,2,1,65,0,1
181621,-50,4,2,1,65,0,1
181855,-57.1428571428571,4,2,1,65,0,1
182324,-50,4,2,1,65,0,1
182558,-44.4444444444445,4,2,1,65,0,1
182793,-57.1428571428571,4,2,1,65,0,1
183027,-50,4,2,1,65,0,1
183378,-44.4444444444445,4,2,1,65,0,1
183613,-57.1428571428571,4,2,1,65,0,1
183964,-50,4,2,1,65,0,1
184433,-36.3636363636364,4,2,1,65,0,1
184668,-57.1428571428571,4,2,1,65,0,1
185136,-36.3636363636364,4,2,1,65,0,1
185371,-50,4,2,1,65,0,1
185722,-57.1428571428571,4,2,1,65,0,1
186074,-50,4,2,1,65,0,1
186308,-44.4444444444445,4,2,1,65,0,1
186543,-57.1428571428571,4,2,1,65,0,1
186894,-50,4,2,1,65,0,1
187128,-44.4444444444445,4,2,1,65,0,1
187363,-36.3636363636364,4,2,1,65,0,1
187480,-50,4,2,1,65,0,0
188886,-60.2409638554217,4,2,1,65,0,0

[Colours]
Combo1 : 196,252,3
Combo2 : 16,214,214

[HitObjects]
256,192,5136,12,0,7480,0:0:0:0:
64,19,7714,5,0,0:0:0:0:
253,221,7949,5,0,0:0:0:0:
154,161,8066,6,0,L|174:57,1,90
195,331,8300,6,0,B|80:352|138:300|30:320,1,168.75
161,247,8769,1,0,0:0:0:0:
23,331,8886,6,0,B|136:310|75:364|199:341,1,180
376,251,9238,1,0,0:0:0:0:
298,378,9355,6,0,P|299:338|294:299,1,78.7500007510185
466,239,9589,2,0,P|464:199|469:160,1,78.7500007510185
301,117,9824,1,0,0:0:0:0:
321,19,9941,2,0,P|326:57|324:97,1,78.7500007510185
147,222,10175,6,0,P|57:222|17:157,1,157.500001502037
133,18,10527,1,0,0:0:0:0:
133,18,10644,1,0,0:0:0:0:
233,47,10761,2,0,P|193:51|154:52,1,78.7500007510185
44,187,10996,2,0,P|83:182|122:181,1,78.7500007510185
256,326,11230,5,0,0:0:0:0:
284,222,11347,2,0,P|277:261|276:320,1,78.7500007510185
489,302,11582,2,0,P|487:262|480:223,1,78.7500007510185
382,100,11816,2,0,L|381:201,1,78.7500007510185
275,357,12050,6,0,P|206:324|127:351,1,157.500001502037
8,275,12402,1,0,0:0:0:0:
8,275,12519,1,0,0:0:0:0:
32,371,12636,2,0,P|28:309|24:281,1,78.7500007510185
138,237,12871,2,0,P|133:197|131:158,1,78.7500007510185
300,183,13105,6,0,P|260:192|218:191,1,78.7500007510185
80,75,13339,2,0,P|121:64|163:65,1,78.7500007510185
354,107,13574,1,0,0:0:0:0:
331,9,13691,2,0,P|329:53|332:92,1,78.7500007510185
406,194,13925,6,0,P|331:217|300:287,1,157.500001502037
182,384,14277,1,0,0:0:0:0:
182,384,14394,1,0,0:0:0:0:
207,288,14511,2,0,P|209:327|205:366,1,78.7500007510185
23,362,14746,2,0,P|20:322|24:283,1,78.7500007510185
120,134,14980,5,0,0:0:0:0:
116,237,15097,2,0,L|121:146,1,78.7500007510185
211,191,15332,1,0,0:0:0:0:
32,181,15449,5,0,0:0:0:0:
214,105,15566,6,0,L|206:-3,1,90
331,289,15800,6,0,L|350:162,1,101.250003862381
391,75,16035,5,0,0:0:0:0:
487,101,16152,2,0,P|447:101|397:104,1,78.7500007510185
211,191,16386,6,0,P|145:135|67:140,1,157.500001502037
25,323,16738,1,0,0:0:0:0:
115,300,16855,6,0,P|118:260|114:221,1,78.7500007510185
259,367,17089,2,0,P|255:327|257:288,1,78.7500007510185
408,382,17324,1,0,0:0:0:0:
436,288,17441,2,0,P|439:327|437:366,1,78.7500007510185
470,176,17675,6,0,P|393:179|337:232,1,157.500001502037
304,46,18027,1,0,0:0:0:0:
304,46,18144,1,0,0:0:0:0:
278,145,18261,2,0,P|278:105|275:66,1,78.7500007510185
138,19,18496,2,0,P|135:58|135:97,1,78.7500007510185
68,233,18730,5,0,0:0:0:0:
68,233,18847,1,0,0:0:0:0:
170,200,18964,2,0,P|130:199|91:206,1,78.7500007510185
115,367,19199,1,0,0:0:0:0:
15,351,19316,2,0,P|53:344|93:344,1,78.7500007510185
275,358,19550,6,0,P|365:367|415:313,1,157.500001502037
299,175,19902,1,0,0:0:0:0:
299,175,20019,1,0,0:0:0:0:
327,276,20136,2,0,P|325:238|330:188,1,78.7500007510185
497,159,20371,2,0,P|499:197|494:247,1,78.7500007510185
386,122,20605,6,0,P|326:74|250:88,1,157.500001502037
192,159,20957,1,0,0:0:0:0:
72,28,21074,1,0,0:0:0:0:
160,45,21191,2,0,P|111:53|64:59,1,78.7500007510185
16,204,21425,6,0,P|101:200|149:257,1,157.500001502037
11,336,21777,2,0,P|65:330|119:335,1,78.7500007510185
294,366,22011,2,0,P|254:365|215:371,1,78.7500007510185
411,329,22246,2,0,P|465:323|519:328,1,78.7500007510185
255,184,22480,6,0,L|256:268,1,78.7500007510185
177,65,22714,6,0,L|151:166,1,90
255,2,22949,1,0,0:0:0:0:
356,151,23066,6,0,L|334:43,1,101.250003862381
486,150,23300,6,0,P|385:176|400:280,1,180
498,313,23652,2,0,P|502:275|489:221,1,74.70000108284
426,365,23886,6,0,B|332:376|377:336|280:351,1,149.40000216568
108,358,24238,1,0,0:0:0:0:
196,382,24355,2,0,P|194:344|186:308,1,74.70000108284
29,305,24589,2,0,P|21:341|20:379,1,74.70000108284
109,259,24824,2,0,L|115:172,1,74.70000108284
20,48,25058,1,0,0:0:0:0:
39,148,25175,6,0,P|65:66|152:47,1,149.40000216568
206,6,25527,2,0,P|212:49|214:84,1,74.70000108284
351,93,25761,2,0,P|345:136|343:171,1,74.70000108284
215,178,25996,2,0,P|221:221|223:256,1,74.70000108284
54,356,26230,5,0,0:0:0:0:
32,313,26347,1,0,0:0:0:0:
55,270,26464,2,0,P|93:267|139:267,1,74.70000108284
265,361,26699,2,0,P|227:361|190:364,1,74.70000108284
407,264,26933,1,0,0:0:0:0:
311,285,27050,6,0,P|379:291|425:363,1,149.40000216568
503,287,27402,2,0,P|502:252|504:204,1,74.70000108284
352,191,27636,2,0,P|353:156|351:108,1,74.70000108284
491,113,27871,2,0,P|490:78|492:30,1,74.70000108284
372,121,28105,6,0,P|373:156|371:204,1,74.70000108284
251,104,28339,2,0,P|250:69|252:21,1,74.70000108284
134,118,28574,2,0,P|132:155|133:192,1,74.70000108284
48,351,28808,1,0,0:0:0:0:
141,320,28925,6,0,P|85:264|14:264,1,149.40000216568
27,167,29277,1,0,0:0:0:0:
9,124,29394,1,0,0:0:0:0:
30,80,29511,2,0,P|28:34|30:1,1,74.70000108284
157,116,29746,2,0,P|159:162|157:195,1,74.70000108284
282,21,29980,5,0,0:0:0:0:
331,34,30097,1,0,0:0:0:0:
378,17,30214,2,0,P|376:54|378:91,1,74.70000108284
510,213,30449,2,0,P|511:175|509:138,1,74.70000108284
313,183,30683,1,0,0:0:0:0:
410,182,30800,6,0,P|336:216|322:301,1,149.40000216568
420,351,31152,2,0,P|419:286|413:259,1,74.70000108284
322,375,31386,2,0,P|272:373|234:380,1,74.70000108284
152,289,31621,2,0,P|147:326|149:363,1,74.70000108284
317,276,31855,6,0,P|263:210|193:212,1,149.40000216568
65,116,32207,1,0,0:0:0:0:
117,203,32324,2,0,P|80:213|38:214,1,74.70000108284
138,40,32558,1,0,0:0:0:0:
165,128,32675,6,0,P|174:51|232:8,1,149.40000216568
395,18,33027,2,0,P|343:20|316:16,1,74.70000108284
254,148,33261,2,0,P|306:146|332:149,1,74.70000108284
423,106,33496,2,0,P|420:162|420:194,1,74.70000108284
498,375,33730,5,0,0:0:0:0:
508,328,33847,1,0,0:0:0:0:
489,284,33964,2,0,P|446:280|406:286,1,74.70000108284
293,249,34199,1,0,0:0:0:0:
283,297,34316,1,0,0:0:0:0:
302,341,34433,1,0,0:0:0:0:
212,368,34550,6,0,B|113:375|167:334|43:359,1,149.40000216568
185,278,34902,2,0,P|183:231|183:191,1,74.70000108284
41,56,35136,1,0,0:0:0:0:
22,100,35253,1,0,0:0:0:0:
32,148,35371,2,0,P|35:210|33:237,1,74.70000108284
197,104,35605,5,0,0:0:0:0:
249,112,35722,1,0,0:0:0:0:
271,159,35839,2,0,P|319:160|356:152,1,74.70000108284
464,14,36074,1,0,0:0:0:0:
490,115,36191,2,0,P|489:48|484:23,1,74.70000108284
451,192,36425,6,0,P|422:254|450:327,1,149.40000216568
328,316,36777,2,0,P|330:259|323:212,1,74.70000108284
239,364,37011,6,0,B|146:373|195:332|93:346,1,149.40000216568
148,142,37363,1,0,0:0:0:0:
215,203,37480,6,0,P|213:260|220:307,1,74.70000108284
71,333,37714,2,0,P|73:276|66:229,1,74.70000108284
115,88,37949,6,0,P|121:139|121:194,1,90
322,255,38183,2,0,P|314:303|312:362,1,90
488,193,38418,6,0,L|394:203,1,90
315,171,38769,1,0,0:0:0:0:
499,102,38886,6,0,P|453:34|345:54,1,180
315,171,39238,1,0,0:0:0:0:
239,118,39355,6,0,P|235:75|247:20,1,74.70000108284
137,163,39589,2,0,P|141:206|131:262,1,74.70000108284
60,29,39824,2,0,P|126:33|227:24,1,149.40000216568
28,112,40175,1,0,0:0:0:0:
111,139,40293,6,0,P|108:191|109:217,1,74.70000108284
223,275,40527,2,0,P|226:223|225:197,1,74.70000108284
55,334,40761,2,0,P|113:327|177:329,1,74.70000108284
332,361,40996,1,0,0:0:0:0:
373,338,41113,1,0,0:0:0:0:
418,356,41230,6,0,P|418:319|420:278,1,74.70000108284
257,190,41464,2,0,P|257:153|255:112,1,74.70000108284
448,338,41699,2,0,P|448:301|450:260,1,74.70000108284
287,172,41933,2,0,P|287:135|285:94,1,74.70000108284
380,167,42168,6,0,P|421:168|478:162,1,74.70000108284
445,30,42402,2,0,P|404:29|347:35,1,74.70000108284
137,115,42636,6,0,P|169:42|256:30,1,149.40000216568
122,205,42988,1,0,0:0:0:0:
35,168,43105,2,0,P|36:126|30:85,1,74.70000108284
90,294,43339,6,0,B|185:282|130:322|240:310,1,149.40000216568
436,368,43691,2,0,P|437:326|431:285,1,74.70000108284
324,259,43925,1,0,0:0:0:0:
299,169,44043,6,0,P|297:206|302:243,1,74.70000108284
470,202,44277,2,0,P|432:201|395:203,1,74.70000108284
307,284,44511,1,0,0:0:0:0:
313,379,44628,2,0,P|277:305|212:290,1,149.40000216568
57,381,44980,6,0,P|118:372|153:372,1,74.70000108284
120,199,45214,2,0,P|82:201|46:208,1,74.70000108284
52,348,45449,2,0,P|113:339|148:339,1,74.70000108284
116,168,45683,2,0,P|78:170|42:177,1,74.70000108284
233,55,45918,6,0,P|201:113|222:196,1,149.40000216568
292,128,46269,1,0,0:0:0:0:
484,236,46386,6,0,B|364:257|426:205|307:223,1,180
219,319,46738,1,0,0:0:0:0:
299,363,46855,6,0,P|338:360|388:362,1,74.70000108284
137,364,47089,2,0,P|99:363|62:366,1,74.70000108284
219,319,47324,2,0,P|224:242|216:147,1,149.40000216568
70,86,47675,1,0,0:0:0:0:
28,159,47793,6,0,P|25:205|25:236,1,74.70000108284
152,119,48027,2,0,P|155:73|155:42,1,74.70000108284
115,254,48261,2,0,P|156:251|214:253,1,74.70000108284
337,378,48496,1,0,0:0:0:0:
357,333,48613,1,0,0:0:0:0:
334,293,48730,6,0,P|332:232|334:211,1,74.70000108284
484,198,48964,2,0,P|485:160|483:123,1,74.70000108284
305,264,49199,2,0,P|302:226|304:189,1,74.70000108284
455,165,49433,2,0,P|456:127|454:90,1,74.70000108284
324,18,49668,6,0,P|257:49|246:133,1,149.40000216568
332,108,50019,1,0,0:0:0:0:
150,91,50136,6,0,B|53:101|99:59|-8:82,1,149.40000216568
124,11,50488,1,0,0:0:0:0:
38,166,50605,6,0,P|43:243|39:318,1,149.40000216568
129,378,50957,1,0,0:0:0:0:
149,284,51074,2,0,P|145:326|147:364,1,74.70000108284
310,283,51308,2,0,P|314:320|313:358,1,74.70000108284
411,279,51543,6,0,P|366:205|306:193,1,149.40000216568
227,87,51894,1,0,0:0:0:0:
298,32,52011,2,0,P|328:33|388:28,1,74.70000108284
504,113,52246,2,0,P|474:114|414:109,1,74.70000108284
309,192,52480,5,0,0:0:0:0:
339,288,52597,2,0,P|342:240|338:203,1,74.70000108284
154,345,52832,1,0,0:0:0:0:
124,249,52949,2,0,P|121:297|125:334,1,74.70000108284
233,263,53183,2,0,L|225:177,1,74.70000108284
41,105,53418,5,0,0:0:0:0:
12,144,53535,1,0,0:0:0:0:
26,187,53652,2,0,L|19:261,1,74.70000108284
114,48,53886,6,0,B|243:32|169:83|305:68,1,180
481,27,54238,1,0,0:0:0:0:
393,33,54355,6,0,P|322:103|334:173,1,149.40000216568
434,236,54707,1,0,0:0:0:0:
501,183,54824,2,0,P|504:151|495:108,1,74.70000108284
278,286,55058,1,0,0:0:0:0:
346,232,55175,6,0,P|417:302|405:372,1,149.40000216568
255,376,55527,2,0,P|303:373|355:380,1,74.70000108284
29,325,55761,5,0,0:0:0:0:
175,314,55878,2,0,B|72:329|121:287|28:303,1,149.40000216568
191,230,56230,6,0,P|193:182|186:143,1,74.70000108284
27,147,56464,2,0,P|22:184|25:221,1,74.70000108284
111,112,56699,2,0,L|103:16,1,74.70000108284
284,163,56933,2,0,L|294:80,1,74.70000108284
469,9,57168,5,0,0:0:0:0:
496,52,57285,1,0,0:0:0:0:
472,92,57402,2,0,L|482:182,1,74.70000108284
365,254,57636,2,0,P|329:249|284:254,1,74.70000108284
415,336,57871,2,0,P|452:332|489:337,1,74.70000108284
214,304,58105,6,0,P|164:362|91:363,1,149.40000216568
104,197,58457,1,0,0:0:0:0:
27,308,58574,2,0,P|18:246|25:210,1,74.70000108284
57,27,58808,1,0,0:0:0:0:
5,101,58925,6,0,P|55:159|128:160,1,149.40000216568
175,18,59277,2,0,P|176:57|174:97,1,74.70000108284
301,137,59511,5,0,0:0:0:0:
335,7,59628,2,0,P|328:91|330:170,1,149.40000216568
412,233,59980,5,0,0:0:0:0:
503,206,60097,2,0,P|462:209|408:204,1,74.70000108284
364,333,60332,1,0,0:0:0:0:
273,359,60449,2,0,P|313:356|367:360,1,74.70000108284
314,250,60683,2,0,L|305:148,1,74.70000108284
96,18,60918,6,0,P|192:41|215:135,1,180
39,89,61269,1,0,0:0:0:0:
128,104,61386,6,0,P|126:161|128:187,1,74.70000108284
17,213,61621,2,0,P|18:250|16:287,1,74.70000108284
158,366,61855,6,0,P|220:338|299:367,1,149.40000216568
400,247,62207,1,0,0:0:0:0:
475,290,62324,2,0,P|477:322|478:372,1,74.70000108284
288,162,62558,1,0,0:0:0:0:
263,250,62675,6,0,P|331:274|399:246,1,149.40000216568
284,87,63027,2,0,P|287:135|287:163,1,74.70000108284
57,82,63261,5,0,0:0:0:0:
192,129,63378,2,0,B|91:136|146:94|47:109,1,149.40000216568
170,215,63730,6,0,P|176:254|172:296,1,74.70000108284
19,260,63964,2,0,P|13:221|17:179,1,74.70000108284
19,349,64199,2,0,L|116:332,1,74.70000108284
238,359,64433,2,0,L|311:371,1,74.70000108284
474,290,64668,5,0,0:0:0:0:
488,247,64785,1,0,0:0:0:0:
453,213,64902,2,0,L|379:225,1,74.70000108284
283,88,65136,2,0,P|280:29|286:6,1,74.70000108284
398,46,65371,2,0,P|401:105|395:128,1,74.70000108284
292,262,65605,6,0,P|222:257|160:324,1,149.40000216568
51,367,65957,1,0,0:0:0:0:
15,287,66074,2,0,P|16:248|10:192,1,74.70000108284
58,42,66308,1,0,0:0:0:0:
37,135,66425,6,0,P|107:130|169:197,1,149.40000216568
352,100,66777,2,0,P|350:56|350:19,1,74.70000108284
139,91,67011,1,0,0:0:0:0:
163,180,67128,2,0,P|165:136|165:99,1,74.70000108284
246,5,67363,1,0,0:0:0:0:
254,52,67480,5,0,0:0:0:0:
143,368,67714,5,0,0:0:0:0:
372,215,67949,5,0,0:0:0:0:
262,154,68066,6,0,L|255:209,1,45
240,384,68300,6,0,L|226:291,1,90
271,214,68652,6,0,L|276:169,1,45
178,8,68886,6,0,L|198:129,1,90
100,192,69121,5,0,0:0:0:0:
53,173,69238,1,0,0:0:0:0:
12,189,69355,2,0,P|5:233|11:280,1,78.7500007510185
203,310,69589,2,0,P|210:266|204:219,1,78.7500007510185
10,357,69824,1,0,0:0:0:0:
131,366,69941,2,0,L|53:376,1,78.7500007510185
296,319,70175,6,0,P|372:315|439:381,1,157.500001502037
503,289,70527,1,0,0:0:0:0:
475,250,70644,1,0,0:0:0:0:
496,208,70761,2,0,P|499:152|493:123,1,78.7500007510185
394,0,70996,2,0,P|391:56|397:85,1,78.7500007510185
325,280,71230,5,0,0:0:0:0:
340,235,71347,1,0,0:0:0:0:
310,197,71464,2,0,P|271:198|232:201,1,78.7500007510185
178,8,71699,1,0,0:0:0:0:
94,45,71816,2,0,P|133:41|172:40,1,78.7500007510185
21,159,72050,6,0,P|107:167|149:243,1,157.500001502037
0,243,72402,2,0,P|3:282|4:321,1,78.7500007510185
128,382,72636,2,0,P|124:342|123:303,1,78.7500007510185
181,50,72871,5,0,0:0:0:0:
201,92,72988,1,0,0:0:0:0:
180,134,73105,2,0,P|221:127|281:122,1,78.7500007510185
440,28,73339,1,0,0:0:0:0:
414,65,73457,2,0,P|420:103|423:143,1,78.7500007510185
233,268,73691,1,0,0:0:0:0:
208,308,73808,1,0,0:0:0:0:
221,353,73925,1,0,0:0:0:0:
308,321,74043,6,0,P|346:314|391:310,1,78.7500007510185
496,192,74277,1,0,0:0:0:0:
456,162,74394,1,0,0:0:0:0:
410,174,74511,2,0,P|408:103|389:4,1,157.500001502037
223,122,74863,1,0,0:0:0:0:
320,65,74980,6,0,P|230:80|182:1,1,180
97,246,75332,1,0,0:0:0:0:
4,189,75449,6,0,P|94:204|142:125,1,180
176,347,75800,1,0,0:0:0:0:
198,231,75918,6,0,P|193:278|196:322,1,78.7500007510185
50,350,76152,6,0,B|215:315|138:402|318:362,1,270.000010299683
378,246,76738,1,0,0:0:0:0:
457,294,76855,6,0,P|457:343|460:383,1,78.7500007510185
295,286,77089,2,0,P|297:325|296:364,1,78.7500007510185
469,204,77324,1,0,0:0:0:0:
448,107,77441,2,0,P|448:156|451:196,1,78.7500007510185
382,10,77675,6,0,P|347:91|263:105,1,157.500001502037
171,20,78027,1,0,0:0:0:0:
190,65,78144,1,0,0:0:0:0:
171,108,78261,2,0,P|176:148|171:194,1,78.7500007510185
31,103,78496,2,0,P|26:63|31:17,1,78.7500007510185
102,246,78730,5,0,0:0:0:0:
56,232,78847,1,0,0:0:0:0:
17,259,78964,2,0,P|13:298|18:337,1,78.7500007510185
197,272,79199,1,0,0:0:0:0:
181,375,79316,2,0,P|184:335|179:296,1,78.7500007510185
131,102,79550,6,0,P|180:183|257:180,1,157.500001502037
225,14,79902,2,0,P|220:56|224:102,1,78.7500007510185
328,229,80136,2,0,P|330:189|325:150,1,78.7500007510185
316,49,80371,2,0,P|351:44|403:48,1,78.7500007510185
486,247,80605,5,0,0:0:0:0:
506,297,80722,1,0,0:0:0:0:
476,334,80839,2,0,P|441:329|389:333,1,78.7500007510185
399,150,81074,1,0,0:0:0:0:
305,181,81191,2,0,P|340:186|392:182,1,78.7500007510185
319,383,81425,6,0,P|239:319|173:332,1,157.500001502037
18,294,81777,2,0,P|11:339|15:377,1,78.7500007510185
160,295,82011,2,0,P|167:340|163:378,1,78.7500007510185
87,227,82246,6,0,L|77:146,1,67.5000025749208
327,228,82480,5,0,0:0:0:0:
177,120,82714,6,0,L|184:82,3,22.5000008583069
89,79,82949,5,0,0:0:0:0:
275,91,83066,6,0,L|257:-21,1,90
420,196,83300,6,0,L|444:50,1,135
299,367,83886,6,0,L|348:359,1,45
294,351,84120,2,0,L|340:344,1,45
434,332,84355,5,0,0:0:0:0:
67,298,84589,1,0,0:0:0:0:
78,316,84707,6,0,L|68:371,2,45
160,293,85058,1,0,0:0:0:0:
244,274,85175,2,0,L|241:243,2,22.5
334,271,85410,6,0,L|316:366,1,90
433,358,85761,6,0,L|426:308,1,45
450,368,85996,2,0,L|443:318,1,45
499,251,86230,5,0,0:0:0:0:
345,229,86464,1,0,0:0:0:0:
195,207,86699,1,0,0:0:0:0:
47,189,86933,5,0,0:0:0:0:
12,266,87050,2,0,L|17:299,2,22.5
85,360,87285,6,0,L|94:308,2,45
182,348,87636,6,0,L|191:296,1,45
282,339,87871,1,0,0:0:0:0:
295,352,87988,1,0,0:0:0:0:
376,322,88105,5,0,0:0:0:0:
171,330,88339,6,0,L|180:278,1,45
155,319,88574,2,0,L|164:267,1,45
206,202,88808,5,0,0:0:0:0:
290,220,88925,2,0,L|295:256,2,22.5
362,298,89160,6,0,L|409:292,2,45
295,355,89511,6,0,L|240:347,1,45
295,375,89746,2,0,L|240:367,1,45
154,344,89980,5,0,0:0:0:0:
335,23,90449,5,0,0:0:0:0:
245,97,90566,6,0,L|230:-3,1,90
337,122,90800,5,0,0:0:0:0:
146,52,90918,6,0,P|136:89|140:131,1,78.7500007510185
248,208,91152,2,0,P|258:171|254:129,1,78.7500007510185
148,214,91386,2,0,P|82:217|31:293,1,157.500001502037
203,337,91738,1,0,0:0:0:0:
116,377,91855,6,0,P|115:316|120:291,1,78.7500007510185
293,305,92089,2,0,P|294:366|289:391,1,78.7500007510185
209,247,92324,2,0,L|202:163,1,78.7500007510185
124,29,92558,1,0,0:0:0:0:
71,108,92675,6,0,P|133:65|216:84,1,157.500001502037
301,20,93027,2,0,P|298:67|299:115,1,78.7500007510185
489,198,93261,2,0,P|427:155|344:174,1,157.500001502037
205,276,93613,1,0,0:0:0:0:
295,240,93730,6,0,P|298:287|297:335,1,78.7500007510185
123,374,93964,2,0,P|120:327|121:279,1,78.7500007510185
43,65,94199,1,0,0:0:0:0:
19,105,94316,1,0,0:0:0:0:
30,150,94433,1,0,0:0:0:0:
118,120,94550,6,0,B|219:104|173:145|294:129,1,157.500001502037
406,35,94902,2,0,P|332:40|306:40,1,78.7500007510185
333,203,95136,1,0,0:0:0:0:
375,183,95253,1,0,0:0:0:0:
419,200,95371,2,0,P|493:195|519:195,1,78.7500007510185
380,298,95605,6,0,P|387:350|386:381,1,78.7500007510185
130,375,95839,2,0,P|130:335|136:296,1,78.7500007510185
270,343,96074,1,0,0:0:0:0:
256,245,96191,2,0,L|254:342,1,78.7500007510185
43,275,96425,6,0,P|87:212|163:205,1,157.500001502037
28,144,96777,2,0,P|26:74|26:45,1,78.7500007510185
177,21,97011,2,0,P|179:91|180:190,1,157.500001502037
373,78,97363,1,0,0:0:0:0:
279,115,97480,6,0,P|277:69|285:17,1,78.7500007510185
473,45,97714,2,0,P|475:91|467:143,1,78.7500007510185
344,189,97949,2,0,L|435:203,1,78.7500007510185
434,356,98183,2,0,L|343:370,1,78.7500007510185
47,322,98418,6,0,L|37:367,1,45
256,193,98769,6,0,L|246:238,1,45
465,29,99121,6,0,L|452:94,1,61.875
456,119,99824,6,0,P|404:59|292:62,1,180
137,73,100175,1,0,0:0:0:0:
221,31,100293,6,0,P|226:67|224:105,1,74.70000108284
48,103,100527,2,0,P|46:65|52:29,1,74.70000108284
177,187,100761,2,0,P|119:186|96:190,1,74.70000108284
22,358,100996,1,0,0:0:0:0:
63,340,101113,1,0,0:0:0:0:
102,360,101230,6,0,P|103:335|98:278,1,74.70000108284
203,204,101464,2,0,P|202:179|207:122,1,74.70000108284
80,259,101699,2,0,P|81:234|76:177,1,74.70000108284
181,103,101933,2,0,P|180:78|185:21,1,74.70000108284
288,169,102168,6,0,P|335:176|378:170,1,74.70000108284
372,27,102402,2,0,P|325:20|282:26,1,74.70000108284
483,59,102636,6,0,P|473:155|515:206,1,149.40000216568
467,360,102988,1,0,0:0:0:0:
393,301,103105,2,0,P|396:246|389:210,1,74.70000108284
296,318,103339,6,0,P|205:331|167:382,1,149.40000216568
56,293,103691,2,0,P|54:230|57:213,1,74.70000108284
182,250,103925,1,0,0:0:0:0:
202,151,104043,6,0,P|204:214|201:231,1,74.70000108284
34,127,104277,2,0,P|68:126|116:127,1,74.70000108284
269,28,104511,1,0,0:0:0:0:
175,60,104628,2,0,P|249:63|300:129,1,149.40000216568
476,96,104980,6,0,P|468:150|469:185,1,74.70000108284
321,200,105214,2,0,P|329:254|328:289,1,74.70000108284
445,93,105449,2,0,P|437:147|438:182,1,74.70000108284
296,201,105683,2,0,P|304:255|303:290,1,74.70000108284
121,285,105918,6,0,P|194:288|239:353,1,149.40000216568
151,367,106269,1,0,0:0:0:0:
28,203,106386,6,0,B|141:217|89:164|215:185,1,180
149,10,106738,1,0,0:0:0:0:
59,32,106855,6,0,P|53:68|57:113,1,74.70000108284
233,105,107089,2,0,P|239:69|235:24,1,74.70000108284
203,183,107324,2,0,P|256:127|352:132,1,149.40000216568
221,275,107675,1,0,0:0:0:0:
297,213,107793,6,0,P|334:208|371:210,1,74.70000108284
371,364,108027,2,0,P|334:367|297:362,1,74.70000108284
453,293,108261,2,0,L|466:205,1,74.70000108284
370,14,108496,1,0,0:0:0:0:
344,50,108613,1,0,0:0:0:0:
356,91,108730,6,0,P|312:90|265:94,1,74.70000108284
106,29,108964,2,0,P|150:28|197:32,1,74.70000108284
281,119,109199,2,0,P|237:118|190:122,1,74.70000108284
31,57,109433,2,0,P|75:56|122:60,1,74.70000108284
48,154,109668,6,0,P|93:207|75:297,1,149.40000216568
10,238,110019,1,0,0:0:0:0:
177,294,110136,6,0,B|280:284|226:328|352:315,1,149.40000216568
197,380,110488,1,0,0:0:0:0:
304,224,110605,6,0,P|303:140|299:65,1,149.40000216568
143,126,110957,1,0,0:0:0:0:
162,33,111074,2,0,P|157:72|156:114,1,74.70000108284
392,105,111308,2,0,P|390:67|385:30,1,74.70000108284
165,207,111543,6,0,P|111:144|42:138,1,149.40000216568
142,293,111894,1,0,0:0:0:0:
56,253,112011,6,0,P|57:303|55:338,1,74.70000108284
231,296,112246,2,0,P|230:346|232:381,1,74.70000108284
316,216,112480,5,0,0:0:0:0:
225,202,112598,2,0,P|261:197|313:194,1,74.70000108284
389,318,112832,1,0,0:0:0:0:
480,304,112950,2,0,P|443:298|392:296,1,74.70000108284
419,174,113183,2,0,L|435:79,1,74.70000108284
246,22,113418,5,0,0:0:0:0:
202,12,113535,1,0,0:0:0:0:
167,40,113652,2,0,L|179:113,1,74.70000108284
2,244,113886,6,0,B|119:227|60:280|181:262,1,180
275,111,114238,1,0,0:0:0:0:
230,188,114355,6,0,P|203:274|227:326,1,149.40000216568
357,377,114707,1,0,0:0:0:0:
433,335,114824,2,0,P|434:297|429:249,1,74.70000108284
457,130,115058,1,0,0:0:0:0:
507,216,115175,6,0,P|454:175|359:200,1,149.40000216568
346,25,115527,2,0,P|348:78|346:112,1,74.70000108284
208,180,115761,5,0,0:0:0:0:
184,11,115878,2,0,P|179:80|182:172,1,149.40000216568
28,192,116230,6,0,P|69:184|107:190,1,74.70000108284
75,362,116464,2,0,P|34:370|-4:364,1,74.70000108284
152,265,116699,2,0,L|167:358,1,74.70000108284
323,375,116933,2,0,L|334:301,1,74.70000108284
477,147,117168,5,0,0:0:0:0:
501,186,117285,1,0,0:0:0:0:
484,224,117402,2,0,L|495:297,1,74.70000108284
332,212,117636,2,0,P|328:173|334:130,1,74.70000108284
449,58,117871,2,0,P|453:97|447:140,1,74.70000108284
350,52,118105,6,0,L|269:35,1,74.70000108284
236,142,118339,2,0,L|162:157,1,74.70000108284
3,91,118574,2,0,P|68:147|66:216,1,149.40000216568
90,373,118925,1,0,0:0:0:0:
119,280,119043,6,0,P|116:329|118:361,1,74.70000108284
394,354,119277,2,0,P|395:317|393:280,1,74.70000108284
193,186,119511,5,0,0:0:0:0:
325,226,119628,2,0,B|219:237|269:201|179:214,1,149.40000216568
114,61,119980,5,0,0:0:0:0:
94,154,120097,2,0,P|92:100|97:69,1,74.70000108284
295,127,120332,1,0,0:0:0:0:
315,34,120449,2,0,P|317:88|312:119,1,74.70000108284
193,186,120683,2,0,L|204:89,1,74.70000108284
415,5,120918,5,0,0:0:0:0:
447,36,121035,1,0,0:0:0:0:
440,80,121152,2,0,L|449:154,1,74.70000108284
332,377,121386,6,0,B|221:391|261:341|155:357,1,180
15,254,121738,1,0,0:0:0:0:
63,328,121855,6,0,P|136:325|193:263,1,149.40000216568
96,156,122207,1,0,0:0:0:0:
16,179,122324,2,0,P|12:219|15:257,1,74.70000108284
143,44,122558,1,0,0:0:0:0:
181,132,122675,6,0,P|108:129|51:67,1,149.40000216568
262,12,123027,2,0,P|264:63|262:104,1,74.70000108284
378,177,123261,5,0,0:0:0:0:
401,10,123378,2,0,P|399:89|402:163,1,149.40000216568
508,247,123730,6,0,P|471:242|435:248,1,74.70000108284
297,356,123964,2,0,P|334:362|371:357,1,74.70000108284
276,269,124199,2,0,L|269:176,1,74.70000108284
401,159,124433,2,0,L|408:66,1,74.70000108284
181,10,124668,5,0,0:0:0:0:
145,37,124785,1,0,0:0:0:0:
145,81,124902,2,0,L|150:155,1,74.70000108284
13,227,125136,2,0,P|13:182|26:143,1,74.70000108284
132,245,125371,2,0,P|141:281|140:318,1,74.70000108284
299,375,125605,6,0,P|377:347|439:378,1,149.40000216568
323,203,125957,1,0,0:0:0:0:
239,233,126074,2,0,P|236:275|238:320,1,74.70000108284
387,139,126308,1,0,0:0:0:0:
458,200,126425,6,0,P|380:228|318:197,1,149.40000216568
165,68,126777,2,0,P|162:114|162:160,1,74.70000108284
322,202,127011,5,0,0:0:0:0:
356,19,127128,2,0,P|359:93|356:168,1,149.40000216568
242,369,127480,5,0,0:0:0:0:
269,43,127714,5,0,0:0:0:0:
289,267,127949,5,0,0:0:0:0:
243,147,128066,6,0,L|248:202,1,45
75,32,128300,6,0,L|53:144,1,90
36,104,128652,2,0,L|43:154,1,45
147,176,128886,1,0,0:0:0:0:
135,182,129003,1,0,0:0:0:0:
125,190,129121,2,0,L|114:252,1,45
20,237,129355,6,0,L|36:338,1,90
64,316,129707,2,0,L|52:366,1,45
155,314,129941,1,0,0:0:0:0:
166,329,130058,2,0,L|154:379,1,45
266,358,130293,6,0,L|258:306,1,45
295,378,130527,2,0,L|303:326,1,45
334,354,130761,2,0,L|326:302,1,45
363,374,130995,2,0,L|371:322,1,45
481,344,131230,5,0,0:0:0:0:
468,356,131347,2,0,L|457:262,1,90
472,181,131699,1,0,0:0:0:0:
493,193,131816,2,0,L|488:241,1,45
380,230,132050,6,0,L|391:136,1,90
373,145,132402,2,0,L|365:91,1,45
483,86,132636,1,0,0:0:0:0:
471,79,132753,1,0,0:0:0:0:
456,71,132871,2,0,L|464:17,1,45
370,12,133105,6,0,L|315:21,1,45
285,28,133339,2,0,L|230:37,1,45
153,59,133574,5,0,0:0:0:0:
140,51,133691,1,0,0:0:0:0:
126,38,133808,2,0,L|112:101,1,45
45,141,134043,5,0,0:0:0:0:
59,151,134160,1,0,0:0:0:0:
70,159,134277,1,0,0:0:0:0:
78,165,134394,1,0,0:0:0:0:
86,171,134511,2,0,L|95:220,1,45
126,231,134746,2,0,L|119:284,1,45
64,354,134980,5,0,0:0:0:0:
79,364,135097,2,0,L|179:350,1,90
257,353,135449,1,0,0:0:0:0:
245,372,135566,2,0,L|199:363,1,45
120,275,135800,6,0,L|105:173,1,90
77,195,136152,2,0,L|86:136,1,45
9,98,136386,1,0,0:0:0:0:
18,87,136503,1,0,0:0:0:0:
28,75,136621,2,0,L|16:10,1,45
115,37,136855,6,0,L|207:25,1,90
214,44,137207,2,0,L|259:54,1,45
325,4,137441,1,0,0:0:0:0:
334,18,137558,2,0,L|379:28,1,45
456,86,137793,6,0,L|499:76,1,45
444,114,138027,2,0,L|400:104,1,45
465,141,138261,2,0,L|508:131,1,45
450,165,138495,2,0,L|406:155,1,45
386,234,138730,5,0,0:0:0:0:
404,246,138847,2,0,L|422:341,1,90
331,378,139199,1,0,0:0:0:0:
349,367,139316,2,0,L|359:315,1,45
271,306,139550,6,0,L|173:326,1,90
182,344,139902,2,0,L|128:335,1,45
91,258,140136,1,0,0:0:0:0:
83,269,140253,1,0,0:0:0:0:
75,279,140371,2,0,L|23:289,1,45
41,188,140605,6,0,L|36:138,1,45
33,110,140839,2,0,L|28:60,1,45
106,35,141074,5,0,0:0:0:0:
119,27,141191,1,0,0:0:0:0:
133,14,141308,2,0,L|146:76,1,45
225,72,141543,5,0,0:0:0:0:
239,62,141660,1,0,0:0:0:0:
250,54,141777,1,0,0:0:0:0:
258,48,141894,1,0,0:0:0:0:
266,42,142011,2,0,L|322:32,1,45
346,56,142246,2,0,L|399:67,1,45
473,4,142480,6,0,P|415:88|533:237,1,270
355,374,142949,5,0,0:0:0:0:
293,241,143066,6,0,L|309:134,1,90
384,280,143300,5,0,0:0:0:0:
261,345,143418,6,0,P|186:283|94:301,1,180
11,372,143769,1,0,0:0:0:0:
23,291,143886,6,0,P|22:230|25:205,1,67.5000025749208
52,129,144121,1,0,0:0:0:0:
90,116,144238,1,0,0:0:0:0:
125,138,144355,6,0,P|126:171|124:205,1,67.5000025749208
220,105,144589,1,0,0:0:0:0:
193,76,144707,2,0,P|191:42|193:8,1,67.5000025749208
286,15,144941,1,0,0:0:0:0:
313,44,145059,2,0,P|314:77|312:111,1,67.5000025749208
392,141,145293,6,0,L|461:151,1,67.5000025749208
459,240,145527,2,0,L|390:250,1,67.5000025749208
311,212,145761,2,0,P|307:261|312:292,1,67.5000025749208
439,339,145996,2,0,P|443:290|438:259,1,67.5000025749208
351,358,146230,5,0,0:0:0:0:
351,358,146347,2,0,P|295:317|220:321,1,135.000005149842
132,371,146699,1,0,0:0:0:0:
146,284,146816,2,0,P|149:324|148:357,1,67.5000025749208
33,375,147050,6,0,P|30:300|38:234,1,135.000005149842
118,192,147402,2,0,P|116:139|114:121,1,67.5000025749208
27,47,147636,1,0,0:0:0:0:
61,25,147753,1,0,0:0:0:0:
99,39,147871,2,0,P|132:36|168:37,1,67.5000025749208
268,124,148105,6,0,P|235:121|199:122,1,67.5000025749208
342,75,148339,2,0,P|340:35|341:5,1,67.5000025749208
435,64,148574,1,0,0:0:0:0:
454,100,148691,1,0,0:0:0:0:
433,138,148808,2,0,P|435:178|434:208,1,67.5000025749208
346,176,149043,5,0,0:0:0:0:
327,212,149160,1,0,0:0:0:0:
348,250,149277,2,0,P|346:290|347:320,1,67.5000025749208
447,361,149511,2,0,P|447:327|445:293,1,67.5000025749208
262,365,149746,2,0,P|220:362|188:366,1,67.5000025749208
35,297,149980,5,0,0:0:0:0:
35,297,150097,2,0,P|95:316|159:289,1,135.000005149842
68,146,150449,1,0,0:0:0:0:
95,229,150566,2,0,P|95:195|93:161,1,67.5000025749208
139,80,150800,6,0,P|177:25|250:21,1,135.000005149842
226,107,151152,2,0,P|227:159|225:183,1,67.5000025749208
265,270,151386,1,0,0:0:0:0:
300,250,151503,1,0,0:0:0:0:
339,261,151621,2,0,P|338:313|340:337,1,67.5000025749208
450,328,151855,6,0,P|451:276|449:252,1,67.5000025749208
364,152,152089,1,0,0:0:0:0:
392,178,152207,2,0,P|425:175|464:175,1,67.5000025749208
485,40,152441,1,0,0:0:0:0:
457,66,152559,2,0,P|424:63|385:63,1,67.5000025749208
297,11,152793,6,0,P|301:64|297:90,1,67.5000025749208
181,76,153027,2,0,P|178:42|183:8,1,67.5000025749208
247,151,153261,2,0,L|164:164,1,67.5000025749208
98,105,153496,2,0,L|31:94,1,67.5000025749208
125,236,153730,5,0,0:0:0:0:
125,236,153847,2,0,P|63:261|50:337,1,135.000005149842
171,375,154199,1,0,0:0:0:0:
199,285,154316,2,0,P|201:320|198:361,1,67.5000025749208
353,377,154550,6,0,P|351:326|355:235,1,135.000005149842
262,204,154902,2,0,P|260:140|259:122,1,67.5000025749208
49,52,155136,1,0,0:0:0:0:
86,24,155253,1,0,0:0:0:0:
133,36,155371,2,0,P|131:69|130:103,1,67.5000025749208
230,48,155605,6,0,L|334:33,1,67.5000025749208
454,77,155839,2,0,L|350:62,1,67.5000025749208
200,166,156074,1,0,0:0:0:0:
237,138,156191,1,0,0:0:0:0:
284,150,156309,2,0,P|282:183|281:217,1,67.5000025749208
203,357,156543,6,0,P|202:323|200:289,1,67.5000025749208
15,358,156777,2,0,P|16:324|17:290,1,67.5000025749208
120,11,157011,1,0,0:0:0:0:
101,49,157128,1,0,0:0:0:0:
116,86,157246,2,0,P|117:131|115:156,1,67.5000025749208
45,208,157949,6,0,B|328:155|175:293|473:222,1,433.125004130602
338,265,158418,6,0,B|226:277|275:231|164:235,1,180
305,179,158769,1,0,0:0:0:0:
185,46,158886,6,0,L|194:148,1,101.250003862381
68,113,159121,6,0,L|58:203,1,90
73,347,159355,5,0,0:0:0:0:
167,284,159472,2,0,L|177:373,1,78.7500007510185
73,347,159707,1,0,0:0:0:0:
288,285,159824,6,0,L|278:374,1,78.7500007510185
380,162,160058,6,0,L|396:270,1,101.250003862381
423,223,160234,1,0,0:0:0:0:
419,242,160293,6,0,L|409:333,1,78.7500007510185
501,290,160527,1,0,0:0:0:0:
275,195,160644,6,0,L|290:302,1,90
99,55,160878,6,0,L|85:171,1,101.250003862381
2,92,161113,1,0,0:0:0:0:
172,182,161230,6,0,L|183:269,1,78.7500007510185
84,244,161464,1,0,0:0:0:0:
287,284,161582,6,0,L|268:391,1,90
377,350,161816,1,0,0:0:0:0:
495,169,161933,6,0,L|479:24,1,123.750001180172
172,182,162168,6,0,L|191:25,1,157.500001502037
309,152,162519,6,0,L|294:46,1,101.250003862381
394,93,162753,1,0,0:0:0:0:
459,242,162871,6,0,L|473:145,1,90
283,327,163105,5,0,0:0:0:0:
377,350,163222,2,0,L|366:257,1,78.7500007510185
283,327,163457,1,0,0:0:0:0:
133,252,163574,6,0,L|148:146,1,78.7500007510185
331,172,163808,6,0,L|317:53,1,101.250003862381
343,117,163984,1,0,0:0:0:0:
351,101,164043,6,0,L|369:5,1,78.7500007510185
452,81,164277,1,0,0:0:0:0:
233,131,164394,6,0,L|223:21,1,90
45,207,164628,6,0,L|60:76,1,101.250003862381
144,174,164863,1,0,0:0:0:0:
141,349,164980,6,0,L|129:240,1,78.7500007510185
47,320,165214,1,0,0:0:0:0:
317,369,165332,6,0,L|333:249,1,90
235,305,165566,1,0,0:0:0:0:
477,211,165683,6,0,L|496:354,1,123.750001180172
393,20,165918,6,0,L|362:187,1,157.500001502037
181,12,166269,6,0,L|191:124,1,101.250003862381
283,55,166503,1,0,0:0:0:0:
87,78,166621,6,0,L|68:196,1,90
270,233,166855,5,0,0:0:0:0:
163,204,166972,2,0,L|172:295,1,78.7500007510185
270,233,167207,1,0,0:0:0:0:
68,263,167324,6,0,L|56:356,1,78.7500007510185
270,233,167558,6,0,L|286:345,1,101.250003862381
325,279,167734,1,0,0:0:0:0:
322,291,167793,6,0,L|308:381,1,78.7500007510185
412,135,168027,1,0,0:0:0:0:
482,206,168144,6,0,L|498:304,1,90
321,97,168378,6,0,L|299:217,1,101.250003862381
222,128,168613,1,0,0:0:0:0:
89,239,168730,6,0,L|102:329,1,78.7500007510185
0,300,168964,1,0,0:0:0:0:
212,270,169082,6,0,L|196:380,1,90
306,330,169316,1,0,0:0:0:0:
502,245,169433,6,0,L|483:112,1,123.750001180172
302,196,169668,6,0,L|331:24,1,157.500001502037
133,141,170019,6,0,L|119:36,1,101.250003862381
221,77,170253,1,0,0:0:0:0:
16,213,170371,6,0,L|38:98,1,90
212,273,170605,5,0,0:0:0:0:
117,326,170722,2,0,L|105:236,1,78.7500007510185
212,273,170957,1,0,0:0:0:0:
375,366,171074,6,0,L|391:258,1,90
212,273,171308,6,0,L|198:165,1,101.250003862381
243,218,171484,1,0,0:0:0:0:
247,204,171543,6,0,L|258:112,1,78.7500007510185
441,53,171777,1,0,0:0:0:0:
352,109,171894,6,0,L|340:-6,1,90
156,166,172128,6,0,L|171:58,1,101.250003862381
256,125,172363,1,0,0:0:0:0:
85,312,172480,6,0,L|-10:326,1,78.7500007510185
186,354,172714,2,0,L|108:342,1,78.7500007510185
387,301,172949,6,0,L|267:317,1,101.250003862381
499,358,173183,2,0,L|380:342,1,101.250003862381
164,149,173418,6,0,B|275:153|226:107|338:119,1,180
189,53,173769,1,0,0:0:0:0:
341,205,173886,6,0,L|471:186,1,123.750001180172
263,331,174121,6,0,L|354:346,1,90
164,149,174355,5,0,0:0:0:0:
144,251,174472,2,0,L|231:235,1,78.7500007510185
164,149,174707,1,0,0:0:0:0:
324,241,174824,6,0,L|421:255,1,90
257,100,175058,6,0,L|374:82,1,101.250003862381
318,129,175234,1,0,0:0:0:0:
332,133,175293,6,0,L|436:144,1,78.7500007510185
221,236,175527,1,0,0:0:0:0:
263,331,175644,6,0,L|365:318,1,90
120,222,175878,6,0,L|231:237,1,101.250003862381
164,321,176113,1,0,0:0:0:0:
39,135,176230,6,0,L|134:119,1,78.7500007510185
61,35,176464,1,0,0:0:0:0:
220,135,176582,6,0,L|326:152,1,90
278,44,176816,1,0,0:0:0:0:
484,218,176933,6,0,L|326:238,1,123.750001180172
178,361,177168,6,0,L|9:339,1,157.500001502037
220,235,177519,1,0,0:0:0:0:
138,189,177636,6,0,L|8:210,1,123.750001180172
141,58,177871,6,0,L|36:37,1,90
278,44,178105,5,0,0:0:0:0:
342,129,178222,2,0,L|260:145,1,78.7500007510185
278,44,178457,1,0,0:0:0:0:
220,235,178574,6,0,L|117:215,1,90
434,359,178808,2,0,L|318:374,1,101.250003862381
376,328,178984,1,0,0:0:0:0:
361,326,179043,6,0,L|274:314,1,78.7500007510185
491,235,179277,1,0,0:0:0:0:
412,180,179394,6,0,L|306:196,1,90
169,128,179628,6,0,L|50:111,1,101.250003862381
133,25,179863,1,0,0:0:0:0:
131,217,179980,6,0,L|39:228,1,78.7500007510185
104,321,180214,1,0,0:0:0:0:
308,287,180332,6,0,L|205:270,1,90
246,377,180566,1,0,0:0:0:0:
377,202,180683,6,0,L|516:176,1,123.750001180172
289,33,180918,6,0,L|449:52,1,157.500001502037
202,127,181269,1,0,0:0:0:0:
281,187,181386,6,0,L|418:165,1,123.750001180172
213,282,181621,6,0,L|312:296,1,90
77,124,181855,5,0,0:0:0:0:
56,228,181972,2,0,L|141:214,1,78.7500007510185
77,124,182207,1,0,0:0:0:0:
32,343,182324,6,0,L|140:360,1,90
302,294,182558,6,0,L|420:277,1,101.250003862381
346,242,182734,1,0,0:0:0:0:
360,244,182793,6,0,L|458:255,1,78.7500007510185
348,52,183027,5,0,0:0:0:0:
395,139,183144,2,0,L|494:129,1,90
248,31,183378,6,0,L|362:55,1,101.250003862381
183,100,183613,1,0,0:0:0:0:
163,208,183730,6,0,L|256:194,1,78.7500007510185
183,100,183964,1,0,0:0:0:0:
0,272,184082,6,0,L|117:286,1,90
55,177,184316,1,0,0:0:0:0:
264,353,184433,6,0,L|123:373,1,123.750001180172
489,295,184668,6,0,L|311:266,1,157.500001502037
201,20,185019,1,0,0:0:0:0:
194,112,185136,6,0,L|63:128,1,123.750001180172
371,174,185371,6,0,L|252:155,1,90
68,251,185605,5,0,0:0:0:0:
123,350,185722,2,0,L|17:365,1,78.7500007510185
68,251,185957,1,0,0:0:0:0:
304,294,186074,6,0,L|201:277,1,90
203,87,186308,6,0,L|96:104,1,101.250003862381
147,58,186484,1,0,0:0:0:0:
128,54,186543,6,0,L|18:40,1,101.250003862381
282,159,186777,5,0,0:0:0:0:
214,244,186894,2,0,L|105:260,1,90
460,369,187128,6,0,L|344:349,1,101.250003862381
465,24,187363,6,0,L|287:42,1,123.750001180172
465,24,188418,6,0,P|370:25|324:111,1,180
363,237,188769,1,0,0:0:0:0:
423,176,188886,6,0,P|423:127|416:94,1,74.70000108284
241,45,189121,2,0,P|235:81|236:119,1,74.70000108284
346,219,189355,6,0,L|259:201,1,74.70000108284
345,327,189589,2,0,L|271:342,1,74.70000108284
189,235,189824,2,0,P|194:271|193:309,1,74.70000108284
26,384,190058,1,0,0:0:0:0:
4,352,190175,1,0,0:0:0:0:
31,316,190293,6,0,P|25:279|26:241,1,74.70000108284
129,155,190527,2,0,P|82:158|50:158,1,74.70000108284
198,19,190761,2,0,P|210:106|260:130,1,149.40000216568
298,36,191113,1,0,0:0:0:0:
365,158,191230,5,0,0:0:0:0:
388,60,191347,2,0,P|385:108|388:139,1,74.70000108284
508,178,191582,1,0,0:0:0:0:
485,276,191699,2,0,P|488:228|485:197,1,74.70000108284
388,291,191933,1,0,0:0:0:0:
388,291,192050,6,0,P|293:309|267:373,1,149.40000216568
94,363,192402,2,0,P|97:315|94:284,1,74.70000108284
209,269,192636,2,0,P|206:231|209:194,1,74.70000108284
52,171,192871,2,0,P|55:123|52:92,1,74.70000108284
153,112,193105,6,0,L|241:100,1,74.70000108284
290,203,193339,2,0,L|364:213,1,74.70000108284
324,36,193574,2,0,P|320:85|322:128,1,74.70000108284
454,233,193808,1,0,0:0:0:0:
454,233,193925,6,0,P|473:158|440:96,1,149.40000216568
377,301,194277,2,0,P|373:350|375:393,1,74.70000108284
290,203,194511,2,0,P|294:154|292:111,1,74.70000108284
278,292,194746,2,0,L|192:290,1,74.70000108284
20,356,194980,6,0,P|57:279|137:263,1,149.40000216568
26,127,195332,1,0,0:0:0:0:
135,68,195449,1,0,0:0:0:0:
114,164,195566,2,0,P|113:91|111:78,1,74.70000108284
256,26,195800,6,0,P|255:132|258:194,1,149.40000216568
135,259,196152,2,0,P|176:256|219:255,1,74.70000108284
290,376,196386,2,0,P|249:373|206:372,1,74.70000108284
299,258,196621,2,0,P|340:255|383:254,1,74.70000108284
476,175,196855,6,0,P|386:164|349:114,1,149.40000216568
182,55,197207,1,0,0:0:0:0:
268,16,197324,2,0,P|274:66|269:104,1,74.70000108284
132,225,197558,1,0,0:0:0:0:
99,139,197675,6,0,P|189:150|226:200,1,149.40000216568
122,360,198027,2,0,P|76:360|44:366,1,74.70000108284
206,278,198261,2,0,P|205:333|208:362,1,74.70000108284
444,271,198496,2,0,P|445:233|443:196,1,74.70000108284
148,199,198730,6,0,L|246:189,1,74.70000108284
455,114,198964,2,0,L|357:104,1,74.70000108284
221,105,199199,1,0,0:0:0:0:
235,5,199316,2,0,P|232:45|237:100,1,74.70000108284
301,379,199550,5,0,0:0:0:0:
