osu file format v14

[General]
AudioFilename: audio.mp3
AudioLeadIn: 0
PreviewTime: 78356
Countdown: 0
SampleSet: Soft
StackLeniency: 0.8
Mode: 0
LetterboxInBreaks: 0
WidescreenStoryboard: 1

[Editor]
Bookmarks: 3743,24824,39418,65364,71851,81581,88067,91310,104283,107527,130229,143202,169148,175635,234013
DistanceSpacing: 0.5
BeatDivisor: 4
GridSize: 16
TimelineZoom: 0.9000001

[Metadata]
Title:Titans vs. Xe3 [StreaK Mashup]
TitleUnicode:Titans vs. Xe3 [StreaK Mashup]
Artist:Weathin x Razihel x Aero Chord x Mssingno
ArtistUnicode:Weathin x Razihel x Aero Chord x Mssingno
Creator:StormTwister
Version:Hard
Source:
Tags:Titans XE3 Future Bass Trap EDM StreaK Mashup
BeatmapID:1359697
BeatmapSetID:639163

[Difficulty]
HPDrainRate:5.5
CircleSize:4.5
OverallDifficulty:6
ApproachRate:7.5
SliderMultiplier:1.40000000596046
SliderTickRate:2

[Events]
//Background and Video events
0,0,"Purple Blue.jpg",0,0
//Break Periods
2,24838,38237
2,65379,70950
2,130244,142302
2,169163,174735
//Storyboard Layer 0 (Background)
//Storyboard Layer 1 (Fail)
//Storyboard Layer 2 (Pass)
//Storyboard Layer 3 (Foreground)
//Storyboard Sound Samples

[TimingPoints]
2140,405.405405405405,4,2,0,100,1,0
78337,-100,4,2,0,100,0,1
81581,-100,4,2,0,100,0,0
84824,-100,4,2,0,100,0,1
88062,-100,4,2,0,100,0,0
91310,-100,4,2,0,100,0,1
104257,-100,4,2,0,100,0,0
107527,-100,4,2,0,100,0,1
130229,-100,4,2,0,100,0,0

[Colours]
Combo1 : 255,0,100
Combo2 : 100,0,255
Combo3 : 180,0,255
Combo4 : 255,0,255

[HitObjects]
32,32,3761,5,6,3:3:0:0:
112,192,4166,1,4,3:3:0:0:
192,32,4571,1,8,3:2:0:0:
288,192,4976,1,0,3:3:0:0:
384,32,5382,1,0,3:3:0:0:
464,192,5787,1,0,3:3:0:0:
288,240,6193,1,10,3:2:0:0:
224,64,6598,2,0,B|160:0|80:0|64:32,1,140.000000596046,0|4,3:3|3:2,3:3:0:0:
0,176,7409,5,0,3:3:0:0:
160,256,7814,1,4,3:3:0:0:
0,352,8220,1,0,3:3:0:0:
160,256,8626,1,8,3:2:0:0:
352,256,9030,1,0,3:3:0:0:
352,64,9436,1,10,3:2:0:0:
160,16,9841,2,0,P|80:0|16:0,1,140.000000596046,0|4,3:3|3:2,3:3:0:0:
0,176,10652,5,0,3:3:0:0:
112,320,11057,1,8,3:2:0:0:
304,320,11463,1,0,3:3:0:0:
192,176,11868,1,0,3:3:0:0:
256,0,12274,1,0,3:3:0:0:
336,176,12679,1,10,3:2:0:0:
384,0,13084,2,0,P|448:-16|480:48,1,140.000000596046,0|4,3:3|2:2,3:3:0:0:
480,224,13896,6,0,L|480:304,2,70.000000298023,0|0|0,2:2|2:2|2:2,2:2:0:0:
384,224,14504,2,0,L|384:304,2,70.000000298023,0|0|0,2:2|2:2|2:2,2:2:0:0:
224,128,15314,2,0,P|160:112|160:80,1,70.000000298023,0|0,2:2|2:2,2:2:0:0:
112,32,15720,2,0,P|48:32|32:48,1,70.000000298023,0|0,2:2|2:2,2:2:0:0:
32,128,16125,2,0,L|32:208,1,70.000000298023,0|0,2:2|2:2,2:2:0:0:
128,208,16531,2,0,B|160:192|160:192|208:208,1,70.000000298023,0|0,2:2|2:2,2:2:0:0:
272,368,17139,6,0,P|224:384|192:368,1,70.000000298023,0|0,2:2|2:2,2:2:0:0:
112,368,17544,2,0,P|64:320|64:304,1,70.000000298023,0|0,2:2|2:2,2:2:0:0:
48,224,17950,2,0,P|80:192|128:176,1,70.000000298023,0|0,2:2|2:2,2:2:0:0:
240,64,18557,2,0,P|208:16|208:-16,2,70.000000298023,0|0|0,2:2|2:2|2:2,2:2:0:0:
320,64,19166,2,0,P|352:16|336:-16,2,70.000000298023,0|0|0,2:2|2:2|2:2,2:2:0:0:
272,144,19774,2,0,L|272:224,1,70.000000298023,0|0,2:2|2:2,2:2:0:0:
80,208,20382,6,0,P|80:272|112:288,2,70.000000298023,0|0|0,2:2|2:2|2:2,2:2:0:0:
176,208,20990,2,0,P|176:272|144:288,2,70.000000298023,0|0|0,2:2|2:2|2:2,2:2:0:0:
128,144,21599,2,0,L|128:64,1,70.000000298023,0|0,2:2|2:2,2:2:0:0:
240,80,22003,2,0,P|288:32|288:0,2,70.000000298023,0|0|0,2:2|2:2|2:2,2:2:0:0:
240,176,22611,2,0,P|272:176|304:208,2,70.000000298023,0|0|0,2:2|2:2|2:2,2:2:0:0:
240,80,23220,6,0,B|304:64|352:80|384:112,1,140.000000596046,0|0,2:2|2:2,2:2:0:0:
384,288,24031,2,0,B|368:336|320:336,2,70.000000298023,0|0|0,2:2|2:2|2:2,2:2:0:0:
480,288,24638,1,0,2:2:0:0:
384,80,39436,5,0,0:0:0:0:
384,224,39841,2,0,P|384:272|368:288,2,70.000000298023
384,96,40449,1,0,0:0:0:0:
272,32,40652,2,0,L|176:32,1,70.000000298023
80,64,41057,1,0,0:0:0:0:
80,192,41260,2,0,P|96:240|128:256,1,70.000000298023
224,256,41666,2,0,P|256:272|288:304,1,70.000000298023
384,352,42071,1,0,0:0:0:0:
464,272,42274,6,0,P|496:224|496:192,2,70.000000298023
384,352,42882,2,0,P|336:336|320:304,1,70.000000298023
224,240,43287,1,0,0:0:0:0:
304,176,43490,1,0,0:0:0:0:
240,96,43693,1,0,0:0:0:0:
144,144,43895,2,0,P|96:176|80:208,2,70.000000298023
240,96,44503,2,0,P|272:144|256:160,2,70.000000298023
144,144,45111,2,0,B|144:160|128:176|160:192|128:208|176:224|128:240|176:256|128:288,1,140.000000596046,0|4,0:0|0:0,0:0:0:0:
0,384,45922,5,0,0:0:0:0:
0,256,46328,2,0,P|0:208|16:176,1,70.000000298023
80,96,46733,2,0,P|112:64|144:48,1,70.000000298023
224,48,47138,2,0,P|272:48|304:80,2,70.000000298023
176,128,47747,2,0,P|160:192|160:224,1,70.000000298023
208,288,48152,2,0,P|272:320|304:320,1,70.000000298023
368,304,48557,2,0,P|384:256|384:224,2,70.000000298023
352,144,49166,6,0,P|416:128|464:176,2,140.000000596046,8|8|8,0:0|0:0|0:0,0:0:0:0:
256,256,50382,1,8,0:0:0:0:
176,128,50787,2,8,B|96:80|48:176,2,140.000000596046
256,64,52003,1,8,0:0:0:0:
384,112,52409,6,0,L|480:112,2,70.000000298023
272,112,53017,1,0,0:0:0:0:
176,64,53220,2,0,L|96:16,2,70.000000298023
272,112,54030,5,0,0:0:0:0:
176,176,54233,2,0,P|144:192|96:240,1,70.000000298023
64,320,54638,1,0,0:0:0:0:
192,320,54841,1,0,0:0:0:0:
272,224,55044,2,0,L|352:240,1,70.000000298023
448,304,55449,1,0,0:0:0:0:
464,192,55652,5,0,0:0:0:0:
464,64,55855,2,0,L|368:32,1,70.000000298023
288,16,56260,1,0,0:0:0:0:
192,16,56463,2,0,P|144:32|128:64,2,70.000000298023
336,0,57274,5,0,0:0:0:0:
400,112,57476,2,0,L|464:160,2,70.000000298023
288,176,58084,1,0,0:0:0:0:
192,96,58288,2,0,B|176:64|160:48|128:48,2,70.000000298023
112,192,58895,5,2,2:2:0:0:
16,288,59098,2,0,P|48:336|80:336,1,70.000000298023
192,336,59503,1,0,0:0:0:0:
288,240,59706,2,0,L|352:176,2,70.000000298023
192,336,60517,6,0,P|144:352|112:336,1,70.000000298023
32,272,60922,2,0,P|32:224|48:192,1,70.000000298023
64,80,61328,1,0,0:0:0:0:
160,160,61530,1,0,0:0:0:0:
240,64,61733,2,0,L|320:64,1,70.000000298023
432,64,62138,6,0,L|512:64,1,70.000000298023,2|0,2:2|0:0,0:0:0:0:
480,192,62544,2,0,L|432:256,1,70.000000298023
320,304,62950,1,0,0:0:0:0:
192,256,63153,2,0,L|192:176,1,70.000000298023
256,80,63760,5,0,0:0:0:0:
192,192,63963,1,0,0:0:0:0:
96,96,64166,2,0,L|32:32,2,70.000000298023
192,192,64774,2,0,L|224:128,1,70.000000298023
288,16,65179,1,2,2:2:0:0:
256,192,71869,12,4,76734,0:0:0:0:
256,192,78355,5,2,1:1:0:0:
368,128,78760,2,0,L|368:48,1,70.000000298023
496,64,79166,2,0,L|496:144,1,70.000000298023
432,256,79571,1,0,0:0:0:0:
432,368,79774,1,0,0:0:0:0:
272,368,79976,6,0,L|272:288,1,70.000000298023,2|2,1:1|1:1,1:1:0:0:
272,192,80382,2,0,L|272:112,2,70.000000298023
160,192,80990,1,0,0:0:0:0:
64,128,81193,2,0,L|0:80,2,70.000000298023,0|0|2,0:0|0:0|1:1,0:0:0:0:
160,192,81802,5,2,1:1:0:0:
272,128,82003,2,0,L|336:96,1,70.000000298023
464,96,82409,2,0,L|464:176,1,70.000000298023
464,288,82814,2,0,P|384:320|384:320,1,70.000000298023
272,256,83220,6,0,P|272:224|304:192,1,70.000000298023,6|0,1:1|0:0,0:0:0:0:
400,160,83625,2,0,P|400:128|368:96,1,70.000000298023,2|0,1:1|0:0,0:0:0:0:
256,64,84030,5,0,3:3:0:0:
160,64,84233,2,0,L|80:64,1,70.000000298023,0|0,3:3|3:3,3:3:0:0:
16,160,84638,1,0,0:0:0:0:
96,256,84841,5,6,2:1:0:0:
176,160,85044,2,0,L|256:112,1,70.000000298023
352,160,85449,1,0,0:0:0:0:
416,256,85652,1,0,0:0:0:0:
480,160,85855,1,0,0:0:0:0:
416,80,86057,2,0,L|416:0,2,70.000000298023,2|0|2,1:1|0:0|1:1,0:0:0:0:
416,176,86666,5,2,1:1:0:0:
416,272,86868,2,0,L|416:352,2,70.000000298023
320,192,87476,2,0,L|256:144,1,70.000000298023
176,80,87882,1,0,0:0:0:0:
96,160,88084,6,0,P|96:256|128:288,1,140.000000596046,2|0,1:1|0:0,0:0:0:0:
256,288,88693,1,0,0:0:0:0:
336,224,88895,1,0,0:0:0:0:
256,160,89098,1,0,0:0:0:0:
176,224,89301,1,0,0:0:0:0:
64,224,89503,1,0,0:0:0:0:
128,128,89706,6,0,L|128:32,1,70.000000298023,6|0,3:3|3:3,3:3:0:0:
256,48,90111,2,0,L|256:144,1,70.000000298023,0|0,3:3|3:3,3:3:0:0:
368,112,90517,2,0,L|368:32,1,70.000000298023,0|0,3:3|3:3,3:3:0:0:
512,32,90922,2,0,P|512:96|448:160,1,140.000000596046,4|0,2:2|3:3,3:3:0:0:
368,192,91530,5,2,2:2:0:0:
240,192,91733,2,0,P|208:192|176:160,1,70.000000298023
176,48,92138,1,0,0:0:0:0:
64,48,92341,1,0,0:0:0:0:
64,176,92544,2,0,P|64:240|128:272,1,140.000000596046
256,272,93152,5,0,0:0:0:0:
320,208,93355,1,0,3:3:0:0:
384,272,93557,1,0,0:0:0:0:
320,352,93760,2,0,L|320:272,1,70.000000298023
320,192,94166,2,0,P|320:128|304:112,1,70.000000298023
224,80,94571,6,2,P|176:80|144:112,1,70.000000298023,2|0,1:1|2:1,1:1:0:0:
80,160,94976,1,0,0:0:0:0:
80,272,95179,2,0,P|96:320|128:352,1,70.000000298023
208,256,95584,1,0,0:0:0:0:
256,144,95787,2,0,B|272:112|288:80|320:64,1,70.000000298023
400,32,96193,6,2,L|480:32,2,70.000000298023,2|2|2,2:2|2:2|2:2,2:2:0:0:
288,80,96801,1,2,2:2:0:0:
288,80,97003,2,2,L|192:80,2,70.000000298023,2|2|2,2:2|2:2|2:2,2:2:0:0:
336,176,97611,1,2,2:2:0:0:
272,272,97814,5,2,1:1:0:0:
432,272,98017,2,0,P|480:224|480:208,1,70.000000298023
432,144,98422,1,0,0:0:0:0:
320,176,98625,2,0,L|224:176,1,70.000000298023
160,128,99030,2,0,L|80:128,1,70.000000298023
80,32,99436,6,0,L|176:32,1,70.000000298023,2|0,1:1|0:0,0:0:0:0:
272,32,99841,2,0,L|336:96,1,70.000000298023
320,192,100247,2,0,L|320:272,1,70.000000298023
432,256,100652,2,0,L|432:176,1,70.000000298023
432,80,101057,6,0,B|432:32|400:0|320:64,1,140.000000596046,0|0,3:3|3:3,3:3:0:0:
224,128,101666,1,0,3:3:0:0:
160,48,101869,1,0,3:3:0:0:
80,128,102072,1,0,0:0:0:0:
0,208,102275,2,0,L|80:208,1,70.000000298023,0|2,3:3|2:1,3:3:0:0:
64,320,102679,6,0,L|-16:368,2,70.000000298023,2|2|2,1:1|2:2|2:2,3:2:0:0:
160,368,103287,1,2,2:2:0:0:
272,320,103490,2,2,L|336:368,2,70.000000298023,2|2|2,2:2|2:2|2:2,2:2:0:0:
160,304,104098,1,6,2:2:0:0:
176,192,104301,6,2,L|208:112,1,70.000000298023,2|2,2:2|2:2,2:2:0:0:
320,128,104706,2,2,L|384:176,2,70.000000298023,2|2|2,2:2|2:2|2:2,2:2:0:0:
256,48,105314,2,2,P|256:16|288:0,1,70.000000298023,2|2,2:2|2:2,2:2:0:0:
384,0,105720,2,2,L|464:0,1,70.000000298023,2|2,2:2|2:2,2:2:0:0:
496,96,106125,1,2,2:2:0:0:
432,176,106328,2,2,L|352:192,1,70.000000298023,2|2,2:2|2:2,2:2:0:0:
256,192,106733,2,2,L|176:192,1,70.000000298023,2|2,2:2|2:2,2:2:0:0:
96,192,107138,2,2,L|32:192,2,35.0000001490115,2|2|2,1:1|1:1|1:1,1:1:0:0:
224,192,107544,5,2,1:1:0:0:
368,240,107949,2,0,L|432:304,2,70.000000298023
368,144,108557,2,0,L|432:96,2,70.000000298023
224,192,109166,2,0,L|144:192,1,70.000000298023
32,192,109571,2,0,L|64:256,1,70.000000298023
112,352,109976,2,0,L|192:352,1,70.000000298023
288,352,110382,2,0,L|368:352,1,70.000000298023
384,256,110787,1,2,3:1:0:0:
336,112,111193,6,0,L|256:112,1,70.000000298023
160,112,111598,2,0,L|160:192,2,70.000000298023
80,48,112206,1,0,0:0:0:0:
0,112,112409,2,0,P|0:160|16:192,2,70.000000298023
80,48,113017,1,0,0:0:0:0:
160,96,113220,2,0,P|192:128|192:160,1,70.000000298023
192,272,113625,2,0,P|192:320|208:368,1,70.000000298023
304,336,114030,1,2,3:1:0:0:
464,304,114436,6,0,L|400:256,1,70.000000298023
400,160,114841,2,0,L|400:80,1,70.000000298023
352,0,115247,2,0,L|288:32,1,70.000000298023
240,128,115652,1,0,0:0:0:0:
176,48,115855,2,0,L|96:48,2,70.000000298023
240,128,116463,1,0,0:0:0:0:
272,240,116666,1,0,0:0:0:0:
272,336,116868,2,0,B|272:384|240:384|208:384,2,70.000000298023,0|0|4,0:0|0:0|2:2,0:0:0:0:
272,208,117679,5,0,0:0:0:0:
208,128,117882,1,0,0:0:0:0:
144,208,118084,1,0,0:0:0:0:
208,288,118287,1,0,0:0:0:0:
304,336,118490,2,0,B|352:336|384:320|400:240,1,140.000000596046
400,144,119098,5,0,0:0:0:0:
336,64,119301,1,0,0:0:0:0:
400,0,119503,1,0,0:0:0:0:
464,64,119706,1,0,0:0:0:0:
480,160,119909,1,0,0:0:0:0:
480,256,120112,2,0,L|480:336,2,70.000000298023,0|0|4,0:0|0:0|2:2,0:0:0:0:
480,112,120922,5,0,0:0:0:0:
480,0,121125,2,0,L|384:0,1,70.000000298023
336,80,121530,2,0,L|336:160,1,70.000000298023
224,192,121936,2,0,L|224:112,1,70.000000298023
240,16,122341,6,0,L|144:16,1,70.000000298023
80,48,122747,2,0,L|0:48,1,70.000000298023
0,160,123152,1,0,0:0:0:0:
64,240,123355,1,0,0:0:0:0:
128,160,123557,2,0,P|160:144|176:192,1,70.000000298023,0|4,0:0|2:2,0:0:0:0:
192,304,124166,5,0,0:0:0:0:
256,384,124368,1,0,0:0:0:0:
320,304,124571,1,0,0:0:0:0:
256,224,124774,1,0,0:0:0:0:
256,112,124976,2,0,B|256:64|288:48|304:48,1,70.000000298023
384,48,125382,6,0,L|384:128,1,70.000000298023
432,224,125787,1,0,0:0:0:0:
320,224,125990,1,0,0:0:0:0:
352,320,126193,1,0,0:0:0:0:
240,320,126395,1,0,0:0:0:0:
240,192,126598,2,0,B|208:176|208:176|160:192|160:192,2,70.000000298023,0|0|2,0:0|0:0|1:1,0:0:0:0:
240,368,127409,6,2,P|192:368|160:352,1,70.000000298023,2|2,2:2|2:2,2:2:0:0:
96,288,127814,1,2,2:2:0:0:
32,192,128017,1,2,2:2:0:0:
128,128,128220,2,2,L|208:80,2,70.000000298023,2|2|2,1:1|1:1|1:1,1:1:0:0:
32,192,128828,1,2,1:1:0:0:
144,272,129233,6,2,P|192:240|208:208,1,70.000000298023,2|2,3:2|3:2,3:2:0:0:
256,144,129638,1,2,3:2:0:0:
352,128,129841,1,2,3:2:0:0:
432,208,130044,1,6,3:2:0:0:
112,288,143220,5,0,0:0:0:0:
176,160,143626,2,0,B|224:112|256:112,1,70.000000298023
336,112,144031,1,0,0:0:0:0:
432,112,144234,2,0,L|512:112,2,70.000000298023
336,112,144842,5,0,0:0:0:0:
224,48,145045,1,0,0:0:0:0:
128,128,145247,2,0,L|64:192,1,70.000000298023
80,288,145653,1,0,0:0:0:0:
176,368,145855,1,0,0:0:0:0:
288,368,146058,2,0,L|368:368,2,70.000000298023
176,368,146666,5,0,0:0:0:0:
96,288,146869,1,0,0:0:0:0:
160,192,147072,1,0,0:0:0:0:
272,176,147274,2,0,P|304:160|352:80,1,70.000000298023
448,112,147680,1,0,0:0:0:0:
496,0,147882,6,0,L|400:0,1,70.000000298023
304,0,148288,2,0,L|304:80,1,70.000000298023
304,176,148693,2,0,L|368:224,1,70.000000298023
512,224,149301,2,0,B|512:272|448:336|448:336|432:336,1,140.000000596046
272,336,150112,6,0,L|208:288,1,70.000000298023
176,192,150517,2,0,L|96:192,1,70.000000298023
48,96,150923,1,0,0:0:0:0:
0,192,151126,2,0,L|0:272,1,70.000000298023
96,336,151531,1,0,0:0:0:0:
192,256,151734,2,0,L|192:160,1,70.000000298023
192,80,152139,1,0,0:0:0:0:
304,0,152545,1,0,0:0:0:0:
400,96,152950,6,0,P|432:144|384:224,2,140.000000596046
272,64,154166,1,0,0:0:0:0:
144,64,154572,2,0,B|96:64|64:96|32:160,2,140.000000596046
272,64,155788,1,0,0:0:0:0:
272,64,156193,5,4,2:2:0:0:
384,128,156599,2,0,P|416:160|416:192,1,70.000000298023,0|0,2:2|2:2,2:2:0:0:
400,288,157004,2,0,P|384:320|336:352,1,70.000000298023,0|0,2:2|2:2,2:2:0:0:
256,320,157409,2,0,P|256:288|256:240,1,70.000000298023,0|0,2:2|2:2,2:2:0:0:
256,96,158017,6,0,L|176:96,1,70.000000298023,0|0,2:2|2:2,2:2:0:0:
176,0,158423,2,0,L|256:0,2,70.000000298023,0|0|0,2:2|2:2|2:2,2:2:0:0:
80,48,159031,2,0,L|16:112,1,70.000000298023
32,288,159639,1,0,2:2:0:0:
128,208,159842,6,0,P|176:176|208:176,1,70.000000298023,0|0,2:2|2:2,2:2:0:0:
256,272,160247,1,0,2:2:0:0:
320,176,160450,1,0,2:2:0:0:
448,176,160653,2,0,P|480:192|480:256,1,70.000000298023,0|0,2:2|2:2,2:2:0:0:
448,320,161058,6,0,B|432:352|416:368|400:384,1,70.000000298023
304,384,161463,1,0,0:0:0:0:
240,272,161666,1,0,0:0:0:0:
176,384,161869,1,0,0:0:0:0:
128,272,162072,1,0,0:0:0:0:
64,368,162274,2,0,P|32:368|0:336,1,70.000000298023
0,224,162680,5,0,0:0:0:0:
48,96,163085,2,0,L|128:96,1,70.000000298023
112,0,163490,2,0,L|32:0,2,70.000000298023
208,64,164099,1,0,0:0:0:0:
336,32,164504,5,0,0:0:0:0:
448,32,164707,2,0,B|448:48|432:64|464:64|432:80|464:80|432:96|464:96|432:112|464:112|432:128|464:128|432:144|464:144|432:160,1,70.000000298023
464,208,165112,2,0,B|496:240|512:272|512:320,1,70.000000298023
448,352,165517,2,0,P|416:368|352:368,1,70.000000298023
256,256,166328,6,0,L|256:176,1,70.000000298023
256,80,166734,1,0,0:0:0:0:
144,112,166936,1,0,0:0:0:0:
112,224,167139,1,0,0:0:0:0:
112,352,167342,1,0,0:0:0:0:
272,320,167747,6,0,B|272:272|272:272|288:256,1,70.000000298023
304,128,168153,1,0,0:0:0:0:
416,80,168355,2,0,B|448:80|448:80|448:176,1,70.000000298023
432,240,168761,2,0,B|432:256|432:256|464:256|464:256|464:304,1,70.000000298023
256,192,175653,12,0,180517,0:0:0:0:
400,304,182139,5,4,3:3:0:0:
320,192,182545,2,0,L|240:208,1,70.000000298023
144,256,182950,2,0,L|80:304,2,70.000000298023
251,205,183558,2,0,P|283:189|299:157,1,70.000000298023
288,48,183963,6,0,B|272:32|240:16|208:16,1,70.000000298023
112,16,184369,1,0,0:0:0:0:
48,96,184572,2,0,P|32:160|48:208,1,70.000000298023
80,256,184977,2,0,B|112:288|160:272,1,70.000000298023
256,256,185382,1,0,0:0:0:0:
400,240,185788,6,0,L|400:144,1,70.000000298023
512,176,186193,2,0,L|512:272,1,70.000000298023
448,352,186599,1,0,0:0:0:0:
448,240,186801,1,0,0:0:0:0:
448,128,187004,6,0,B|432:96|400:80|336:80,1,70.000000298023
272,80,187409,2,0,P|240:80|176:128,1,70.000000298023
96,160,187815,1,0,3:3:0:0:
144,256,188017,2,0,L|176:320,1,70.000000298023,0|0,3:3|2:2,3:3:0:0:
256,384,188423,1,0,3:3:0:0:
352,304,188626,6,0,L|432:256,1,70.000000298023
352,176,189031,2,0,L|272:224,1,70.000000298023
208,160,189436,1,0,0:0:0:0:
288,96,189639,1,0,0:0:0:0:
192,64,189842,2,0,B|192:32|240:0|288:0,1,70.000000298023
352,16,190247,6,0,P|384:16|416:48,1,70.000000298023
448,144,190653,1,0,0:0:0:0:
368,224,190855,1,0,0:0:0:0:
304,144,191058,2,0,B|288:128|272:96|208:96,1,70.000000298023
144,144,191463,2,0,B|128:160|96:176|80:208|80:240,2,70.000000298023
304,112,192274,6,0,P|368:112|400:160,1,70.000000298023
464,176,192680,1,0,0:0:0:0:
464,288,192882,1,0,0:0:0:0:
336,288,193085,2,0,L|336:368,1,70.000000298023
192,352,193490,6,0,B|176:336|128:336|240:336|128:304|240:304|128:288|240:288|128:240|112:224,1,140.000000596046
48,160,194099,1,0,0:0:0:0:
160,128,194301,2,0,B|144:144|224:144|144:160|224:176|144:176|224:192|144:192|224:208,1,70.000000298023
176,304,194707,2,0,B|112:320|240:336|112:352|240:368|112:384,1,140.000000596046,0|0,0:0|3:3,0:0:0:0:
16,272,195517,6,0,P|16:224|80:192,1,70.000000298023
112,112,195923,1,0,0:0:0:0:
192,32,196126,1,0,0:0:0:0:
272,96,196328,2,0,P|288:112|320:176,1,70.000000298023
336,256,196734,1,0,0:0:0:0:
336,256,196936,5,0,0:0:0:0:
256,160,197139,1,0,0:0:0:0:
192,256,197342,1,0,0:0:0:0:
128,160,197545,1,0,0:0:0:0:
64,256,197747,1,0,0:0:0:0:
0,160,197950,2,0,P|-31:128|0:144,1,140.000000596046,0|0,0:0|3:3,0:0:0:0:
128,160,198558,5,0,0:0:0:0:
160,80,198761,1,0,0:0:0:0:
240,32,198963,1,0,0:0:0:0:
320,80,199166,1,0,0:0:0:0:
352,160,199369,1,0,0:0:0:0:
384,256,199572,2,0,B|416:272|336:288|416:304|336:304|416:320|336:320|416:336|336:336|416:352|256:352,1,140.000000596046
224,352,200180,5,0,0:0:0:0:
112,352,200382,2,0,B|96:224,1,70.000000298023
16,272,200788,2,0,L|0:352,2,70.000000298023
64,160,201396,1,0,0:0:0:0:
128,64,201599,1,0,3:3:0:0:
240,64,201801,6,0,B|272:48|240:80|272:64|240:96|272:80|304:112,1,70.000000298023
384,32,202207,1,0,0:0:0:0:
464,96,202409,1,0,0:0:0:0:
384,160,202612,1,0,0:0:0:0:
432,272,202815,2,0,P|400:272|352:304,1,70.000000298023
240,304,203423,6,0,L|160:272,1,70.000000298023
80,240,203828,1,0,0:0:0:0:
48,144,204031,1,0,0:0:0:0:
112,64,204234,1,0,0:0:0:0:
176,144,204436,2,0,B|192:80|192:208|208:80|208:208|224:80|224:208|240:80|240:208|256:80,1,140.000000596046,0|0,0:0|3:3,0:0:0:0:
368,16,205247,6,0,L|432:48,1,70.000000298023
480,128,205653,2,0,L|448:192,1,70.000000298023
384,272,206058,2,0,L|336:192,1,70.000000298023
304,112,206463,6,0,L|256:48,1,70.000000298023
240,48,206869,2,0,L|208:112,1,70.000000298023
176,192,207274,1,0,0:0:0:0:
320,192,207477,1,0,0:0:0:0:
256,288,207680,1,0,0:0:0:0:
256,288,207882,1,0,0:0:0:0:
256,288,208085,6,0,P|208:288|160:256,1,70.000000298023
80,240,208490,1,0,0:0:0:0:
48,144,208693,2,0,P|64:112|96:96,1,70.000000298023
160,48,209099,1,0,0:0:0:0:
256,112,209301,1,0,0:0:0:0:
352,48,209504,1,0,0:0:0:0:
448,64,209707,6,0,P|480:80|496:112,1,70.000000298023
496,224,210112,1,0,0:0:0:0:
432,320,210315,1,0,0:0:0:0:
384,224,210517,1,0,0:0:0:0:
320,320,210720,1,0,0:0:0:0:
320,320,210923,2,0,B|272:288|272:336|256:288|240:336|240:288|224:336|224:288|192:240,1,140.000000596046
128,176,211734,6,0,B|112:144|96:160|80:160|80:96,1,70.000000298023
112,32,212139,1,0,0:0:0:0:
224,32,212342,1,0,0:0:0:0:
336,48,212545,2,0,B|352:32|352:0|352:0|400:16,1,70.000000298023
448,80,212950,6,0,B|464:96|464:128|448:144,1,70.000000298023
384,224,213355,1,0,0:0:0:0:
272,208,213558,1,0,0:0:0:0:
304,112,213761,1,0,0:0:0:0:
224,48,213963,1,0,0:0:0:0:
112,64,214166,2,0,B|96:64|112:112|112:112|32:144|112:176,1,140.000000596046
256,192,214977,6,0,B|272:176|272:160|288:144|304:160|336:160,1,70.000000298023
416,160,215382,2,0,B|432:160|448:176|432:176|416:208|448:192|512:208|480:208|480:224|480:256,1,70.000000298023
496,288,215788,2,0,B|496:304|480:320|480:304|416:304,1,70.000000298023
336,288,216193,1,0,0:0:0:0:
224,288,216396,1,0,0:0:0:0:
272,208,216599,1,0,0:0:0:0:
160,208,216801,2,0,L|80:208,2,70.000000298023
272,208,217409,2,0,B|288:240|288:240|320:208|352:240|352:240|352:240|384:208,1,140.000000596046
448,96,218220,5,0,0:0:0:0:
320,16,218423,1,0,0:0:0:0:
224,16,218626,2,0,P|192:16|144:48,1,70.000000298023
96,80,219031,2,0,L|32:144,1,70.000000298023
32,224,219436,1,0,0:0:0:0:
112,304,219639,1,0,0:0:0:0:
320,304,220045,5,0,0:0:0:0:
448,304,220247,1,0,0:0:0:0:
448,304,220450,2,0,B|448:256|432:256|432:256|416:256|416:224,1,70.000000298023
352,208,220855,1,0,0:0:0:0:
288,16,221261,6,0,P|240:16|224:48,1,70.000000298023
176,112,221666,1,0,0:0:0:0:
208,208,221869,2,0,P|256:192|256:160,1,70.000000298023
336,144,222274,2,0,P|368:144|384:192,1,70.000000298023
432,240,222680,1,0,0:0:0:0:
352,304,222882,6,0,B|336:288|336:272|272:256,1,70.000000298023
192,272,223288,1,0,0:0:0:0:
96,192,223490,1,0,0:0:0:0:
192,144,223693,1,0,0:0:0:0:
192,48,223896,2,0,B|192:32|176:16|176:16|128:16|112:32|112:32|112:64|80:64,1,140.000000596046
64,224,224707,6,0,B|48:240|32:256|32:272|32:304,1,70.000000298023
80,352,225112,2,0,B|96:384|128:384|160:352,1,70.000000298023
208,288,225517,2,0,L|288:288,2,70.000000298023
112,224,226126,1,0,0:0:0:0:
112,112,226328,1,0,0:0:0:0:
112,112,226531,2,0,P|144:64|176:48,1,70.000000298023
256,64,226936,1,0,0:0:0:0:
192,160,227139,2,0,P|192:208|224:240,2,70.000000298023
192,48,227950,6,0,P|208:16|256:16,1,70.000000298023
336,0,228355,1,0,0:0:0:0:
416,80,228558,1,0,0:0:0:0:
416,192,228761,2,0,B|384:208|336:192|336:192|320:224|288:208,1,140.000000596046
240,128,229369,2,0,L|192:64,1,70.000000298023
144,16,229774,2,0,L|64:64,1,70.000000298023
48,144,230180,1,0,0:0:0:0:
80,240,230382,2,0,B|112:224|112:224|144:192|160:208|160:208|176:240|224:208,1,140.000000596046
320,160,231193,5,0,0:0:0:0:
448,160,231396,1,0,0:0:0:0:
512,256,231599,1,0,0:0:0:0:
384,256,231801,2,0,B|352:256|336:288|304:240,2,70.000000298023
448,160,232409,2,0,P|464:128|448:80,1,70.000000298023
320,48,233017,5,0,0:0:0:0:
192,48,233220,1,0,0:0:0:0:
160,160,233423,1,0,0:0:0:0:
256,256,233626,1,0,0:0:0:0:
352,160,233828,1,0,0:0:0:0:
256,160,234031,1,0,0:0:0:0:
