osu file format v14

[General]
AudioFilename: audio.mp3
AudioLeadIn: 0
PreviewTime: 24322
Countdown: 0
SampleSet: Soft
StackLeniency: 0.7
Mode: 0
LetterboxInBreaks: 0
WidescreenStoryboard: 0

[Editor]
Bookmarks: 56873,90329,92677,95126,95228,95330,169718
DistanceSpacing: 0.6
BeatDivisor: 4
GridSize: 16
TimelineZoom: 2.999999

[Metadata]
Title:The Great Escape
TitleUnicode:The Great Escape
Artist:We Are Scientists
ArtistUnicode:We Are Scientists
Creator:feathers268
Version:Escape
Source:
Tags:We Are Scientists The Great Escape
BeatmapID:1560900
BeatmapSetID:739788

[Difficulty]
HPDrainRate:4
CircleSize:4
OverallDifficulty:7
ApproachRate:9
SliderMultiplier:2.1
SliderTickRate:2

[Events]
//Background and Video events
0,0,"escape.png",0,0
//Break Periods
//Storyboard Layer 0 (Background)
//Storyboard Layer 1 (Fail)
//Storyboard Layer 2 (Pass)
//Storyboard Layer 3 (Foreground)
//Storyboard Sound Samples

[TimingPoints]
639,408.163265306122,4,2,0,65,1,0
65938,408.163265306122,4,2,0,65,1,1
65943,408.163265306122,4,2,0,65,1,0
98187,-100,4,2,0,65,0,1
111045,-100,4,2,0,65,0,0
124310,-100,4,2,0,65,0,1
150432,-100,4,2,0,65,0,0
170024,-100,4,2,0,65,0,0
183085,-100,4,2,0,65,0,1
195840,-100,4,2,0,65,0,0

[HitObjects]
192,144,7985,6,0,L|128:176,2,52.5
272,224,8394,2,0,L|336:256,2,52.5
176,288,8802,2,0,L|112:320,2,52.5
224,144,9210,2,0,L|288:176,2,52.5
373,105,9618,1,0,2:2:0:0:
373,105,9720,1,0,2:2:0:0:
373,105,9822,1,0,2:2:0:0:
128,192,10026,5,0,2:2:0:0:
128,192,10128,1,0,2:2:0:0:
128,192,10230,1,0,2:2:0:0:
304,224,10434,5,0,2:2:0:0:
304,224,10536,1,0,2:2:0:0:
304,224,10638,1,0,2:2:0:0:
192,304,10843,5,0,2:2:0:0:
192,304,10945,1,0,2:2:0:0:
192,304,11047,1,0,2:2:0:0:
384,224,11251,5,0,2:2:0:0:
384,224,11353,1,0,2:2:0:0:
384,224,11455,1,0,2:2:0:0:
224,160,11659,5,0,2:2:0:0:
224,160,11761,1,0,2:2:0:0:
224,160,11863,1,0,2:2:0:0:
320,80,12067,5,0,0:0:0:0:
345,86,12169,1,0,0:0:0:0:
368,97,12271,1,0,0:0:0:0:
387,114,12373,1,0,0:0:0:0:
405,133,12475,1,0,0:0:0:0:
414,157,12577,1,0,0:0:0:0:
419,182,12679,1,0,0:0:0:0:
418,208,12781,1,0,0:0:0:0:
411,233,12883,5,0,0:0:0:0:
292,305,13087,1,0,0:0:0:0:
292,305,13292,2,0,L|256:192,1,105
205,50,13700,5,0,0:0:0:0:
144,256,13904,1,0,0:0:0:0:
160,288,14108,5,0,0:0:0:0:
293,104,14312,1,0,0:0:0:0:
240,304,14516,1,0,0:0:0:0:
224,336,14720,5,0,0:0:0:0:
222,128,14924,1,0,0:0:0:0:
369,284,15128,1,0,0:0:0:0:
384,320,15332,5,0,0:0:0:0:
336,96,15536,1,0,0:0:0:0:
272,272,15741,2,0,L|256:208,1,52.5
240,192,15945,5,0,0:0:0:0:
96,256,16149,2,0,L|112:320,1,52.5
128,336,16353,5,0,0:0:0:0:
144,96,16557,1,0,0:0:0:0:
128,64,16761,5,0,0:0:0:0:
86,296,16965,1,0,0:0:0:0:
62,157,17169,1,0,0:0:0:0:
80,128,17373,5,0,0:0:0:0:
208,304,17577,1,0,0:0:0:0:
240,112,17781,1,0,0:0:0:0:
256,80,17985,5,0,0:0:0:0:
304,269,18190,1,0,0:0:0:0:
352,48,18394,1,0,0:0:0:0:
384,80,18496,1,0,0:0:0:0:
400,128,18598,6,0,P|391:151|368:176,1,52.5
77,183,19006,6,0,P|100:191|122:212,1,52.5
416,276,19414,6,0,P|401:295|384:336,1,52.5
128,304,19822,6,0,L|144:192,1,105
160,64,20230,1,0,0:0:0:0:
240,272,20434,5,0,0:0:0:0:
304,96,20638,1,0,0:0:0:0:
368,336,20843,1,0,0:0:0:0:
336,336,20945,5,0,0:0:0:0:
304,320,21047,1,0,0:0:0:0:
256,80,21251,1,0,0:0:0:0:
208,288,21455,1,0,0:0:0:0:
160,80,21659,1,0,0:0:0:0:
128,96,21761,5,0,0:0:0:0:
112,128,21863,1,0,0:0:0:0:
208,304,22067,1,0,0:0:0:0:
256,64,22271,2,0,L|272:128,1,52.5
288,144,22475,5,0,0:0:0:0:
448,208,22679,2,0,L|432:144,1,52.5
416,128,22883,5,0,0:0:0:0:
352,320,23087,1,0,0:0:0:0:
320,80,23292,1,0,0:0:0:0:
272,192,23496,1,0,0:0:0:0:
176,80,23700,5,0,0:0:0:0:
144,320,23904,1,0,0:0:0:0:
224,192,24108,1,0,0:0:0:0:
304,320,24312,5,0,0:0:0:0:
272,96,24516,1,0,0:0:0:0:
240,224,24720,1,0,0:0:0:0:
144,48,24924,1,0,0:0:0:0:
160,260,25128,2,0,P|128:309|75:326,1,105
304,48,25536,5,0,0:0:0:0:
320,80,25638,5,0,0:0:0:0:
320,128,25741,1,0,0:0:0:0:
208,336,25945,1,0,0:0:0:0:
192,304,26047,5,0,0:0:0:0:
192,256,26149,1,0,0:0:0:0:
368,96,26353,2,0,L|421:80,2,52.5
117,176,26761,1,0,0:0:0:0:
325,195,26965,1,0,0:0:0:0:
161,253,27169,6,0,P|197:303|245:321,1,105
388,200,27577,2,0,L|439:181,2,52.5
161,253,27985,1,0,0:0:0:0:
315,138,28190,1,0,0:0:0:0:
92,133,28394,2,0,P|128:82|176:64,1,105
352,64,28802,5,0,0:0:0:0:
282,201,29006,1,0,0:0:0:0:
419,132,29210,1,0,0:0:0:0:
267,107,29414,1,0,0:0:0:0:
376,211,29618,6,0,L|426:308,2,105
333,69,30230,1,0,0:0:0:0:
333,69,30434,2,0,P|298:120|251:140,1,105
96,144,30843,6,0,L|160:48,2,105
179,315,31455,1,0,0:0:0:0:
179,315,31659,2,0,P|214:264|261:244,1,105
432,192,32067,6,0,P|416:211|406:243,1,52.5
80,128,32475,6,0,P|95:147|104:178,1,52.5
387,252,32883,5,0,0:0:0:0:
176,208,33087,1,0,0:0:0:0:
375,135,33292,1,0,0:0:0:0:
160,99,33496,1,0,0:0:0:0:
384,240,33700,2,0,P|368:304|336:336,1,105
112,208,34108,5,0,0:0:0:0:
332,162,34312,1,0,0:0:0:0:
128,96,34516,1,0,0:0:0:0:
360,51,34720,1,0,0:0:0:0:
144,192,34924,2,0,P|160:256|192:288,1,105
416,272,35332,5,0,0:0:0:0:
325,147,35536,1,0,0:0:0:0:
325,301,35741,1,0,0:0:0:0:
416,177,35945,1,0,0:0:0:0:
265,217,36149,2,0,L|199:126,2,105
325,301,36761,5,0,0:0:0:0:
203,132,36965,2,0,P|149:93|104:89,1,105
337,115,37373,2,0,L|400:205,2,105
215,46,37985,5,0,0:0:0:0:
144,288,38190,1,0,0:0:0:0:
136,99,38394,1,0,0:0:0:0:
272,288,38598,1,0,0:0:0:0:
304,320,38700,5,0,0:0:0:0:
352,320,38802,1,0,0:0:0:0:
240,96,39006,1,0,0:0:0:0:
208,64,39108,5,0,0:0:0:0:
160,64,39210,1,0,0:0:0:0:
186,230,39414,2,0,P|218:276|300:302,1,105
300,298,39720,5,0,0:0:0:0:
336,288,39822,1,0,0:0:0:0:
372,88,40026,1,0,0:0:0:0:
415,250,40230,1,0,0:0:0:0:
286,142,40434,6,0,L|272:88,2,52.5
327,305,40843,1,0,0:0:0:0:
378,139,41047,1,0,0:0:0:0:
215,182,41251,6,0,L|151:198,2,52.5
378,139,41659,1,0,0:0:0:0:
192,135,41863,1,0,0:0:0:0:
231,298,42067,6,0,L|247:362,2,52.5
176,91,42475,1,0,0:0:0:0:
117,248,42679,1,0,0:0:0:0:
240,80,42883,1,0,0:0:0:0:
272,112,42985,5,0,0:0:0:0:
272,160,43087,1,0,0:0:0:0:
236,324,43292,1,0,0:0:0:0:
344,172,43496,1,0,0:0:0:0:
192,144,43700,1,0,0:0:0:0:
192,144,43802,5,0,0:0:0:0:
192,144,43904,1,0,0:0:0:0:
152,309,44108,1,0,0:0:0:0:
299,293,44312,2,0,P|347:261|363:197,1,105
358,176,44618,5,0,0:0:0:0:
340,143,44720,1,0,0:0:0:0:
144,144,44924,2,0,P|119:196|138:259,1,105
272,64,45332,1,0,0:0:0:0:
308,70,45434,1,0,0:0:0:0:
339,88,45536,2,0,P|380:128|396:213,1,105
271,284,45945,1,0,0:0:0:0:
301,93,46149,1,0,0:0:0:0:
254,108,46251,5,0,0:0:0:0:
235,149,46353,1,0,0:0:0:0:
169,305,46557,1,0,0:0:0:0:
160,118,46761,1,0,0:0:0:0:
108,260,46965,1,0,0:0:0:0:
108,260,47067,5,0,0:0:0:0:
108,260,47169,1,0,0:0:0:0:
60,98,47373,1,0,0:0:0:0:
232,90,47577,2,0,P|280:122|296:186,1,105
297,201,47883,5,0,0:0:0:0:
284,235,47985,1,0,0:0:0:0:
128,256,48190,2,0,P|85:224|68:176,1,105
185,55,48598,1,0,0:0:0:0:
220,46,48700,1,0,0:0:0:0:
256,45,48802,2,0,P|310:62|363:130,1,105
305,270,49210,1,0,0:0:0:0:
211,119,49414,1,0,0:0:0:0:
211,119,49516,5,0,0:0:0:0:
211,119,49618,1,0,0:0:0:0:
219,286,49822,1,0,0:0:0:0:
270,106,50026,1,0,0:0:0:0:
147,242,50230,1,0,0:0:0:0:
111,214,50332,5,0,0:0:0:0:
105,166,50434,1,0,0:0:0:0:
157,40,50638,1,0,0:0:0:0:
288,80,50843,2,0,P|336:112|352:176,1,105
349,191,51149,5,0,0:0:0:0:
338,226,51251,1,0,0:0:0:0:
192,320,51455,2,0,P|136:308|94:256,1,105
137,112,51863,1,0,0:0:0:0:
164,87,51965,1,0,0:0:0:0:
195,68,52067,6,0,P|249:48|399:95,1,210
448,224,52679,1,0,0:0:0:0:
240,160,52883,1,0,0:0:0:0:
352,304,53087,1,0,0:0:0:0:
352,304,53496,5,0,0:0:0:0:
336,80,53700,1,0,0:0:0:0:
240,288,53904,1,0,0:0:0:0:
320,96,54108,1,0,0:0:0:0:
160,208,54312,1,0,0:0:0:0:
144,240,54516,5,0,0:0:0:0:
192,32,54720,1,0,0:0:0:0:
256,240,54924,2,0,P|320:304|352:304,1,105
416,144,55332,1,0,0:0:0:0:
256,112,55536,1,0,0:0:0:0:
208,320,55741,1,0,0:0:0:0:
208,320,56149,5,0,0:0:0:0:
176,96,56353,1,0,0:0:0:0:
176,96,56761,5,0,0:0:0:0:
288,272,56965,1,0,0:0:0:0:
288,64,57169,1,0,0:0:0:0:
384,288,57373,1,0,0:0:0:0:
413,259,57475,2,0,L|429:195,1,52.5
97,169,57985,5,0,0:0:0:0:
96,128,58087,2,0,L|130:71,1,52.5
320,64,58394,1,0,0:0:0:0:
320,64,58598,6,0,L|336:192,1,105
320,208,58904,1,0,0:0:0:0:
288,240,59006,2,0,B|240:272|240:272|160:256,1,105
160,64,59414,5,0,0:0:0:0:
112,288,59618,1,0,0:0:0:0:
112,288,60026,5,0,0:0:0:0:
80,96,60230,1,0,0:0:0:0:
256,256,60434,1,0,0:0:0:0:
192,64,60638,1,0,0:0:0:0:
397,71,60843,5,0,0:0:0:0:
265,203,61047,1,0,0:0:0:0:
449,174,61251,1,0,0:0:0:0:
283,89,61455,1,0,0:0:0:0:
368,256,61659,1,0,0:0:0:0:
167,237,61863,1,0,0:0:0:0:
240,32,62067,5,0,0:0:0:0:
167,237,62271,2,0,P|199:301|231:317,1,105
240,128,62679,1,0,0:0:0:0:
320,320,62883,1,0,0:0:0:0:
320,320,63292,5,0,0:0:0:0:
272,64,63496,1,0,0:0:0:0:
112,208,63700,1,0,0:0:0:0:
365,310,63904,2,0,L|403:270,1,52.5
416,224,64108,1,0,0:0:0:0:
190,62,64516,5,0,0:0:0:0:
147,74,64618,2,0,L|109:114,1,52.5
336,80,64924,5,0,0:0:0:0:
176,272,65128,2,0,L|138:312,1,52.5
292,79,65536,6,0,L|256:183,1,105
205,334,65938,1,0,0:0:0:0:
144,128,66147,1,0,0:0:0:0:
160,96,66351,5,0,0:0:0:0:
293,280,66555,1,0,0:0:0:0:
240,80,66759,1,0,0:0:0:0:
224,48,66963,5,0,0:0:0:0:
222,256,67167,1,0,0:0:0:0:
369,100,67371,1,0,0:0:0:0:
384,64,67575,5,0,0:0:0:0:
336,288,67779,1,0,0:0:0:0:
272,112,67983,2,0,L|256:176,1,52.5
240,192,68187,5,0,0:0:0:0:
96,128,68391,2,0,L|112:64,1,52.5
128,48,68596,5,0,0:0:0:0:
144,288,68800,1,0,0:0:0:0:
128,320,69004,5,0,0:0:0:0:
86,88,69208,1,0,0:0:0:0:
62,227,69412,1,0,0:0:0:0:
80,256,69616,5,0,0:0:0:0:
208,80,69820,1,0,0:0:0:0:
240,272,70024,1,0,0:0:0:0:
256,304,70228,5,0,0:0:0:0:
304,115,70432,1,0,0:0:0:0:
352,336,70636,1,0,0:0:0:0:
384,304,70738,1,0,0:0:0:0:
400,256,70840,6,0,P|391:233|369:211,1,52.5
77,201,71249,6,0,P|100:193|122:172,1,52.5
416,108,71657,6,0,P|401:89|384:64,1,52.5
368,288,72065,6,0,L|421:304,2,52.5
96,208,72473,1,0,0:0:0:0:
334,190,72677,1,0,0:0:0:0:
161,131,72881,2,0,P|197:81|245:63,1,105
390,178,73289,6,0,L|441:197,2,52.5
130,147,73698,1,0,0:0:0:0:
329,247,73902,1,0,0:0:0:0:
92,251,74106,2,0,P|128:302|176:320,1,105
352,320,74514,5,0,0:0:0:0:
282,183,74718,1,0,0:0:0:0:
419,252,74922,1,0,0:0:0:0:
267,277,75126,1,0,0:0:0:0:
376,173,75330,2,0,L|426:76,2,105
352,320,75942,1,0,0:0:0:0:
352,320,76147,6,0,P|317:269|270:249,1,105
96,240,76555,2,0,L|160:336,2,105
128,64,77167,1,0,0:0:0:0:
128,64,77371,2,0,P|164:115|212:133,1,105
432,192,77779,6,0,P|416:173|406:141,1,52.5
128,224,78187,6,0,P|101:231|79:247,1,52.5
384,144,78596,5,0,0:0:0:0:
186,179,78800,1,0,0:0:0:0:
402,239,79004,1,0,0:0:0:0:
196,275,79208,1,0,0:0:0:0:
384,144,79412,2,0,P|368:80|336:48,1,105
144,192,79820,5,0,0:0:0:0:
349,223,80024,1,0,0:0:0:0:
125,288,80228,1,0,0:0:0:0:
332,322,80432,1,0,0:0:0:0:
144,192,80636,2,0,P|160:128|192:96,1,105
416,112,81045,5,0,0:0:0:0:
325,237,81249,1,0,0:0:0:0:
325,83,81453,1,0,0:0:0:0:
416,207,81657,1,0,0:0:0:0:
269,161,81861,2,0,L|203:252,2,105
325,83,82473,5,0,0:0:0:0:
204,251,82677,6,0,P|160:288|112:288,1,105
332,337,83085,2,0,L|395:247,2,105
238,339,83698,5,0,0:0:0:0:
144,96,83902,1,0,0:0:0:0:
146,285,84106,1,0,0:0:0:0:
272,96,84310,1,0,0:0:0:0:
304,64,84412,5,0,0:0:0:0:
352,64,84514,1,0,0:0:0:0:
240,288,84718,1,0,0:0:0:0:
208,320,84820,5,0,0:0:0:0:
160,320,84922,1,0,0:0:0:0:
81,173,85126,2,0,P|113:111|163:76,1,105
304,64,85534,1,0,0:0:0:0:
338,76,85636,5,0,0:0:0:0:
362,103,85738,1,0,0:0:0:0:
411,257,85942,1,0,0:0:0:0:
301,159,86147,1,0,0:0:0:0:
301,159,86249,5,0,0:0:0:0:
301,159,86351,2,0,L|266:118,2,52.5
149,291,86759,1,0,0:0:0:0:
313,266,86963,1,0,0:0:0:0:
313,266,87065,5,0,0:0:0:0:
313,266,87167,2,0,L|363:250,2,52.5
172,207,87575,1,0,0:0:0:0:
306,116,87779,1,0,0:0:0:0:
306,116,87881,5,0,0:0:0:0:
306,116,87983,2,0,L|339:75,2,52.5
272,304,88391,1,0,0:0:0:0:
176,80,88596,6,0,L|208:128,1,52.5
176,160,88800,2,0,L|208:208,1,52.5
194,248,89004,1,0,0:0:0:0:
352,192,89208,1,0,0:0:0:0:
128,160,89412,6,0,L|163:114,1,52.5
204,135,89616,2,0,L|239:89,1,52.5
279,87,89820,1,0,0:0:0:0:
384,224,90024,2,0,P|368:273|327:304,1,105
288,320,90330,1,0,0:0:0:0:
240,329,90432,2,0,L|198:297,1,52.5
128,135,90738,6,0,P|185:127|239:165,1,105
200,307,91147,1,0,0:0:0:0:
163,302,91249,1,0,0:0:0:0:
134,278,91351,2,0,P|105:227|127:133,1,157.5
387,230,91861,1,0,0:0:0:0:
352,243,91963,5,0,0:0:0:0:
317,256,92065,1,0,0:0:0:0:
283,269,92167,1,0,0:0:0:0:
248,283,92269,1,0,0:0:0:0:
114,139,92473,1,0,0:0:0:0:
310,49,92677,1,0,0:0:0:0:
327,81,92779,5,0,0:0:0:0:
330,117,92881,1,0,0:0:0:0:
320,152,92983,1,0,0:0:0:0:
302,184,93085,1,0,0:0:0:0:
139,259,93289,2,0,P|162:311|254:344,1,157.5
287,341,93698,5,0,0:0:0:0:
321,328,93800,1,0,0:0:0:0:
360,113,94004,2,0,P|339:160|295:187,1,105
101,167,94412,1,0,0:0:0:0:
106,130,94514,1,0,0:0:0:0:
131,103,94616,2,0,P|182:76|282:102,1,157.5
208,268,95126,1,0,0:0:0:0:
208,268,95228,1,0,0:0:0:0:
208,268,95330,2,0,L|154:306,2,52.5
368,160,95738,1,0,0:0:0:0:
224,80,95942,1,0,0:0:0:0:
192,100,96045,5,0,0:0:0:0:
173,129,96147,1,0,0:0:0:0:
164,164,96249,1,0,0:0:0:0:
165,201,96351,1,0,0:0:0:0:
315,281,96555,2,0,P|363:249|379:185,1,105
379,169,96861,5,0,0:0:0:0:
363,135,96963,2,0,L|294:150,1,52.5
121,215,97269,2,0,P|151:257|199:275,1,105
236,78,97677,1,0,0:0:0:0:
200,69,97779,1,0,0:0:0:0:
164,75,97881,6,0,P|122:114|128:227,1,157.5
384,223,98391,1,0,0:0:0:0:
198,157,98596,1,0,0:0:0:0:
352,80,98800,1,0,0:0:0:0:
352,80,99208,5,0,0:0:0:0:
316,307,99412,1,0,0:0:0:0:
240,96,99616,1,0,0:0:0:0:
300,291,99820,1,0,0:0:0:0:
160,176,100024,1,0,0:0:0:0:
144,144,100228,5,0,0:0:0:0:
192,352,100432,1,0,0:0:0:0:
256,144,100636,2,0,P|320:80|352:80,1,105
416,240,101045,1,0,0:0:0:0:
256,272,101249,1,0,0:0:0:0:
208,64,101453,1,0,0:0:0:0:
208,64,101861,5,0,0:0:0:0:
176,288,102065,1,0,0:0:0:0:
176,288,102473,5,0,0:0:0:0:
288,112,102677,1,0,0:0:0:0:
288,320,102881,1,0,0:0:0:0:
400,112,103085,2,0,L|416:176,1,52.5
400,208,103289,1,0,0:0:0:0:
112,176,103698,5,0,0:0:0:0:
99,221,103800,2,0,L|112:272,1,52.5
320,320,104106,1,0,0:0:0:0:
320,320,104310,6,0,L|336:192,1,105
320,176,104616,1,0,0:0:0:0:
288,144,104718,2,0,B|240:112|240:112|160:128,1,105
160,320,105126,5,0,0:0:0:0:
112,96,105330,1,0,0:0:0:0:
112,96,105738,5,0,0:0:0:0:
80,288,105942,1,0,0:0:0:0:
256,128,106147,1,0,0:0:0:0:
192,320,106351,1,0,0:0:0:0:
397,313,106555,5,0,0:0:0:0:
265,181,106759,1,0,0:0:0:0:
449,210,106963,1,0,0:0:0:0:
283,295,107167,1,0,0:0:0:0:
368,128,107371,1,0,0:0:0:0:
160,240,107575,1,0,0:0:0:0:
240,352,107779,5,0,0:0:0:0:
176,128,107983,2,0,P|208:64|240:48,1,105
240,256,108391,1,0,0:0:0:0:
320,64,108596,1,0,0:0:0:0:
320,64,109004,5,0,0:0:0:0:
272,320,109208,1,0,0:0:0:0:
160,192,109412,1,0,0:0:0:0:
333,47,109616,2,0,L|381:92,1,52.5
385,127,109820,1,0,0:0:0:0:
191,321,110228,5,0,0:0:0:0:
146,307,110330,2,0,L|111:269,1,52.5
352,304,110636,5,0,0:0:0:0:
176,112,110840,2,0,L|138:72,1,52.5
352,112,111249,6,0,L|311:216,1,105
256,352,111657,5,0,0:0:0:0:
96,160,111861,2,0,L|128:208,1,52.5
176,192,112065,2,0,L|208:240,1,52.5
416,176,112473,6,0,L|384:128,1,52.5
336,144,112677,2,0,L|304:96,1,52.5
96,32,113085,6,0,L|128:80,1,52.5
176,64,113289,2,0,L|208:112,1,52.5
256,208,113698,5,0,0:0:0:0:
249,238,113800,1,0,0:0:0:0:
233,265,113902,1,0,0:0:0:0:
212,288,114004,1,0,0:0:0:0:
186,306,114106,5,0,0:0:0:0:
96,160,114310,1,0,0:0:0:0:
240,96,114514,2,0,L|208:144,1,52.5
320,64,114718,2,0,L|288:112,1,52.5
288,272,115126,6,0,L|320:224,1,52.5
368,240,115330,2,0,L|400:192,1,52.5
269,123,115738,6,0,L|239:79,1,52.5
192,96,115942,2,0,L|162:52,1,52.5
96,224,116351,6,0,L|125:267,1,52.5
176,256,116555,2,0,L|205:299,1,52.5
336,112,116963,6,0,P|359:100|373:78,1,52.5
176,272,117371,6,0,P|154:286|143:310,1,52.5
128,176,117779,6,0,L|176:144,1,52.5
160,96,117983,2,0,L|208:64,1,52.5
395,98,118391,6,0,L|352:128,1,52.5
368,176,118596,2,0,L|325:206,1,52.5
96,128,119004,6,0,L|128:176,1,52.5
176,160,119208,2,0,L|208:208,1,52.5
325,300,119616,5,0,0:0:0:0:
351,283,119718,1,0,0:0:0:0:
372,259,119820,1,0,0:0:0:0:
388,231,119922,1,0,0:0:0:0:
399,201,120024,5,0,0:0:0:0:
224,64,120228,2,0,L|256:112,1,52.5
176,160,120432,2,0,L|208:208,1,52.5
128,256,120636,2,0,L|98:212,1,52.5
304,160,121045,6,0,L|272:208,1,52.5
384,128,121249,2,0,L|352:176,1,52.5
128,256,121657,6,0,L|157:299,1,52.5
208,288,121861,2,0,L|237:331,1,52.5
128,160,122269,6,0,L|157:116,1,52.5
208,128,122473,2,0,L|237:84,1,52.5
402,135,122881,5,0,0:3:0:0:
387,140,122983,1,0,0:3:0:0:
350,158,123085,1,0,0:3:0:0:
338,168,123187,1,0,0:3:0:0:
305,193,123289,1,0,0:3:0:0:
297,206,123391,1,0,0:3:0:0:
279,231,123494,6,0,L|251:185,2,52.5,0|0|0,0:3|0:3|0:3,0:3:0:0:
298,262,123800,1,0,0:0:0:0:
316,293,123902,2,0,L|343:338,2,52.5
234,61,124310,5,0,0:0:0:0:
90,211,124514,1,0,0:0:0:0:
291,260,124718,1,0,0:0:0:0:
295,34,124922,5,0,0:0:0:0:
115,138,125126,1,0,0:0:0:0:
295,241,125330,1,0,0:0:0:0:
232,71,125534,6,0,L|166:78,1,52.5
128,192,125738,2,0,L|149:254,1,52.5
272,240,125942,2,0,L|312:188,1,52.5
304,48,126147,6,0,L|263:99,1,52.5
160,128,126351,2,0,L|144:192,1,52.5
150,226,126555,1,0,0:0:0:0:
353,63,126759,5,0,0:0:0:0:
164,151,126963,1,0,0:0:0:0:
335,268,127167,1,0,0:0:0:0:
422,57,127371,5,0,0:0:0:0:
216,89,127575,1,0,0:0:0:0:
347,250,127779,1,0,0:0:0:0:
391,158,127983,5,0,0:0:0:0:
189,107,128187,1,0,0:0:0:0:
247,306,128391,1,0,0:0:0:0:
444,197,128596,5,0,0:0:0:0:
264,92,128800,1,0,0:0:0:0:
265,300,129004,1,0,0:0:0:0:
384,80,129208,6,0,L|352:144,1,52.5
320,96,129412,2,0,L|288:160,1,52.5
256,112,129616,2,0,L|224:176,1,52.5
192,128,129820,2,0,L|160:192,1,52.5
128,208,130024,6,0,L|151:254,1,52.5
192,224,130228,2,0,L|215:270,1,52.5
256,288,130432,2,0,L|279:241,1,52.5
296,202,130636,1,0,0:0:0:0:
384,112,130840,5,0,0:0:0:0:
112,176,131045,1,0,0:0:0:0:
320,288,131249,1,0,0:0:0:0:
250,41,131453,5,0,0:0:0:0:
170,308,131657,1,0,0:0:0:0:
371,184,131861,1,0,0:0:0:0:
122,121,132065,5,0,0:0:0:0:
314,324,132269,1,0,0:0:0:0:
221,106,132473,1,0,0:0:0:0:
261,78,132575,5,0,0:0:0:0:
307,88,132677,1,0,0:0:0:0:
127,272,132881,1,0,0:0:0:0:
400,208,133085,1,0,0:0:0:0:
198,182,133289,1,0,0:0:0:0:
338,71,133494,5,0,0:0:0:0:
65,135,133698,1,0,0:0:0:0:
267,161,133902,1,0,0:0:0:0:
106,220,134106,1,0,0:0:0:0:
378,283,134310,1,0,0:0:0:0:
176,310,134514,5,0,0:0:0:0:
378,283,134718,1,0,0:0:0:0:
220,52,134922,1,0,0:0:0:0:
268,249,135126,1,0,0:0:0:0:
337,138,135330,1,0,0:0:0:0:
256,272,135534,6,0,L|224:313,4,52.5
132,171,136045,6,0,L|173:202,4,52.5
288,96,136555,6,0,L|256:137,7,52.5
363,75,137371,5,0,0:0:0:0:
380,101,137473,1,0,0:0:0:0:
395,128,137575,1,0,0:0:0:0:
404,158,137677,1,0,0:0:0:0:
406,189,137779,1,0,0:0:0:0:
397,219,137881,1,0,0:0:0:0:
371,237,137983,6,0,L|355:317,9,52.5
224,208,139004,6,0,L|234:156,7,52.5
208,256,139820,1,0,0:0:0:0:
179,244,139922,1,0,0:0:0:0:
154,224,140024,1,0,0:0:0:0:
133,199,140126,1,0,0:0:0:0:
119,170,140228,1,0,0:0:0:0:
110,139,140330,1,0,0:0:0:0:
114,107,140432,1,0,0:0:0:0:
130,80,140534,1,0,0:0:0:0:
148,54,140636,5,0,0:0:0:0:
168,77,140738,1,0,0:0:0:0:
191,97,140840,1,0,0:0:0:0:
218,112,140942,1,0,0:0:0:0:
248,118,141044,1,0,0:0:0:0:
278,124,141146,1,0,0:0:0:0:
308,131,141248,1,0,0:0:0:0:
335,145,141350,1,0,0:0:0:0:
356,168,141452,1,0,0:0:0:0:
370,195,141554,1,0,0:0:0:0:
376,225,141656,1,0,0:0:0:0:
373,258,141758,1,0,0:0:0:0:
361,287,141860,1,0,0:0:0:0:
343,313,141962,1,0,0:0:0:0:
317,330,142064,1,0,0:0:0:0:
287,339,142166,1,0,0:0:0:0:
212,350,142269,5,0,2:0:0:0:
180,348,142371,1,0,0:0:0:0:
151,334,142473,1,0,0:0:0:0:
126,314,142575,1,0,0:0:0:0:
108,287,142677,1,0,0:0:0:0:
97,257,142779,1,0,0:0:0:0:
94,225,142881,1,0,0:0:0:0:
99,193,142983,1,0,0:0:0:0:
109,163,143085,5,0,0:0:0:0:
136,178,143187,1,0,0:0:0:0:
163,194,143289,1,0,0:0:0:0:
193,203,143391,1,0,0:0:0:0:
224,199,143494,1,0,0:0:0:0:
253,189,143596,1,0,0:0:0:0:
281,176,143698,1,0,0:0:0:0:
307,158,143800,1,0,0:0:0:0:
332,139,143902,1,0,0:0:0:0:
355,117,144004,5,0,0:0:0:0:
370,144,144106,1,0,0:0:0:0:
386,171,144208,1,0,0:0:0:0:
395,201,144310,1,0,0:0:0:0:
391,232,144412,1,0,0:0:0:0:
381,261,144514,1,0,0:0:0:0:
368,289,144616,1,0,0:0:0:0:
350,315,144718,1,0,0:0:0:0:
317,341,144820,6,0,L|265:330,6,52.5
138,230,145534,6,0,L|189:240,7,52.5
342,173,146351,6,0,L|290:162,7,52.5
168,54,147167,6,0,L|219:64,7,52.5
257,46,147983,1,0,3:0:0:0:
293,67,148085,1,0,0:0:0:0:
316,101,148187,1,0,0:0:0:0:
327,141,148289,1,0,0:0:0:0:
321,182,148391,1,0,0:0:0:0:
294,214,148494,1,0,0:0:0:0:
256,192,148596,12,0,150228,0:0:0:0:
236,172,150432,5,0,0:0:0:0:
202,303,150636,1,0,0:0:0:0:
160,64,150840,1,0,0:0:0:0:
309,212,151045,5,0,0:0:0:0:
336,88,151249,1,0,0:0:0:0:
378,327,151453,1,0,0:0:0:0:
336,336,151555,5,0,0:0:0:0:
304,320,151657,1,0,0:0:0:0:
256,80,151861,1,0,0:0:0:0:
208,288,152065,1,0,0:0:0:0:
160,80,152269,1,0,0:0:0:0:
128,96,152371,5,0,0:0:0:0:
112,128,152473,1,0,0:0:0:0:
208,304,152677,1,0,0:0:0:0:
256,64,152881,2,0,L|272:128,1,52.5
288,144,153085,5,0,0:0:0:0:
448,208,153289,2,0,L|432:144,1,52.5
416,128,153494,5,0,0:0:0:0:
352,320,153698,1,0,0:0:0:0:
320,80,153902,1,0,0:0:0:0:
321,201,154106,1,0,0:0:0:0:
176,80,154310,5,0,0:0:0:0:
144,320,154514,1,0,0:0:0:0:
179,195,154718,1,0,0:0:0:0:
304,320,154922,5,0,0:0:0:0:
272,96,155126,1,0,0:0:0:0:
240,224,155330,1,0,0:0:0:0:
144,48,155534,1,0,0:0:0:0:
160,260,155738,2,0,P|128:309|75:326,1,105
304,48,156147,6,0,P|327:97|322:110,1,52.5
208,336,156555,6,0,P|185:287|190:274,1,52.5
368,96,156963,6,0,L|421:80,2,52.5
121,151,157371,1,0,0:0:0:0:
335,195,157575,1,0,0:0:0:0:
161,253,157779,2,0,P|197:303|245:321,1,105
390,206,158187,6,0,L|441:187,2,52.5
159,276,158596,1,0,0:0:0:0:
309,133,158800,1,0,0:0:0:0:
92,133,159004,2,0,P|128:82|176:64,1,105
354,48,159412,5,0,0:0:0:0:
270,212,159616,1,0,0:0:0:0:
434,129,159820,1,0,0:0:0:0:
252,99,160024,1,0,0:0:0:0:
386,225,160228,6,0,L|446:342,2,105
290,49,160840,1,0,0:0:0:0:
396,53,161045,2,0,P|376:100|335:132,1,105
193,185,161453,6,0,L|86:229,2,105
383,120,162065,1,0,0:0:0:0:
298,56,162270,2,0,P|282:104|292:155,1,105
432,272,162677,6,0,P|423:296|406:316,1,52.5
80,112,163085,6,0,P|95:132|103:157,1,52.5
416,256,163494,5,0,0:0:0:0:
176,208,163698,1,0,0:0:0:0:
400,144,163902,1,0,0:0:0:0:
144,96,164106,1,0,0:0:0:0:
384,240,164310,2,0,P|368:304|336:336,1,105
112,208,164718,5,0,0:0:0:0:
352,160,164922,1,0,0:0:0:0:
128,96,165126,1,0,0:0:0:0:
384,48,165330,1,0,0:0:0:0:
144,192,165534,2,0,P|160:256|192:288,1,105
429,281,165942,5,0,0:0:0:0:
320,131,166147,1,0,0:0:0:0:
320,316,166351,1,0,0:0:0:0:
429,167,166555,1,0,0:0:0:0:
247,215,166759,2,0,L|168:106,2,105
320,316,167371,5,0,0:0:0:0:
186,130,167575,1,0,0:0:0:0:
102,186,167779,1,0,0:0:0:0:
284,72,167983,2,0,L|344:158,2,105
164,311,168596,5,0,0:0:0:0:
153,42,168800,1,0,0:0:0:0:
67,257,169004,1,0,0:0:0:0:
335,248,169208,1,0,0:0:0:0:
380,248,169310,5,0,0:0:0:0:
414,214,169412,1,0,0:0:0:0:
176,135,169616,1,0,0:0:0:0:
131,135,169718,5,0,0:0:0:0:
97,169,169820,1,0,0:0:0:0:
288,304,170024,2,0,P|334:272|361:177,1,157.5
351,142,170432,1,0,0:0:0:0:
334,109,170534,1,0,0:0:0:0:
222,188,170738,5,0,0:0:0:0:
432,234,170942,1,0,0:0:0:0:
295,122,171147,2,0,L|281:68,2,52.5
314,304,171555,1,0,0:0:0:0:
378,139,171759,1,0,0:0:0:0:
204,187,171963,6,0,L|140:203,2,52.5
378,139,172371,1,0,0:0:0:0:
186,113,172575,1,0,0:0:0:0:
223,275,172779,6,0,L|239:339,2,52.5
138,51,173187,1,0,0:0:0:0:
108,227,173391,1,0,0:0:0:0:
240,80,173596,1,0,0:0:0:0:
272,112,173698,5,0,0:0:0:0:
272,160,173800,1,0,0:0:0:0:
69,168,174004,1,0,0:0:0:0:
225,308,174208,1,0,0:0:0:0:
210,129,174412,1,0,0:0:0:0:
210,129,174514,5,0,0:0:0:0:
210,129,174616,1,0,0:0:0:0:
299,293,174820,2,0,P|347:261|363:197,1,105
251,81,175228,1,0,0:0:0:0:
209,106,175330,5,0,0:0:0:0:
199,150,175432,1,0,0:0:0:0:
363,213,175636,2,0,P|411:181|427:117,1,105
242,59,176045,1,0,0:0:0:0:
210,59,176147,2,0,P|162:91|146:203,1,157.5
312,295,176657,1,0,0:0:0:0:
295,86,176861,1,0,0:0:0:0:
253,111,176963,5,0,0:0:0:0:
243,155,177065,1,0,0:0:0:0:
218,311,177269,1,0,0:0:0:0:
140,93,177473,1,0,0:0:0:0:
144,256,177677,1,0,0:0:0:0:
144,256,177779,5,0,0:0:0:0:
144,256,177881,1,0,0:0:0:0:
232,90,178085,2,0,P|280:122|296:186,1,105
212,299,178494,1,0,0:0:0:0:
171,281,178596,5,0,0:0:0:0:
154,235,178698,1,0,0:0:0:0:
296,169,178902,2,0,P|344:201|360:265,1,105
246,329,179310,1,0,0:0:0:0:
214,329,179412,2,0,P|166:297|150:185,1,157.5
346,210,179922,1,0,0:0:0:0:
183,81,180126,1,0,0:0:0:0:
183,81,180228,5,0,0:0:0:0:
183,81,180330,1,0,0:0:0:0:
270,275,180534,1,0,0:0:0:0:
281,101,180738,1,0,0:0:0:0:
182,272,180942,1,0,0:0:0:0:
140,253,181045,5,0,0:0:0:0:
124,207,181147,1,0,0:0:0:0:
288,80,181351,2,0,P|336:112|352:176,1,105
188,172,181759,1,0,0:0:0:0:
188,172,181861,5,0,0:0:0:0:
188,172,181963,1,0,0:0:0:0:
319,255,182167,2,0,P|276:292|209:293,1,105
148,125,182575,1,0,0:0:0:0:
162,89,182677,1,0,0:0:0:0:
191,63,182779,6,0,P|247:53|334:126,1,157.5
382,317,183289,1,0,0:0:0:0:
326,107,183494,1,0,0:0:0:0:
273,321,183698,1,0,0:0:0:0:
273,321,184106,5,0,0:0:0:0:
326,105,184310,1,0,0:0:0:0:
178,240,184514,1,0,0:0:0:0:
326,82,184718,1,0,0:0:0:0:
131,108,184922,1,0,0:0:0:0:
95,93,185126,5,0,0:0:0:0:
356,92,185330,1,0,0:0:0:0:
256,240,185534,2,0,P|320:304|352:304,1,105
429,105,185942,1,0,0:0:0:0:
221,221,186147,1,0,0:0:0:0:
279,45,186351,1,0,0:0:0:0:
279,45,186759,5,0,0:0:0:0:
229,315,186963,1,0,0:0:0:0:
229,315,187371,5,0,0:0:0:0:
181,90,187575,1,0,0:0:0:0:
127,306,187779,1,0,0:0:0:0:
384,288,187983,1,0,0:0:0:0:
413,259,188085,2,0,L|429:195,1,52.5
97,169,188596,5,0,0:0:0:0:
96,128,188698,2,0,L|130:71,1,52.5
359,60,189004,1,0,0:0:0:0:
359,60,189208,6,0,L|375:188,1,105
359,204,189514,1,0,0:0:0:0:
327,236,189616,2,0,B|279:268|279:268|199:252,1,105
148,43,190024,5,0,0:0:0:0:
232,258,190228,1,0,0:0:0:0:
232,258,190636,5,0,0:0:0:0:
79,79,190840,1,0,0:0:0:0:
256,256,191045,1,0,0:0:0:0:
225,44,191249,1,0,0:0:0:0:
237,241,191453,1,0,0:0:0:0:
322,65,191657,1,0,0:0:0:0:
392,242,191861,5,0,0:0:0:0:
159,162,192065,1,0,0:0:0:0:
359,248,192269,1,0,0:0:0:0:
208,64,192473,1,0,0:0:0:0:
395,126,192677,5,0,0:0:0:0:
176,256,192881,2,0,P|208:320|240:336,1,105
342,102,193289,1,0,0:0:0:0:
263,254,193494,1,0,0:0:0:0:
263,254,193902,5,0,0:0:0:0:
240,36,194106,1,0,0:0:0:0:
176,256,194310,1,0,0:0:0:0:
365,310,194514,2,0,L|403:270,1,52.5
416,224,194718,1,0,0:0:0:0:
190,62,195126,5,0,0:0:0:0:
147,74,195228,2,0,L|109:114,1,52.5
336,80,195534,5,0,0:0:0:0:
176,272,195738,2,0,L|138:312,1,52.5
