osu file format v14

[General]
AudioFilename: audio.mp3
AudioLeadIn: 0
PreviewTime: 176
Countdown: 0
SampleSet: Normal
StackLeniency: 0.7
Mode: 1
LetterboxInBreaks: 0
WidescreenStoryboard: 0

[Editor]
DistanceSpacing: 0.9
BeatDivisor: 4
GridSize: 32
TimelineZoom: 1.5

[Metadata]
Title:Super Soaker
TitleUnicode:Super Soaker
Artist:Wavves
ArtistUnicode:Wavves
Creator:meiqth
Version:Stupid Oni
Source:
Tags:waves english alt alternative indie rock surf punk king of THE BEACH A!TT2023 Ausu!Taiko 2023 qualifiers
BeatmapID:4100176
BeatmapSetID:1975566

[Difficulty]
HPDrainRate:6.6
CircleSize:2
OverallDifficulty:6.6
ApproachRate:10
SliderMultiplier:1.4
SliderTickRate:1

[Events]
//Background and Video events
0,0,"staraptures-status-1626097419644436480.jpg",0,0
//Break Periods
2,137958,143766
//Storyboard Layer 0 (Background)
//Storyboard Layer 1 (Fail)
//Storyboard Layer 2 (Pass)
//Storyboard Layer 3 (Foreground)
//Storyboard Layer 4 (Overlay)
//Storyboard Sound Samples

[TimingPoints]
521,306.122448979592,4,1,0,82,1,0
15304,-125,4,1,0,73,0,0
17653,-111.111111111111,4,1,0,73,0,0
20202,-125,4,1,0,73,0,0
22551,-111.111111111111,4,1,0,73,0,0
25100,-125,4,1,0,73,0,0
27449,-111.111111111111,4,1,0,73,0,0
29998,-125,4,1,0,73,0,0
32347,-111.111111111111,4,1,0,73,0,0
34796,-100,4,1,0,82,0,0
49590,-125,4,1,0,71,0,0
51938,-111.111111111111,4,1,0,71,0,0
54487,-125,4,1,0,71,0,0
56836,-111.111111111111,4,1,0,71,0,0
59385,-125,4,1,0,71,0,0
61734,-111.111111111111,4,1,0,71,0,0
64283,-125,4,1,0,71,0,0
66632,-111.111111111111,4,1,0,71,0,0
69239,-117.647058823529,4,1,0,58,0,0
71464,-117.647058823529,4,1,0,82,0,0
71541,-100,4,1,0,82,0,1
73990,-100,4,1,0,82,0,0
74056,-117.647058823529,4,1,0,58,0,0
76362,-117.647058823529,4,1,0,82,0,0
76439,-100,4,1,0,82,0,1
78888,-100,4,1,0,82,0,0
78954,-117.647058823529,4,1,0,58,0,0
81260,-117.647058823529,4,1,0,82,0,0
81337,-100,4,1,0,82,0,1
83786,-100,4,1,0,82,0,0
83852,-100,4,1,0,58,0,0
86187,-100,4,1,0,67,0,0
88674,-83.3333333333333,4,1,0,82,0,0
98480,-83.3333333333333,4,1,0,82,0,1
118072,-83.3333333333333,4,1,0,82,0,0
127867,-80,4,1,0,82,0,0
135214,309.278350515464,4,1,0,92,1,0
135214,-79.1836734693877,4,1,0,92,0,0
135523,312.5,4,1,0,92,1,8
135523,-79.1645508457839,4,1,0,92,0,8
135598,-79.3683572321749,4,1,0,92,0,8
135676,-79.5732157120693,4,1,0,92,0,8
135832,-79.9861217082934,4,1,0,92,0,8
135988,-80.403335200593,4,1,0,92,0,8
136148,294.117647058824,4,1,0,92,1,8
136148,-85.8793682444271,4,1,0,92,0,8
136292,-86.3058125557193,4,1,0,92,0,8
136442,344.827586206897,4,1,0,92,1,0
136442,-73.9811435459089,4,1,0,92,0,0
136611,-74.4156646506707,4,1,0,92,0,0
136697,-74.6348449290356,4,1,0,92,0,0
136786,330.578512396694,4,1,0,92,1,8
136786,-78.0818425674541,4,1,0,92,0,8
136948,-78.5269062191839,4,1,0,92,0,8
137116,323.450134770889,4,1,0,92,1,8
137116,-80.7176141956949,4,1,0,92,0,8
137193,-80.9425910103073,4,1,0,92,0,8
137274,-81.1716613782882,4,1,0,92,0,8
137439,319.148936170213,4,1,0,92,1,8
137439,-82.7338987420265,4,1,0,92,0,8
137515,-82.9641965028081,4,1,0,92,0,8
137595,-83.1987196770255,4,1,0,92,0,8
137758,333.796940194715,4,1,0,92,1,1
137758,-79.999999999886,4,1,0,92,0,1
143766,333.796940194715,9,1,0,55,1,8
146603,329.308452250274,4,1,0,72,1,8
147590,317.460317460317,4,1,0,82,1,8

[HitObjects]
256,192,214,5,8,0:0:0:0:
256,192,521,1,4,0:0:0:0:
256,192,827,1,8,0:0:0:0:
256,192,980,1,0,0:0:0:0:
256,192,1133,1,8,0:0:0:0:
256,192,1209,1,8,0:0:0:0:
256,192,1286,1,0,0:0:0:0:
256,192,1362,1,0,0:0:0:0:
256,192,1439,1,8,0:0:0:0:
256,192,1592,1,0,0:0:0:0:
256,192,1898,1,0,0:0:0:0:
256,192,2051,1,8,0:0:0:0:
256,192,2204,1,8,0:0:0:0:
256,192,2357,1,0,0:0:0:0:
256,192,2434,1,0,0:0:0:0:
256,192,2510,1,0,0:0:0:0:
256,192,2663,1,8,0:0:0:0:
256,192,2816,1,0,0:0:0:0:
256,192,2969,1,12,0:0:0:0:
256,192,3276,1,0,0:0:0:0:
256,192,3429,1,8,0:0:0:0:
256,192,3582,1,0,0:0:0:0:
256,192,3658,1,8,0:0:0:0:
256,192,3735,1,0,0:0:0:0:
256,192,3811,1,0,0:0:0:0:
256,192,3888,1,8,0:0:0:0:
256,192,4041,1,0,0:0:0:0:
256,192,4194,1,8,0:0:0:0:
256,192,4347,1,0,0:0:0:0:
256,192,4424,1,0,0:0:0:0:
256,192,4500,1,8,0:0:0:0:
256,192,4577,1,0,0:0:0:0:
256,192,4653,1,8,0:0:0:0:
256,192,4730,1,8,0:0:0:0:
256,192,4806,1,0,0:0:0:0:
256,192,4959,1,8,0:0:0:0:
256,192,5112,1,0,0:0:0:0:
256,192,5189,1,8,0:0:0:0:
256,192,5265,1,0,0:0:0:0:
256,192,5418,1,12,0:0:0:0:
256,192,5725,1,0,0:0:0:0:
256,192,5878,1,8,0:0:0:0:
256,192,6031,1,0,0:0:0:0:
256,192,6107,1,8,0:0:0:0:
256,192,6184,1,0,0:0:0:0:
256,192,6260,1,0,0:0:0:0:
256,192,6337,1,8,0:0:0:0:
256,192,6490,1,8,0:0:0:0:
256,192,6643,1,0,0:0:0:0:
256,192,6796,1,8,0:0:0:0:
256,192,6873,1,8,0:0:0:0:
256,192,6949,1,0,0:0:0:0:
256,192,7026,1,0,0:0:0:0:
256,192,7102,1,8,0:0:0:0:
256,192,7179,1,0,0:0:0:0:
256,192,7255,1,8,0:0:0:0:
256,192,7408,1,8,0:0:0:0:
256,192,7561,1,0,0:0:0:0:
256,192,7638,1,0,0:0:0:0:
256,192,7714,1,8,0:0:0:0:
256,192,7867,1,4,0:0:0:0:
256,192,8174,1,8,0:0:0:0:
256,192,8327,1,8,0:0:0:0:
256,192,8480,1,0,0:0:0:0:
256,192,8556,1,0,0:0:0:0:
256,192,8633,1,8,0:0:0:0:
256,192,8709,1,0,0:0:0:0:
256,192,8786,1,8,0:0:0:0:
256,192,8939,1,0,0:0:0:0:
256,192,9245,1,0,0:0:0:0:
256,192,9398,1,8,0:0:0:0:
256,192,9551,1,8,0:0:0:0:
256,192,9704,1,0,0:0:0:0:
256,192,9781,1,0,0:0:0:0:
256,192,9857,1,8,0:0:0:0:
256,192,10010,1,0,0:0:0:0:
256,192,10163,1,0,0:0:0:0:
256,192,10316,1,12,0:0:0:0:
256,192,10623,1,0,0:0:0:0:
256,192,10776,1,0,0:0:0:0:
256,192,10929,1,8,0:0:0:0:
256,192,11005,1,0,0:0:0:0:
256,192,11082,1,8,0:0:0:0:
256,192,11158,1,8,0:0:0:0:
256,192,11235,1,0,0:0:0:0:
256,192,11388,1,8,0:0:0:0:
256,192,11541,1,0,0:0:0:0:
256,192,11694,1,8,0:0:0:0:
256,192,11771,1,8,0:0:0:0:
256,192,11847,1,0,0:0:0:0:
256,192,11924,1,8,0:0:0:0:
256,192,12000,1,0,0:0:0:0:
256,192,12077,1,0,0:0:0:0:
256,192,12153,1,8,0:0:0:0:
256,192,12306,1,0,0:0:0:0:
256,192,12459,1,8,0:0:0:0:
256,192,12536,1,8,0:0:0:0:
256,192,12612,1,0,0:0:0:0:
256,192,12765,1,12,0:0:0:0:
256,192,13072,1,0,0:0:0:0:
256,192,13225,1,8,0:0:0:0:
256,192,13378,1,0,0:0:0:0:
256,192,13454,1,0,0:0:0:0:
256,192,13531,1,8,0:0:0:0:
256,192,13607,1,0,0:0:0:0:
256,192,13684,1,8,0:0:0:0:
256,192,13837,1,8,0:0:0:0:
256,192,13990,1,0,0:0:0:0:
256,192,14143,1,8,0:0:0:0:
256,192,14219,1,0,0:0:0:0:
256,192,14296,1,8,0:0:0:0:
256,192,14373,1,8,0:0:0:0:
256,192,14449,1,0,0:0:0:0:
256,192,14526,1,8,0:0:0:0:
256,192,14602,1,0,0:0:0:0:
256,192,14755,1,8,0:0:0:0:
256,192,14908,1,0,0:0:0:0:
256,192,14985,1,0,0:0:0:0:
256,192,15061,1,8,0:0:0:0:
256,192,15214,1,4,0:0:0:0:
256,192,15674,1,8,0:0:0:0:
256,192,15827,1,0,0:0:0:0:
256,192,15980,1,8,0:0:0:0:
256,192,16056,1,8,0:0:0:0:
256,192,16133,1,8,0:0:0:0:
256,192,16286,1,0,0:0:0:0:
256,192,16439,1,8,0:0:0:0:
256,192,16745,1,8,0:0:0:0:
256,192,16898,1,8,0:0:0:0:
256,192,17051,1,0,0:0:0:0:
256,192,17204,1,8,0:0:0:0:
256,192,17281,1,8,0:0:0:0:
256,192,17357,1,8,0:0:0:0:
256,192,17510,1,8,0:0:0:0:
256,192,17663,1,0,0:0:0:0:
256,192,17816,1,8,0:0:0:0:
256,192,17893,1,8,0:0:0:0:
256,192,17969,1,0,0:0:0:0:
256,192,18046,1,0,0:0:0:0:
256,192,18123,1,8,0:0:0:0:
256,192,18276,1,0,0:0:0:0:
256,192,18429,1,8,0:0:0:0:
256,192,18505,1,8,0:0:0:0:
256,192,18582,1,0,0:0:0:0:
256,192,18735,1,8,0:0:0:0:
256,192,18888,1,0,0:0:0:0:
256,192,18964,1,0,0:0:0:0:
256,192,19041,1,8,0:0:0:0:
256,192,19117,1,0,0:0:0:0:
256,192,19194,1,8,0:0:0:0:
256,192,19347,1,8,0:0:0:0:
256,192,19500,1,0,0:0:0:0:
256,192,19653,1,8,0:0:0:0:
256,192,19730,1,8,0:0:0:0:
256,192,19806,1,8,0:0:0:0:
256,192,19883,1,8,0:0:0:0:
256,192,19959,1,8,0:0:0:0:
256,192,20036,1,8,0:0:0:0:
256,192,20112,1,0,0:0:0:0:
256,192,20572,1,0,0:0:0:0:
256,192,20725,1,0,0:0:0:0:
256,192,20878,1,8,0:0:0:0:
256,192,20954,1,8,0:0:0:0:
256,192,21031,1,8,0:0:0:0:
256,192,21184,1,8,0:0:0:0:
256,192,21337,1,0,0:0:0:0:
256,192,21643,1,0,0:0:0:0:
256,192,21796,1,8,0:0:0:0:
256,192,21949,1,0,0:0:0:0:
256,192,22102,1,8,0:0:0:0:
256,192,22179,1,8,0:0:0:0:
256,192,22255,1,8,0:0:0:0:
256,192,22408,1,0,0:0:0:0:
256,192,22561,1,8,0:0:0:0:
256,192,22714,1,0,0:0:0:0:
256,192,22791,1,8,0:0:0:0:
256,192,22867,1,0,0:0:0:0:
256,192,22944,1,0,0:0:0:0:
256,192,23021,1,8,0:0:0:0:
256,192,23174,1,8,0:0:0:0:
256,192,23327,1,0,0:0:0:0:
256,192,23403,1,8,0:0:0:0:
256,192,23480,1,0,0:0:0:0:
256,192,23633,1,8,0:0:0:0:
256,192,23786,1,0,0:0:0:0:
256,192,23862,1,8,0:0:0:0:
256,192,23939,1,8,0:0:0:0:
256,192,24015,1,8,0:0:0:0:
256,192,24092,1,0,0:0:0:0:
256,192,24245,1,8,0:0:0:0:
256,192,24398,1,0,0:0:0:0:
256,192,24551,1,8,0:0:0:0:
256,192,24628,1,8,0:0:0:0:
256,192,24704,1,8,0:0:0:0:
256,192,24781,1,8,0:0:0:0:
256,192,24857,1,8,0:0:0:0:
256,192,24934,1,8,0:0:0:0:
256,192,25010,1,0,0:0:0:0:
256,192,25469,1,8,0:0:0:0:
256,192,25623,1,0,0:0:0:0:
256,192,25776,1,8,0:0:0:0:
256,192,25852,1,8,0:0:0:0:
256,192,25929,1,8,0:0:0:0:
256,192,26082,1,8,0:0:0:0:
256,192,26235,1,0,0:0:0:0:
256,192,26541,1,0,0:0:0:0:
256,192,26694,1,8,0:0:0:0:
256,192,26847,1,0,0:0:0:0:
256,192,27000,1,8,0:0:0:0:
256,192,27077,1,8,0:0:0:0:
256,192,27153,1,8,0:0:0:0:
256,192,27306,1,8,0:0:0:0:
256,192,27459,1,0,0:0:0:0:
256,192,27612,1,8,0:0:0:0:
256,192,27689,1,0,0:0:0:0:
256,192,27765,1,0,0:0:0:0:
256,192,27842,1,0,0:0:0:0:
256,192,27918,1,8,0:0:0:0:
256,192,28072,1,0,0:0:0:0:
256,192,28225,1,8,0:0:0:0:
256,192,28301,1,0,0:0:0:0:
256,192,28378,1,8,0:0:0:0:
256,192,28531,1,8,0:0:0:0:
256,192,28684,1,0,0:0:0:0:
256,192,28760,1,0,0:0:0:0:
256,192,28837,1,8,0:0:0:0:
256,192,28913,1,8,0:0:0:0:
256,192,28990,1,0,0:0:0:0:
256,192,29143,1,8,0:0:0:0:
256,192,29296,1,0,0:0:0:0:
256,192,29449,1,8,0:0:0:0:
256,192,29526,1,8,0:0:0:0:
256,192,29602,1,8,0:0:0:0:
256,192,29679,1,8,0:0:0:0:
256,192,29755,1,8,0:0:0:0:
256,192,29832,1,8,0:0:0:0:
256,192,29908,1,0,0:0:0:0:
256,192,30367,1,8,0:0:0:0:
256,192,30521,1,0,0:0:0:0:
256,192,30674,1,8,0:0:0:0:
256,192,30750,1,8,0:0:0:0:
256,192,30827,1,8,0:0:0:0:
256,192,30980,1,8,0:0:0:0:
256,192,31133,1,0,0:0:0:0:
256,192,31439,1,8,0:0:0:0:
256,192,31592,1,8,0:0:0:0:
256,192,31745,1,0,0:0:0:0:
256,192,31898,1,8,0:0:0:0:
256,192,31975,1,8,0:0:0:0:
256,192,32051,1,8,0:0:0:0:
256,192,32204,1,0,0:0:0:0:
256,192,32357,1,8,0:0:0:0:
256,192,32510,1,0,0:0:0:0:
256,192,32587,1,0,0:0:0:0:
256,192,32663,1,8,0:0:0:0:
256,192,32740,1,0,0:0:0:0:
256,192,32816,1,8,0:0:0:0:
256,192,32969,1,8,0:0:0:0:
256,192,33123,1,0,0:0:0:0:
256,192,33199,1,0,0:0:0:0:
256,192,33276,1,8,0:0:0:0:
256,192,33429,1,0,0:0:0:0:
256,192,33582,1,8,0:0:0:0:
256,192,33658,1,8,0:0:0:0:
256,192,33735,1,0,0:0:0:0:
256,192,33811,1,8,0:0:0:0:
256,192,33888,1,0,0:0:0:0:
256,192,33964,1,0,0:0:0:0:
256,192,34041,1,8,0:0:0:0:
256,192,34117,1,8,0:0:0:0:
256,192,34194,1,0,0:0:0:0:
256,192,34347,1,8,0:0:0:0:
256,192,34500,1,0,0:0:0:0:
256,192,34577,1,0,0:0:0:0:
256,192,34653,1,8,0:0:0:0:
256,192,34806,1,4,0:0:0:0:
256,192,35112,1,0,0:0:0:0:
256,192,35265,1,8,0:0:0:0:
256,192,35418,1,0,0:0:0:0:
256,192,35495,1,0,0:0:0:0:
256,192,35572,1,8,0:0:0:0:
256,192,35648,1,8,0:0:0:0:
256,192,35725,1,0,0:0:0:0:
256,192,35878,1,8,0:0:0:0:
256,192,36184,1,8,0:0:0:0:
256,192,36337,1,0,0:0:0:0:
256,192,36490,1,8,0:0:0:0:
256,192,36643,1,0,0:0:0:0:
256,192,36719,1,0,0:0:0:0:
256,192,36796,1,8,0:0:0:0:
256,192,36949,1,8,0:0:0:0:
256,192,37102,1,0,0:0:0:0:
256,192,37255,1,12,0:0:0:0:
256,192,37561,1,0,0:0:0:0:
256,192,37714,1,0,0:0:0:0:
256,192,37867,1,8,0:0:0:0:
256,192,37944,1,0,0:0:0:0:
256,192,38021,1,8,0:0:0:0:
256,192,38097,1,8,0:0:0:0:
256,192,38174,1,0,0:0:0:0:
256,192,38327,1,8,0:0:0:0:
256,192,38480,1,0,0:0:0:0:
256,192,38633,1,8,0:0:0:0:
256,192,38709,1,8,0:0:0:0:
256,192,38786,1,0,0:0:0:0:
256,192,38862,1,8,0:0:0:0:
256,192,38939,1,0,0:0:0:0:
256,192,39015,1,0,0:0:0:0:
256,192,39092,1,8,0:0:0:0:
256,192,39245,1,0,0:0:0:0:
256,192,39398,1,8,0:0:0:0:
256,192,39475,1,8,0:0:0:0:
256,192,39551,1,0,0:0:0:0:
256,192,39704,1,12,0:0:0:0:
256,192,40010,1,0,0:0:0:0:
256,192,40163,1,0,0:0:0:0:
256,192,40316,1,8,0:0:0:0:
256,192,40393,1,8,0:0:0:0:
256,192,40469,1,0,0:0:0:0:
256,192,40546,1,0,0:0:0:0:
256,192,40623,1,8,0:0:0:0:
256,192,40776,1,0,0:0:0:0:
256,192,40929,1,8,0:0:0:0:
256,192,41082,1,0,0:0:0:0:
256,192,41158,1,8,0:0:0:0:
256,192,41235,1,0,0:0:0:0:
256,192,41311,1,0,0:0:0:0:
256,192,41388,1,8,0:0:0:0:
256,192,41464,1,8,0:0:0:0:
256,192,41541,1,0,0:0:0:0:
256,192,41694,1,8,0:0:0:0:
256,192,41847,1,0,0:0:0:0:
256,192,41924,1,0,0:0:0:0:
256,192,42000,1,8,0:0:0:0:
256,192,42153,1,4,0:0:0:0:
256,192,42459,1,8,0:0:0:0:
256,192,42612,1,8,0:0:0:0:
256,192,42765,1,0,0:0:0:0:
256,192,42842,1,8,0:0:0:0:
256,192,42918,1,0,0:0:0:0:
256,192,42995,1,0,0:0:0:0:
256,192,43072,1,8,0:0:0:0:
256,192,43225,1,0,0:0:0:0:
256,192,43531,1,0,0:0:0:0:
256,192,43684,1,8,0:0:0:0:
256,192,43837,1,8,0:0:0:0:
256,192,43990,1,0,0:0:0:0:
256,192,44066,1,8,0:0:0:0:
256,192,44143,1,0,0:0:0:0:
256,192,44296,1,8,0:0:0:0:
256,192,44449,1,0,0:0:0:0:
256,192,44602,1,12,0:0:0:0:
256,192,44908,1,0,0:0:0:0:
256,192,45061,1,0,0:0:0:0:
256,192,45214,1,8,0:0:0:0:
256,192,45291,1,0,0:0:0:0:
256,192,45367,1,8,0:0:0:0:
256,192,45444,1,8,0:0:0:0:
256,192,45521,1,0,0:0:0:0:
256,192,45674,1,8,0:0:0:0:
256,192,45827,1,8,0:0:0:0:
256,192,45980,1,0,0:0:0:0:
256,192,46056,1,8,0:0:0:0:
256,192,46133,1,0,0:0:0:0:
256,192,46209,1,0,0:0:0:0:
256,192,46286,1,8,0:0:0:0:
256,192,46362,1,0,0:0:0:0:
256,192,46439,1,8,0:0:0:0:
256,192,46592,1,0,0:0:0:0:
256,192,46745,1,8,0:0:0:0:
256,192,46822,1,8,0:0:0:0:
256,192,46898,1,0,0:0:0:0:
256,192,47051,1,12,0:0:0:0:
256,192,47357,1,0,0:0:0:0:
256,192,47510,1,8,0:0:0:0:
256,192,47663,1,0,0:0:0:0:
256,192,47740,1,0,0:0:0:0:
256,192,47816,1,8,0:0:0:0:
256,192,47893,1,0,0:0:0:0:
256,192,47969,1,8,0:0:0:0:
256,192,48123,1,8,0:0:0:0:
256,192,48276,1,0,0:0:0:0:
256,192,48429,1,8,0:0:0:0:
256,192,48505,1,8,0:0:0:0:
256,192,48582,1,0,0:0:0:0:
256,192,48658,1,8,0:0:0:0:
256,192,48735,1,0,0:0:0:0:
256,192,48811,1,0,0:0:0:0:
256,192,48888,1,8,0:0:0:0:
256,192,49041,1,8,0:0:0:0:
256,192,49194,1,0,0:0:0:0:
256,192,49271,1,0,0:0:0:0:
256,192,49347,1,8,0:0:0:0:
256,192,49500,1,4,0:0:0:0:
256,192,49959,1,8,0:0:0:0:
256,192,50112,1,0,0:0:0:0:
256,192,50265,1,8,0:0:0:0:
256,192,50342,1,8,0:0:0:0:
256,192,50418,1,8,0:0:0:0:
256,192,50572,1,8,0:0:0:0:
256,192,50725,1,0,0:0:0:0:
256,192,51031,1,0,0:0:0:0:
256,192,51184,1,8,0:0:0:0:
256,192,51337,1,0,0:0:0:0:
256,192,51490,1,8,0:0:0:0:
256,192,51566,1,8,0:0:0:0:
256,192,51643,1,8,0:0:0:0:
256,192,51796,1,8,0:0:0:0:
256,192,51949,1,0,0:0:0:0:
256,192,52102,1,8,0:0:0:0:
256,192,52179,1,0,0:0:0:0:
256,192,52255,1,0,0:0:0:0:
256,192,52332,1,0,0:0:0:0:
256,192,52408,1,8,0:0:0:0:
256,192,52561,1,8,0:0:0:0:
256,192,52714,1,0,0:0:0:0:
256,192,52791,1,0,0:0:0:0:
256,192,52867,1,8,0:0:0:0:
256,192,53021,1,0,0:0:0:0:
256,192,53174,1,8,0:0:0:0:
256,192,53250,1,8,0:0:0:0:
256,192,53327,1,0,0:0:0:0:
256,192,53403,1,0,0:0:0:0:
256,192,53480,1,8,0:0:0:0:
256,192,53633,1,8,0:0:0:0:
256,192,53786,1,0,0:0:0:0:
256,192,53939,1,8,0:0:0:0:
256,192,54015,1,8,0:0:0:0:
256,192,54092,1,8,0:0:0:0:
256,192,54168,1,8,0:0:0:0:
256,192,54245,1,8,0:0:0:0:
256,192,54322,1,8,0:0:0:0:
256,192,54398,1,0,0:0:0:0:
256,192,54857,1,8,0:0:0:0:
256,192,55010,1,0,0:0:0:0:
256,192,55163,1,8,0:0:0:0:
256,192,55240,1,8,0:0:0:0:
256,192,55316,1,8,0:0:0:0:
256,192,55469,1,0,0:0:0:0:
256,192,55623,1,8,0:0:0:0:
256,192,55929,1,8,0:0:0:0:
256,192,56082,1,0,0:0:0:0:
256,192,56235,1,0,0:0:0:0:
256,192,56388,1,8,0:0:0:0:
256,192,56464,1,8,0:0:0:0:
256,192,56541,1,8,0:0:0:0:
256,192,56694,1,0,0:0:0:0:
256,192,56847,1,8,0:0:0:0:
256,192,57000,1,0,0:0:0:0:
256,192,57077,1,0,0:0:0:0:
256,192,57153,1,8,0:0:0:0:
256,192,57230,1,0,0:0:0:0:
256,192,57306,1,8,0:0:0:0:
256,192,57459,1,0,0:0:0:0:
256,192,57612,1,8,0:0:0:0:
256,192,57689,1,8,0:0:0:0:
256,192,57765,1,0,0:0:0:0:
256,192,57918,1,8,0:0:0:0:
256,192,58072,1,0,0:0:0:0:
256,192,58148,1,0,0:0:0:0:
256,192,58225,1,8,0:0:0:0:
256,192,58301,1,8,0:0:0:0:
256,192,58378,1,0,0:0:0:0:
256,192,58531,1,8,0:0:0:0:
256,192,58684,1,0,0:0:0:0:
256,192,58837,1,8,0:0:0:0:
256,192,58913,1,8,0:0:0:0:
256,192,58990,1,8,0:0:0:0:
256,192,59066,1,8,0:0:0:0:
256,192,59143,1,8,0:0:0:0:
256,192,59219,1,8,0:0:0:0:
256,192,59296,1,0,0:0:0:0:
256,192,59755,1,8,0:0:0:0:
256,192,59908,1,0,0:0:0:0:
256,192,60061,1,8,0:0:0:0:
256,192,60138,1,8,0:0:0:0:
256,192,60214,1,8,0:0:0:0:
256,192,60367,1,8,0:0:0:0:
256,192,60521,1,0,0:0:0:0:
256,192,60827,1,0,0:0:0:0:
256,192,60980,1,8,0:0:0:0:
256,192,61133,1,0,0:0:0:0:
256,192,61286,1,8,0:0:0:0:
256,192,61362,1,8,0:0:0:0:
256,192,61439,1,8,0:0:0:0:
256,192,61592,1,0,0:0:0:0:
256,192,61745,1,8,0:0:0:0:
256,192,61898,1,0,0:0:0:0:
256,192,61975,1,8,0:0:0:0:
256,192,62051,1,0,0:0:0:0:
256,192,62128,1,0,0:0:0:0:
256,192,62204,1,8,0:0:0:0:
256,192,62357,1,0,0:0:0:0:
256,192,62510,1,8,0:0:0:0:
256,192,62587,1,8,0:0:0:0:
256,192,62663,1,0,0:0:0:0:
256,192,62816,1,8,0:0:0:0:
256,192,62969,1,0,0:0:0:0:
256,192,63046,1,8,0:0:0:0:
256,192,63123,1,8,0:0:0:0:
256,192,63199,1,8,0:0:0:0:
256,192,63276,1,0,0:0:0:0:
256,192,63429,1,8,0:0:0:0:
256,192,63582,1,0,0:0:0:0:
256,192,63735,1,8,0:0:0:0:
256,192,63811,1,8,0:0:0:0:
256,192,63888,1,8,0:0:0:0:
256,192,63964,1,8,0:0:0:0:
256,192,64041,1,8,0:0:0:0:
256,192,64117,1,8,0:0:0:0:
256,192,64194,1,0,0:0:0:0:
256,192,64653,1,8,0:0:0:0:
256,192,64806,1,0,0:0:0:0:
256,192,64959,1,8,0:0:0:0:
256,192,65036,1,8,0:0:0:0:
256,192,65112,1,8,0:0:0:0:
256,192,65265,1,8,0:0:0:0:
256,192,65418,1,0,0:0:0:0:
256,192,65725,1,8,0:0:0:0:
256,192,65878,1,8,0:0:0:0:
256,192,66031,1,0,0:0:0:0:
256,192,66184,1,8,0:0:0:0:
256,192,66260,1,8,0:0:0:0:
256,192,66337,1,8,0:0:0:0:
256,192,66490,1,0,0:0:0:0:
256,192,66643,1,8,0:0:0:0:
256,192,66796,1,0,0:0:0:0:
256,192,66873,1,0,0:0:0:0:
256,192,66949,1,8,0:0:0:0:
256,192,67026,1,8,0:0:0:0:
256,192,67102,1,0,0:0:0:0:
256,192,67255,1,8,0:0:0:0:
256,192,67408,1,0,0:0:0:0:
256,192,67485,1,8,0:0:0:0:
256,192,67561,1,0,0:0:0:0:
256,192,67714,1,0,0:0:0:0:
256,192,67867,1,8,0:0:0:0:
256,192,67944,1,8,0:0:0:0:
256,192,68021,1,0,0:0:0:0:
256,192,68097,1,0,0:0:0:0:
256,192,68174,1,8,0:0:0:0:
256,192,68250,1,0,0:0:0:0:
256,192,68327,1,8,0:0:0:0:
256,192,68403,1,8,0:0:0:0:
256,192,68480,1,0,0:0:0:0:
256,192,68556,1,8,0:0:0:0:
256,192,68633,1,0,0:0:0:0:
256,192,68709,1,0,0:0:0:0:
256,192,68786,1,8,0:0:0:0:
256,192,68862,1,8,0:0:0:0:
256,192,68939,1,8,0:0:0:0:
256,192,69015,1,8,0:0:0:0:
256,192,69092,1,4,0:0:0:0:
256,192,69398,1,0,0:0:0:0:
256,192,69551,1,0,0:0:0:0:
256,192,69704,1,8,0:0:0:0:
256,192,69857,1,0,0:0:0:0:
256,192,70010,1,8,0:0:0:0:
256,192,70163,1,0,0:0:0:0:
256,192,70240,1,0,0:0:0:0:
256,192,70316,1,8,0:0:0:0:
256,192,70469,1,0,0:0:0:0:
256,192,70546,1,0,0:0:0:0:
256,192,70623,1,8,0:0:0:0:
256,192,70776,1,0,0:0:0:0:
256,192,70852,1,0,0:0:0:0:
256,192,70929,1,8,0:0:0:0:
256,192,71082,1,0,0:0:0:0:
256,192,71158,1,0,0:0:0:0:
256,192,71235,1,8,0:0:0:0:
256,192,71388,1,0,0:0:0:0:
256,192,71541,1,12,0:0:0:0:
256,192,71847,1,0,0:0:0:0:
256,192,72000,1,8,0:0:0:0:
256,192,72153,1,0,0:0:0:0:
256,192,72230,1,0,0:0:0:0:
256,192,72306,1,8,0:0:0:0:
256,192,72383,1,0,0:0:0:0:
256,192,72459,1,8,0:0:0:0:
256,192,72536,1,8,0:0:0:0:
256,192,72612,1,0,0:0:0:0:
256,192,72765,1,8,0:0:0:0:
256,192,72918,1,0,0:0:0:0:
256,192,72995,1,0,0:0:0:0:
256,192,73072,1,8,0:0:0:0:
256,192,73225,1,0,0:0:0:0:
256,192,73378,1,8,0:0:0:0:
256,192,73454,1,8,0:0:0:0:
256,192,73531,1,0,0:0:0:0:
256,192,73607,1,8,0:0:0:0:
256,192,73684,1,0,0:0:0:0:
256,192,73760,1,0,0:0:0:0:
256,192,73837,1,0,0:0:0:0:
256,192,73913,1,0,0:0:0:0:
256,192,73990,1,12,0:0:0:0:
256,192,74296,1,0,0:0:0:0:
256,192,74449,1,0,0:0:0:0:
256,192,74602,1,8,0:0:0:0:
256,192,74755,1,0,0:0:0:0:
256,192,74908,1,8,0:0:0:0:
256,192,75061,1,0,0:0:0:0:
256,192,75138,1,0,0:0:0:0:
256,192,75214,1,8,0:0:0:0:
256,192,75367,1,0,0:0:0:0:
256,192,75444,1,0,0:0:0:0:
256,192,75521,1,8,0:0:0:0:
256,192,75674,1,0,0:0:0:0:
256,192,75750,1,0,0:0:0:0:
256,192,75827,1,8,0:0:0:0:
256,192,75980,1,0,0:0:0:0:
256,192,76056,1,0,0:0:0:0:
256,192,76133,1,8,0:0:0:0:
256,192,76286,1,0,0:0:0:0:
256,192,76439,1,12,0:0:0:0:
256,192,76745,1,8,0:0:0:0:
256,192,76898,1,0,0:0:0:0:
256,192,77051,1,8,0:0:0:0:
256,192,77128,1,8,0:0:0:0:
256,192,77204,1,0,0:0:0:0:
256,192,77281,1,8,0:0:0:0:
256,192,77357,1,0,0:0:0:0:
256,192,77434,1,0,0:0:0:0:
256,192,77510,1,8,0:0:0:0:
256,192,77663,1,0,0:0:0:0:
256,192,77816,1,8,0:0:0:0:
256,192,77893,1,8,0:0:0:0:
256,192,77969,1,0,0:0:0:0:
256,192,78123,1,8,0:0:0:0:
256,192,78276,1,0,0:0:0:0:
256,192,78352,1,0,0:0:0:0:
256,192,78429,1,8,0:0:0:0:
256,192,78505,1,0,0:0:0:0:
256,192,78582,1,8,0:0:0:0:
256,192,78658,1,8,0:0:0:0:
256,192,78735,1,8,0:0:0:0:
256,192,78811,1,8,0:0:0:0:
256,192,78888,1,4,0:0:0:0:
256,192,79194,1,0,0:0:0:0:
256,192,79347,1,0,0:0:0:0:
256,192,79500,1,8,0:0:0:0:
256,192,79653,1,0,0:0:0:0:
256,192,79806,1,8,0:0:0:0:
256,192,79959,1,0,0:0:0:0:
256,192,80036,1,0,0:0:0:0:
256,192,80112,1,8,0:0:0:0:
256,192,80265,1,0,0:0:0:0:
256,192,80342,1,0,0:0:0:0:
256,192,80418,1,8,0:0:0:0:
256,192,80572,1,0,0:0:0:0:
256,192,80648,1,0,0:0:0:0:
256,192,80725,1,8,0:0:0:0:
256,192,80878,1,0,0:0:0:0:
256,192,80954,1,0,0:0:0:0:
256,192,81031,1,8,0:0:0:0:
256,192,81184,1,0,0:0:0:0:
256,192,81337,1,12,0:0:0:0:
256,192,81643,1,0,0:0:0:0:
256,192,81796,1,0,0:0:0:0:
256,192,81949,1,8,0:0:0:0:
256,192,82026,1,8,0:0:0:0:
256,192,82102,1,0,0:0:0:0:
256,192,82179,1,0,0:0:0:0:
256,192,82255,1,8,0:0:0:0:
256,192,82332,1,0,0:0:0:0:
256,192,82408,1,8,0:0:0:0:
256,192,82561,1,0,0:0:0:0:
256,192,82714,1,8,0:0:0:0:
256,192,82791,1,8,0:0:0:0:
256,192,82867,1,0,0:0:0:0:
256,192,83021,1,8,0:0:0:0:
256,192,83174,1,0,0:0:0:0:
256,192,83250,1,0,0:0:0:0:
256,192,83327,1,8,0:0:0:0:
256,192,83403,1,8,0:0:0:0:
256,192,83480,1,0,0:0:0:0:
256,192,83556,1,0,0:0:0:0:
256,192,83633,1,0,0:0:0:0:
256,192,83709,1,0,0:0:0:0:
256,192,83786,1,12,0:0:0:0:
256,192,83939,1,0,0:0:0:0:
256,192,84015,1,0,0:0:0:0:
256,192,84092,1,0,0:0:0:0:
256,192,84245,1,0,0:0:0:0:
256,192,84322,1,0,0:0:0:0:
256,192,84398,1,8,0:0:0:0:
256,192,84551,1,0,0:0:0:0:
256,192,84628,1,0,0:0:0:0:
256,192,84704,1,0,0:0:0:0:
256,192,84857,1,0,0:0:0:0:
256,192,84934,1,0,0:0:0:0:
256,192,85010,1,8,0:0:0:0:
256,192,85163,1,0,0:0:0:0:
256,192,85240,1,0,0:0:0:0:
256,192,85316,1,8,0:0:0:0:
256,192,85393,1,8,0:0:0:0:
256,192,85469,1,0,0:0:0:0:
256,192,85546,1,0,0:0:0:0:
256,192,85623,1,8,0:0:0:0:
256,192,85699,1,8,0:0:0:0:
256,192,85776,1,0,0:0:0:0:
256,192,85852,1,0,0:0:0:0:
256,192,85929,1,8,0:0:0:0:
256,192,86005,1,8,0:0:0:0:
256,192,86082,1,0,0:0:0:0:
256,192,86235,1,12,0:0:0:0:
256,192,86388,1,0,0:0:0:0:
256,192,86541,1,8,0:0:0:0:
256,192,86694,1,0,0:0:0:0:
256,192,86847,1,8,0:0:0:0:
256,192,86924,1,8,0:0:0:0:
256,192,87000,1,0,0:0:0:0:
256,192,87153,1,8,0:0:0:0:
256,192,87306,1,0,0:0:0:0:
256,192,87459,1,8,0:0:0:0:
256,192,87536,1,8,0:0:0:0:
256,192,87612,1,0,0:0:0:0:
256,192,87689,1,0,0:0:0:0:
256,192,87765,1,8,0:0:0:0:
256,192,87918,1,0,0:0:0:0:
256,192,88072,1,8,0:0:0:0:
256,192,88148,1,8,0:0:0:0:
256,192,88225,1,8,0:0:0:0:
256,192,88301,1,8,0:0:0:0:
256,192,88378,1,0,0:0:0:0:
256,192,88531,1,8,0:0:0:0:
256,192,88684,1,4,0:0:0:0:
256,192,88990,1,4,0:0:0:0:
256,192,89143,1,8,0:0:0:0:
256,192,89296,1,4,0:0:0:0:
256,192,89449,1,4,0:0:0:0:
256,192,89602,1,8,0:0:0:0:
256,192,89755,1,4,0:0:0:0:
256,192,90061,1,4,0:0:0:0:
256,192,90214,1,4,0:0:0:0:
256,192,90367,1,0,0:0:0:0:
256,192,90521,1,12,0:0:0:0:
256,192,90674,1,8,0:0:0:0:
256,192,90827,1,4,0:0:0:0:
256,192,90980,1,0,0:0:0:0:
256,192,91133,1,12,0:0:0:0:
256,192,91439,1,4,0:0:0:0:
256,192,91592,1,8,0:0:0:0:
256,192,91745,1,4,0:0:0:0:
256,192,91898,1,4,0:0:0:0:
256,192,92051,1,8,0:0:0:0:
256,192,92204,1,4,0:0:0:0:
256,192,92510,1,4,0:0:0:0:
256,192,92663,1,4,0:0:0:0:
256,192,92816,1,8,0:0:0:0:
256,192,92969,1,12,0:0:0:0:
256,192,93123,1,8,0:0:0:0:
256,192,93276,1,4,0:0:0:0:
256,192,93429,1,0,0:0:0:0:
256,192,93582,1,12,0:0:0:0:
256,192,93888,1,4,0:0:0:0:
256,192,94041,1,8,0:0:0:0:
256,192,94194,1,4,0:0:0:0:
256,192,94347,1,4,0:0:0:0:
256,192,94500,1,8,0:0:0:0:
256,192,94653,1,4,0:0:0:0:
256,192,94959,1,4,0:0:0:0:
256,192,95112,1,4,0:0:0:0:
256,192,95265,1,8,0:0:0:0:
256,192,95418,1,12,0:0:0:0:
256,192,95572,1,8,0:0:0:0:
256,192,95725,1,4,0:0:0:0:
256,192,95878,1,0,0:0:0:0:
256,192,96031,1,12,0:0:0:0:
256,192,96337,1,4,0:0:0:0:
256,192,96490,1,8,0:0:0:0:
256,192,96643,1,4,0:0:0:0:
256,192,96796,1,4,0:0:0:0:
256,192,96949,1,8,0:0:0:0:
256,192,97102,1,4,0:0:0:0:
256,192,97408,1,4,0:0:0:0:
256,192,97561,1,4,0:0:0:0:
256,192,97714,1,8,0:0:0:0:
256,192,97867,1,12,0:0:0:0:
256,192,98021,1,0,0:0:0:0:
256,192,98174,1,12,0:0:0:0:
256,192,98327,1,8,0:0:0:0:
256,192,98480,1,4,0:0:0:0:
256,192,98786,1,8,0:0:0:0:
256,192,98939,1,0,0:0:0:0:
256,192,99015,1,0,0:0:0:0:
256,192,99092,1,8,0:0:0:0:
256,192,99168,1,0,0:0:0:0:
256,192,99245,1,8,0:0:0:0:
256,192,99322,1,8,0:0:0:0:
256,192,99398,1,0,0:0:0:0:
256,192,99551,1,8,0:0:0:0:
256,192,99704,1,0,0:0:0:0:
256,192,99781,1,0,0:0:0:0:
256,192,99857,1,8,0:0:0:0:
256,192,100010,1,0,0:0:0:0:
256,192,100163,1,8,0:0:0:0:
256,192,100316,1,0,0:0:0:0:
256,192,100393,1,0,0:0:0:0:
256,192,100469,1,8,0:0:0:0:
256,192,100546,1,8,0:0:0:0:
256,192,100623,1,0,0:0:0:0:
256,192,100776,1,8,0:0:0:0:
256,192,100929,1,0,0:0:0:0:
256,192,101082,1,0,0:0:0:0:
256,192,101235,1,8,0:0:0:0:
256,192,101311,1,8,0:0:0:0:
256,192,101388,1,0,0:0:0:0:
256,192,101464,1,0,0:0:0:0:
256,192,101541,1,8,0:0:0:0:
256,192,101617,1,0,0:0:0:0:
256,192,101694,1,8,0:0:0:0:
256,192,101847,1,0,0:0:0:0:
256,192,102000,1,8,0:0:0:0:
256,192,102077,1,0,0:0:0:0:
256,192,102153,1,8,0:0:0:0:
256,192,102230,1,8,0:0:0:0:
256,192,102306,1,0,0:0:0:0:
256,192,102459,1,8,0:0:0:0:
256,192,102612,1,8,0:0:0:0:
256,192,102765,1,0,0:0:0:0:
256,192,102842,1,0,0:0:0:0:
256,192,102918,1,8,0:0:0:0:
256,192,102995,1,0,0:0:0:0:
256,192,103072,1,8,0:0:0:0:
256,192,103225,1,0,0:0:0:0:
256,192,103378,1,8,0:0:0:0:
256,192,103684,1,0,0:0:0:0:
256,192,103837,1,8,0:0:0:0:
256,192,103913,1,0,0:0:0:0:
256,192,103990,1,8,0:0:0:0:
256,192,104066,1,8,0:0:0:0:
256,192,104143,1,0,0:0:0:0:
256,192,104219,1,0,0:0:0:0:
256,192,104296,1,8,0:0:0:0:
256,192,104449,1,0,0:0:0:0:
256,192,104602,1,8,0:0:0:0:
256,192,104679,1,8,0:0:0:0:
256,192,104755,1,0,0:0:0:0:
256,192,104908,1,8,0:0:0:0:
256,192,105061,1,0,0:0:0:0:
256,192,105214,1,8,0:0:0:0:
256,192,105291,1,8,0:0:0:0:
256,192,105367,1,0,0:0:0:0:
256,192,105444,1,8,0:0:0:0:
256,192,105521,1,0,0:0:0:0:
256,192,105597,1,0,0:0:0:0:
256,192,105674,1,8,0:0:0:0:
256,192,105827,1,0,0:0:0:0:
256,192,105980,1,0,0:0:0:0:
256,192,106133,1,8,0:0:0:0:
256,192,106209,1,8,0:0:0:0:
256,192,106286,1,0,0:0:0:0:
256,192,106362,1,8,0:0:0:0:
256,192,106439,1,0,0:0:0:0:
256,192,106515,1,0,0:0:0:0:
256,192,106592,1,8,0:0:0:0:
256,192,106745,1,0,0:0:0:0:
256,192,106898,1,8,0:0:0:0:
256,192,106975,1,8,0:0:0:0:
256,192,107051,1,0,0:0:0:0:
256,192,107128,1,0,0:0:0:0:
256,192,107204,1,8,0:0:0:0:
256,192,107357,1,0,0:0:0:0:
256,192,107510,1,0,0:0:0:0:
256,192,107663,1,8,0:0:0:0:
256,192,107740,1,8,0:0:0:0:
256,192,107816,1,0,0:0:0:0:
256,192,107893,1,8,0:0:0:0:
256,192,107969,1,0,0:0:0:0:
256,192,108046,1,0,0:0:0:0:
256,192,108123,1,8,0:0:0:0:
256,192,108276,1,4,0:0:0:0:
256,192,108582,1,8,0:0:0:0:
256,192,108658,1,8,0:0:0:0:
256,192,108735,1,0,0:0:0:0:
256,192,108811,1,0,0:0:0:0:
256,192,108888,1,8,0:0:0:0:
256,192,108964,1,0,0:0:0:0:
256,192,109041,1,8,0:0:0:0:
256,192,109117,1,8,0:0:0:0:
256,192,109194,1,0,0:0:0:0:
256,192,109271,1,0,0:0:0:0:
256,192,109347,1,8,0:0:0:0:
256,192,109424,1,8,0:0:0:0:
256,192,109500,1,0,0:0:0:0:
256,192,109653,1,8,0:0:0:0:
256,192,109806,1,0,0:0:0:0:
256,192,109959,1,8,0:0:0:0:
256,192,110112,1,0,0:0:0:0:
256,192,110189,1,0,0:0:0:0:
256,192,110265,1,8,0:0:0:0:
256,192,110342,1,8,0:0:0:0:
256,192,110418,1,0,0:0:0:0:
256,192,110572,1,8,0:0:0:0:
256,192,110725,1,0,0:0:0:0:
256,192,110801,1,0,0:0:0:0:
256,192,110878,1,8,0:0:0:0:
256,192,110954,1,0,0:0:0:0:
256,192,111031,1,8,0:0:0:0:
256,192,111107,1,8,0:0:0:0:
256,192,111184,1,0,0:0:0:0:
256,192,111260,1,0,0:0:0:0:
256,192,111337,1,8,0:0:0:0:
256,192,111413,1,8,0:0:0:0:
256,192,111490,1,8,0:0:0:0:
256,192,111566,1,8,0:0:0:0:
256,192,111643,1,0,0:0:0:0:
256,192,111719,1,8,0:0:0:0:
256,192,111796,1,0,0:0:0:0:
256,192,111873,1,0,0:0:0:0:
256,192,111949,1,8,0:0:0:0:
256,192,112102,1,0,0:0:0:0:
256,192,112255,1,8,0:0:0:0:
256,192,112408,1,8,0:0:0:0:
256,192,112561,1,0,0:0:0:0:
256,192,112638,1,0,0:0:0:0:
256,192,112714,1,8,0:0:0:0:
256,192,112791,1,0,0:0:0:0:
256,192,112867,1,8,0:0:0:0:
256,192,113021,1,0,0:0:0:0:
256,192,113174,1,8,0:0:0:0:
256,192,113250,1,8,0:0:0:0:
256,192,113327,1,8,0:0:0:0:
256,192,113403,1,8,0:0:0:0:
256,192,113480,1,0,0:0:0:0:
256,192,113556,1,8,0:0:0:0:
256,192,113633,1,0,0:0:0:0:
256,192,113709,1,0,0:0:0:0:
256,192,113786,1,8,0:0:0:0:
256,192,113862,1,0,0:0:0:0:
256,192,113939,1,0,0:0:0:0:
256,192,114015,1,0,0:0:0:0:
256,192,114092,1,8,0:0:0:0:
256,192,114168,1,8,0:0:0:0:
256,192,114245,1,0,0:0:0:0:
256,192,114322,1,8,0:0:0:0:
256,192,114398,1,0,0:0:0:0:
256,192,114551,1,0,0:0:0:0:
256,192,114704,1,8,0:0:0:0:
256,192,114857,1,0,0:0:0:0:
256,192,115010,1,8,0:0:0:0:
256,192,115087,1,8,0:0:0:0:
256,192,115163,1,0,0:0:0:0:
256,192,115240,1,8,0:0:0:0:
256,192,115316,1,0,0:0:0:0:
256,192,115469,1,8,0:0:0:0:
256,192,115623,1,0,0:0:0:0:
256,192,115699,1,0,0:0:0:0:
256,192,115776,1,8,0:0:0:0:
256,192,115852,1,0,0:0:0:0:
256,192,115929,1,8,0:0:0:0:
256,192,116005,1,8,0:0:0:0:
256,192,116082,1,0,0:0:0:0:
256,192,116158,1,8,0:0:0:0:
256,192,116235,1,0,0:0:0:0:
256,192,116311,1,0,0:0:0:0:
256,192,116388,1,0,0:0:0:0:
256,192,116464,1,8,0:0:0:0:
256,192,116541,1,0,0:0:0:0:
256,192,116617,1,0,0:0:0:0:
256,192,116694,1,8,0:0:0:0:
256,192,116771,1,8,0:0:0:0:
256,192,116847,1,0,0:0:0:0:
256,192,117000,1,8,0:0:0:0:
256,192,117153,1,0,0:0:0:0:
256,192,117230,1,0,0:0:0:0:
256,192,117306,1,8,0:0:0:0:
256,192,117383,1,0,0:0:0:0:
256,192,117459,1,8,0:0:0:0:
256,192,117536,1,8,0:0:0:0:
256,192,117612,1,0,0:0:0:0:
256,192,117689,1,8,0:0:0:0:
256,192,117765,1,0,0:0:0:0:
256,192,117918,1,0,0:0:0:0:
256,192,118072,1,12,0:0:0:0:
256,192,118378,1,0,0:0:0:0:
256,192,118454,1,0,0:0:0:0:
256,192,118531,1,8,0:0:0:0:
256,192,118684,1,0,0:0:0:0:
256,192,118837,1,0,0:0:0:0:
256,192,118990,1,8,0:0:0:0:
256,192,119066,1,8,0:0:0:0:
256,192,119143,1,0,0:0:0:0:
256,192,119296,1,8,0:0:0:0:
256,192,119449,1,0,0:0:0:0:
256,192,119526,1,0,0:0:0:0:
256,192,119602,1,8,0:0:0:0:
256,192,119679,1,8,0:0:0:0:
256,192,119755,1,8,0:0:0:0:
256,192,119832,1,8,0:0:0:0:
256,192,119908,1,0,0:0:0:0:
256,192,120061,1,8,0:0:0:0:
256,192,120214,1,0,0:0:0:0:
256,192,120367,1,0,0:0:0:0:
256,192,120521,1,12,0:0:0:0:
256,192,120827,1,0,0:0:0:0:
256,192,120903,1,0,0:0:0:0:
256,192,120980,1,8,0:0:0:0:
256,192,121133,1,0,0:0:0:0:
256,192,121286,1,0,0:0:0:0:
256,192,121439,1,8,0:0:0:0:
256,192,121592,1,0,0:0:0:0:
256,192,121745,1,8,0:0:0:0:
256,192,121847,1,8,0:0:0:0:
256,192,121949,1,8,0:0:0:0:
256,192,122051,1,8,0:0:0:0:
256,192,122153,1,0,0:0:0:0:
256,192,122255,1,0,0:0:0:0:
256,192,122357,1,8,0:0:0:0:
256,192,122459,1,8,0:0:0:0:
256,192,122561,1,0,0:0:0:0:
256,192,122663,1,8,0:0:0:0:
256,192,122816,1,0,0:0:0:0:
256,192,122969,1,12,0:0:0:0:
256,192,123276,1,0,0:0:0:0:
256,192,123352,1,0,0:0:0:0:
256,192,123429,1,0,0:0:0:0:
256,192,123582,1,8,0:0:0:0:
256,192,123735,1,0,0:0:0:0:
256,192,123888,1,8,0:0:0:0:
256,192,123964,1,8,0:0:0:0:
256,192,124041,1,8,0:0:0:0:
256,192,124194,1,0,0:0:0:0:
256,192,124271,1,8,0:0:0:0:
256,192,124347,1,8,0:0:0:0:
256,192,124424,1,8,0:0:0:0:
256,192,124500,1,0,0:0:0:0:
256,192,124577,1,0,0:0:0:0:
256,192,124653,1,8,0:0:0:0:
256,192,124730,1,8,0:0:0:0:
256,192,124806,1,0,0:0:0:0:
256,192,124883,1,0,0:0:0:0:
256,192,124959,1,0,0:0:0:0:
256,192,125036,1,0,0:0:0:0:
256,192,125112,1,8,0:0:0:0:
256,192,125189,1,8,0:0:0:0:
256,192,125265,1,0,0:0:0:0:
256,192,125418,1,12,0:0:0:0:
256,192,125725,1,0,0:0:0:0:
256,192,125801,1,0,0:0:0:0:
256,192,125878,1,8,0:0:0:0:
256,192,126031,1,0,0:0:0:0:
256,192,126184,1,0,0:0:0:0:
256,192,126337,1,8,0:0:0:0:
256,192,126490,1,8,0:0:0:0:
256,192,126643,1,0,0:0:0:0:
256,192,126796,1,8,0:0:0:0:
256,192,126873,1,0,0:0:0:0:
256,192,126949,1,8,0:0:0:0:
256,192,127102,1,0,0:0:0:0:
256,192,127255,1,8,0:0:0:0:
256,192,127332,1,8,0:0:0:0:
256,192,127408,1,8,0:0:0:0:
256,192,127485,1,8,0:0:0:0:
256,192,127561,1,0,0:0:0:0:
256,192,127638,1,0,0:0:0:0:
256,192,127714,1,0,0:0:0:0:
256,192,127791,1,0,0:0:0:0:
256,192,127867,1,12,0:0:0:0:
256,192,128174,1,0,0:0:0:0:
256,192,128250,1,0,0:0:0:0:
256,192,128327,1,8,0:0:0:0:
256,192,128403,1,8,0:0:0:0:
256,192,128480,1,0,0:0:0:0:
256,192,128633,1,8,0:0:0:0:
256,192,128786,1,0,0:0:0:0:
256,192,128862,1,0,0:0:0:0:
256,192,128939,1,8,0:0:0:0:
256,192,129015,1,0,0:0:0:0:
256,192,129092,1,8,0:0:0:0:
256,192,129245,1,0,0:0:0:0:
256,192,129322,1,0,0:0:0:0:
256,192,129398,1,8,0:0:0:0:
256,192,129475,1,8,0:0:0:0:
256,192,129551,1,8,0:0:0:0:
256,192,129628,1,8,0:0:0:0:
256,192,129704,1,0,0:0:0:0:
256,192,129857,1,8,0:0:0:0:
256,192,130010,1,0,0:0:0:0:
256,192,130087,1,0,0:0:0:0:
256,192,130163,1,0,0:0:0:0:
256,192,130316,1,12,0:0:0:0:
256,192,130623,1,0,0:0:0:0:
256,192,130699,1,0,0:0:0:0:
256,192,130776,1,8,0:0:0:0:
256,192,130852,1,8,0:0:0:0:
256,192,130929,1,0,0:0:0:0:
256,192,131082,1,0,0:0:0:0:
256,192,131235,1,8,0:0:0:0:
256,192,131311,1,8,0:0:0:0:
256,192,131388,1,0,0:0:0:0:
256,192,131541,1,8,0:0:0:0:
256,192,131694,1,8,0:0:0:0:
256,192,131771,1,8,0:0:0:0:
256,192,131847,1,0,0:0:0:0:
256,192,131924,1,0,0:0:0:0:
256,192,132000,1,8,0:0:0:0:
256,192,132077,1,0,0:0:0:0:
256,192,132153,1,8,0:0:0:0:
256,192,132230,1,8,0:0:0:0:
256,192,132306,1,0,0:0:0:0:
256,192,132459,1,8,0:0:0:0:
256,192,132612,1,0,0:0:0:0:
256,192,132765,1,12,0:0:0:0:
256,192,133072,1,0,0:0:0:0:
256,192,133148,1,0,0:0:0:0:
256,192,133225,1,8,0:0:0:0:
256,192,133301,1,8,0:0:0:0:
256,192,133378,1,0,0:0:0:0:
256,192,133531,1,8,0:0:0:0:
256,192,133684,1,0,0:0:0:0:
256,192,133760,1,0,0:0:0:0:
256,192,133837,1,8,0:0:0:0:
256,192,133990,1,0,0:0:0:0:
256,192,134143,1,8,0:0:0:0:
256,192,134219,1,8,0:0:0:0:
256,192,134296,1,8,0:0:0:0:
256,192,134373,1,8,0:0:0:0:
256,192,134449,1,0,0:0:0:0:
256,192,134602,1,8,0:0:0:0:
256,192,134679,1,8,0:0:0:0:
256,192,134755,1,8,0:0:0:0:
256,192,134832,1,8,0:0:0:0:
256,192,134908,1,0,0:0:0:0:
256,192,135061,1,8,0:0:0:0:
256,192,135214,1,4,0:0:0:0:
256,192,135523,1,0,0:0:0:0:
256,192,135601,1,0,0:0:0:0:
256,192,135679,1,8,0:0:0:0:
256,192,135835,1,0,0:0:0:0:
256,192,135991,1,0,0:0:0:0:
256,192,136148,1,8,0:0:0:0:
256,192,136295,1,8,0:0:0:0:
256,192,136442,1,0,0:0:0:0:
256,192,136614,1,8,0:0:0:0:
256,192,136700,1,0,0:0:0:0:
256,192,136786,1,8,0:0:0:0:
256,192,136951,1,0,0:0:0:0:
256,192,137116,1,8,0:0:0:0:
256,192,137196,1,8,0:0:0:0:
256,192,137277,1,8,0:0:0:0:
256,192,137439,1,0,0:0:0:0:
256,192,137518,1,0,0:0:0:0:
256,192,137598,1,0,0:0:0:0:
256,192,137758,1,12,0:0:0:0:
256,192,146603,5,0,0:0:0:0:
512,192,147590,1,8,0:0:0:0:
