osu file format v14

[General]
AudioFilename: audio.mp3
AudioLeadIn: 0
PreviewTime: 176
Countdown: 0
SampleSet: Normal
StackLeniency: 0.7
Mode: 1
LetterboxInBreaks: 0
WidescreenStoryboard: 1

[Editor]
DistanceSpacing: 0.9
BeatDivisor: 2
GridSize: 32
TimelineZoom: 0.4000001

[Metadata]
Title:Super Soaker
TitleUnicode:Super Soaker
Artist:Wavves
ArtistUnicode:Wavves
Creator:meiqth
Version:Kantan
Source:
Tags:waves english alt alternative indie rock surf punk king of THE BEACH A!TT2023 Ausu!Taiko 2023 qualifiers
BeatmapID:4284254
BeatmapSetID:1975566

[Difficulty]
HPDrainRate:9
CircleSize:2
OverallDifficulty:3
ApproachRate:10
SliderMultiplier:1.4
SliderTickRate:1

[Events]
//Background and Video events
0,0,"staraptures-status-1626097419644436480.jpg",0,0
//Break Periods
2,137958,143766
//Storyboard Layer 0 (Background)
//Storyboard Layer 1 (Fail)
//Storyboard Layer 2 (Pass)
//Storyboard Layer 3 (Foreground)
//Storyboard Layer 4 (Overlay)
//Storyboard Sound Samples

[TimingPoints]
521,306.122448979592,4,1,0,82,1,0
71541,-100,4,1,0,82,0,1
73990,-100,4,1,0,82,0,0
76439,-100,4,1,0,82,0,1
78888,-100,4,1,0,82,0,0
81337,-100,4,1,0,82,0,1
83786,-100,4,1,0,82,0,0
83842,-100,4,1,0,58,0,0
86177,-100,4,1,0,67,0,0
88664,-90.9090909090909,4,1,0,82,0,0
98480,-90.9090909090909,4,1,0,82,0,1
118072,-90.9090909090909,4,1,0,82,0,0
135214,309.278350515464,4,1,0,92,1,0
135214,-90.9090909090909,4,1,0,92,0,0
135523,312.5,4,1,0,92,1,8
135523,-90.976447908809,4,1,0,92,0,8
135598,-79.3683572321749,4,1,0,92,0,8
135676,-91.4921761646967,4,1,0,92,0,8
135832,-92.0137848874863,4,1,0,92,0,8
135988,-92.5413752297677,4,1,0,92,0,8
136148,294.117647058824,4,1,0,92,1,8
136148,-98.8958972502238,4,1,0,92,0,8
136292,-86.3058125557193,4,1,0,92,0,8
136442,344.827586206897,4,1,0,92,1,0
136442,-85.2792629228167,4,1,0,92,0,0
136611,-85.831024629961,4,1,0,92,0,0
136697,-86.1095916206085,4,1,0,92,0,0
136786,330.578512396694,4,1,0,92,1,8
136786,-90.1136784123431,4,1,0,92,0,8
136948,-90.680171990201,4,1,0,92,0,8
137116,323.450134770889,4,1,0,92,1,8
137116,-93.2649368328438,4,1,0,92,0,8
137193,-80.9425910103073,4,1,0,92,0,8
137274,-93.8442221547869,4,1,0,92,0,8
137355,-94.1383932846065,4,1,0,92,0,8
137439,319.148936170213,4,1,0,92,1,8
137439,-95.7071154792059,4,1,0,92,0,8
137515,-82.9641965028081,4,1,0,92,0,8
137595,-96.3015463917525,4,1,0,92,0,8
137758,333.796940194715,4,1,0,92,1,1
137758,-92.6546391752577,4,1,0,92,0,1
143766,333.796940194715,9,1,0,55,1,8
146603,329.308452250274,4,1,0,72,1,8
147590,317.460317460317,4,1,0,82,1,8

[HitObjects]
256,192,214,5,8,0:0:0:0:
256,192,521,1,4,0:0:0:0:
256,192,1592,1,0,0:0:0:0:
256,192,2051,1,8,0:0:0:0:
256,192,2357,1,8,0:0:0:0:
256,192,2663,1,0,0:0:0:0:
256,192,2969,1,12,0:0:0:0:
256,192,3582,1,0,0:0:0:0:
256,192,4041,1,8,0:0:0:0:
256,192,4347,1,8,0:0:0:0:
256,192,4806,1,0,0:0:0:0:
256,192,5418,1,12,0:0:0:0:
256,192,6031,1,8,0:0:0:0:
256,192,6490,1,0,0:0:0:0:
256,192,6796,1,0,0:0:0:0:
256,192,7255,1,8,0:0:0:0:
256,192,7561,5,0,0:0:0:0:
256,192,7867,1,12,0:0:0:0:
256,192,8939,1,8,0:0:0:0:
256,192,9398,1,8,0:0:0:0:
256,192,9704,1,0,0:0:0:0:
256,192,10010,1,0,0:0:0:0:
256,192,10316,1,12,0:0:0:0:
256,192,10929,1,8,0:0:0:0:
256,192,11388,1,0,0:0:0:0:
256,192,11694,1,0,0:0:0:0:
256,192,12153,1,8,0:0:0:0:
256,192,12765,1,4,0:0:0:0:
256,192,13378,1,0,0:0:0:0:
256,192,13837,1,8,0:0:0:0:
256,192,14143,1,8,0:0:0:0:
256,192,14602,1,8,0:0:0:0:
256,192,15214,1,12,0:0:0:0:
256,192,16133,1,8,0:0:0:0:
256,192,16439,1,0,0:0:0:0:
256,192,17357,1,8,0:0:0:0:
256,192,17663,1,0,0:0:0:0:
256,192,18276,1,0,0:0:0:0:
256,192,18582,1,8,0:0:0:0:
256,192,18888,1,0,0:0:0:0:
256,192,19500,1,8,0:0:0:0:
256,192,19806,1,8,0:0:0:0:
256,192,20112,1,0,0:0:0:0:
256,192,21031,1,8,0:0:0:0:
256,192,21337,1,0,0:0:0:0:
256,192,22255,1,8,0:0:0:0:
256,192,22561,1,8,0:0:0:0:
256,192,22867,1,0,0:0:0:0:
256,192,23174,1,8,0:0:0:0:
256,192,23786,1,0,0:0:0:0:
256,192,24092,1,0,0:0:0:0:
256,192,24398,1,8,0:0:0:0:
256,192,25010,1,0,0:0:0:0:
256,192,25929,1,8,0:0:0:0:
256,192,26235,1,0,0:0:0:0:
256,192,27153,1,8,0:0:0:0:
256,192,27459,1,0,0:0:0:0:
256,192,28072,1,0,0:0:0:0:
256,192,28378,1,0,0:0:0:0:
256,192,28684,1,8,0:0:0:0:
256,192,29296,1,8,0:0:0:0:
256,192,29602,1,8,0:0:0:0:
256,192,29908,1,0,0:0:0:0:
256,192,30827,1,8,0:0:0:0:
256,192,31133,1,0,0:0:0:0:
256,192,32051,1,8,0:0:0:0:
256,192,32357,1,8,0:0:0:0:
256,192,32663,1,0,0:0:0:0:
256,192,32969,1,8,0:0:0:0:
256,192,33582,1,0,0:0:0:0:
256,192,33888,1,8,0:0:0:0:
256,192,34194,1,0,0:0:0:0:
256,192,34806,1,4,0:0:0:0:
256,192,35878,1,8,0:0:0:0:
256,192,36337,1,0,0:0:0:0:
256,192,36643,1,8,0:0:0:0:
256,192,36949,1,8,0:0:0:0:
256,192,37255,1,4,0:0:0:0:
256,192,37867,1,0,0:0:0:0:
256,192,38327,1,8,0:0:0:0:
256,192,38633,1,8,0:0:0:0:
256,192,39092,1,0,0:0:0:0:
256,192,39704,1,12,0:0:0:0:
256,192,40316,1,0,0:0:0:0:
256,192,40776,1,8,0:0:0:0:
256,192,41082,1,8,0:0:0:0:
256,192,41541,1,0,0:0:0:0:
256,192,42153,1,12,0:0:0:0:
256,192,43225,1,0,0:0:0:0:
256,192,43684,1,8,0:0:0:0:
256,192,43990,1,0,0:0:0:0:
256,192,44296,1,0,0:0:0:0:
256,192,44602,1,12,0:0:0:0:
256,192,45214,1,8,0:0:0:0:
256,192,45674,1,0,0:0:0:0:
256,192,45980,1,0,0:0:0:0:
256,192,46439,1,8,0:0:0:0:
256,192,47051,1,4,0:0:0:0:
256,192,47663,1,0,0:0:0:0:
256,192,48123,1,8,0:0:0:0:
256,192,48429,1,0,0:0:0:0:
256,192,48888,1,0,0:0:0:0:
256,192,49194,1,0,0:0:0:0:
256,192,49500,1,12,0:0:0:0:
256,192,50418,1,8,0:0:0:0:
256,192,50725,1,0,0:0:0:0:
256,192,51643,1,8,0:0:0:0:
256,192,51949,1,0,0:0:0:0:
256,192,52561,1,0,0:0:0:0:
256,192,52867,1,8,0:0:0:0:
256,192,53174,1,0,0:0:0:0:
256,192,53786,1,8,0:0:0:0:
256,192,54092,1,8,0:0:0:0:
256,192,54398,1,0,0:0:0:0:
256,192,55316,1,8,0:0:0:0:
256,192,55623,1,0,0:0:0:0:
256,192,56541,1,8,0:0:0:0:
256,192,56847,1,8,0:0:0:0:
256,192,57153,1,0,0:0:0:0:
256,192,57459,1,8,0:0:0:0:
256,192,58072,1,0,0:0:0:0:
256,192,58378,1,8,0:0:0:0:
256,192,58684,1,0,0:0:0:0:
256,192,59296,1,0,0:0:0:0:
256,192,60214,1,8,0:0:0:0:
256,192,60521,1,0,0:0:0:0:
256,192,61439,1,8,0:0:0:0:
256,192,61745,1,0,0:0:0:0:
256,192,62357,1,0,0:0:0:0:
256,192,62663,1,0,0:0:0:0:
256,192,62969,1,8,0:0:0:0:
256,192,63582,1,0,0:0:0:0:
256,192,63888,1,8,0:0:0:0:
256,192,64194,1,0,0:0:0:0:
256,192,65112,1,8,0:0:0:0:
256,192,65418,1,0,0:0:0:0:
256,192,66337,1,8,0:0:0:0:
256,192,66643,1,0,0:0:0:0:
256,192,66949,1,0,0:0:0:0:
256,192,67255,1,8,0:0:0:0:
256,192,67867,1,0,0:0:0:0:
256,192,68174,1,8,0:0:0:0:
256,192,68480,1,0,0:0:0:0:
256,192,69092,5,4,0:0:0:0:
256,192,70316,1,0,0:0:0:0:
256,192,71541,1,12,0:0:0:0:
256,192,72153,1,0,0:0:0:0:
256,192,72459,1,0,0:0:0:0:
256,192,72765,1,8,0:0:0:0:
256,192,73378,1,8,0:0:0:0:
256,192,73684,1,0,0:0:0:0:
256,192,73990,1,12,0:0:0:0:
256,192,75214,1,0,0:0:0:0:
256,192,76439,1,12,0:0:0:0:
256,192,77051,1,8,0:0:0:0:
256,192,77357,1,0,0:0:0:0:
256,192,77663,1,8,0:0:0:0:
256,192,77969,1,8,0:0:0:0:
256,192,78276,1,0,0:0:0:0:
256,192,78888,1,4,0:0:0:0:
256,192,80112,1,0,0:0:0:0:
256,192,81337,1,12,0:0:0:0:
256,192,81949,1,8,0:0:0:0:
256,192,82255,1,0,0:0:0:0:
256,192,82561,1,8,0:0:0:0:
256,192,82867,1,8,0:0:0:0:
256,192,83174,1,0,0:0:0:0:
256,192,83786,1,4,0:0:0:0:
256,192,85010,1,0,0:0:0:0:
256,192,86235,1,12,0:0:0:0:
256,192,86847,1,8,0:0:0:0:
256,192,87459,1,8,0:0:0:0:
256,192,87765,1,0,0:0:0:0:
256,192,88072,1,8,0:0:0:0:
256,192,88684,1,4,0:0:0:0:
256,192,88990,1,4,0:0:0:0:
256,192,89296,1,4,0:0:0:0:
256,192,89755,1,4,0:0:0:0:
256,192,90061,1,4,0:0:0:0:
256,192,90521,1,12,0:0:0:0:
256,192,91133,1,12,0:0:0:0:
256,192,91439,1,4,0:0:0:0:
256,192,91745,1,4,0:0:0:0:
256,192,92204,1,4,0:0:0:0:
256,192,92510,1,4,0:0:0:0:
256,192,92969,1,12,0:0:0:0:
256,192,93582,1,12,0:0:0:0:
256,192,93888,1,4,0:0:0:0:
256,192,94194,1,4,0:0:0:0:
256,192,94653,1,4,0:0:0:0:
256,192,94959,1,4,0:0:0:0:
256,192,95418,1,12,0:0:0:0:
256,192,96031,1,12,0:0:0:0:
256,192,96337,1,4,0:0:0:0:
256,192,96643,1,4,0:0:0:0:
256,192,97102,1,4,0:0:0:0:
256,192,97408,1,4,0:0:0:0:
256,192,97867,1,12,0:0:0:0:
256,192,98480,1,4,0:0:0:0:
256,192,99704,1,8,0:0:0:0:
256,192,100316,1,0,0:0:0:0:
256,192,100623,1,0,0:0:0:0:
256,192,100929,1,8,0:0:0:0:
256,192,101235,1,8,0:0:0:0:
256,192,101541,1,0,0:0:0:0:
256,192,102153,1,8,0:0:0:0:
256,192,102765,1,0,0:0:0:0:
256,192,103072,1,8,0:0:0:0:
256,192,103378,1,0,0:0:0:0:
256,192,103684,1,0,0:0:0:0:
256,192,103990,1,8,0:0:0:0:
256,192,104602,1,8,0:0:0:0:
256,192,105214,1,8,0:0:0:0:
256,192,105521,1,0,0:0:0:0:
256,192,105827,1,8,0:0:0:0:
256,192,106133,1,8,0:0:0:0:
256,192,106439,1,0,0:0:0:0:
256,192,107051,1,0,0:0:0:0:
256,192,107663,1,8,0:0:0:0:
256,192,107969,1,8,0:0:0:0:
256,192,108276,1,4,0:0:0:0:
256,192,109500,1,0,0:0:0:0:
256,192,110112,1,0,0:0:0:0:
256,192,110418,1,8,0:0:0:0:
256,192,110725,1,0,0:0:0:0:
256,192,111031,1,8,0:0:0:0:
256,192,111337,1,0,0:0:0:0:
256,192,111949,1,8,0:0:0:0:
256,192,112561,1,8,0:0:0:0:
256,192,112867,1,0,0:0:0:0:
256,192,113174,1,8,0:0:0:0:
256,192,113480,1,8,0:0:0:0:
256,192,113786,1,0,0:0:0:0:
256,192,114398,1,0,0:0:0:0:
256,192,115010,1,8,0:0:0:0:
256,192,115316,1,0,0:0:0:0:
256,192,115623,1,0,0:0:0:0:
256,192,115929,1,0,0:0:0:0:
256,192,116235,1,8,0:0:0:0:
256,192,116847,1,8,0:0:0:0:
256,192,117153,1,8,0:0:0:0:
256,192,117459,1,0,0:0:0:0:
256,192,118072,1,12,0:0:0:0:
256,192,119296,1,0,0:0:0:0:
256,192,119602,1,8,0:0:0:0:
256,192,119908,1,0,0:0:0:0:
256,192,120521,1,12,0:0:0:0:
256,192,121133,1,0,0:0:0:0:
256,192,121745,1,8,0:0:0:0:
256,192,122051,1,8,0:0:0:0:
256,192,122357,1,0,0:0:0:0:
256,192,122663,1,0,0:0:0:0:
256,192,122969,1,12,0:0:0:0:
256,192,123582,1,8,0:0:0:0:
256,192,124194,1,8,0:0:0:0:
256,192,124500,1,0,0:0:0:0:
256,192,124806,1,8,0:0:0:0:
256,192,125418,1,4,0:0:0:0:
256,192,126031,1,0,0:0:0:0:
256,192,126643,1,0,0:0:0:0:
256,192,126949,1,0,0:0:0:0:
256,192,127255,1,8,0:0:0:0:
256,192,127561,1,0,0:0:0:0:
256,192,127867,1,12,0:0:0:0:
256,192,129092,1,8,0:0:0:0:
256,192,129398,1,8,0:0:0:0:
256,192,129704,1,0,0:0:0:0:
256,192,130010,1,8,0:0:0:0:
256,192,130316,1,4,0:0:0:0:
256,192,130929,1,0,0:0:0:0:
256,192,131541,1,8,0:0:0:0:
256,192,131847,1,0,0:0:0:0:
256,192,132153,1,8,0:0:0:0:
256,192,132459,1,8,0:0:0:0:
256,192,132765,1,4,0:0:0:0:
256,192,133378,1,8,0:0:0:0:
256,192,133990,1,8,0:0:0:0:
256,192,134296,1,8,0:0:0:0:
256,192,134602,1,0,0:0:0:0:
256,192,135214,1,4,0:0:0:0:
256,192,135835,1,0,0:0:0:0:
256,192,136148,1,8,0:0:0:0:
256,192,136442,1,0,0:0:0:0:
256,192,137116,1,8,0:0:0:0:
256,192,137758,1,4,0:0:0:0:
256,192,146603,5,0,0:0:0:0:
512,192,147590,1,8,0:0:0:0:
