osu file format v14

[General]
AudioFilename: audio.mp3
AudioLeadIn: 0
PreviewTime: 13965
Countdown: 0
SampleSet: Normal
StackLeniency: 0.7
Mode: 0
LetterboxInBreaks: 0
WidescreenStoryboard: 0

[Editor]
DistanceSpacing: 3.1
BeatDivisor: 8
GridSize: 4
TimelineZoom: 1

[Metadata]
Title:Bubble Wrap
TitleUnicode:Bubble Wrap
Artist:Wave Racer
ArtistUnicode:Wave Racer
Creator:Butrophi
Version:Normal
Source:
Tags:osu ranked anime japanese
BeatmapID:1456126
BeatmapSetID:688032

[Difficulty]
HPDrainRate:7
CircleSize:3
OverallDifficulty:3
ApproachRate:4
SliderMultiplier:1.3
SliderTickRate:1

[Events]
//Background and Video events
0,0,"bubble wrap.jpg",0,0
//Break Periods
2,56524,59485
2,82514,88815
2,92861,101850
//Storyboard Layer 0 (Background)
//Storyboard Layer 1 (Fail)
//Storyboard Layer 2 (Pass)
//Storyboard Layer 3 (Foreground)
//Storyboard Sound Samples

[TimingPoints]
4101.25376440926,325.886956521739,4,1,0,100,1,0
15310,-100,4,1,0,100,0,1
35038,-100,4,1,0,100,0,0
109101,-100,4,1,0,100,0,1
139712,-100,4,1,0,100,0,0

[Colours]
Combo1 : 1,254,159
Combo2 : 128,128,255
Combo3 : 218,167,205
Combo4 : 0,0,64
Combo5 : 0,0,0
Combo6 : 255,0,128
Combo7 : 255,255,0
Combo8 : 9,57,255

[HitObjects]
109,193,4101,6,0,L|393:192,1,276.25
224,98,5078,2,0,P|245:236|344:322,1,276.25
423,315,6056,1,0,0:0:0:0:
461,238,6341,1,0,0:0:0:0:
461,151,6708,1,0,0:0:0:0:
188,109,7604,6,0,P|336:101|350:187,1,260
318,275,8785,2,0,P|275:288|238:279,3,81.25
171,220,9763,1,0,0:0:0:0:
236,68,10333,6,0,P|357:106|399:213,1,243.75
338,271,11270,1,0,0:0:0:0:
261,284,11555,2,0,L|195:288,1,65
133,261,11922,1,0,0:0:0:0:
95,173,12492,6,0,P|161:86|260:97,1,211.25
332,156,13470,1,0,0:0:0:0:
255,191,13959,1,0,0:0:0:0:
350,299,14570,6,2,P|268:282|163:260,1,178.75,0|0,0:0|0:0,0:0:0:0:
146,178,15303,1,0,0:0:0:0:
215,118,15588,2,0,P|282:93|340:106,1,122.5
399,169,16281,1,0,0:0:0:0:
389,267,16729,1,0,0:0:0:0:
303,315,17095,1,0,0:0:0:0:
165,217,17788,5,0,0:0:0:0:
201,131,18114,2,0,P|259:88|319:95,1,122.5
420,240,18806,5,0,0:0:0:0:
343,293,19173,2,0,P|267:294|242:269,1,105
171,214,19743,1,0,0:0:0:0:
228,99,20314,6,0,P|355:91|369:142,1,192.5
290,153,21373,1,0,0:0:0:0:
431,190,21862,1,0,0:0:0:0:
359,252,22269,70,0,P|332:313|270:321,1,122.5
164,276,22799,2,0,L|138:153,1,122.5
214,111,23328,2,0,P|308:97|407:203,2,245
259,202,24958,1,0,0:0:0:0:
364,316,25609,5,0,0:0:0:0:
267,311,25935,2,0,L|151:266,1,122.5
147,145,26668,6,0,P|241:115|323:172,2,192.5
60,166,28216,5,0,0:0:0:0:
99,82,28542,2,0,P|151:45|204:30,1,105
291,41,29276,69,0,0:0:0:0:
366,109,29561,2,0,P|398:178|354:227,1,140
286,163,30294,5,0,0:0:0:0:
286,163,30661,1,0,0:0:0:0:
286,163,31190,1,0,0:0:0:0:
436,150,31801,5,0,0:0:0:0:
431,231,32249,2,0,P|386:285|320:273,1,140
242,238,32860,1,0,0:0:0:0:
205,156,33349,1,0,0:0:0:0:
256,89,33879,2,0,P|341:73|423:204,2,245
255,190,35956,37,0,0:0:0:0:
276,278,36404,2,0,P|325:305|397:301,1,122.5
461,227,37097,2,0,P|437:138|342:90,2,192.5
399,312,38686,5,0,0:0:0:0:
303,308,39093,2,0,P|222:258|216:241,1,105
203,165,39622,1,0,0:0:0:0:
277,112,40030,2,0,P|355:124|377:173,1,122.5
295,212,40641,5,0,0:0:0:0:
206,144,41089,1,0,0:0:0:0:
121,71,41578,2,0,P|95:125|112:211,1,140
176,256,42270,85,0,0:0:0:0:
272,247,42759,1,0,0:0:0:0:
344,194,43289,2,0,P|412:152|488:176,1,157.5
512,258,44266,1,0,0:0:0:0:
441,318,44877,2,0,P|349:316|248:246,1,210
196,174,45896,5,0,0:0:0:0:
181,86,46507,6,0,P|272:60|340:91,1,157.5
405,269,47525,2,0,P|309:264|224:198,2,192.5
170,149,49114,85,0,0:0:0:0:
252,97,49399,2,0,L|320:70|320:70,1,70
401,49,50092,1,0,0:0:0:0:
457,120,50417,2,0,P|456:197|382:256,1,175
280,270,51110,5,0,0:0:0:0:
168,272,51517,1,0,0:0:0:0:
76,218,51965,1,0,0:0:0:0:
216,88,52699,5,0,0:0:0:0:
310,141,53147,1,0,0:0:0:0:
391,222,53636,2,0,P|314:298|205:261,2,227.5
386,123,55224,2,0,P|353:88|201:138,1,227.5
180,222,56324,1,0,0:0:0:0:
255,191,60805,85,0,0:0:0:0:
240,78,61457,6,0,P|312:111|338:272,1,245
309,338,62475,1,0,0:0:0:0:
206,289,63086,1,0,0:0:0:0:
130,213,63616,1,0,0:0:0:0:
256,192,64064,12,0,66061,0:0:0:0:
257,188,66671,5,0,0:0:0:0:
320,115,67323,2,0,P|391:122|447:187,1,157.5
443,272,68260,1,0,0:0:0:0:
365,326,68789,1,0,0:0:0:0:
282,292,69319,2,0,P|213:249|172:138,2,192.5
275,186,70948,1,0,0:0:0:0:
347,87,72007,85,0,0:0:0:0:
433,142,72578,2,0,P|420:235|341:233,1,175
278,185,73555,1,0,0:0:0:0:
195,128,73963,2,0,P|129:126|90:223,1,175
256,192,74777,12,0,76611,0:0:0:0:
257,193,77181,5,0,0:0:0:0:
190,254,77792,2,0,P|324:254|345:185,1,210
332,119,78810,1,0,0:0:0:0:
254,75,79177,1,0,0:0:0:0:
170,71,79747,2,0,P|93:119|83:240,2,210
257,189,82314,5,0,0:0:0:0:
284,66,90135,86,0,P|128:80|206:251,1,402.5
352,293,91601,1,0,0:0:0:0:
415,221,92172,1,0,0:0:0:0:
257,191,92661,5,0,0:0:0:0:
257,190,103170,5,0,0:0:0:0:
258,106,103496,2,0,P|330:132|351:180,1,122.5
355,258,104026,1,0,0:0:0:0:
322,338,104392,2,0,P|279:344|230:294,2,105
418,334,105126,1,0,0:0:0:0:
256,192,105777,12,0,107733,0:0:0:0:
257,193,108507,85,0,0:0:0:0:
370,169,109036,38,0,P|363:257|294:282,2,157.5
317,96,110055,1,0,0:0:0:0:
219,85,110503,1,0,0:0:0:0:
134,119,111032,2,0,P|106:155|155:299,1,210
186,208,111969,5,0,0:0:0:0:
186,208,112132,1,0,0:0:0:0:
306,159,112662,1,0,0:0:0:0:
286,80,113028,2,0,P|346:89|305:243,1,262.5
229,226,114006,5,0,0:0:0:0:
140,184,114536,1,0,0:0:0:0:
80,264,115228,1,0,0:0:0:0:
172,316,115717,1,0,0:0:0:0:
328,192,116206,5,0,0:0:0:0:
318,44,116654,1,0,0:0:0:0:
241,90,117184,1,0,0:0:0:0:
257,187,117713,1,0,0:0:0:0:
178,229,118283,2,0,P|272:272|328:224,1,187.5
214,43,119505,69,0,0:0:0:0:
305,40,119791,2,0,P|280:110|201:135,1,157.5
116,190,120483,1,0,0:0:0:0:
206,240,120972,1,0,0:0:0:0:
318,244,121420,1,0,0:0:0:0:
255,147,122113,5,0,0:0:0:0:
208,61,122398,2,0,P|274:57|338:176,1,210
323,262,123416,1,0,0:0:0:0:
323,262,123661,1,0,0:0:0:0:
254,188,124027,5,0,0:0:0:0:
255,103,124597,2,0,P|297:74|390:125,1,157.5
395,200,125494,2,0,P|386:257|223:291,2,245
344,113,127123,1,0,0:0:0:0:
255,191,127571,1,0,0:0:0:0:
255,191,128304,1,0,0:0:0:0:
255,191,128753,1,0,0:0:0:0:
252,78,129567,5,0,0:0:0:0:
254,189,129975,1,0,0:0:0:0:
164,195,130178,2,0,P|218:289|270:269,1,175
362,218,131237,69,0,0:0:0:0:
369,226,131523,1,0,0:0:0:0:
369,226,131685,1,0,0:0:0:0:
413,146,132500,2,0,P|391:96|246:78,2,210
417,233,133844,1,0,0:0:0:0:
388,322,134089,2,0,P|328:338|261:277,1,157.5
255,189,135107,5,0,0:0:0:0:
246,88,135433,2,0,P|155:100|146:168,1,157.5
173,232,136411,1,0,0:0:0:0:
233,296,136615,1,0,0:0:0:0:
233,296,136777,1,0,0:0:0:0:
321,313,137103,2,0,P|372:315|416:178,2,210
256,188,138774,1,0,0:0:0:0:
256,188,139181,1,0,0:0:0:0:
256,188,139629,1,0,0:0:0:0:
414,193,140688,54,0,L|361:269,1,87.5
271,289,141299,2,0,L|192:288,1,70
133,237,141829,1,0,0:0:0:0:
140,148,142358,2,0,P|181:125|241:127,1,105
313,185,142929,1,0,0:0:0:0:
322,283,143499,2,0,P|270:315|195:252,1,157.5
172,169,144232,1,0,0:0:0:0:
293,88,144965,6,0,P|397:111|368:175,2,192.5
250,174,146554,1,0,0:0:0:0:
300,254,147084,1,0,0:0:0:0:
369,305,147532,2,0,P|459:288|481:185,2,192.5
257,193,149120,1,0,0:0:0:0:
257,193,149650,1,0,0:0:0:0:
257,193,150098,1,0,0:0:0:0:
348,108,150750,6,0,P|434:63|440:110,1,175
409,186,151728,1,0,0:0:0:0:
349,257,152216,1,0,0:0:0:0:
266,298,152705,2,0,L|196:299,1,70
113,237,153316,85,0,0:0:0:0:
90,137,153805,2,0,P|143:100|262:119,2,175
254,191,155353,5,0,0:0:0:0:
254,191,155760,1,0,0:0:0:0:
307,121,156331,1,0,0:0:0:0:
370,182,156982,1,0,0:0:0:0:
383,268,157471,1,0,0:0:0:0:
313,336,157919,2,0,P|233:311|155:196,2,227.5
392,309,159467,1,0,0:0:0:0:
347,225,160038,1,0,0:0:0:0:
256,191,160526,1,0,0:0:0:0:
