osu file format v14

[General]
AudioFilename: audio.mp3
AudioLeadIn: 0
PreviewTime: 68068
Countdown: 0
SampleSet: Soft
StackLeniency: 0.7
Mode: 0
LetterboxInBreaks: 0
WidescreenStoryboard: 0

[Editor]
DistanceSpacing: 0.85
BeatDivisor: 4
GridSize: 4
TimelineZoom: 1.6

[Metadata]
Title:Telephone
TitleUnicode:Telephone
Artist:Waterparks
ArtistUnicode:Waterparks
Creator:Trust
Version:Insane
Source:Heartstopper
Tags:FANDOM alternative netflix ost original soundtrack episode 3 gay transgender lgbt lgbtq english rock alice oseman
BeatmapID:3660027
BeatmapSetID:1786693

[Difficulty]
HPDrainRate:6
CircleSize:4
OverallDifficulty:8
ApproachRate:9
SliderMultiplier:1.7
SliderTickRate:1

[Events]
//Background and Video events
0,0,"hstpper.jpg",0,0
//Break Periods
//Storyboard Layer 0 (Background)
//Storyboard Layer 1 (Fail)
//Storyboard Layer 2 (Pass)
//Storyboard Layer 3 (Foreground)
//Storyboard Layer 4 (Overlay)
//Storyboard Sound Samples

[TimingPoints]
92,355.029585798817,4,2,0,70,1,0
17133,-100,4,2,0,70,0,0
28494,-86.9565217391304,4,2,0,85,0,1
39322,-100,4,2,0,70,0,0
39855,-133.333333333333,4,2,0,50,0,0
45535,-100,4,2,0,70,0,0
66837,-100,4,2,0,60,0,0
68257,-86.9565217391304,4,2,0,85,0,1
79618,-133.333333333333,4,2,0,70,0,0
85299,-166.666666666667,4,2,0,70,0,0
89204,-142.857142857143,4,2,0,70,0,0
90979,-166.666666666667,4,2,0,70,0,0
91689,-166.666666666667,4,2,0,70,0,0
96660,-100,4,2,0,70,0,0
110861,-86.9565217391304,4,2,0,85,0,1
121867,-83.3333333333333,4,2,0,85,0,0
122222,-83.3333333333333,4,2,0,88,0,0
133583,-133.333333333333,4,2,0,70,0,0
143878,-133.333333333333,4,2,0,50,0,0
143967,-133.333333333333,4,2,0,30,0,0
144234,-133.333333333333,4,2,0,20,0,0
144500,-133.333333333333,4,2,0,10,0,0
144944,-133.333333333333,4,2,0,5,0,0

[Colours]
Combo1 : 163,142,244
Combo2 : 245,192,95
Combo3 : 131,237,235
Combo4 : 137,235,152

[HitObjects]
232,220,92,5,0,1:0:0:0:
330,123,269,1,0,0:0:0:0:
305,257,447,2,0,P|255:241|222:205,1,85,8|0,0:0|1:0,0:0:0:0:
412,222,802,1,0,0:0:0:0:
338,107,979,1,0,1:0:0:0:
451,33,1157,2,0,L|428:142,1,85,8|0,0:0|0:0,0:0:0:0:
244,214,1512,5,0,1:0:0:0:
296,299,1689,1,0,0:0:0:0:
149,231,1867,2,0,P|156:167|180:137,2,85,8|0|0,0:0|1:0|0:0,0:0:0:0:
224,363,2399,1,0,1:0:0:0:
278,193,2577,2,0,P|324:176|374:162,1,85,8|0,0:0|0:0,0:0:0:0:
464,108,2932,6,0,P|452:151|445:210,1,85,0|0,1:0|0:0,0:0:0:0:
271,199,3287,1,8,0:0:0:0:
349,83,3464,2,0,P|343:43|329:-2,1,85,0|0,1:0|0:0,0:0:0:0:
456,94,3819,1,0,1:0:0:0:
407,267,3997,1,8,0:0:0:0:
456,94,4174,1,0,0:0:0:0:
432,183,4352,5,0,1:0:0:0:
337,203,4529,1,0,1:0:0:0:
241,222,4707,1,8,0:0:0:0:
45,132,4884,2,0,P|92:138|202:79,1,170,0|0,1:0|1:0,0:0:0:0:
277,24,5417,1,8,0:0:0:0:
215,187,5594,1,8,0:0:0:0:
323,217,5772,6,0,P|309:172|288:133,1,85,0|0,1:0|0:0,0:0:0:0:
164,257,6127,2,0,P|145:295|132:335,1,85,8|0,0:0|1:0,0:0:0:0:
94,78,6482,2,0,P|141:104|198:108,1,85,0|0,0:0|1:0,0:0:0:0:
339,0,6837,1,8,0:0:0:0:
290,139,7015,1,0,0:0:0:0:
290,139,7192,6,0,L|480:110,1,170,0|8,1:0|0:0,0:0:0:0:
275,53,7725,1,0,1:0:0:0:
201,248,7902,2,0,P|271:229|307:227,1,85,0|0,0:0|1:0,0:0:0:0:
166,67,8257,2,0,P|95:52|68:38,1,85,8|0,0:0|0:0,0:0:0:0:
97,148,8612,5,0,1:0:0:0:
254,49,8790,1,0,0:0:0:0:
201,248,8967,2,0,L|231:139,1,85,8|0,0:0|1:0,0:0:0:0:
295,272,9322,2,0,L|265:381,1,85,0|0,0:0|1:0,0:0:0:0:
109,276,9677,1,8,0:0:0:0:
201,248,9855,1,0,0:0:0:0:
224,119,10032,5,0,1:0:0:0:
340,184,10210,1,0,1:0:0:0:
439,98,10387,1,8,0:0:0:0:
499,211,10565,2,0,P|426:222|329:173,1,170,0|0,1:0|1:0,0:0:0:0:
291,95,11097,1,8,0:0:0:0:
334,303,11275,1,8,0:0:0:0:
233,269,11452,5,0,1:0:0:0:
233,269,11630,1,0,0:0:0:0:
142,322,11807,1,8,0:0:0:0:
142,322,11985,1,0,1:0:0:0:
235,126,12163,2,0,P|305:103|349:105,1,85,0|0,0:0|1:0,0:0:0:0:
178,207,12518,2,0,P|136:200|97:183,1,85,8|0,0:0|0:0,0:0:0:0:
7,32,12873,6,0,L|26:145,1,85,0|0,1:0|0:0,0:0:0:0:
43,253,13228,1,8,0:0:0:0:
125,86,13405,2,0,P|181:47|300:60,1,170,0|0,1:0|1:0,0:0:0:0:
405,0,13938,1,8,0:0:0:0:
328,137,14115,5,0,0:0:0:0:
328,137,14204,1,0,0:0:0:0:
328,137,14293,2,0,P|392:117|423:112,1,85,0|0,1:0|0:0,0:0:0:0:
512,263,14648,2,0,P|470:253|430:239,1,85,8|0,0:0|1:0,0:0:0:0:
279,208,15003,2,0,L|315:307,1,85,0|0,0:0|1:0,0:0:0:0:
254,369,15358,2,0,P|210:347|144:348,1,85,8|0,0:0|0:0,0:0:0:0:
82,331,15713,5,0,1:0:0:0:
3,232,15890,1,0,1:0:0:0:
54,114,16068,1,8,0:0:0:0:
130,218,16245,2,0,P|229:229|312:170,1,170,0|0,1:0|1:0,0:0:0:0:
265,307,16778,1,8,0:0:0:0:
424,156,16955,1,8,0:0:0:0:
485,230,17133,6,0,P|437:250|367:236,1,85,0|0,1:0|0:0,0:0:0:0:
303,40,17488,2,0,P|304:82|322:120,1,85,8|0,0:0|1:0,0:0:0:0:
404,249,17843,2,0,L|385:350,1,85,0|0,0:0|1:0,0:0:0:0:
508,115,18198,2,0,L|492:31,1,85,8|0,0:0|0:0,0:0:0:0:
381,167,18553,5,0,1:0:0:0:
294,225,18731,1,0,0:0:0:0:
210,209,18908,2,0,L|311:228,1,85,8|0,0:0|1:0,0:0:0:0:
483,260,19263,2,0,L|382:241,1,85,0|0,0:0|1:0,0:0:0:0:
210,209,19618,1,8,0:0:0:0:
210,209,19796,1,0,0:0:0:0:
108,190,19973,6,0,P|125:270|149:294,1,85,0|0,1:0|0:0,0:0:0:0:
282,312,20328,1,8,0:0:0:0:
289,182,20506,1,0,1:0:0:0:
289,182,20683,2,0,P|204:212|180:230,1,85,0|0,0:0|1:0,0:0:0:0:
48,94,21038,2,0,P|108:127|175:120,1,127.5,8|0,0:0|0:0,0:0:0:0:
186,113,21393,5,0,1:0:0:0:
309,50,21571,1,0,1:0:0:0:
408,137,21748,1,8,0:0:0:0:
328,284,21926,2,0,P|282:223|293:115,1,170,0|0,1:0|1:0,0:0:0:0:
501,54,22458,1,8,0:0:0:0:
491,148,22636,1,8,0:0:0:0:
472,241,22813,6,0,P|441:270|407:296,1,85,0|0,1:0|0:0,0:0:0:0:
246,357,23168,2,0,P|281:361|353:380,1,85,8|0,0:0|1:0,0:0:0:0:
367,166,23523,2,0,P|350:127|338:86,1,85,0|0,0:0|1:0,0:0:0:0:
219,197,23878,2,0,P|198:234|182:273,1,85,8|0,0:0|0:0,0:0:0:0:
106,158,24234,5,0,1:0:0:0:
186,90,24411,1,0,0:0:0:0:
186,90,24500,1,0,0:0:0:0:
186,90,24589,2,0,P|177:45|166:7,1,85,8|0,0:0|1:0,0:0:0:0:
295,65,24944,2,0,P|283:105|275:147,1,85,0|0,0:0|1:0,0:0:0:0:
322,238,25299,2,0,P|384:212|453:234,1,127.5,8|0,0:0|0:0,0:0:0:0:
471,240,25654,5,0,1:0:0:0:
471,240,25831,1,0,0:0:0:0:
512,118,26009,2,0,P|456:94|413:61,1,85,8|0,0:0|1:0,0:0:0:0:
281,57,26364,2,0,P|317:34|356:19,2,85,0|0|8,0:0|1:0|0:0,0:0:0:0:
183,18,26896,1,0,0:0:0:0:
258,222,27074,5,0,1:0:0:0:
277,324,27961,5,0,3:0:0:0:
318,143,28139,1,8,3:2:0:0:
498,107,28316,1,0,3:0:0:0:
426,177,28494,6,0,P|403:104|395:51,1,97.7500018644333,4|0,0:0|0:0,0:0:0:0:
512,270,28849,2,0,P|490:341|481:396,1,97.7500018644333,8|0,0:0|1:0,0:0:0:0:
235,224,29204,2,0,P|316:231|384:261,1,146.62500279665,2|0,0:0|0:0,0:0:0:0:
402,274,29559,1,8,0:0:0:0:
489,88,29736,1,2,0:0:0:0:
358,34,29914,6,0,P|462:-6|479:-19,1,97.7500018644333,0|0,1:0|0:0,0:0:0:0:
386,157,30269,2,0,P|342:137|295:126,1,97.7500018644333,8|0,0:0|1:0,0:0:0:0:
117,200,30624,1,2,0:0:0:0:
117,200,30802,1,0,1:0:0:0:
205,252,30979,2,0,P|217:186|170:111,1,146.62500279665,10|0,0:0|0:0,0:0:0:0:
145,104,31334,5,0,1:0:0:0:
156,25,31512,1,0,0:0:0:0:
0,76,31689,5,10,0:0:0:0:
13,154,31867,1,0,1:0:0:0:
124,268,32044,2,0,P|195:244|242:206,1,97.7500018644333,2|0,0:0|1:0,0:0:0:0:
265,71,32399,2,0,P|342:55|410:104,1,146.62500279665,10|0,0:0|0:0,0:0:0:0:
415,111,32754,5,0,1:0:0:0:
450,37,32932,1,0,1:0:0:0:
321,158,33109,5,10,0:0:0:0:
336,239,33287,1,2,0:0:0:0:
510,135,33464,2,0,P|454:121|404:109,1,97.7500018644333,2|0,0:0|0:0,0:0:0:0:
219,62,33819,1,10,0:0:0:0:
331,91,33997,1,8,0:0:0:0:
124,92,34174,6,0,P|126:29|154:-14,1,97.7500018644333,4|0,0:0|0:0,0:0:0:0:
281,188,34529,2,0,L|257:322,1,97.7500018644333,10|0,0:0|1:0,0:0:0:0:
0,230,34884,2,0,P|54:196|145:210,1,146.62500279665,2|0,0:0|0:0,0:0:0:0:
163,219,35239,1,10,0:0:0:0:
196,134,35417,1,0,0:0:0:0:
263,284,35594,6,0,P|336:264|361:246,1,97.7500018644333,0|0,1:0|0:0,0:0:0:0:
512,169,35949,2,0,P|468:152|416:150,1,97.7500018644333,10|0,0:0|1:0,0:0:0:0:
244,188,36305,2,0,P|199:115|218:40,1,146.62500279665,2|0,0:0|0:0,0:0:0:0:
221,23,36660,1,10,0:0:0:0:
296,102,36837,1,0,0:0:0:0:
264,335,37015,5,0,1:0:0:0:
201,268,37192,1,0,0:0:0:0:
244,188,37370,1,10,0:0:0:0:
331,204,37547,1,0,1:0:0:0:
344,294,37725,2,0,P|436:269|444:269,1,97.7500018644333,2|0,0:0|1:0,0:0:0:0:
106,168,38080,2,0,P|158:195|275:168,1,146.62500279665,10|0,0:0|0:0,0:0:0:0:
270,177,38435,5,0,1:0:0:0:
331,111,38612,1,0,1:0:0:0:
290,33,38790,1,10,0:0:0:0:
203,48,38967,1,0,1:0:0:0:
191,136,39145,1,0,0:0:0:0:
372,191,39322,2,0,P|420:175|463:170,2,85,0|10|0,1:0|0:0|0:0,0:0:0:0:
317,245,39855,6,0,P|324:319|326:329,1,63.7500024318696,2|0,0:0|0:0,0:0:0:0:
258,371,40210,1,0,0:0:0:0:
112,287,40387,1,0,0:0:0:0:
112,287,40565,2,0,P|186:276|204:270,1,63.7500024318696,8|0,0:0|0:0,0:0:0:0:
148,369,40920,2,0,P|74:380|56:386,1,63.7500024318696
18,322,41275,6,0,P|-8:266|5:192,1,127.500004863739,2|0,0:0|0:0,0:0:0:0:
144,39,41985,1,0,0:0:0:0:
197,94,42163,1,0,0:0:0:0:
253,41,42340,1,0,0:0:0:0:
310,98,42518,1,0,0:0:0:0:
310,98,42695,6,0,P|289:192|287:239,1,127.500004863739,2|0,0:0|0:0,0:0:0:0:
177,194,43228,1,0,0:0:0:0:
177,194,43405,2,0,L|193:351,1,127.500004863739,8|0,0:0|0:0,0:0:0:0:
259,374,43938,1,0,0:0:0:0:
391,311,44115,6,0,P|313:302|265:280,1,127.500004863739,2|0,0:0|0:0,0:0:0:0:
157,67,45535,5,4,0:0:0:0:
194,196,45713,1,0,0:0:0:0:
321,100,45890,2,0,P|250:113|221:119,1,85,8|0,0:0|1:0,0:0:0:0:
35,112,46245,2,0,P|83:157|103:191,1,85,0|0,0:0|1:0,0:0:0:0:
93,172,46512,1,0,0:0:0:0:
93,172,46600,1,8,0:0:0:0:
62,338,46778,1,2,0:0:0:0:
14,224,46955,6,0,P|73:183|182:153,1,170,0|10,1:0|0:0,0:0:0:0:
223,231,47488,1,0,1:0:0:0:
114,74,47665,2,0,P|190:57|210:50,1,85,0|0,0:0|1:0,0:0:0:0:
352,151,48020,2,0,P|311:140|270:131,1,85,10|0,0:0|0:0,0:0:0:0:
423,74,48376,5,0,1:0:0:0:
352,151,48553,1,0,0:0:0:0:
512,100,48731,2,0,P|510:46|477:-5,1,85,10|0,0:0|1:0,0:0:0:0:
442,204,49086,2,0,L|469:308,1,85,2|0,0:0|1:0,0:0:0:0:
436,321,49352,1,0,0:0:0:0:
436,321,49441,2,0,P|376:309|345:290,1,85,10|0,0:0|0:0,0:0:0:0:
274,240,49796,5,0,1:0:0:0:
349,384,49973,1,0,1:0:0:0:
360,208,50151,1,10,0:0:0:0:
355,297,50328,5,0,1:0:0:0:
360,208,50506,1,0,0:0:0:0:
280,246,50683,1,0,1:0:0:0:
358,306,50861,5,10,0:0:0:0:
442,167,51038,1,8,0:0:0:0:
251,154,51216,6,0,P|189:144|131:140,1,85,0|0,1:0|0:0,0:0:0:0:
37,75,51571,2,0,P|79:70|121:62,1,85,10|0,0:0|1:0,0:0:0:0:
298,21,51926,1,0,0:0:0:0:
251,154,52103,1,0,1:0:0:0:
378,62,52281,2,0,P|321:36|280:8,1,85,10|0,0:0|0:0,0:0:0:0:
496,73,52636,6,0,P|449:124|431:161,1,85,0|0,1:0|0:0,0:0:0:0:
251,154,52991,2,0,P|310:190|337:220,1,85,10|0,0:0|1:0,0:0:0:0:
428,323,53346,1,0,0:0:0:0:
324,192,53523,1,0,1:0:0:0:
428,323,53701,2,0,P|501:314|533:308,1,85,10|0,0:0|0:0,0:0:0:0:
315,344,54056,5,0,1:0:0:0:
222,237,54234,1,0,0:0:0:0:
324,122,54411,2,0,P|326:184|299:233,1,85,8|0,0:0|1:0,0:0:0:0:
212,334,54766,2,0,P|210:272|237:223,1,85,0|0,0:0|1:0,0:0:0:0:
457,80,55121,1,8,0:0:0:0:
402,191,55299,5,0,0:0:0:0:
402,191,55387,1,0,0:0:0:0:
402,191,55476,2,0,P|341:198|306:207,1,85,0|0,1:0|1:0,0:0:0:0:
126,284,55831,1,10,0:0:0:0:
126,284,56009,1,0,1:0:0:0:
186,111,56186,1,0,0:0:0:0:
186,111,56364,1,0,1:0:0:0:
29,274,56541,2,0,P|48:348|67:369,1,85,10|8,0:0|0:0,0:0:0:0:
273,222,56896,6,0,P|209:245|148:272,1,127.5,0|0,1:0|0:0,0:0:0:0:
126,284,57251,2,0,P|151:225|159:184,1,85,10|0,0:0|1:0,0:0:0:0:
15,61,57606,2,0,P|26:101|44:140,1,85,0|0,0:0|1:0,0:0:0:0:
155,204,57961,1,10,0:0:0:0:
155,204,58139,1,0,0:0:0:0:
304,0,58316,6,0,P|281:56|302:181,1,170,0|10,1:0|0:0,0:0:0:0:
427,93,58849,2,0,L|400:297,1,170,0|0,1:0|1:0,0:0:0:0:
295,337,59381,2,0,L|275:232,1,85,10|0,0:0|0:0,0:0:0:0:
488,248,59736,6,0,P|419:256|392:269,1,85,0|0,1:0|0:0,0:0:0:0:
295,337,60092,2,0,P|229:334|197:318,1,85,10|0,0:0|1:0,0:0:0:0:
98,192,60447,1,2,0:0:0:0:
53,338,60624,1,0,1:0:0:0:
4,209,60802,2,10,P|11:151|38:114,1,85,10|0,0:0|0:0,0:0:0:0:
230,33,61157,6,0,L|166:103,1,85,0|0,1:0|1:0,0:0:0:0:
6,26,61512,2,0,P|68:58|105:56,1,85,10|0,0:0|1:0,0:0:0:0:
230,33,61867,1,0,0:0:0:0:
87,66,62044,1,0,1:0:0:0:
246,146,62222,5,10,0:0:0:0:
92,73,62399,1,8,0:0:0:0:
91,245,62577,6,0,P|142:283|183:285,1,85,0|0,1:0|0:0,0:0:0:0:
245,140,62932,2,0,P|194:102|153:100,1,85,10|0,0:0|1:0,0:0:0:0:
161,286,63287,2,0,L|271:277,1,85,0|0,0:0|1:0,0:0:0:0:
329,133,63642,2,0,L|219:142,1,85,10|0,0:0|0:0,0:0:0:0:
358,274,63997,5,0,1:0:0:0:
453,295,64174,1,0,0:0:0:0:
358,274,64352,2,0,P|338:336|352:381,1,85,10|0,0:0|1:0,0:0:0:0:
435,375,64707,2,0,P|455:313|441:268,1,85,0|0,0:0|1:0,0:0:0:0:
424,202,65062,1,10,0:0:0:0:
424,202,65239,1,2,0:0:0:0:
512,166,65417,6,0,L|327:135,1,170,0|10,1:0|0:0,0:0:0:0:
280,62,65949,2,0,P|222:109|114:111,1,170,0|0,1:0|1:0,0:0:0:0:
47,76,66482,1,10,0:0:0:0:
47,76,66660,1,2,0:0:0:0:
301,242,68080,5,2,0:0:0:0:
214,167,68257,6,0,P|300:137|327:132,1,97.7500018644333,4|0,0:0|0:0,0:0:0:0:
462,0,68612,2,0,P|391:27|337:42,1,97.7500018644333,10|0,0:0|1:0,0:0:0:0:
152,42,68967,2,0,P|162:108|222:172,1,146.62500279665,2|0,0:0|0:0,0:0:0:0:
242,183,69322,1,10,0:0:0:0:
371,40,69500,1,2,0:0:0:0:
470,146,69677,6,0,P|479:217|501:263,1,97.7500018644333,0|0,1:0|0:0,0:0:0:0:
389,384,70032,2,0,P|360:339|315:309,1,97.7500018644333,10|0,0:0|1:0,0:0:0:0:
78,365,70387,2,0,P|162:357|201:322,1,97.7500018644333,2|0,0:0|1:0,0:0:0:0:
249,205,70742,2,0,P|216:147|204:48,1,146.62500279665,10|0,0:0|0:0,0:0:0:0:
227,44,71097,5,0,1:0:0:0:
306,15,71275,1,0,0:0:0:0:
512,145,71452,5,10,0:0:0:0:
433,121,71630,1,0,1:0:0:0:
224,244,71807,2,0,P|274:226|315:188,1,97.7500018644333,2|0,0:0|1:0,0:0:0:0:
477,325,72163,2,0,L|505:169,1,146.62500279665,10|0,0:0|0:0,0:0:0:0:
512,145,72518,5,0,1:0:0:0:
496,62,72695,1,0,1:0:0:0:
395,192,72873,5,10,0:0:0:0:
382,273,73050,1,0,1:0:0:0:
299,143,73228,2,0,P|249:122|178:121,1,97.7500018644333,2|0,0:0|1:0,0:0:0:0:
113,151,73583,1,10,0:0:0:0:
200,2,73760,1,8,0:0:0:0:
13,98,73938,6,0,L|0:194,1,97.7500018644333,4|0,0:0|0:0,0:0:0:0:
64,353,74293,2,0,L|77:256,1,97.7500018644333,10|0,0:0|1:0,0:0:0:0:
315,133,74648,2,0,P|260:143|168:189,1,146.62500279665,2|0,0:0|0:0,0:0:0:0:
153,199,75003,1,10,0:0:0:0:
247,246,75180,1,0,0:0:0:0:
215,66,75358,6,0,P|136:101|98:133,1,97.7500018644333,0|0,1:0|0:0,0:0:0:0:
326,277,75713,2,0,P|387:216|412:173,1,97.7500018644333,10|0,0:0|1:0,0:0:0:0:
379,0,76068,2,0,P|426:90|488:121,1,146.62500279665,2|0,0:0|0:0,0:0:0:0:
488,121,76423,1,10,0:0:0:0:
500,39,76600,1,0,0:0:0:0:
345,183,76778,5,0,1:0:0:0:
259,151,76955,1,0,0:0:0:0:
242,66,77133,1,10,0:0:0:0:
297,0,77310,1,0,1:0:0:0:
115,52,77488,2,0,P|106:124|100:161,1,97.7500018644333,2|0,0:0|1:0,0:0:0:0:
77,348,77843,1,8,0:0:0:0:
16,248,78020,1,2,0:0:0:0:
170,311,78198,5,0,1:0:0:0:
255,281,78376,1,0,1:0:0:0:
270,195,78553,1,10,0:0:0:0:
214,129,78731,1,0,1:0:0:0:
374,44,78908,2,0,P|383:121|389:161,1,97.7500018644333,2|0,0:0|1:0,0:0:0:0:
409,317,79263,1,10,0:0:0:0:
409,317,79441,1,8,0:0:0:0:
483,204,79618,5,2,0:0:0:0:
494,288,79796,1,0,0:0:0:0:
409,317,79973,2,0,P|402:284|401:247,1,63.7500024318696
330,369,80328,2,0,L|185:339,1,127.500004863739,8|0,0:0|0:0,0:0:0:0:
98,256,80861,1,0,0:0:0:0:
98,256,81038,6,0,P|184:249|233:223,1,127.500004863739,2|0,0:0|0:0,0:0:0:0:
220,231,81748,2,0,L|203:155,1,63.7500024318696
123,118,82103,2,0,P|113:172|116:195,1,63.7500024318696
206,168,82458,5,2,0:0:0:0:
358,69,82813,1,0,0:0:0:0:
423,126,82991,1,0,0:0:0:0:
437,42,83168,1,8,0:0:0:0:
358,69,83346,1,0,0:0:0:0:
306,256,83701,1,0,0:0:0:0:
376,313,83878,6,0,P|451:286|514:291,1,127.500004863739,2|0,0:0|0:0,0:0:0:0:
2,48,85299,6,4,B|73:60|130:25|130:25|73:59|60:101|60:101|127:144|134:195,1,356.999989105225,4|0,0:0|1:0,0:0:0:0:
259,98,86719,1,12,0:0:0:0:
220,176,86896,5,2,0:0:0:0:
220,176,87074,2,0,P|269:184|289:181,1,50.9999984436036
160,300,87429,2,0,P|204:273|223:269,1,50.9999984436036,2|0,0:0|0:0,0:0:0:0:
86,167,87784,2,0,P|120:195|141:206,1,50.9999984436036
296,328,88139,5,0,1:0:0:0:
397,246,88316,1,0,0:0:0:0:
326,138,88494,1,2,0:0:0:0:
412,152,88671,5,4,3:0:0:0:
305,235,88849,1,8,0:3:0:0:
382,341,89026,1,0,1:0:0:0:
305,235,89204,6,0,P|254:245|234:248,1,59.4999981842042,2|0,0:0|1:0,0:0:0:0:
99,192,89559,1,8,0:0:0:0:
152,340,89736,1,0,0:0:0:0:
152,340,89825,1,0,0:0:0:0:
152,340,89914,2,0,P|167:281|172:266,1,59.4999981842042,2|0,0:0|0:0,0:0:0:0:
12,240,90269,2,0,P|20:268|26:297,1,59.4999981842042,2|0,0:0|0:0,0:0:0:0:
97,190,90624,5,2,0:0:0:0:
97,190,90713,1,0,0:0:0:0:
97,190,90802,1,0,0:0:0:0:
97,190,90890,1,0,0:0:0:0:
97,190,90979,2,0,B|34:138|36:44|36:44|72:18|116:13|116:13|109:105|150:127,1,356.999989105225,4|0,0:0|1:0,0:0:0:0:
214,195,92399,6,0,P|198:254|196:277,1,76.4999976654053,8|0,0:0|0:0,0:0:0:0:
230,355,92754,2,0,P|237:312|209:274,1,76.4999976654053,2|0,0:0|0:0,0:0:0:0:
196,269,93109,1,0,0:0:0:0:
134,215,93287,1,0,0:0:0:0:
150,135,93464,1,2,0:0:0:0:
67,14,93819,5,0,1:0:0:0:
59,34,93908,1,0,0:0:0:0:
55,54,93997,1,0,0:0:0:0:
150,135,94174,2,0,P|141:91|141:89,2,25.4999992218018,2|0|4,0:0|0:3|0:3,0:3:0:0:
219,44,94529,1,8,0:3:0:0:
239,52,94618,1,8,0:3:0:0:
259,56,94707,1,8,0:3:0:0:
333,143,94884,2,0,P|365:133|379:132,2,25.4999992218018,2|0|0,0:0|0:0|1:0,0:0:0:0:
386,48,95239,5,8,0:0:0:0:
333,143,95417,1,0,0:0:0:0:
436,169,95594,2,0,P|448:109|448:97,1,50.9999984436036,2|0,0:0|0:0,0:0:0:0:
333,143,95949,2,0,P|321:203|321:215,1,50.9999984436036
406,315,96305,1,0,0:0:0:0:
192,332,96660,5,12,0:0:0:0:
112,156,96837,1,4,0:0:0:0:
256,276,97015,2,0,P|320:260|348:256,1,85,0|0,0:0|1:0,0:0:0:0:
492,200,97370,5,12,0:0:0:0:
336,80,97547,1,4,0:0:0:0:
464,204,97725,1,0,0:0:0:0:
512,45,97902,1,0,1:0:0:0:
408,132,98080,6,0,P|356:119|292:116,1,85,12|0,0:0|1:0,0:0:0:0:
124,84,98435,2,0,P|166:78|207:67,1,85,0|0,0:0|1:0,0:0:0:0:
320,0,98790,5,8,0:0:0:0:
280,184,98967,1,8,0:0:0:0:
328,12,99145,5,8,0:0:0:0:
288,196,99322,1,8,0:0:0:0:
200,176,99500,5,2,0:0:0:0:
200,176,99677,1,0,0:0:0:0:
136,240,99855,1,10,0:0:0:0:
136,240,100032,1,10,0:0:0:0:
24,168,100210,2,0,P|88:160|128:128,1,85
232,0,100565,2,0,P|168:8|128:40,1,85,8|0,0:0|0:0,0:0:0:0:
104,150,100920,5,0,0:0:0:0:
151,17,101097,1,0,0:0:0:0:
13,44,101275,1,10,0:0:0:0:
104,150,101452,1,10,0:0:0:0:
186,106,101630,2,0,P|234:86|270:74,1,85
480,84,101985,2,0,P|432:104|396:116,1,85,10|0,0:0|0:0,0:0:0:0:
271,69,102340,5,0,0:0:0:0:
271,69,102518,1,0,0:0:0:0:
400,114,102695,1,10,0:0:0:0:
400,114,102873,1,10,0:0:0:0:
264,244,103050,2,0,P|292:184|312:156,1,85
477,100,103405,1,8,0:0:0:0:
443,284,103583,1,0,0:0:0:0:
382,209,103760,6,0,P|448:188|488:200,1,85
461,190,104026,1,0,0:0:0:0:
461,190,104115,1,10,0:0:0:0:
496,80,104293,1,10,0:0:0:0:
333,144,104470,2,0,P|261:128|221:124,1,85
107,267,104825,2,0,P|148:260|190:249,1,85,10|0,0:0|0:0,0:0:0:0:
333,144,105180,5,0,0:0:0:0:
333,144,105358,1,0,0:0:0:0:
236,116,105535,2,0,P|240:180|260:212,1,85,10|10,0:0|0:0,0:0:0:0:
423,167,105890,2,0,P|419:103|399:71,1,85
310,19,106245,1,10,0:0:0:0:
141,45,106423,1,0,0:0:0:0:
236,116,106600,6,0,P|331:101|343:100,1,85
319,102,106867,1,0,0:0:0:0:
319,102,106955,1,10,0:0:0:0:
141,45,107133,1,10,0:0:0:0:
124,184,107310,2,0,P|198:208|228:231,1,85
55,76,107665,2,0,P|129:52|159:29,1,85,10|0,0:0|0:0,0:0:0:0:
252,40,108020,5,0,0:0:0:0:
328,19,108198,1,0,0:0:0:0:
475,103,108376,5,10,0:0:0:0:
393,90,108553,1,10,0:0:0:0:
281,201,108731,2,0,P|307:142|304:99,1,85
166,17,109086,5,10,0:0:0:0:
183,98,109263,1,2,0:0:0:0:
98,28,110683,1,2,0:0:0:0:
186,131,110861,6,0,P|228:113|284:101,1,97.7500018644333,4|0,0:0|0:0,0:0:0:0:
511,114,111216,2,0,P|463:103|418:84,1,97.7500018644333,10|0,0:0|1:0,0:0:0:0:
310,278,111571,2,0,L|281:119,1,146.62500279665,2|0,0:0|0:0,0:0:0:0:
278,101,111926,1,10,0:0:0:0:
401,181,112103,1,0,0:0:0:0:
203,319,112281,6,0,P|185:219|180:202,1,97.7500018644333,0|0,1:0|0:0,0:0:0:0:
419,85,112636,2,0,P|408:132|402:181,1,97.7500018644333,10|0,0:0|1:0,0:0:0:0:
497,161,112991,1,2,0:0:0:0:
497,161,113168,1,0,1:0:0:0:
316,124,113346,2,0,P|308:221|359:282,1,146.62500279665,10|0,0:0|0:0,0:0:0:0:
349,279,113701,5,0,1:0:0:0:
335,362,113878,1,0,0:0:0:0:
212,293,114056,5,10,0:0:0:0:
198,209,114234,1,0,1:0:0:0:
36,139,114411,2,0,P|115:126|150:113,1,97.7500018644333,2|0,0:0|1:0,0:0:0:0:
236,0,114766,2,0,P|282:49|274:129,1,146.62500279665,10|0,0:0|0:0,0:0:0:0:
261,151,115121,5,0,1:0:0:0:
341,179,115299,1,0,1:0:0:0:
450,67,115476,5,10,0:0:0:0:
370,95,115654,1,0,1:0:0:0:
371,272,115831,2,0,P|441:260|485:244,1,97.7500018644333,2|0,0:0|1:0,0:0:0:0:
261,152,116186,1,10,0:0:0:0:
382,357,116364,1,8,0:0:0:0:
512,156,116541,6,0,P|442:168|398:184,1,97.7500018644333,4|0,0:0|0:0,0:0:0:0:
191,92,116896,2,0,P|230:161|257:182,1,97.7500018644333,10|0,0:0|1:0,0:0:0:0:
372,4,117251,2,0,P|384:102|418:177,1,146.62500279665,2|0,0:0|0:0,0:0:0:0:
416,176,117606,1,10,0:0:0:0:
473,80,117784,1,0,0:0:0:0:
327,221,117961,6,0,P|256:178|199:159,1,97.7500018644333,0|0,1:0|0:0,0:0:0:0:
61,153,118316,2,0,P|132:116|178:73,1,97.7500018644333,10|0,0:0|1:0,0:0:0:0:
213,348,118671,2,0,L|236:201,1,146.62500279665,2|0,0:0|0:0,0:0:0:0:
242,172,119026,1,10,0:0:0:0:
331,129,119204,1,0,0:0:0:0:
448,207,119381,6,0,P|390:233|341:235,1,97.7500018644333,0|0,1:0|0:0,0:0:0:0:
107,57,119736,2,0,P|147:107|161:154,1,97.7500018644333,10|0,0:0|1:0,0:0:0:0:
241,19,120092,2,0,P|274:77|369:78,1,146.62500279665,2|0,0:0|0:0,0:0:0:0:
376,78,120447,1,10,0:0:0:0:
488,7,120624,1,0,0:0:0:0:
473,106,120802,5,0,1:0:0:0:
492,186,120979,1,0,1:0:0:0:
385,304,121157,5,10,0:0:0:0:
404,224,121334,1,0,1:0:0:0:
204,240,121512,2,0,L|323:209,1,97.7500018644333,2|0,0:0|1:0,0:0:0:0:
394,67,121867,6,2,B|356:54|356:54|322:69|322:69|295:23|238:19,1,152.999995330811,12|0,0:0|0:0,0:1:0:0:
226,13,122222,6,0,L|243:129,1,101.999996887207,0|0,1:0|0:0,0:0:0:0:
269,311,122577,1,10,0:0:0:0:
379,140,122754,2,0,B|414:151|428:182|428:182|349:166|290:218,1,203.999993774414,0|0,1:0|1:0,0:0:0:0:
172,331,123287,2,0,P|174:276|205:230,1,101.999996887207,10|0,0:0|0:0,0:0:0:0:
444,91,123642,6,0,B|452:61|452:61|429:39|417:-5,1,101.999996887207,0|0,1:0|0:0,0:0:0:0:
298,211,123997,2,0,B|290:241|290:241|317:270|325:307,1,101.999996887207,10|0,0:0|1:0,0:0:0:0:
162,82,124352,5,2,0:0:0:0:
158,106,124441,1,2,0:0:0:0:
134,125,124529,5,0,1:0:0:0:
130,149,124618,1,0,0:0:0:0:
109,178,124707,6,0,P|173:150|237:154,1,101.999996887207,8|2,0:0|0:0,0:0:0:0:
314,114,125062,6,0,L|293:239,1,101.999996887207,0|2,1:0|0:0,0:0:0:0:
221,21,125417,1,10,0:0:0:0:
398,146,125594,2,0,P|448:143|491:117,1,101.999996887207,2|0,1:0|0:0,0:0:0:0:
221,21,125949,5,0,1:0:0:0:
294,201,126127,1,10,0:0:0:0:
416,50,126305,1,2,0:1:0:0:
308,96,126482,5,0,1:0:0:0:
416,210,126660,1,0,1:0:0:0:
267,297,126837,2,0,P|272:250|295:198,1,101.999996887207,10|0,0:0|1:0,0:0:0:0:
460,74,127192,5,2,0:1:0:0:
479,101,127281,1,2,0:0:0:0:
445,136,127370,5,0,1:0:0:0:
450,168,127458,1,0,0:0:0:0:
422,211,127547,5,10,0:0:0:0:
272,300,127725,1,10,0:0:0:0:
88,64,127902,6,0,P|120:160|120:176,1,101.999996887207,0|0,1:0|0:0,0:0:0:0:
60,276,128257,1,10,0:0:0:0:
272,300,128435,6,0,P|212:320|176:344,2,101.999996887207,0|0|0,1:0|0:0|1:0,0:0:0:0:
437,326,128967,5,10,0:0:0:0:
457,238,129145,1,2,0:0:0:0:
473,150,129322,1,0,1:0:0:0:
329,62,129500,5,0,0:0:0:0:
329,62,129677,2,0,P|361:134|393:166,1,101.999996887207,10|0,0:0|1:0,0:0:0:0:
216,304,130032,2,0,P|280:269|324:264,1,101.999996887207,0|0,0:0|1:0,0:0:0:0:
192,0,130387,2,0,P|200:76|224:140,1,101.999996887207,10|0,0:0|0:0,0:0:0:0:
72,192,130742,5,4,0:0:0:0:
167,212,130920,1,2,0:0:0:0:
104,284,131097,1,10,0:0:0:0:
307,264,131275,6,0,P|300:336|287:376,2,101.999996887207,0|2|0,1:0|0:0|1:0,0:0:0:0:
184,104,131807,5,10,0:0:0:0:
160,216,131985,1,2,0:0:0:0:
40,0,132163,5,0,1:0:0:0:
72,120,132340,1,0,1:0:0:0:
201,26,132518,6,0,P|257:2|317:2,1,101.999996887207,10|0,0:0|1:0,0:0:0:0:
444,112,132873,1,2,0:0:0:0:
427,137,132961,1,0,0:0:0:0:
400,151,133050,1,0,1:0:0:0:
366,153,133139,1,0,0:0:0:0:
332,134,133228,1,10,0:0:0:0:
295,111,133316,1,0,0:0:0:0:
251,106,133405,1,10,0:0:0:0:
213,128,133494,1,0,0:0:0:0:
192,163,133583,6,0,P|204:211|216:243,1,63.7500024318696,2|0,0:0|0:0,0:0:0:0:
124,260,133938,2,0,P|112:308|100:340,1,63.7500024318696,8|0,0:0|0:0,0:0:0:0:
204,352,134293,2,0,L|352:324,1,127.500004863739,0|8,0:0|0:0,0:0:0:0:
388,272,134825,1,0,0:0:0:0:
388,272,135003,6,0,P|376:184|400:136,1,127.500004863739,2|8,0:0|0:0,0:0:0:0:
389,150,135713,2,0,P|344:172|312:168,1,63.7500024318696
276,40,136068,2,0,P|321:18|353:22,1,63.7500024318696,8|0,0:0|0:0,0:0:0:0:
332,92,136423,6,0,L|184:80,1,127.500004863739,2|8,0:0|0:0,0:0:0:0:
128,36,136955,1,0,0:0:0:0:
128,36,137133,2,0,P|116:112|76:172,1,127.500004863739,0|8,0:0|0:0,0:0:0:0:
24,220,137665,1,0,0:0:0:0:
136,336,137843,6,0,L|161:210,1,127.500004863739
264,356,139263,6,0,L|344:336,2,63.7500024318696,2|0|0,0:0|0:0|0:0,0:0:0:0:
212,292,139796,1,0,0:0:0:0:
212,292,139973,2,0,P|204:216|240:156,1,127.500004863739
296,120,140506,1,0,0:0:0:0:
296,120,140683,6,0,L|432:148,1,127.500004863739,2|0,0:0|0:0,0:0:0:0:
420,145,141393,2,0,P|428:188|448:228,1,63.7500024318696
328,276,141748,2,0,P|332:244|342:214,1,63.7500024318696
420,145,142103,6,0,P|428:85|360:41,1,127.500004863739,2|0,0:0|0:0,0:0:0:0:
280,24,142636,1,0,0:0:0:0:
280,24,142813,2,0,P|200:44|144:64,1,127.500004863739
88,120,143346,1,0,0:0:0:0:
232,216,143523,6,0,P|236:156|176:144,1,127.500004863739,2|0,0:0|0:0,0:0:0:0:
256,192,143967,12,0,144944,0:0:0:0:
