osu file format v14

[General]
AudioFilename: audio.mp3
AudioLeadIn: 0
PreviewTime: 23965
Countdown: 0
SampleSet: None
StackLeniency: 0.4
Mode: 0
LetterboxInBreaks: 0
WidescreenStoryboard: 1

[Editor]
Bookmarks: 83040
DistanceSpacing: 1
BeatDivisor: 4
GridSize: 4
TimelineZoom: 2.150003

[Metadata]
Title:I'm A Natural Blue
TitleUnicode:I'm A Natural Blue
Artist:Waterparks
ArtistUnicode:Waterparks
Creator:PeterEU
Version:Easy
Source:
Tags:Punk Rock Power Pop Black Light Dashyy-
BeatmapID:1510013
BeatmapSetID:698304

[Difficulty]
HPDrainRate:2
CircleSize:2.8
OverallDifficulty:2
ApproachRate:2
SliderMultiplier:0.9
SliderTickRate:1

[Events]
//Background and Video events
0,0,"bg.jpg",0,0
//Break Periods
2,47811,49364
//Storyboard Layer 0 (Background)
//Storyboard Layer 1 (Fail)
//Storyboard Layer 2 (Pass)
//Storyboard Layer 3 (Foreground)
//Storyboard Sound Samples

[TimingPoints]
500,368.098159509202,4,3,1,80,1,0
24053,368.098159509202,4,3,1,80,1,1
24053,-100,4,3,1,80,0,1
35464,-100,4,3,1,80,0,0
35832,-100,4,3,1,80,0,1
47611,-100,4,3,1,80,0,0
74114,-100,4,3,1,80,0,1
85525,-100,4,3,1,80,0,0
85893,-100,4,3,1,80,0,1
97672,-100,4,3,1,80,0,0
111844,-100,4,2,1,5,0,0

[Colours]
Combo1 : 200,230,215
Combo2 : 49,158,249
Combo3 : 197,252,160
Combo4 : 244,174,151

[HitObjects]
61,81,12279,6,0,P|101:93|165:81,1,90,0|8,0:0|0:0,0:0:0:0:
233,53,13015,2,0,P|273:41|337:53,1,90,0|8,0:0|0:0,0:0:0:0:
393,97,13751,2,0,B|417:189|361:189|409:293,1,180,0|0,0:0|0:0,0:0:0:0:
441,353,14855,1,8,0:0:0:0:
353,349,15223,6,0,L|245:353,1,90,0|8,0:0|0:0,0:0:0:0:
177,321,15960,2,0,L|69:317,1,90,0|8,0:0|0:0,0:0:0:0:
29,249,16696,2,0,P|65:173|41:77,1,180,0|0,0:0|0:0,0:0:0:0:
109,21,17800,1,8,0:0:0:0:
189,65,18168,6,0,P|253:69|293:69,1,90,0|8,0:0|0:0,0:0:0:0:
337,137,18904,2,0,P|401:133|441:133,1,90,0|8,0:0|0:0,0:0:0:0:
489,198,19641,2,0,P|440:257|469:357,1,180,0|0,0:0|0:0,0:0:0:0:
377,378,20745,1,8,0:0:0:0:
295,339,21113,6,0,P|245:334|190:340,1,90,0|8,0:0|0:0,0:0:0:0:
118,312,21849,2,0,L|114:208,1,90,0|8,0:0|0:0,0:0:0:0:
55,153,22585,2,0,B|148:106|149:175|239:141,1,180,0|0,0:0|0:0,0:0:0:0:
312,107,23690,1,8,0:0:0:0:
391,146,24053,6,0,P|399:202|391:246,1,90,0|8,0:0|0:0,0:0:0:0:
349,312,24789,2,0,P|289:314|245:312,1,90,0|8,0:0|0:0,0:0:0:0:
178,272,25525,2,0,P|102:284|34:264,2,135,0|0|8,0:0|0:0|0:0,0:0:0:0:
254,223,26997,6,0,L|246:123,1,90,0|8,0:0|0:0,0:0:0:0:
334,111,27733,2,0,L|342:11,1,90,0|8,0:0|0:0,0:0:0:0:
430,6,28470,2,0,L|446:206,1,180,0|0,0:0|0:0,0:0:0:0:
406,265,29574,1,8,0:0:0:0:
322,233,29942,6,0,L|214:237,1,90,0|8,0:0|0:0,0:0:0:0:
250,325,30678,2,0,L|339:328,1,90,0|8,0:0|0:0,0:0:0:0:
406,265,31414,2,0,B|406:196|406:196|374:161|374:161|377:85,1,180,0|0,0:0|0:0,0:0:0:0:
342,13,32519,1,8,0:0:0:0:
280,79,32887,6,0,L|188:75,1,90,0|8,0:0|0:0,0:0:0:0:
118,20,33623,2,0,L|26:24,1,90,0|8,0:0|0:0,0:0:0:0:
1,110,34359,2,0,P|-2:155|15:204,1,90,0|8,0:0|0:0,0:0:0:0:
65,270,35095,1,2,0:0:0:0:
149,238,35464,1,10,0:0:0:0:
191,317,35832,6,0,L|287:313,1,90,0|8,0:0|0:0,0:0:0:0:
355,262,36568,2,0,L|451:266,1,90,0|8,0:0|0:0,0:0:0:0:
495,190,37304,2,0,L|479:38,2,135,0|0|8,0:0|0:0|0:0,0:0:0:0:
444,264,38776,6,0,P|392:272|336:260,1,90,0|8,0:0|0:0,0:0:0:0:
277,312,39513,2,0,P|225:304|169:316,1,90,0|8,0:0|0:0,0:0:0:0:
111,356,40249,2,0,B|79:264|139:264|111:176,1,180,0|0,0:0|0:0,0:0:0:0:
70,100,41353,1,8,0:0:0:0:
149,58,41721,6,0,P|209:50|253:58,1,90,0|8,0:0|0:0,0:0:0:0:
316,98,42457,2,0,P|376:106|420:102,1,90,0|8,0:0|0:0,0:0:0:0:
493,84,43194,2,0,P|529:164|497:268,1,180,0|0,0:0|0:0,0:0:0:0:
437,305,44298,1,8,0:0:0:0:
359,259,44666,6,0,L|259:255,1,90,0|8,0:0|0:0,0:0:0:0:
215,327,45402,2,0,L|115:331,1,90,0|8,0:0|0:0,0:0:0:0:
54,274,46138,2,0,P|66:226|54:174,1,90,0|8,0:0|0:0,0:0:0:0:
30,101,46875,1,2,0:0:0:0:
95,39,47243,1,8,0:0:0:0:
180,66,47611,5,12,0:0:0:0:
44,68,50924,6,0,L|56:264,1,180,4|0,0:0|0:0,0:0:0:0:
96,328,52028,1,0,0:0:0:0:
180,300,52396,2,0,P|240:292|284:300,1,90,4|0,0:0|0:0,0:0:0:0:
356,324,53132,2,0,P|416:332|460:324,1,90,4|2,0:0|0:0,0:0:0:0:
500,260,53868,6,0,B|500:204|500:204|468:148|468:148|468:80,1,180,6|0,0:0|0:0,0:0:0:0:
392,40,54973,2,0,L|284:44,1,90,4|0,0:0|0:0,0:0:0:0:
244,112,55709,2,0,L|136:108,1,90,0|4,0:0|0:0,0:0:0:0:
76,60,56445,6,0,B|40:152|112:152|76:240,1,180,6|4,0:0|0:0,0:0:0:0:
48,320,57549,1,0,0:0:0:0:
132,356,57918,2,0,L|316:360,1,180,0|0,0:0|0:0,0:0:0:0:
388,312,59022,1,4,0:0:0:0:
460,368,59390,6,0,P|476:324|464:272,1,90,0|0,0:0|0:0,0:0:0:0:
400,224,60126,2,0,B|370:182|381:135|381:135|336:94,1,135,2|6,0:0|0:0,0:0:0:0:
164,356,62335,6,0,L|68:348,1,90,4|0,0:0|0:0,0:0:0:0:
24,273,63071,2,0,P|37:230|16:172,1,90,0|4,0:0|0:0,0:0:0:0:
78,113,63807,2,0,P|65:70|86:12,1,90,0|4,0:0|0:0,0:0:0:0:
155,68,64543,2,0,B|255:67,1,90,0|0,0:0|0:0,0:0:0:0:
332,89,65279,5,0,0:0:0:0:
400,30,65648,1,4,0:0:0:0:
463,94,66016,2,0,L|471:198,1,90,0|0,0:0|0:0,0:0:0:0:
388,224,66752,2,0,L|380:328,1,90,0|4,0:0|0:0,0:0:0:0:
300,356,67488,2,0,P|245:341|198:346,1,90,0|2,0:0|0:0,0:0:0:0:
130,378,68224,5,2,0:0:0:0:
99,293,68592,1,0,0:0:0:0:
9,298,68960,2,0,P|1:238|9:198,1,90,0|0,0:0|0:0,0:0:0:0:
65,142,69697,2,0,P|73:82|65:42,1,90,4|0,0:0|0:0,0:0:0:0:
148,12,70433,2,0,B|254:12,1,90,0|4,0:0|0:0,0:0:0:0:
320,48,71169,5,2,0:0:0:0:
404,16,71537,1,6,0:0:0:0:
448,96,71905,2,0,P|460:148|452:192,1,90,2|6,0:0|0:0,0:0:0:0:
384,236,72641,2,0,P|372:288|380:332,1,90,2|6,0:0|0:0,0:0:0:0:
300,376,73378,2,0,L|196:376,1,90,2|6,0:0|0:0,0:0:0:0:
132,332,74114,6,0,P|144:284|132:232,1,90,0|8,0:0|0:0,0:0:0:0:
84,172,74850,2,0,P|72:124|84:72,1,90,0|8,0:0|0:0,0:0:0:0:
148,28,75586,2,0,L|292:28,2,135,0|0|8,0:0|0:0|0:0,0:0:0:0:
168,116,77059,6,0,L|268:116,1,90,0|8,0:0|0:0,0:0:0:0:
324,176,77795,2,0,L|424:176,1,90,0|8,0:0|0:0,0:0:0:0:
460,100,78531,2,0,P|504:172|456:256,1,180,0|0,0:0|0:0,0:0:0:0:
384,292,79635,1,8,0:0:0:0:
300,256,80003,6,0,L|204:252,1,90,0|8,0:0|0:0,0:0:0:0:
172,336,80740,2,0,L|76:340,1,90,0|8,0:0|0:0,0:0:0:0:
24,268,81476,2,0,P|52:204|16:96,1,180,0|0,0:0|0:0,0:0:0:0:
84,40,82580,1,8,0:0:0:0:
160,88,82948,6,0,L|264:80,1,90,0|8,0:0|0:0,0:0:0:0:
312,148,83684,2,0,L|416:156,1,90,0|8,0:0|0:0,0:0:0:0:
484,116,84421,2,0,P|496:160|480:208,1,90,0|8,0:0|0:0,0:0:0:0:
433,276,85157,1,2,0:0:0:0:
347,248,85525,1,10,0:0:0:0:
294,321,85893,6,0,L|204:328,1,90,0|8,0:0|0:0,0:0:0:0:
125,372,86629,2,0,L|35:364,1,90,0|8,0:0|0:0,0:0:0:0:
6,279,87365,2,0,B|30:215|-26:215|6:135,2,135,0|0|8,0:0|0:0|0:0,0:0:0:0:
52,354,88838,6,0,P|106:343|154:351,1,90,0|8,0:0|0:0,0:0:0:0:
227,369,89574,2,0,P|281:380|329:372,1,90,0|8,0:0|0:0,0:0:0:0:
388,323,90310,2,0,L|376:139,1,180,0|0,0:0|0:0,0:0:0:0:
368,53,91414,1,8,0:0:0:0:
284,87,91783,6,0,P|240:95|184:87,1,90,0|8,0:0|0:0,0:0:0:0:
112,60,92519,2,0,P|68:52|12:60,1,90,0|8,0:0|0:0,0:0:0:0:
0,144,93255,2,0,L|16:336,1,180,0|0,0:0|0:0,0:0:0:0:
92,368,94359,1,8,0:0:0:0:
172,324,94727,6,0,P|248:312|268:316,1,90,2|8,0:0|0:0,0:0:0:0:
340,272,95464,2,0,P|416:284|436:280,1,90,0|8,0:0|0:0,0:0:0:0:
488,216,96200,2,0,L|476:112,1,90,0|10,0:0|0:0,0:0:0:0:
412,64,96936,1,0,0:0:0:0:
361,138,97304,1,0,0:0:0:0:
308,211,97672,6,0,P|236:179|136:191,1,180,4|0,0:0|0:0,0:0:0:0:
56,232,98776,1,8,0:0:0:0:
24,148,99145,2,0,L|32:44,1,90,0|8,0:0|0:0,0:0:0:0:
111,17,99881,1,0,0:0:0:0:
179,74,100249,1,8,0:0:0:0:
260,36,100617,6,0,P|326:25|436:61,1,180,6|0,0:0|0:0,0:0:0:0:
496,120,101721,1,8,0:0:0:0:
460,202,102089,2,0,L|464:306,1,90,0|8,0:0|0:0,0:0:0:0:
393,349,102826,2,0,B|305:373|305:321|209:349,1,180,2|0,0:0|0:0,0:0:0:0:
129,371,103930,5,8,0:0:0:0:
62,310,104298,2,0,L|54:210,1,90,0|8,0:0|0:0,0:0:0:0:
134,178,105034,2,0,L|142:78,1,90,0|8,0:0|0:0,0:0:0:0:
213,34,105770,1,0,0:0:0:0:
284,88,106138,1,8,0:0:0:0:
357,36,106506,6,0,B|397:129|330:130|369:224,1,180,2|0,0:0|0:0,0:0:0:0:
317,288,107611,1,8,0:0:0:0:
233,255,107979,2,0,P|152:243|96:258,2,135,10|8|8,0:0|0:0|0:0,0:0:0:0:
256,192,109451,12,0,111844,0:0:0:0:
