osu file format v14

[General]
AudioFilename: audio.mp3
AudioLeadIn: 0
PreviewTime: 50389
Countdown: 0
SampleSet: Normal
StackLeniency: 0.7
Mode: 0
LetterboxInBreaks: 0
EpilepsyWarning: 1
WidescreenStoryboard: 1

[Editor]
Bookmarks: 78624
DistanceSpacing: 1.1
BeatDivisor: 4
GridSize: 8
TimelineZoom: 1.4

[Metadata]
Title:Hawaii (Stay Awake)
TitleUnicode:Hawaii (Stay Awake)
Artist:Waterparks
ArtistUnicode:Waterparks
Creator:PeterEU
Version:Easy
Source:
Tags:rock Double Dare Equal Vision Records Pop Punk
BeatmapID:1460117
BeatmapSetID:689782

[Difficulty]
HPDrainRate:2
CircleSize:2.8
OverallDifficulty:2
ApproachRate:2
SliderMultiplier:0.8
SliderTickRate:1

[Events]
//Background and Video events
0,0,"BG.jpg",0,0
//Break Periods
//Storyboard Layer 0 (Background)
//Storyboard Layer 1 (Fail)
//Storyboard Layer 2 (Pass)
//Storyboard Layer 3 (Foreground)
//Storyboard Sound Samples

[TimingPoints]
370,352.941176470588,4,1,1,60,1,0
17311,-100,4,2,1,60,0,0
27899,-100,4,1,1,70,0,0
48369,-100,4,1,1,60,0,0
48899,-100,4,1,1,70,0,0
49428,-100,4,1,1,80,0,0
51193,-100,4,1,1,80,0,1
58242,352.941176470588,4,1,1,80,1,1
73771,-142.857142857143,4,1,1,80,0,0
78712,-100,4,1,1,5,0,0

[Colours]
Combo1 : 199,106,234
Combo2 : 227,153,202
Combo3 : 225,253,142
Combo4 : 132,223,242
Combo5 : 189,216,184
Combo6 : 249,119,119

[HitObjects]
80,92,6017,6,0,B|122:92|122:92|181:60|181:60|245:60,1,160,4|0,0:0|0:0,0:0:0:0:
303,111,7075,2,0,P|290:185|320:282,1,160,8|8,0:0|0:0,0:0:0:0:
267,342,8134,2,0,L|183:342,1,80,0|8,0:0|0:0,0:0:0:0:
107,303,8840,6,0,B|122:221|78:221|100:142,1,160,4|0,0:0|0:0,0:0:0:0:
138,67,9899,2,0,P|208:45|281:90,1,160,8|8,0:0|0:0,0:0:0:0:
346,142,10958,2,0,P|385:154|437:144,1,80,0|8,0:0|0:0,0:0:0:0:
489,207,11664,6,0,P|500:298|446:357,1,160,4|0,0:0|0:0,0:0:0:0:
377,319,12722,2,0,L|206:319,1,160,8|8,0:0|0:0,0:0:0:0:
145,267,13781,2,0,P|157:226|148:173,1,80,0|8,0:0|0:0,0:0:0:0:
92,125,14487,6,0,P|78:68|93:-2,2,120,12|12|12,0:0|0:0|0:0,0:0:0:0:
208,62,16075,1,12,0:0:0:0:
321,130,16605,2,0,L|406:128,1,80,8|8,0:0|0:0,0:0:0:0:
482,94,17311,5,0,0:0:0:0:
488,181,17664,2,0,B|457:264|507:264|479:344,1,160,2|2,0:0|0:0,0:0:0:0:
401,299,18722,2,0,P|364:284|312:292,2,80,2|2|2,0:0|0:0|0:0,0:0:0:0:
350,371,19781,1,2,0:0:0:0:
264,351,20134,6,0,L|170:350,1,80,0|2,0:0|0:0,0:0:0:0:
111,299,20840,2,0,P|124:235|121:211,1,80,2|2,0:0|0:0,0:0:0:0:
67,152,21546,2,0,P|64:86|70:63,1,80,2|2,0:0|0:0,0:0:0:0:
128,9,22252,2,0,L|208:8,2,80,2|2|0,0:0|0:0|0:0,0:0:0:0:
157,92,23311,6,0,L|328:91,1,160,2|2,0:0|0:0,0:0:0:0:
390,43,24369,1,0,0:0:0:0:
446,112,24722,2,0,L|457:206,1,80
427,275,25428,1,2,0:0:0:0:
344,245,25781,6,0,B|291:245|291:245|243:223|243:223|186:223,2,160,2|2|2,0:0|0:0|0:0,0:0:0:0:
314,161,27546,5,0,0:0:0:0:
370,93,27899,2,0,P|377:46|364:7,1,80,8|0,0:0|0:0,0:0:0:0:
290,56,28605,5,0,0:0:0:0:
210,94,28958,2,0,L|126:92,1,80,8|0,0:0|0:0,0:0:0:0:
64,33,29664,1,8,0:0:0:0:
14,105,30017,2,0,P|11:145|19:196,1,80,0|8,0:0|0:0,0:0:0:0:
47,266,30722,2,0,P|50:306|42:357,2,80,0|8|0,0:0|0:0|0:0,0:0:0:0:
102,196,31781,6,0,P|173:180|269:196,1,160,8|8,0:0|0:0,0:0:0:0:
331,241,32840,1,0,0:0:0:0:
405,194,33193,2,0,L|408:99,2,80,8|0|8,0:0|0:0|0:0,0:0:0:0:
331,241,34252,6,0,B|271:240|271:240|226:262|226:262|166:261,1,160
101,307,35311,1,8,0:0:0:0:
41,241,35664,2,0,L|33:143,2,80,0|8|0,0:0|0:0|0:0,0:0:0:0:
101,307,36722,1,8,0:0:0:0:
176,261,37075,6,0,L|190:88,2,160,2|2|2,2:0|2:0|2:0,0:0:0:0:
230,330,38840,1,8,0:0:0:0:
313,301,39193,2,0,P|368:292|393:298,1,80,8|8,0:0|0:0,0:0:0:0:
472,262,39899,6,0,B|443:180|496:180|467:92,1,160,4|0,0:0|0:0,0:0:0:0:
388,136,40958,1,8,0:0:0:0:
320,79,41311,2,0,B|265:77|265:77|214:104|152:81,1,160
85,44,42369,1,8,0:0:0:0:
27,110,42722,6,0,P|24:153|29:198,1,80,0|8,0:0|0:0,0:0:0:0:
76,262,43428,2,0,P|79:305|74:350,1,80,0|8,0:0|0:0,0:0:0:0:
158,373,44134,2,0,P|199:357|322:362,1,160
398,383,45193,1,8,0:0:0:0:
454,315,45546,6,0,L|455:147,1,160,4|0,0:0|0:0,0:0:0:0:
425,73,46605,1,8,0:0:0:0:
341,100,46958,2,0,P|292:89|251:98,2,80,0|8|0,0:0|0:0|0:0,0:0:0:0:
297,176,48017,1,8,0:0:0:0:
227,229,48369,6,0,L|226:321,1,80,8|8,0:0|0:0,0:0:0:0:
144,275,49075,2,0,L|143:183,1,80,8|8,0:0|0:0,0:0:0:0:
216,144,49781,1,8,0:0:0:0:
335,53,51193,6,0,P|387:38|459:75,2,120,4|0|8,0:0|0:0|0:0,0:0:0:0:
386,124,52605,1,0,0:0:0:0:
437,195,52958,1,8,0:0:0:0:
403,276,53311,2,0,L|309:272,1,80,0|8,0:0|0:0,0:0:0:0:
242,237,54017,6,0,L|113:242,2,120,0|0|8,0:0|0:0|0:0,0:0:0:0:
300,171,55428,2,0,L|308:75,1,80,0|8,0:0|0:0,0:0:0:0:
389,122,56134,2,0,L|397:218,1,80,0|8,0:0|0:0,0:0:0:0:
329,260,56840,6,0,B|283:266|249:245|249:245|197:250,2,120,4|0|8,0:0|0:0|0:0,0:0:0:0:
395,201,58242,2,0,P|470:190|518:202,2,120,0|0|8,0:0|0:0|0:0,0:0:0:0:
329,260,59653,6,0,B|247:240|248:282|169:261,1,160,4|0,0:0|0:0,0:0:0:0:
88,292,60712,1,8,0:0:0:0:
48,213,61065,2,0,P|45:176|51:126,1,80,0|8,0:0|0:0,0:0:0:0:
113,73,61771,2,0,L|207:78,1,80
268,122,62477,6,0,L|403:115,2,120,4|0|8,0:0|0:0|0:0,0:0:0:0:
190,163,63889,2,0,P|201:199|194:253,1,80,0|8,0:0|0:0,0:0:0:0:
124,290,64594,2,0,P|115:326|120:380,1,80,0|8,0:0|0:0,0:0:0:0:
199,335,65300,6,0,L|333:341,2,120,0|0|8,0:0|0:0|0:0,0:0:0:0:
117,368,66712,1,0,0:0:0:0:
59,301,67065,2,0,L|54:206,1,80,8|0,0:0|0:0,0:0:0:0:
80,136,67771,1,8,0:0:0:0:
163,162,68124,6,0,B|224:140|225:183|291:160,2,120,4|0|8,0:0|0:0|0:0,0:0:0:0:
195,244,69536,2,0,B|150:258|111:234|111:234|73:240,2,120,0|0|8,0:0|0:0|0:0,0:0:0:0:
275,284,70947,5,4,0:0:0:0:
339,224,71300,2,0,P|345:173|338:134,1,80
279,82,72006,2,0,P|325:60|403:83,2,120,12|12|12,0:0|0:0|0:0,0:0:0:0:
213,140,73418,1,8,0:0:0:0:
135,84,73771,6,0,B|90:188|173:188|138:309,1,223.999993164063,4|4,0:0|0:0,0:0:0:0:
256,192,76594,12,0,78712,0:0:0:0:
