osu file format v14

[General]
AudioFilename: audio.mp3
AudioLeadIn: 0
PreviewTime: 50389
Countdown: 0
SampleSet: Normal
StackLeniency: 0.7
Mode: 0
LetterboxInBreaks: 0
EpilepsyWarning: 1
WidescreenStoryboard: 1

[Editor]
Bookmarks: 15722
DistanceSpacing: 1
BeatDivisor: 4
GridSize: 8
TimelineZoom: 1.4

[Metadata]
Title:Hawaii (Stay Awake)
TitleUnicode:Hawaii (Stay Awake)
Artist:Waterparks
ArtistUnicode:Waterparks
Creator:PeterEU
Version:Normal
Source:
Tags:rock Double Dare Equal Vision Records Pop Punk
BeatmapID:1460059
BeatmapSetID:689782

[Difficulty]
HPDrainRate:4
CircleSize:3.3
OverallDifficulty:4
ApproachRate:4
SliderMultiplier:1
SliderTickRate:1

[Events]
//Background and Video events
0,0,"BG.jpg",0,0
//Break Periods
//Storyboard Layer 0 (Background)
//Storyboard Layer 1 (Fail)
//Storyboard Layer 2 (Pass)
//Storyboard Layer 3 (Foreground)
//Storyboard Sound Samples

[TimingPoints]
370,352.941176470588,4,1,1,60,1,0
17311,-100,4,2,1,60,0,0
27899,-100,4,1,1,70,0,0
48369,-100,4,1,1,60,0,0
48899,-100,4,1,1,70,0,0
49428,-100,4,1,1,80,0,0
51193,-95.2380952380952,4,1,1,80,0,1
58242,352.941176470588,4,1,1,80,1,1
58242,-95.2380952380952,4,1,1,80,0,1
73771,-100,4,1,1,60,0,0
78712,-100,4,1,1,5,0,0

[Colours]
Combo1 : 199,106,234
Combo2 : 227,153,202
Combo3 : 225,253,142
Combo4 : 132,223,242
Combo5 : 189,216,184
Combo6 : 249,119,119

[HitObjects]
180,180,5664,5,0,0:0:0:0:
121,98,6017,6,0,P|173:87|233:93,1,100,4|8,0:0|0:0,0:0:0:0:
268,96,6546,2,0,P|317:106|367:98,1,100
416,88,7074,1,8,0:0:0:0:
464,176,7428,6,0,L|467:286,1,100,0|8,0:0|0:0,0:0:0:0:
395,347,8134,2,0,P|346:344|339:346,1,50
296,352,8487,2,0,P|247:355|240:353,1,50,8|0,0:0|0:0,0:0:0:0:
197,347,8840,6,0,P|155:335|83:347,1,100,4|8,0:0|0:0,0:0:0:0:
49,347,9369,2,0,B|42:226,1,100
41,196,9899,1,8,0:0:0:0:
111,124,10252,6,0,P|170:131|230:114,1,100,0|8,0:0|0:0,0:0:0:0:
302,159,10958,2,0,L|310:213,1,50
287,254,11311,2,0,L|286:309,1,50,8|0,0:0|0:0,0:0:0:0:
309,349,11664,6,0,B|259:330|260:362|192:338,1,100,4|8,0:0|0:0,0:0:0:0:
160,335,12193,1,0,0:0:0:0:
83,270,12546,1,0,0:0:0:0:
83,270,12722,6,0,L|71:158,1,100,8|0,0:0|0:0,0:0:0:0:
165,134,13428,2,0,L|173:68,1,50,8|0,0:0|0:0,0:0:0:0:
203,45,13781,2,0,P|249:53|317:45,1,100,0|8,0:0|0:0,0:0:0:0:
381,110,14487,6,0,L|389:220,1,100,12|0,0:0|0:0,0:0:0:0:
391,260,15017,2,0,B|356:245|356:245|291:246,1,100,12|0,0:0|0:0,0:0:0:0:
251,271,15546,6,0,P|187:282|133:267,1,100,12|0,0:0|0:0,0:0:0:0:
106,258,16075,2,0,B|106:220|106:220|92:193|92:193|92:148,1,100,12|0,0:0|0:0,0:0:0:0:
61,121,16605,2,0,L|-7:126,2,50,8|0|8,0:0|0:0|0:0,0:0:0:0:
134,50,17311,6,0,P|193:59|249:47,1,100,0|2,0:0|0:0,0:0:0:0:
290,38,17840,1,0,0:0:0:0:
290,38,18017,2,0,L|293:145,1,100,2|0,0:0|0:0,0:0:0:0:
360,211,18722,6,0,B|396:197|396:197|479:203,1,100,2|0,0:0|0:0,0:0:0:0:
412,290,19428,2,0,B|376:304|376:304|293:298,1,100,2|2,0:0|0:0,0:0:0:0:
234,239,20134,6,0,L|243:139,1,100,0|2,0:0|0:0,0:0:0:0:
143,127,20840,2,0,L|134:27,2,100,2|2|2,0:0|0:0|0:0,0:0:0:0:
85,209,21899,5,2,0:0:0:0:
142,291,22252,2,0,P|197:282|246:293,1,100,2|2,0:0|0:0,0:0:0:0:
327,339,22958,5,0,0:0:0:0:
387,259,23311,2,0,L|382:154,1,100,2|2,0:0|0:0,0:0:0:0:
379,109,23840,1,0,0:0:0:0:
379,109,24017,2,0,P|335:124|271:121,1,100,2|0,0:0|0:0,0:0:0:0:
233,108,24546,5,2,0:0:0:0:
152,167,24899,2,0,L|150:281,1,100,2|2,0:0|0:0,0:0:0:0:
150,317,25428,1,2,0:0:0:0:
243,351,25781,6,0,B|347:373|349:319|446:353,2,200,2|2|2,0:0|0:0|0:0,0:0:0:0:
287,261,27546,5,0,0:0:0:0:
370,205,27899,2,0,L|376:143,1,50,8|0,0:0|0:0,0:0:0:0:
335,123,28252,2,0,L|329:61,1,50,8|0,0:0|0:0,0:0:0:0:
351,28,28605,6,0,P|388:41|451:34,1,100
497,28,29134,1,0,0:0:0:0:
497,28,29311,2,0,L|502:132,1,100,0|8,0:0|0:0,0:0:0:0:
458,216,30017,6,0,P|395:202|348:212,1,100,0|8,0:0|0:0,0:0:0:0:
295,283,30722,2,0,L|186:283,1,100,0|8,0:0|0:0,0:0:0:0:
103,241,31428,6,0,P|116:189|109:139,1,100,0|8,0:0|0:0,0:0:0:0:
103,100,31958,1,0,0:0:0:0:
103,100,32134,2,0,B|145:112|145:112|214:103,1,100,0|8,0:0|0:0,0:0:0:0:
264,181,32840,5,0,0:0:0:0:
340,116,33193,2,0,L|356:9,1,100,8|0,0:0|0:0,0:0:0:0:
440,69,33899,2,0,L|456:176,1,100,8|0,0:0|0:0,0:0:0:0:
462,217,34428,5,0,0:0:0:0:
462,217,34605,2,0,P|414:213|392:217,1,50,8|0,0:0|0:0,0:0:0:0:
363,224,34958,2,0,P|313:232|246:221,1,100,0|8,0:0|0:0,0:0:0:0:
175,273,35664,6,0,L|163:388,2,100,0|8|0,0:0|0:0|0:0,0:0:0:0:
77,295,36722,1,8,0:0:0:0:
100,197,37075,6,0,B|100:125|100:125|68:81|68:81|70:6,2,200,2|2|2,2:0|2:0|2:0,0:0:0:0:
190,152,38840,5,8,0:0:0:0:
272,207,39193,2,0,L|339:205,1,50,8|0,0:0|0:0,0:0:0:0:
357,172,39546,2,0,L|424:174,1,50,8|0,0:0|0:0,0:0:0:0:
445,205,39899,6,0,P|434:245|451:319,1,100,4|8,0:0|0:0,0:0:0:0:
381,381,40605,1,0,0:0:0:0:
316,304,40958,1,8,0:0:0:0:
241,370,41311,6,0,L|123:367,1,100,0|8,0:0|0:0,0:0:0:0:
82,286,42017,2,0,P|97:240|80:170,1,100,0|8,0:0|0:0,0:0:0:0:
7,133,42722,6,0,P|-8:179|9:249,1,100,0|8,0:0|0:0,0:0:0:0:
82,286,43428,1,0,0:0:0:0:
177,255,43781,1,8,0:0:0:0:
274,277,44134,6,0,P|264:200|275:169,1,100,0|8,0:0|0:0,0:0:0:0:
343,112,44840,2,0,P|353:64|338:7,1,100,0|8,0:0|0:0,0:0:0:0:
253,61,45546,6,0,B|202:45|203:75|144:61,1,100,4|8,0:0|0:0,0:0:0:0:
58,35,46252,1,0,0:0:0:0:
21,128,46605,1,8,0:0:0:0:
93,196,46958,6,0,P|106:266|92:304,1,100,0|8,0:0|0:0,0:0:0:0:
172,359,47664,1,0,0:0:0:0:
251,298,48017,1,8,0:0:0:0:
331,360,48369,6,0,L|381:355,2,50,8|8|8,0:0|0:0|0:0,0:0:0:0:
251,298,49075,2,0,L|201:293,2,50,8|8|8,0:0|0:0|0:0,0:0:0:0:
310,217,49781,5,8,0:0:0:0:
244,60,51193,6,0,L|121:65,1,104.999996795654,4|0,0:0|0:0,0:0:0:0:
93,38,51722,2,0,P|104:80|89:154,1,104.999996795654
78,190,52252,2,0,P|67:232|82:306,1,104.999996795654,8|0,0:0|0:0,0:0:0:0:
131,381,52958,5,8,0:0:0:0:
225,335,53311,2,0,L|302:334,1,52.4999983978272
325,356,53664,2,0,L|402:357,1,52.4999983978272,8|0,0:0|0:0,0:0:0:0:
419,324,54017,6,0,P|405:272|412:204,1,104.999996795654,0|8,0:0|0:0,0:0:0:0:
422,170,54546,2,0,P|436:118|429:50,1,104.999996795654
406,21,55075,2,0,B|375:40|375:40|295:37,1,104.999996795654,8|0,0:0|0:0,0:0:0:0:
203,15,55781,5,8,0:0:0:0:
126,86,56134,2,0,L|121:149,1,52.4999983978272
151,181,56487,2,0,L|156:244,1,52.4999983978272,8|0,0:0|0:0,0:0:0:0:
190,272,56840,6,0,P|226:260|308:271,1,104.999996795654,4|8,0:0|0:0,0:0:0:0:
341,282,57369,2,0,L|339:153,1,104.999996795654
336,124,57899,1,8,0:0:0:0:
235,94,58242,6,0,P|181:106|115:90,1,104.999996795654,0|8,0:0|0:0,0:0:0:0:
85,75,58771,2,0,L|76:181,1,104.999996795654
35,213,59301,2,0,L|44:319,1,104.999996795654,8|4,0:0|0:0,0:0:0:0:
144,348,60007,6,0,P|199:334|257:346,1,104.999996795654,8|0,0:0|0:0,0:0:0:0:
345,377,60712,1,8,0:0:0:0:
424,308,61065,6,0,L|422:188,1,104.999996795654,0|8,0:0|0:0,0:0:0:0:
422,150,61595,1,0,0:0:0:0:
422,150,61771,2,0,P|379:164|306:153,1,104.999996795654
271,145,62301,1,0,0:0:0:0:
271,145,62477,6,0,L|156:143,1,104.999996795654,4|8,0:0|0:0,0:0:0:0:
116,124,63007,2,0,B|130:165|130:165|120:234,1,104.999996795654
114,278,63536,1,8,0:0:0:0:
51,357,63889,6,0,P|90:379|155:370,1,104.999996795654,0|8,0:0|0:0,0:0:0:0:
244,338,64595,2,0,L|298:335,1,52.4999983978272
344,310,64948,2,0,L|398:313,1,52.4999983978272,8|0,0:0|0:0,0:0:0:0:
447,295,65301,6,0,P|435:238|453:180,1,104.999996795654,0|8,0:0|0:0,0:0:0:0:
462,143,65830,2,0,P|474:86|456:28,1,104.999996795654
427,2,66359,2,0,B|388:17|388:17|317:13,1,104.999996795654,8|0,0:0|0:0,0:0:0:0:
219,6,67065,5,8,0:0:0:0:
149,84,67418,2,0,L|144:150,1,52.4999983978272
182,174,67771,2,0,L|187:240,1,52.4999983978272,8|0,0:0|0:0,0:0:0:0:
181,278,68124,6,0,P|222:264|297:272,1,104.999996795654,4|8,0:0|0:0,0:0:0:0:
330,290,68654,2,0,P|371:304|446:296,1,104.999996795654
481,282,69183,1,8,0:0:0:0:
417,200,69536,6,0,L|412:84,1,104.999996795654,0|8,0:0|0:0,0:0:0:0:
377,56,70065,2,0,P|324:69|262:52,1,104.999996795654
225,40,70595,2,0,P|172:27|110:44,1,104.999996795654,8|4,0:0|0:0,0:0:0:0:
66,125,71300,5,0,0:0:0:0:
66,125,71477,2,0,L|65:240,1,104.999996795654,12|0,0:0|0:0,0:0:0:0:
67,282,72006,1,12,0:0:0:0:
159,331,72359,5,0,0:0:0:0:
159,331,72536,2,0,P|186:318|266:331,1,104.999996795654,12|0,0:0|0:0,0:0:0:0:
308,346,73065,1,12,0:0:0:0:
308,346,73241,2,0,L|369:339,2,52.4999983978272,0|8|0,0:0|0:0|0:0,0:0:0:0:
256,192,73771,12,4,75183,0:0:0:0:
256,192,76595,12,0,78712,0:0:0:0:
