osu file format v14

[General]
AudioFilename: audio.mp3
AudioLeadIn: 0
PreviewTime: 50389
Countdown: 0
SampleSet: Normal
StackLeniency: 0.7
Mode: 0
LetterboxInBreaks: 0
EpilepsyWarning: 1
WidescreenStoryboard: 1

[Editor]
Bookmarks: 78624
DistanceSpacing: 1.2
BeatDivisor: 4
GridSize: 4
TimelineZoom: 1.4

[Metadata]
Title:Hawaii (Stay Awake)
TitleUnicode:Hawaii (Stay Awake)
Artist:Waterparks
ArtistUnicode:Waterparks
Creator:PeterEU
Version:Hard
Source:
Tags:rock Double Dare Equal Vision Records Pop Punk
BeatmapID:1460058
BeatmapSetID:689782

[Difficulty]
HPDrainRate:6
CircleSize:3.7
OverallDifficulty:6.5
ApproachRate:7.5
SliderMultiplier:1.5
SliderTickRate:1

[Events]
//Background and Video events
0,0,"BG.jpg",0,0
//Break Periods
//Storyboard Layer 0 (Background)
//Storyboard Layer 1 (Fail)
//Storyboard Layer 2 (Pass)
//Storyboard Layer 3 (Foreground)
//Storyboard Sound Samples

[TimingPoints]
370,352.941176470588,4,1,1,60,1,0
17311,-100,4,2,1,60,0,0
27899,-100,4,1,1,70,0,0
48369,-100,4,1,1,60,0,0
48899,-100,4,1,1,70,0,0
49428,-100,4,1,1,80,0,0
51193,-90.9090909090909,4,1,1,80,0,1
58242,352.941176470588,4,1,1,80,1,1
58242,-90.9090909090909,4,1,1,80,0,1
73771,-100,4,1,1,80,0,0
78712,-100,4,1,1,5,0,0

[Colours]
Combo1 : 199,106,234
Combo2 : 227,153,202
Combo3 : 225,253,142
Combo4 : 132,223,242
Combo5 : 189,216,184
Combo6 : 249,119,119

[HitObjects]
78,67,5664,6,0,P|128:78|165:71,1,75,8|0,3:0|0:0,0:0:0:0:
209,144,6017,6,0,P|279:111|370:138,1,150,4|8,0:0|0:0,0:0:0:0:
435,102,6546,1,0,0:0:0:0:
482,178,6722,2,0,B|482:279,1,75
381,320,7075,6,0,B|296:295|297:338|199:307,1,150,8|0,0:0|0:0,0:0:0:0:
145,341,7605,1,0,0:0:0:0:
77,282,7781,2,0,L|70:191,1,75,8|0,0:0|0:0,0:0:0:0:
146,157,8134,2,0,L|152:72,1,75
226,32,8487,2,0,P|293:53|326:42,1,75,8|0,0:0|0:0,0:0:0:0:
412,127,8840,6,0,L|252:149,1,150,4|8,0:0|0:0,0:0:0:0:
183,189,9369,1,0,0:0:0:0:
224,269,9546,2,0,P|233:317|224:359,1,75
183,189,9899,2,0,P|174:141|183:99,1,75,8|0,0:0|0:0,0:0:0:0:
271,70,10252,6,0,L|104:61,1,150,0|8,0:0|0:0,0:0:0:0:
42,133,10781,1,0,0:0:0:0:
42,133,10958,2,0,L|48:227,1,75
101,285,11311,2,0,L|95:379,1,75,8|0,0:0|0:0,0:0:0:0:
214,325,11664,6,0,P|277:346|358:313,1,150,4|8,0:0|0:0,0:0:0:0:
442,327,12193,1,0,0:0:0:0:
472,242,12369,2,0,L|468:137,1,75
487,46,12722,6,0,P|446:78|349:63,1,150,8|0,0:0|0:0,0:0:0:0:
268,35,13252,2,0,L|164:34,1,75,0|8,0:0|0:0,0:0:0:0:
122,91,13605,1,0,0:0:0:0:
122,91,13781,2,0,P|132:142|121:197,1,75
85,241,14134,2,0,P|77:278|81:315,1,75,8|0,0:0|0:0,0:0:0:0:
200,285,14487,6,0,B|280:254|281:304|364:272,1,150,12|0,0:0|0:0,0:0:0:0:
434,252,15017,2,0,P|401:188|423:85,1,150,12|0,0:0|0:0,0:0:0:0:
440,11,15546,6,0,B|383:31|383:31|275:22,1,150,12|0,0:0|0:0,0:0:0:0:
157,93,16075,2,0,L|232:90,1,75,12|0,0:0|0:0,0:0:0:0:
296,149,16428,1,4,0:0:0:0:
268,235,16605,6,0,P|265:285|275:323,1,75,8|0,0:0|0:0,0:0:0:0:
379,186,16958,2,0,P|384:136|377:108,1,75,8|0,0:0|0:0,0:0:0:0:
302,55,17311,6,0,P|242:73|144:65,1,150,0|2,0:0|0:0,0:0:0:0:
64,44,17840,1,0,0:0:0:0:
35,129,18017,2,0,L|44:230,1,75,2|0,0:0|0:0,0:0:0:0:
115,254,18369,2,0,L|106:355,1,75,2|0,0:0|0:0,0:0:0:0:
186,366,18722,6,0,P|261:346|344:368,1,150,2|0,0:0|0:0,0:0:0:0:
417,335,19252,1,0,0:0:0:0:
399,247,19428,2,0,P|410:210|407:160,1,75,2|0,0:0|0:0,0:0:0:0:
311,75,19781,2,0,P|311:112|321:148,1,75,2|0,0:0|0:0,0:0:0:0:
259,214,20134,6,0,B|181:189|181:235|96:204,1,150,0|2,0:0|0:0,0:0:0:0:
36,157,20664,1,0,0:0:0:0:
108,104,20840,2,0,P|155:98|200:110,1,75,2|0,0:0|0:0,0:0:0:0:
184,212,21193,2,0,P|136:215|92:200,1,75,2|0,0:0|0:0,0:0:0:0:
252,156,21546,6,0,L|419:148,1,150,2|0,0:0|0:0,0:0:0:0:
265,64,22075,1,0,0:0:0:0:
265,64,22252,2,0,L|183:68,1,75,2|0,0:0|0:0,0:0:0:0:
244,190,22605,2,0,L|325:185,1,75,2|0,0:0|0:0,0:0:0:0:
393,134,22958,6,0,P|359:74|387:-5,1,150,0|2,0:0|0:0,0:0:0:0:
443,66,23487,1,0,0:0:0:0:
503,132,23664,2,0,L|492:230,1,75,2|0,0:0|0:0,0:0:0:0:
415,250,24017,2,0,L|426:348,1,75,2|0,0:0|0:0,0:0:0:0:
328,368,24369,5,0,0:0:0:0:
328,368,24546,2,0,P|275:345|168:359,1,150,2|2,0:0|0:0,0:0:0:0:
97,376,25075,1,0,0:0:0:0:
51,298,25252,2,0,L|47:198,1,75,2|0,0:0|0:0,0:0:0:0:
112,160,25605,1,0,0:0:0:0:
47,74,25781,6,0,P|123:103|206:73,1,150,2|0,0:0|0:0,0:0:0:0:
262,36,26311,1,0,0:0:0:0:
332,91,26487,2,0,P|402:75|485:140,1,150,2|0,0:0|0:0,0:0:0:0:
393,163,27017,1,0,0:0:0:0:
436,241,27193,2,0,B|366:266|366:223|280:250,1,150,2|0,0:0|0:0,0:0:0:0:
204,280,27722,5,0,0:0:0:0:
132,200,27899,2,0,L|124:92,1,75,8|0,0:3|0:0,0:0:0:0:
204,280,28252,2,0,L|196:388,1,75,4|0,3:0|0:0,0:0:0:0:
291,371,28605,6,0,P|355:360|391:369,1,75
408,282,28958,2,0,P|472:293|508:284,1,75,8|0,0:0|0:0,0:0:0:0:
508,205,29311,2,0,L|513:106,1,75
429,92,29664,2,0,L|420:-7,1,75,8|0,0:0|0:0,0:0:0:0:
334,80,30017,6,0,B|285:79|285:79|235:57|235:57|182:59,1,150,0|8,0:0|0:0,0:0:0:0:
106,21,30546,1,0,0:0:0:0:
49,90,30722,2,0,L|58:186,1,75
128,217,31075,2,0,L|120:291,1,75,8|0,0:0|0:0,0:0:0:0:
183,356,31428,1,0,0:0:0:0:
267,324,31605,5,0,0:0:0:0:
267,324,31693,1,0,0:0:0:0:
267,324,31781,2,0,P|306:318|352:325,1,75,8|0,0:0|0:0,0:0:0:0:
447,357,32134,2,0,P|419:279|455:200,1,150,0|8,0:0|0:0,0:0:0:0:
492,143,32664,1,0,0:0:0:0:
426,82,32840,6,0,P|372:67|336:70,1,75
272,107,33193,2,0,P|218:122|182:119,1,75,8|0,0:0|0:0,0:0:0:0:
196,31,33546,1,0,0:0:0:0:
116,72,33722,2,0,L|110:151,1,75,0|8,0:0|0:0,0:0:0:0:
166,217,34075,1,0,0:0:0:0:
166,217,34252,6,0,L|172:296,1,75
237,353,34605,2,0,P|283:337|325:343,1,75,8|0,0:0|0:0,0:0:0:0:
411,368,34958,1,0,0:0:0:0:
411,368,35046,1,0,0:0:0:0:
411,368,35134,2,0,L|411:261,1,75,0|8,0:0|0:0,0:0:0:0:
384,206,35487,1,0,0:0:0:0:
308,254,35664,6,0,P|243:219|174:241,2,150,0|8|0,0:0|0:0|0:0,0:0:0:0:
236,309,36546,1,0,0:0:0:0:
172,372,36722,2,0,P|117:359|81:361,1,75,8|0,0:0|0:0,0:0:0:0:
24,281,37075,6,0,L|12:124,1,150,0|8,0:0|0:0,0:0:0:0:
66,53,37605,1,0,0:0:0:0:
138,105,37781,2,0,B|216:126|215:85|286:109,1,150,0|8,0:0|0:0,0:0:0:0:
248,191,38311,1,0,0:0:0:0:
337,185,38487,6,0,P|376:134|350:48,1,150,0|8,0:0|0:0,0:0:0:0:
285,108,39017,1,0,0:0:0:0:
214,52,39193,2,0,L|218:11,2,37.5
161,125,39546,2,0,L|165:166,2,37.5
77,58,39899,6,0,L|69:213,1,150,4|8,0:0|0:0,0:0:0:0:
118,283,40428,1,0,0:0:0:0:
197,241,40605,2,0,P|261:232|283:238,1,75
118,283,40958,2,0,P|54:292|32:286,1,75,8|0,0:0|0:0,0:0:0:0:
122,199,41311,6,0,P|96:125|130:61,1,150,0|8,0:0|0:0,0:0:0:0:
213,42,41840,1,0,0:0:0:0:
213,42,41928,1,0,0:0:0:0:
213,42,42017,2,0,P|269:51|305:44,1,75,4|0,3:0|0:0,0:0:0:0:
363,95,42369,2,0,P|419:86|455:93,1,75,8|0,0:0|0:0,0:0:0:0:
489,188,42722,6,0,L|488:351,1,150,0|8,0:0|0:0,0:0:0:0:
404,373,43252,1,0,0:0:0:0:
341,308,43428,2,0,L|330:217,1,75
256,183,43781,2,0,L|267:92,1,75,8|0,0:0|0:0,0:0:0:0:
193,53,44134,6,0,P|125:100|38:68,1,150,0|8,0:0|0:0,0:0:0:0:
116,14,44664,1,0,0:0:0:0:
116,14,44840,1,0,0:0:0:0:
62,88,45017,2,0,P|72:143|67:175,1,75,0|8,0:0|0:0,0:0:0:0:
34,243,45369,1,0,0:0:0:0:
34,243,45458,1,0,0:0:0:0:
34,243,45546,6,0,B|110:269|111:213|191:243,1,150,4|8,0:0|0:0,0:0:0:0:
255,289,46075,1,0,0:0:0:0:
330,239,46252,2,0,P|338:194|328:156,1,75
273,28,46605,2,0,P|265:65|271:102,1,75,8|0,0:0|0:0,0:0:0:0:
206,162,46958,6,0,P|131:117|65:147,1,150,0|8,0:0|0:0,0:0:0:0:
130,208,47487,2,0,L|140:297,1,75,0|4,0:0|3:3,0:0:0:0:
76,135,47840,2,0,L|86:46,1,75,0|8,0:0|0:0,0:0:0:0:
163,17,48193,1,0,0:0:0:0:
225,80,48369,6,0,L|311:69,2,75,8|8|8,0:0|0:0|0:0,0:0:0:0:
161,145,48899,2,0,L|75:134,2,75,8|8|8,0:0|0:0|0:0,0:0:0:0:
210,231,49428,5,8,0:0:0:0:
225,80,49605,1,8,0:0:0:0:
280,157,49781,1,8,0:0:0:0:
66,43,51193,6,0,L|72:214,1,165.000005035401,4|8,0:0|0:0,0:0:0:0:
104,301,51722,2,0,P|187:265|264:279,1,165.000005035401
315,358,52252,2,0,B|278:278|336:277|302:175,1,165.000005035401,8|0,0:0|0:0,0:0:0:0:
269,105,52781,5,0,0:0:0:0:
190,165,52958,2,0,L|93:170,1,82.5000025177003,8|0,0:0|0:0,0:0:0:0:
30,107,53311,5,0,0:0:0:0:
99,205,53487,1,0,0:0:0:0:
51,292,53664,2,0,P|46:332|51:373,1,82.5000025177003,8|0,0:0|0:0,0:0:0:0:
172,339,54017,6,0,B|253:374|251:322|345:349,1,165.000005035401,0|8,0:0|0:0,0:0:0:0:
424,306,54546,2,0,P|393:212|415:139,1,165.000005035401
456,63,55075,6,0,B|404:94|404:94|296:91,1,165.000005035401,8|0,0:0|0:0,0:0:0:0:
230,19,55605,1,0,0:0:0:0:
153,81,55781,2,0,L|159:178,1,82.5000025177003,8|0,0:0|0:0,0:0:0:0:
100,244,56134,5,0,0:0:0:0:
178,181,56311,1,0,0:0:0:0:
199,316,56487,1,8,0:0:0:0:
199,316,56664,1,0,0:0:0:0:
264,241,56840,6,0,P|321:264|442:242,1,165.000005035401,4|8,0:0|0:0,0:0:0:0:
452,158,57369,2,0,L|469:322,1,165.000005035401
382,371,57899,2,0,P|328:361|290:369,1,82.5000025177003,8|0,0:0|0:0,0:0:0:0:
195,306,58242,6,0,B|112:335|113:283|24:310,1,165.000005035401,0|8,0:0|0:0,0:0:0:0:
144,226,58771,2,0,P|154:181|123:62,1,165.000005035401
212,16,59301,5,8,0:0:0:0:
272,93,59477,1,0,0:0:0:0:
370,79,59654,2,0,L|379:268,1,165.000005035401,4|8,0:0|0:0,0:0:0:0:
318,321,60183,2,0,P|229:289|140:316,1,165.000005035401
80,360,60712,1,8,0:0:0:0:
15,286,60889,1,0,0:0:0:0:
15,286,61065,6,0,L|6:184,1,82.5000025177003
86,52,61418,2,0,L|79:135,1,82.5000025177003,8|0,0:0|0:0,0:0:0:0:
150,203,61771,2,0,L|153:256,2,41.2500012588501
235,152,62124,2,0,P|293:170|339:155,1,82.5000025177003
369,85,62477,6,0,B|338:170|400:171|366:273,1,165.000005035401,4|8,0:0|0:0,0:0:0:0:
308,322,63007,2,0,P|239:294|126:309,1,165.000005035401
96,383,63536,2,0,L|83:205,1,165.000005035401,8|0,0:0|0:0,0:0:0:0:
27,137,64065,5,0,0:0:0:0:
104,74,64242,2,0,P|161:67|185:72,1,82.5000025177003,8|0,0:0|0:0,0:0:0:0:
278,104,64595,2,0,P|335:111|359:106,1,82.5000025177003
435,42,64948,1,8,0:0:0:0:
396,182,65124,1,0,0:0:0:0:
473,243,65301,6,0,B|392:221|395:264|297:243,1,165.000005035401,0|8,0:0|0:0,0:0:0:0:
238,313,65830,2,0,P|162:289|71:310,1,165.000005035401
10,234,66359,2,0,L|-1:56,1,165.000005035401,8|0,0:0|0:0,0:0:0:0:
96,45,66889,2,0,P|158:55|193:43,1,82.5000025177003,0|8,0:0|0:0,0:0:0:0:
271,21,67242,1,0,0:0:0:0:
334,96,67418,5,0,0:0:0:0:
334,96,67595,2,0,P|360:64|370:24,1,82.5000025177003,0|8,0:0|0:0,0:0:0:0:
238,112,67948,1,0,0:0:0:0:
238,112,68124,6,0,B|217:199|266:200|241:289,1,165.000005035401,4|8,0:0|0:0,0:0:0:0:
357,214,68654,2,0,L|352:21,1,165.000005035401
255,26,69183,2,0,P|200:37|150:27,1,82.5000025177003,8|0,0:0|0:0,0:0:0:0:
63,23,69536,6,0,B|38:102|86:103|57:198,1,165.000005035401,0|8,0:0|0:0,0:0:0:0:
79,283,70065,2,0,P|153:258|260:289,1,165.000005035401
304,200,70595,2,0,P|378:225|485:194,1,165.000005035401,8|4,0:0|0:0,0:0:0:0:
387,142,71124,5,0,0:0:0:0:
434,55,71301,1,0,0:0:0:0:
302,86,71477,2,0,L|210:85,1,82.5000025177003,12|0,0:0|0:0,0:0:0:0:
141,23,71830,1,0,0:0:0:0:
81,102,72007,2,0,P|76:157|96:207,1,82.5000025177003,12|0,0:0|0:0,0:0:0:0:
123,272,72359,5,0,0:0:0:0:
204,214,72536,2,0,L|301:214,1,82.5000025177003,12|0,0:0|0:0,0:0:0:0:
363,151,72889,1,0,0:0:0:0:
421,230,73065,1,12,0:0:0:0:
421,230,73154,1,0,0:0:0:0:
421,230,73241,1,0,0:0:0:0:
458,137,73418,1,0,0:0:0:0:
363,151,73594,5,8,0:0:0:0:
438,260,73771,1,12,0:0:0:0:
257,191,75183,5,4,0:0:0:0:
261,197,76595,5,4,0:0:0:0:
256,192,76771,12,0,78712,0:0:0:0:
